999
DXF file: 1035896-7.dxf
999
Pro/ENGINEER 2021304 by Parametric Technology Corporation
  0
SECTION
  2
HEADER
  9
$EXTMAX
 10
34.0
 20
22.0
 30
0.0
  9
$EXTMIN
 10
0.0
 20
0.0
 30
0.0
  9
$LIMMIN
 10
0.0
 20
0.0
  9
$LIMMAX
 10
34.0
 20
22.0
  9
$VIEWCTR
 10
17.0
 20
11.0
  9
$VIEWSIZE
 40
22.0
  9
$CLAYER
  8
0
  9
$LTSCALE
 40
1.87
  9
$CELTYPE
  6
BYLAYER
  9
$DIMSCALE
 40
1.0
  9
$DIMASZ
 40
0.1875
  9
$DIMEXO
 40
0.0625
  9
$DIMDLI
 40
1.292
  9
$DIMEXE
 40
0.125
  9
$DIMCEN
 40
0.306
  9
$DIMLFAC
 40
1.0
  9
$DIMBLK
  1
_FILLED
  9
$DIMALT
 70
0
  9
$DIMALTF
 40
25.4
  9
$DIMTXT
 40
0.15625
  9
$AUNITS
 70
0
  9
$PDMODE
 70
3
  9
$PDSIZE
 40
0.3125
  9
$TILEMODE
 70
1
  0
ENDSEC
  0
SECTION
  2
TABLES
  0
TABLE
  2
LTYPE
 70
6
  0
LTYPE
  2
BYBLOCK
 70
0
  3

 72
65
 73
0
 40
0.0
  0
LTYPE
  2
BYLAYER
 70
0
  3

 72
65
 73
0
 40
0.0
  0
LTYPE
  2
CONTINUOUS
 70
64
  3
Solid line
 72
65
 73
0
 40
0.0
  0
LTYPE
  2
CENTER
 70
64
  3
____ _ ____ _ ____ _ ____ _ ____ _ ____ _ ____
 72
65
 73
4
 40
0.6
 49
0.375
 49
-0.075
 49
0.075
 49
-0.075
  0
LTYPE
  2
HIDDEN
 70
64
  3
- - - - - - - - - - - - - - - - - - - -
 72
65
 73
2
 40
0.2
 49
0.1
 49
-0.1
  0
LTYPE
  2
PHANTOM
 70
64
  3
_____ _ _ _____ _ _ _____ _ _ _____
 72
65
 73
6
 40
0.8
 49
0.45
 49
-0.05
 49
0.1
 49
-0.05
 49
0.1
 49
-0.05
  0
LTYPE
  2
DOT
 70
64
  3
. . . . . . . . . . . . . . . . . . . .
 72
65
 73
2
 40
0.2
 49
0.1
 49
-0.1
  0
LTYPE
  2
DASHED
 70
64
  3
- - - - - - - - - - - - - - - - - - - -
 72
65
 73
2
 40
0.2
 49
0.1
 49
-0.1
  0
ENDTAB
  0
TABLE
  2
LAYER
 70
36
  0
LAYER
  2
0
 70
0
 62
7
  6
CONTINUOUS
  0
LAYER
  2
DEFAULT_1
 70
0
 62
7
  6
CENTER
  0
LAYER
  2
DEFAULT_2
 70
0
 62
8
  6
HIDDEN
  0
LAYER
  2
DEFAULT_3
 70
0
 62
7
  6
PHANTOM
  0
LAYER
  2
DATUMS
 70
0
 62
7
  6
CONTINUOUS
  0
LAYER
  2
DATUM_AXIS
 70
0
 62
7
  6
CONTINUOUS
  0
LAYER
  2
DATUM_CSYS
 70
0
 62
7
  6
CONTINUOUS
  0
LAYER
  2
DATUM_PLANE
 70
0
 62
7
  6
CONTINUOUS
  0
LAYER
  2
DATUM_POINT
 70
0
 62
7
  6
CONTINUOUS
  0
LAYER
  2
DRAFT_ENT
 70
0
 62
7
  6
CONTINUOUS
  0
LAYER
  2
K_LOGO
 70
0
 62
7
  6
CONTINUOUS
  0
LAYER
  2
LAYER_1
 70
0
 62
7
  6
CONTINUOUS
  0
LAYER
  2
NOTE
 70
0
 62
7
  6
CONTINUOUS
  0
LAYER
  2
SYMBOL
 70
0
 62
7
  6
CONTINUOUS
  0
LAYER
  2
TEMPLATE
 70
0
 62
7
  6
CONTINUOUS
  0
LAYER
  2
XSEC_DATUMS
 70
0
 62
7
  6
CONTINUOUS
  0
LAYER
  2
_CURVE
 70
0
 62
7
  6
CONTINUOUS
  0
LAYER
  2
_SURFACE
 70
0
 62
7
  6
CONTINUOUS
  0
LAYER
  2
__REF_CURVE
 70
0
 62
7
  6
CONTINUOUS
  0
LAYER
  2
__REF_SURFACE
 70
0
 62
7
  6
CONTINUOUS
  0
LAYER
  2
___COSMETIC_SKETCH
 70
0
 62
7
  6
CONTINUOUS
  0
LAYER
  2
___GDT
 70
0
 62
7
  6
CONTINUOUS
  0
LAYER
  2
___NOTE
 70
0
 62
7
  6
CONTINUOUS
  0
LAYER
  2
___SHELL
 70
0
 62
7
  6
CONTINUOUS
  0
LAYER
  2
___SYMBOL
 70
0
 62
7
  6
CONTINUOUS
  0
ENDTAB
  0
TABLE
  2
STYLE
 70
1
  0
STYLE
  2
STANDARD
 70
0
 40
0.0
 41
0.8
 50
0.0
 71
0
 42
0.2
  3
txt
  4

  0
STYLE
  2
TEXTSTYLE_1
 70
0
 40
0.0
 41
0.8
 50
0.0
 71
0
 42
0.2
  3
gdt
  4

  0
STYLE
  2
TEXTSTYLE_2
 70
0
 40
0.0
 41
1.0
 50
0.0
 71
0
 42
0.2
  3
gdt
  4

  0
STYLE
  2
TEXTSTYLE_3
 70
0
 40
0.0
 41
1.0
 50
0.0
 71
0
 42
0.2
  3
txt
  4

  0
ENDTAB
  0
ENDSEC
  0
SECTION
  2
BLOCKS
  0
BLOCK
  8
___SYMBOL
 62
2
  6
CONTINUOUS
  2
COPYRIGHT_YEAR_BL1
 70
64
 10
11.4955636687
 20
4.2011272482
  0
TEXT
  8
___SYMBOL
 62
2
  6
CONTINUOUS
 10
10.7135754777
 20
4.1210392993
  7
STANDARD
 40
0.15625
  1
2022 KOHLER CO.
 41
0.8
 72
0
  0
TEXT
  8
___SYMBOL
 62
7
  6
CONTINUOUS
 10
10.4562534786
 20
4.1233680492
  7
TEXTSTYLE_3
 40
0.15625
  1
C
 41
1.0
 72
0
  0
CIRCLE
  8
___SYMBOL
 62
7
  6
CONTINUOUS
 10
10.5349088968
 20
4.2011272482
 40
0.1323570371
  0
ENDBLK
  8
0
  6
BYBLOCK
 62
0
  0
BLOCK
  8
___SYMBOL
 62
2
  6
CONTINUOUS
  2
REVISION_BL0
 70
64
 10
7.9988222289
 20
9.4729379724
  0
TEXT
  8
___SYMBOL
 62
2
  6
CONTINUOUS
 10
7.8801759295
 20
9.3938637651
  7
STANDARD
 40
0.15625
  1
E1
 41
0.8
 72
0
  0
LINE
  8
___SYMBOL
 62
7
  6
CONTINUOUS
 10
7.8598759453
 20
9.3579379724
 11
7.8013222289
 21
9.4164916887
  0
LINE
  8
___SYMBOL
 62
7
  6
CONTINUOUS
 10
7.8013222289
 20
9.529384256
 11
7.8013222289
 21
9.4164916887
  0
LINE
  8
___SYMBOL
 62
7
  6
CONTINUOUS
 10
7.8598759453
 20
9.5879379724
 11
7.8013222289
 21
9.529384256
  0
LINE
  8
___SYMBOL
 62
7
  6
CONTINUOUS
 10
8.1377685125
 20
9.3579379724
 11
8.1963222289
 21
9.4164916887
  0
LINE
  8
___SYMBOL
 62
7
  6
CONTINUOUS
 10
8.1963222289
 20
9.529384256
 11
8.1963222289
 21
9.4164916887
  0
LINE
  8
___SYMBOL
 62
7
  6
CONTINUOUS
 10
8.1377685125
 20
9.5879379724
 11
8.1963222289
 21
9.529384256
  0
LINE
  8
___SYMBOL
 62
7
  6
CONTINUOUS
 10
7.8598759453
 20
9.5879379724
 11
8.1377685125
 21
9.5879379724
  0
LINE
  8
___SYMBOL
 62
7
  6
CONTINUOUS
 10
8.1377685125
 20
9.3579379724
 11
7.8598759453
 21
9.3579379724
  0
ENDBLK
  8
0
  6
BYBLOCK
 62
0
  0
BLOCK
  8
0
  2
_FILLED
 70
64
 10
0.0
 20
0.0
  0
SOLID
  8
0
  6
BYBLOCK
 62
0
 10
0.0
 20
0.0
 11
-1.0
 21
0.1666666667
 12
-1.0
 22
-0.1666666667
 13
-1.0
 23
-0.1666666667
  0
ENDBLK
  8
0
  6
BYBLOCK
 62
0
  0
BLOCK
  8
0
 62
2
  6
CONTINUOUS
  2
*D0
 70
65
 10
0.0
 20
0.0
  0
TEXT
  8
0
 62
2
  6
CONTINUOUS
 10
3.8487075297
 20
20.2050559343
  7
STANDARD
 40
0.15625
  1
 2" MIN.
 41
0.8
 72
1
 11
4.3487075297
 21
20.2050559343
  0
TEXT
  8
0
 62
2
  6
CONTINUOUS
 10
3.9112075297
 20
19.9706809343
  7
STANDARD
 40
0.15625
  1
[51 mm]
 41
0.8
 72
1
 11
4.3487075297
 21
19.9706809343
  0
LINE
  8
0
 62
2
  6
CONTINUOUS
 10
4.3487075297
 20
19.2831809343
 11
4.3487075297
 21
19.8925559343
  0
LINE
  8
0
 62
2
  6
CONTINUOUS
 10
4.3487075297
 20
21.2831809343
 11
4.3487075297
 21
20.4394309343
  0
INSERT
  8
0
 62
2
  6
CONTINUOUS
  2
_FILLED
 10
4.3487075297
 20
19.2831809343
 41
0.1875
 42
0.1875
 43
0.1875
 50
270.0
  0
INSERT
  8
0
 62
2
  6
CONTINUOUS
  2
_FILLED
 10
4.3487075297
 20
21.2831809343
 41
0.1875
 42
0.1875
 43
0.1875
 50
90.0
  0
ENDBLK
  8
0
  6
BYBLOCK
 62
0
  0
BLOCK
  8
0
 62
2
  6
CONTINUOUS
  2
*D1
 70
65
 10
0.0
 20
0.0
  0
TEXT
  8
0
 62
2
  6
CONTINUOUS
 10
3.9112075297
 20
18.4113017104
  7
STANDARD
 40
0.15625
  1
 2-1/2"
 41
0.8
 72
1
 11
4.3487075297
 21
18.4113017104
  0
TEXT
  8
0
 62
2
  6
CONTINUOUS
 10
3.9112075297
 20
18.1769267104
  7
STANDARD
 40
0.15625
  1
[64 mm]
 41
0.8
 72
1
 11
4.3487075297
 21
18.1769267104
  0
LINE
  8
0
 62
2
  6
CONTINUOUS
 10
12.9835190679
 20
16.7832676273
 11
4.2237075297
 21
16.7832676273
  0
LINE
  8
0
 62
2
  6
CONTINUOUS
 10
4.3487075297
 20
19.2831809343
 11
4.3487075297
 21
18.6456767104
  0
LINE
  8
0
 62
2
  6
CONTINUOUS
 10
4.3487075297
 20
16.7832676273
 11
4.3487075297
 21
18.0988017104
  0
INSERT
  8
0
 62
2
  6
CONTINUOUS
  2
_FILLED
 10
4.3487075297
 20
19.2831809343
 41
0.1875
 42
0.1875
 43
0.1875
 50
90.0
  0
INSERT
  8
0
 62
2
  6
CONTINUOUS
  2
_FILLED
 10
4.3487075297
 20
16.7832676273
 41
0.1875
 42
0.1875
 43
0.1875
 50
270.0
  0
ENDBLK
  8
0
  6
BYBLOCK
 62
0
  0
BLOCK
  8
0
 62
2
  6
CONTINUOUS
  2
*D2
 70
65
 10
0.0
 20
0.0
  0
TEXT
  8
0
 62
2
  6
CONTINUOUS
 10
14.5888801595
 20
11.613198554
  7
TEXTSTYLE_2
 40
0.15625
  1
n
 41
1.0
 72
1
 11
14.6930468262
 21
11.613198554
  0
TEXT
  8
0
 62
2
  6
CONTINUOUS
 10
14.7972134928
 20
11.613198554
  7
STANDARD
 40
0.15625
  1
13-1/2
 41
0.8
 72
1
 11
15.1722134928
 21
11.613198554
  0
TEXT
  8
0
 62
2
  6
CONTINUOUS
 10
14.7972134928
 20
11.378823554
  7
STANDARD
 40
0.15625
  1
[
 41
0.8
 72
1
 11
14.8597134928
 21
11.378823554
  0
TEXT
  8
0
 62
2
  6
CONTINUOUS
 10
14.9222134928
 20
11.378823554
  7
STANDARD
 40
0.15625
  1
34,3
 41
0.8
 72
1
 11
15.1722134928
 21
11.378823554
  0
TEXT
  8
0
 62
2
  6
CONTINUOUS
 10
15.4222134928
 20
11.378823554
  7
STANDARD
 40
0.15625
  1
]
 41
0.8
 72
1
 11
15.4847134928
 21
11.378823554
  0
TEXT
  8
0
 62
2
  6
CONTINUOUS
 10
15.0055468262
 20
11.144448554
  7
STANDARD
 40
0.15625
  1
 
 41
0.8
 72
1
 11
15.0680468262
 21
11.144448554
  0
LINE
  8
0
 62
2
  6
CONTINUOUS
 10
18.2655853047
 20
14.3132942977
 11
15.2585963922
 21
11.847573554
  0
LINE
  8
0
 62
2
  6
CONTINUOUS
 10
7.8264528311
 20
5.7532409569
 11
14.5916729112
 21
11.300698554
  0
INSERT
  8
0
 62
2
  6
CONTINUOUS
  2
_FILLED
 10
18.2655853047
 20
14.3132942977
 41
0.1875
 42
0.1875
 43
0.1875
 50
39.3516368181
  0
INSERT
  8
0
 62
2
  6
CONTINUOUS
  2
_FILLED
 10
7.8264528311
 20
5.7532409569
 41
0.1875
 42
0.1875
 43
0.1875
 50
219.3516368181
  0
ENDBLK
  8
0
  6
BYBLOCK
 62
0
  0
ENDSEC
  0
SECTION
  2
ENTITIES
  0
SOLID
  8
0
 62
2
  6
CONTINUOUS
 10
8.4278553532
 20
14.2849643787
 11
8.5139579738
 21
14.3873526418
 12
8.6339966293
 22
14.3873526418
 13
8.6339966293
 23
14.3873526418
  0
SOLID
  8
0
 62
2
  6
CONTINUOUS
 10
8.6339966293
 20
14.3873526418
 11
8.5006819464
 21
14.2288224409
 12
8.4278553532
 22
14.2849643787
 13
8.4278553532
 23
14.2849643787
  0
SOLID
  8
0
 62
2
  6
CONTINUOUS
 10
8.4278553532
 20
14.1470939613
 11
8.5006819464
 21
14.2288224409
 12
8.5239415841
 22
14.021156541
 13
8.5239415841
 23
14.021156541
  0
SOLID
  8
0
 62
2
  6
CONTINUOUS
 10
8.5006819464
 20
14.2288224409
 11
8.6591243733
 21
14.021156541
 12
8.5239415841
 22
14.021156541
 13
8.5239415841
 23
14.021156541
  0
SOLID
  8
0
 62
2
  6
CONTINUOUS
 10
8.4278553532
 20
14.021156541
 11
8.3187926905
 21
14.0211415389
 12
8.4278553532
 22
14.1470939613
 13
8.4278553532
 23
14.1470939613
  0
SOLID
  8
0
 62
2
  6
CONTINUOUS
 10
8.5006819464
 20
14.2288224409
 11
8.4278553532
 21
14.1470939613
 12
8.4278553532
 22
14.2849643787
 13
8.4278553532
 23
14.2849643787
  0
SOLID
  8
0
 62
2
  6
CONTINUOUS
 10
8.4278553532
 20
14.1470939613
 11
8.3187926905
 21
14.0211415389
 12
8.4278553532
 22
14.2849643787
 13
8.4278553532
 23
14.2849643787
  0
SOLID
  8
0
 62
2
  6
CONTINUOUS
 10
8.4278553532
 20
14.2849643787
 11
8.3187926905
 21
14.0211415389
 12
8.4278553532
 22
14.3873526418
 13
8.4278553532
 23
14.3873526418
  0
SOLID
  8
0
 62
2
  6
CONTINUOUS
 10
8.3187926905
 20
14.0211415389
 11
8.3187926905
 21
14.3873526418
 12
8.4278553532
 22
14.3873526418
 13
8.4278553532
 23
14.3873526418
  0
SOLID
  8
0
 62
2
  6
CONTINUOUS
 10
8.7118770614
 20
14.3807217571
 11
8.7499702902
 21
14.3888187228
 12
8.7889145444
 22
14.3888187228
 13
8.7889145444
 23
14.3888187228
  0
SOLID
  8
0
 62
2
  6
CONTINUOUS
 10
8.7889145444
 20
14.3888187228
 11
8.8270077732
 21
14.3807217571
 12
8.7118770614
 22
14.3807217571
 13
8.7118770614
 23
14.3807217571
  0
SOLID
  8
0
 62
2
  6
CONTINUOUS
 10
8.6762997149
 20
14.3648817019
 11
8.7118770614
 21
14.3807217571
 12
8.8270077732
 22
14.3807217571
 13
8.8270077732
 23
14.3807217571
  0
SOLID
  8
0
 62
2
  6
CONTINUOUS
 10
8.8270077732
 20
14.3807217571
 11
8.8625851198
 21
14.3648817019
 12
8.6762997149
 22
14.3648817019
 13
8.6762997149
 23
14.3648817019
  0
SOLID
  8
0
 62
2
  6
CONTINUOUS
 10
8.6447931514
 20
14.3419908436
 11
8.6762997149
 21
14.3648817019
 12
8.8625851198
 22
14.3648817019
 13
8.8625851198
 23
14.3648817019
  0
SOLID
  8
0
 62
2
  6
CONTINUOUS
 10
8.8625851198
 20
14.3648817019
 11
8.8940916833
 21
14.3419908436
 12
8.6447931514
 22
14.3419908436
 13
8.6447931514
 23
14.3419908436
  0
SOLID
  8
0
 62
2
  6
CONTINUOUS
 10
8.6187343589
 20
14.3130496226
 11
8.6447931514
 21
14.3419908436
 12
8.8940916833
 22
14.3419908436
 13
8.8940916833
 23
14.3419908436
  0
SOLID
  8
0
 62
2
  6
CONTINUOUS
 10
8.8940916833
 20
14.3419908436
 11
8.9201504757
 21
14.3130496226
 12
8.6187343589
 22
14.3130496226
 13
8.6187343589
 23
14.3130496226
  0
SOLID
  8
0
 62
2
  6
CONTINUOUS
 10
8.7694424173
 20
14.2815347082
 11
8.5992622318
 21
14.2793229091
 12
8.9201504757
 22
14.3130496226
 13
8.9201504757
 23
14.3130496226
  0
SOLID
  8
0
 62
2
  6
CONTINUOUS
 10
8.5992622318
 20
14.2793229091
 11
8.6187343589
 21
14.3130496226
 12
8.9201504757
 22
14.3130496226
 13
8.9201504757
 23
14.3130496226
  0
SOLID
  8
0
 62
2
  6
CONTINUOUS
 10
8.9201504757
 20
14.3130496226
 11
8.9396226028
 21
14.2793229091
 12
8.7694424173
 22
14.2815347082
 13
8.7694424173
 23
14.2815347082
  0
SOLID
  8
0
 62
2
  6
CONTINUOUS
 10
8.7694424173
 20
14.2815347082
 11
8.7453449942
 21
14.2777180513
 12
8.5992622318
 22
14.2793229091
 13
8.5992622318
 23
14.2793229091
  0
SOLID
  8
0
 62
2
  6
CONTINUOUS
 10
8.7935398404
 20
14.2777180513
 11
8.7694424173
 21
14.2815347082
 12
8.9396226028
 22
14.2793229091
 13
8.9396226028
 23
14.2793229091
  0
SOLID
  8
0
 62
2
  6
CONTINUOUS
 10
8.7063545445
 20
14.2493898314
 11
8.5872277954
 21
14.2422847224
 12
8.7236063947
 22
14.2666416816
 13
8.7236063947
 23
14.2666416816
  0
SOLID
  8
0
 62
2
  6
CONTINUOUS
 10
8.7236063947
 20
14.2666416816
 11
8.5872277954
 21
14.2422847224
 12
8.7453449942
 22
14.2777180513
 13
8.7453449942
 23
14.2777180513
  0
SOLID
  8
0
 62
2
  6
CONTINUOUS
 10
8.5872277954
 20
14.2422847224
 11
8.5992622318
 21
14.2793229091
 12
8.7453449942
 22
14.2777180513
 13
8.7453449942
 23
14.2777180513
  0
SOLID
  8
0
 62
2
  6
CONTINUOUS
 10
8.7935398404
 20
14.2777180513
 11
8.9396226028
 21
14.2793229091
 12
8.8152784399
 22
14.2666416816
 13
8.8152784399
 23
14.2666416816
  0
SOLID
  8
0
 62
2
  6
CONTINUOUS
 10
8.8152784399
 20
14.2666416816
 11
8.9396226028
 21
14.2793229091
 12
8.8325302901
 22
14.2493898314
 13
8.8325302901
 23
14.2493898314
  0
SOLID
  8
0
 62
2
  6
CONTINUOUS
 10
8.9396226028
 20
14.2793229091
 11
8.9516570392
 21
14.2422847224
 12
8.8325302901
 22
14.2493898314
 13
8.8325302901
 23
14.2493898314
  0
SOLID
  8
0
 62
2
  6
CONTINUOUS
 10
8.7063545445
 20
14.2493898314
 11
8.6952781749
 21
14.227651232
 12
8.5872277954
 22
14.2422847224
 13
8.5872277954
 23
14.2422847224
  0
SOLID
  8
0
 62
2
  6
CONTINUOUS
 10
8.8436066597
 20
14.227651232
 11
8.8325302901
 21
14.2493898314
 12
8.9516570392
 22
14.2422847224
 13
8.9516570392
 23
14.2422847224
  0
SOLID
  8
0
 62
2
  6
CONTINUOUS
 10
8.5831570124
 20
14.2035538089
 11
8.5872277954
 21
14.2422847224
 12
8.6952781749
 22
14.227651232
 13
8.6952781749
 23
14.227651232
  0
SOLID
  8
0
 62
2
  6
CONTINUOUS
 10
8.6952781749
 20
14.227651232
 11
8.691461518
 21
14.2035538089
 12
8.5831570124
 22
14.2035538089
 13
8.5831570124
 23
14.2035538089
  0
SOLID
  8
0
 62
2
  6
CONTINUOUS
 10
8.8436066597
 20
14.227651232
 11
8.9516570392
 21
14.2422847224
 12
8.8474233166
 22
14.2035538089
 13
8.8474233166
 23
14.2035538089
  0
SOLID
  8
0
 62
2
  6
CONTINUOUS
 10
8.9516570392
 20
14.2422847224
 11
8.9557278222
 21
14.2035538089
 12
8.8474233166
 22
14.2035538089
 13
8.8474233166
 23
14.2035538089
  0
SOLID
  8
0
 62
2
  6
CONTINUOUS
 10
8.8436066597
 20
14.1794563857
 11
8.8474233166
 21
14.2035538089
 12
8.9557278222
 22
14.2035538089
 13
8.9557278222
 23
14.2035538089
  0
SOLID
  8
0
 62
2
  6
CONTINUOUS
 10
8.6952781749
 20
14.1794563857
 11
8.5872277954
 21
14.1648228953
 12
8.691461518
 22
14.2035538089
 13
8.691461518
 23
14.2035538089
  0
SOLID
  8
0
 62
2
  6
CONTINUOUS
 10
8.5872277954
 20
14.1648228953
 11
8.5831570124
 21
14.2035538089
 12
8.691461518
 22
14.2035538089
 13
8.691461518
 23
14.2035538089
  0
SOLID
  8
0
 62
2
  6
CONTINUOUS
 10
8.9557278222
 20
14.2035538089
 11
8.9516570392
 21
14.1648228953
 12
8.8436066597
 22
14.1794563857
 13
8.8436066597
 23
14.1794563857
  0
SOLID
  8
0
 62
2
  6
CONTINUOUS
 10
8.6952781749
 20
14.1794563857
 11
8.7063545445
 21
14.1577177863
 12
8.5872277954
 22
14.1648228953
 13
8.5872277954
 23
14.1648228953
  0
SOLID
  8
0
 62
2
  6
CONTINUOUS
 10
8.8325302901
 20
14.1577177863
 11
8.8436066597
 21
14.1794563857
 12
8.9516570392
 22
14.1648228953
 13
8.9516570392
 23
14.1648228953
  0
SOLID
  8
0
 62
2
  6
CONTINUOUS
 10
8.7453449942
 20
14.1293895664
 11
8.5992622318
 21
14.1277847086
 12
8.7236063947
 22
14.1404659361
 13
8.7236063947
 23
14.1404659361
  0
SOLID
  8
0
 62
2
  6
CONTINUOUS
 10
8.7236063947
 20
14.1404659361
 11
8.5992622318
 21
14.1277847086
 12
8.7063545445
 22
14.1577177863
 13
8.7063545445
 23
14.1577177863
  0
SOLID
  8
0
 62
2
  6
CONTINUOUS
 10
8.5992622318
 20
14.1277847086
 11
8.5872277954
 21
14.1648228953
 12
8.7063545445
 22
14.1577177863
 13
8.7063545445
 23
14.1577177863
  0
SOLID
  8
0
 62
2
  6
CONTINUOUS
 10
8.8325302901
 20
14.1577177863
 11
8.9516570392
 21
14.1648228953
 12
8.8152784399
 22
14.1404659361
 13
8.8152784399
 23
14.1404659361
  0
SOLID
  8
0
 62
2
  6
CONTINUOUS
 10
8.8152784399
 20
14.1404659361
 11
8.9516570392
 21
14.1648228953
 12
8.7935398404
 22
14.1293895664
 13
8.7935398404
 23
14.1293895664
  0
SOLID
  8
0
 62
2
  6
CONTINUOUS
 10
8.9516570392
 20
14.1648228953
 11
8.9396226028
 21
14.1277847086
 12
8.7935398404
 22
14.1293895664
 13
8.7935398404
 23
14.1293895664
  0
SOLID
  8
0
 62
2
  6
CONTINUOUS
 10
8.7453449942
 20
14.1293895664
 11
8.7694424173
 21
14.1255729095
 12
8.5992622318
 22
14.1277847086
 13
8.5992622318
 23
14.1277847086
  0
SOLID
  8
0
 62
2
  6
CONTINUOUS
 10
8.7694424173
 20
14.1255729095
 11
8.7935398404
 21
14.1293895664
 12
8.9396226028
 22
14.1277847086
 13
8.9396226028
 23
14.1277847086
  0
SOLID
  8
0
 62
2
  6
CONTINUOUS
 10
8.6187343589
 20
14.0940579951
 11
8.5992622318
 21
14.1277847086
 12
8.7694424173
 22
14.1255729095
 13
8.7694424173
 23
14.1255729095
  0
SOLID
  8
0
 62
2
  6
CONTINUOUS
 10
8.7694424173
 20
14.1255729095
 11
8.9396226028
 21
14.1277847086
 12
8.6187343589
 22
14.0940579951
 13
8.6187343589
 23
14.0940579951
  0
SOLID
  8
0
 62
2
  6
CONTINUOUS
 10
8.9396226028
 20
14.1277847086
 11
8.9201504757
 21
14.0940579951
 12
8.6187343589
 22
14.0940579951
 13
8.6187343589
 23
14.0940579951
  0
SOLID
  8
0
 62
2
  6
CONTINUOUS
 10
8.6447931514
 20
14.0651167741
 11
8.6187343589
 21
14.0940579951
 12
8.9201504757
 22
14.0940579951
 13
8.9201504757
 23
14.0940579951
  0
SOLID
  8
0
 62
2
  6
CONTINUOUS
 10
8.9201504757
 20
14.0940579951
 11
8.8940916833
 21
14.0651167741
 12
8.6447931514
 22
14.0651167741
 13
8.6447931514
 23
14.0651167741
  0
SOLID
  8
0
 62
2
  6
CONTINUOUS
 10
8.6762997149
 20
14.0422259158
 11
8.6447931514
 21
14.0651167741
 12
8.8940916833
 22
14.0651167741
 13
8.8940916833
 23
14.0651167741
  0
SOLID
  8
0
 62
2
  6
CONTINUOUS
 10
8.8940916833
 20
14.0651167741
 11
8.8625851198
 21
14.0422259158
 12
8.6762997149
 22
14.0422259158
 13
8.6762997149
 23
14.0422259158
  0
SOLID
  8
0
 62
2
  6
CONTINUOUS
 10
8.7118770614
 20
14.0263858606
 11
8.6762997149
 21
14.0422259158
 12
8.8625851198
 22
14.0422259158
 13
8.8625851198
 23
14.0422259158
  0
SOLID
  8
0
 62
2
  6
CONTINUOUS
 10
8.8625851198
 20
14.0422259158
 11
8.8270077732
 21
14.0263858606
 12
8.7118770614
 22
14.0263858606
 13
8.7118770614
 23
14.0263858606
  0
SOLID
  8
0
 62
2
  6
CONTINUOUS
 10
8.7499702902
 20
14.0182888949
 11
8.7118770614
 21
14.0263858606
 12
8.8270077732
 22
14.0263858606
 13
8.8270077732
 23
14.0263858606
  0
SOLID
  8
0
 62
2
  6
CONTINUOUS
 10
8.8270077732
 20
14.0263858606
 11
8.7889145444
 21
14.0182888949
 12
8.7499702902
 22
14.0182888949
 13
8.7499702902
 23
14.0182888949
  0
SOLID
  8
0
 62
2
  6
CONTINUOUS
 10
9.161881448
 20
14.2496127657
 11
9.161881448
 21
14.3873526418
 12
9.2648400176
 22
14.3873526418
 13
9.2648400176
 23
14.3873526418
  0
SOLID
  8
0
 62
2
  6
CONTINUOUS
 10
9.161881448
 20
14.2496127657
 11
9.0693834235
 21
14.1638594494
 12
9.0693834235
 22
14.2496127657
 13
9.0693834235
 23
14.2496127657
  0
SOLID
  8
0
 62
2
  6
CONTINUOUS
 10
9.0693834235
 20
14.1638594494
 11
8.9664248539
 21
14.021156541
 12
9.0693834235
 22
14.2496127657
 13
9.0693834235
 23
14.2496127657
  0
SOLID
  8
0
 62
2
  6
CONTINUOUS
 10
9.0693834235
 20
14.2496127657
 11
8.9664248539
 21
14.021156541
 12
9.0693834235
 22
14.3873526418
 13
9.0693834235
 23
14.3873526418
  0
SOLID
  8
0
 62
2
  6
CONTINUOUS
 10
8.9664248539
 20
14.021156541
 11
8.9664248539
 21
14.3873526418
 12
9.0693834235
 22
14.3873526418
 13
9.0693834235
 23
14.3873526418
  0
SOLID
  8
0
 62
2
  6
CONTINUOUS
 10
9.0693834235
 20
14.1638594494
 11
9.0693834235
 21
14.021156541
 12
8.9664248539
 22
14.021156541
 13
8.9664248539
 23
14.021156541
  0
SOLID
  8
0
 62
2
  6
CONTINUOUS
 10
9.0693834235
 20
14.1638594494
 11
9.161881448
 21
14.2496127657
 12
9.161881448
 22
14.1638594494
 13
9.161881448
 23
14.1638594494
  0
SOLID
  8
0
 62
2
  6
CONTINUOUS
 10
9.161881448
 20
14.2496127657
 11
9.2648400176
 21
14.3873526418
 12
9.161881448
 22
14.1638594494
 13
9.161881448
 23
14.1638594494
  0
SOLID
  8
0
 62
2
  6
CONTINUOUS
 10
9.161881448
 20
14.1638594494
 11
9.2648400176
 21
14.3873526418
 12
9.161881448
 22
14.021156541
 13
9.161881448
 23
14.021156541
  0
SOLID
  8
0
 62
2
  6
CONTINUOUS
 10
9.2648400176
 20
14.3873526418
 11
9.2648400176
 21
14.021156541
 12
9.161881448
 22
14.021156541
 13
9.161881448
 23
14.021156541
  0
SOLID
  8
0
 62
2
  6
CONTINUOUS
 10
9.4884494209
 20
14.1094232811
 11
9.2929930506
 21
14.021156541
 12
9.3867718577
 22
14.1094232811
 13
9.3867718577
 23
14.1094232811
  0
SOLID
  8
0
 62
2
  6
CONTINUOUS
 10
9.3867718577
 20
14.1094232811
 11
9.2929930506
 21
14.021156541
 12
9.3867718577
 22
14.3873526418
 13
9.3867718577
 23
14.3873526418
  0
SOLID
  8
0
 62
2
  6
CONTINUOUS
 10
9.2929930506
 20
14.021156541
 11
9.2929930506
 21
14.3873526418
 12
9.3867718577
 22
14.3873526418
 13
9.3867718577
 23
14.3873526418
  0
SOLID
  8
0
 62
2
  6
CONTINUOUS
 10
9.2929930506
 20
14.021156541
 11
9.4884494209
 21
14.1094232811
 12
9.3867718577
 22
14.021156541
 13
9.3867718577
 23
14.021156541
  0
SOLID
  8
0
 62
2
  6
CONTINUOUS
 10
9.4884494209
 20
14.1094232811
 11
9.4884494209
 21
14.021156541
 12
9.3867718577
 22
14.021156541
 13
9.3867718577
 23
14.021156541
  0
SOLID
  8
0
 62
2
  6
CONTINUOUS
 10
9.6998569075
 20
14.3873526418
 11
9.6998569075
 21
14.2981280018
 12
9.6055709374
 22
14.2981280018
 13
9.6055709374
 23
14.2981280018
  0
SOLID
  8
0
 62
2
  6
CONTINUOUS
 10
9.6998569075
 20
14.2496127657
 11
9.6998569075
 21
14.1593742475
 12
9.6055709374
 22
14.1593742475
 13
9.6055709374
 23
14.1593742475
  0
SOLID
  8
0
 62
2
  6
CONTINUOUS
 10
9.6998569075
 20
14.1094232811
 11
9.506666761
 21
14.021156541
 12
9.6055709374
 22
14.1094232811
 13
9.6055709374
 23
14.1094232811
  0
SOLID
  8
0
 62
2
  6
CONTINUOUS
 10
9.6055709374
 20
14.1094232811
 11
9.506666761
 21
14.021156541
 12
9.6055709374
 22
14.1593742475
 13
9.6055709374
 23
14.1593742475
  0
SOLID
  8
0
 62
2
  6
CONTINUOUS
 10
9.6998569075
 20
14.2496127657
 11
9.6055709374
 21
14.1593742475
 12
9.6055709374
 22
14.2496127657
 13
9.6055709374
 23
14.2496127657
  0
SOLID
  8
0
 62
2
  6
CONTINUOUS
 10
9.6055709374
 20
14.1593742475
 11
9.506666761
 21
14.021156541
 12
9.6055709374
 22
14.2496127657
 13
9.6055709374
 23
14.2496127657
  0
SOLID
  8
0
 62
2
  6
CONTINUOUS
 10
9.6055709374
 20
14.2496127657
 11
9.506666761
 21
14.021156541
 12
9.6055709374
 22
14.2981280018
 13
9.6055709374
 23
14.2981280018
  0
SOLID
  8
0
 62
2
  6
CONTINUOUS
 10
9.6998569075
 20
14.3873526418
 11
9.6055709374
 21
14.2981280018
 12
9.6144486411
 22
14.3873526418
 13
9.6144486411
 23
14.3873526418
  0
SOLID
  8
0
 62
2
  6
CONTINUOUS
 10
9.6055709374
 20
14.2981280018
 11
9.506666761
 21
14.021156541
 12
9.6144486411
 22
14.3873526418
 13
9.6144486411
 23
14.3873526418
  0
SOLID
  8
0
 62
2
  6
CONTINUOUS
 10
9.506666761
 20
14.021156541
 11
9.506666761
 21
14.3873526418
 12
9.6144486411
 22
14.3873526418
 13
9.6144486411
 23
14.3873526418
  0
SOLID
  8
0
 62
2
  6
CONTINUOUS
 10
9.6998569075
 20
14.1094232811
 11
9.6998569075
 21
14.021156541
 12
9.506666761
 22
14.021156541
 13
9.506666761
 23
14.021156541
  0
SOLID
  8
0
 62
2
  6
CONTINUOUS
 10
9.8738368878
 20
14.3873570828
 11
9.9031700331
 21
14.3833506767
 12
9.727869547
 22
14.3873526418
 13
9.727869547
 23
14.3873526418
  0
SOLID
  8
0
 62
2
  6
CONTINUOUS
 10
9.8220294541
 20
14.2982408539
 11
9.9807418225
 21
14.3011341892
 12
9.8569856367
 22
14.2982408539
 13
9.8569856367
 23
14.2982408539
  0
SOLID
  8
0
 62
2
  6
CONTINUOUS
 10
9.8569856367
 20
14.2982408539
 11
9.9807418225
 21
14.3011341892
 12
9.871812253
 22
14.2947819981
 13
9.871812253
 23
14.2947819981
  0
SOLID
  8
0
 62
2
  6
CONTINUOUS
 10
9.871812253
 20
14.2947819981
 11
9.9807418225
 21
14.3011341892
 12
9.8835778725
 22
14.2851195743
 13
9.8835778725
 23
14.2851195743
  0
SOLID
  8
0
 62
2
  6
CONTINUOUS
 10
9.9807418225
 20
14.3011341892
 11
9.983037602
 21
14.271617853
 12
9.8835778725
 22
14.2851195743
 13
9.8835778725
 23
14.2851195743
  0
SOLID
  8
0
 62
2
  6
CONTINUOUS
 10
9.8898534603
 20
14.2712484088
 11
9.8835778725
 21
14.2851195743
 12
9.983037602
 22
14.271617853
 13
9.983037602
 23
14.271617853
  0
SOLID
  8
0
 62
2
  6
CONTINUOUS
 10
9.8898534603
 20
14.2712484088
 11
9.983037602
 21
14.271617853
 12
9.8893434092
 22
14.2560322304
 13
9.8893434092
 23
14.2560322304
  0
SOLID
  8
0
 62
2
  6
CONTINUOUS
 10
9.8893434092
 20
14.2560322304
 11
9.983037602
 21
14.271617853
 12
9.8821530201
 22
14.2426124488
 13
9.8821530201
 23
14.2426124488
  0
SOLID
  8
0
 62
2
  6
CONTINUOUS
 10
9.983037602
 20
14.271617853
 11
9.9773340986
 21
14.2425669537
 12
9.8821530201
 22
14.2426124488
 13
9.8821530201
 23
14.2426124488
  0
SOLID
  8
0
 62
2
  6
CONTINUOUS
 10
9.8697667628
 20
14.2337596036
 11
9.8821530201
 21
14.2426124488
 12
9.9773340986
 22
14.2425669537
 13
9.9773340986
 23
14.2425669537
  0
SOLID
  8
0
 62
2
  6
CONTINUOUS
 10
9.8697667628
 20
14.2337596036
 11
9.9773340986
 21
14.2425669537
 12
9.8547418042
 22
14.2313013821
 13
9.8547418042
 23
14.2313013821
  0
SOLID
  8
0
 62
2
  6
CONTINUOUS
 10
9.9773340986
 20
14.2425669537
 11
9.9640491113
 21
14.2161095575
 12
9.8547418042
 22
14.2313013821
 13
9.8547418042
 23
14.2313013821
  0
SOLID
  8
0
 62
2
  6
CONTINUOUS
 10
9.9191114262
 20
14.1783956593
 11
9.8220294541
 21
14.1442542963
 12
9.9441558055
 22
14.1941837488
 13
9.9441558055
 23
14.1941837488
  0
SOLID
  8
0
 62
2
  6
CONTINUOUS
 10
9.9441558055
 20
14.1941837488
 11
9.8220294541
 21
14.1442542963
 12
9.9640491113
 22
14.2161095575
 13
9.9640491113
 23
14.2161095575
  0
SOLID
  8
0
 62
2
  6
CONTINUOUS
 10
9.9640491113
 20
14.2161095575
 11
9.8220294541
 21
14.1442542963
 12
9.8547418042
 22
14.2313013821
 13
9.8547418042
 23
14.2313013821
  0
SOLID
  8
0
 62
2
  6
CONTINUOUS
 10
9.8220294541
 20
14.1442542963
 11
9.727869547
 21
14.021156541
 12
9.8547418042
 22
14.2313013821
 13
9.8547418042
 23
14.2313013821
  0
SOLID
  8
0
 62
2
  6
CONTINUOUS
 10
9.8547418042
 20
14.2313013821
 11
9.727869547
 21
14.021156541
 12
9.8220294541
 22
14.2313013821
 13
9.8220294541
 23
14.2313013821
  0
SOLID
  8
0
 62
2
  6
CONTINUOUS
 10
9.8220294541
 20
14.2313013821
 11
9.727869547
 21
14.021156541
 12
9.8220294541
 22
14.2982408539
 13
9.8220294541
 23
14.2982408539
  0
SOLID
  8
0
 62
2
  6
CONTINUOUS
 10
9.9807418225
 20
14.3011341892
 11
9.8220294541
 21
14.2982408539
 12
9.970614933
 22
14.3289538012
 13
9.970614933
 23
14.3289538012
  0
SOLID
  8
0
 62
2
  6
CONTINUOUS
 10
9.970614933
 20
14.3289538012
 11
9.8220294541
 21
14.2982408539
 12
9.9533987588
 22
14.3530388182
 13
9.9533987588
 23
14.3530388182
  0
SOLID
  8
0
 62
2
  6
CONTINUOUS
 10
9.9533987588
 20
14.3530388182
 11
9.8220294541
 21
14.2982408539
 12
9.9303544367
 22
14.37162494
 13
9.9303544367
 23
14.37162494
  0
SOLID
  8
0
 62
2
  6
CONTINUOUS
 10
9.9303544367
 20
14.37162494
 11
9.8220294541
 21
14.2982408539
 12
9.9031700331
 22
14.3833506767
 13
9.9031700331
 23
14.3833506767
  0
SOLID
  8
0
 62
2
  6
CONTINUOUS
 10
9.9031700331
 20
14.3833506767
 11
9.8220294541
 21
14.2982408539
 12
9.727869547
 22
14.3873526418
 13
9.727869547
 23
14.3873526418
  0
SOLID
  8
0
 62
2
  6
CONTINUOUS
 10
9.727869547
 20
14.021156541
 11
9.727869547
 21
14.3873526418
 12
9.8220294541
 22
14.2982408539
 13
9.8220294541
 23
14.2982408539
  0
SOLID
  8
0
 62
2
  6
CONTINUOUS
 10
9.8220294541
 20
14.1442542963
 11
9.8220294541
 21
14.021156541
 12
9.727869547
 22
14.021156541
 13
9.727869547
 23
14.021156541
  0
SOLID
  8
0
 62
2
  6
CONTINUOUS
 10
9.8220294541
 20
14.1442542963
 11
9.9191114262
 21
14.1783956593
 12
9.9000441122
 22
14.021156541
 13
9.9000441122
 23
14.021156541
  0
SOLID
  8
0
 62
2
  6
CONTINUOUS
 10
9.9191114262
 20
14.1783956593
 11
10.0187634721
 21
14.021156541
 12
9.9000441122
 22
14.021156541
 13
9.9000441122
 23
14.021156541
  0
DIMENSION
  8
0
 62
2
  6
CONTINUOUS
  2
*D0
 10
4.3487075297
 20
21.2831809343
 11
4.3799575297
 21
20.1659934343
 70
128
 13
3.2916126768
 23
19.2831809343
 14
3.2916126768
 24
21.2831809343
 50
90.0
  0
DIMENSION
  8
0
 62
2
  6
CONTINUOUS
  2
*D1
 10
4.3487075297
 20
16.7832676273
 11
4.3487075297
 21
18.3722392104
 70
128
 13
3.2916126768
 23
19.2831809343
 14
13.0460190679
 24
16.7832676273
 50
270.0
  0
DIMENSION
  8
0
 62
2
  6
CONTINUOUS
  2
*D2
 10
18.2655853047
 20
14.3132942977
 11
15.0680468262
 21
11.574136054
 70
131
 15
7.8264528311
 25
5.7532409569
  0
TEXT
  8
___NOTE
 62
2
  6
CONTINUOUS
 10
20.2718636244
 20
14.9181122936
  7
STANDARD
 40
0.15625
  1
CLIP LOCATIONS
 41
0.8
 72
0
  0
TEXT
  8
___NOTE
 62
2
  6
CONTINUOUS
 10
20.2718636244
 20
14.6837372936
  7
STANDARD
 40
0.15625
  1
UBICACIÓN DEL SUJETADOR
 41
0.8
 72
0
  0
TEXT
  8
___NOTE
 62
2
  6
CONTINUOUS
 10
20.2718636244
 20
14.4493622936
  7
STANDARD
 40
0.15625
  1
EMPLACEMENT DES AGRAFES
 41
0.8
 72
0
  0
LINE
  8
___NOTE
 62
2
  6
CONTINUOUS
 10
19.2025248152
 20
15.8834747176
 11
20.0218636244
 21
14.9962372936
  0
LINE
  8
___NOTE
 62
2
  6
CONTINUOUS
 10
20.0218636244
 20
14.9962372936
 11
20.2718636244
 21
14.9962372936
  0
SOLID
  8
___NOTE
 62
2
  6
CONTINUOUS
 10
19.3526897943
 20
15.7669273386
 11
19.2025248152
 21
15.8834747176
 12
19.3067736185
 22
15.7245250416
 13
19.3067736185
 23
15.7245250416
  0
TEXT
  8
___NOTE
 62
2
  6
CONTINUOUS
 10
16.1175079036
 20
21.0175211703
  7
STANDARD
 40
0.15625
  1
FINISHED WALL / BACK SPLASH
 41
0.8
 72
0
  0
TEXT
  8
___NOTE
 62
2
  6
CONTINUOUS
 10
16.1175079036
 20
20.7831461703
  7
STANDARD
 40
0.15625
  1
PARED ACABADA/PARED POSTERIOR
 41
0.8
 72
0
  0
TEXT
  8
___NOTE
 62
2
  6
CONTINUOUS
 10
16.1175079036
 20
20.5487711703
  7
STANDARD
 40
0.15625
  1
MUR FINI / DOSSERET
 41
0.8
 72
0
  0
TEXT
  8
___NOTE
 62
2
  6
CONTINUOUS
 10
5.376286719
 20
20.7827400075
  7
STANDARD
 40
0.15625
  1
NOTE: BEFORE CUTTING COUNTERTOP ALLOW
 41
0.8
 72
0
  0
TEXT
  8
___NOTE
 62
2
  6
CONTINUOUS
 10
5.376286719
 20
20.5483650075
  7
STANDARD
 40
0.15625
  1
      FOR HANDLE CLEARANCE
 41
0.8
 72
0
  0
TEXT
  8
___NOTE
 62
2
  6
CONTINUOUS
 10
5.376286719
 20
20.3139900075
  7
STANDARD
 40
0.15625
  1
NOTA: ANTES DE CORTAR EL MOSTRADOR,
 41
0.8
 72
0
  0
TEXT
  8
___NOTE
 62
2
  6
CONTINUOUS
 10
5.376286719
 20
20.0796150075
  7
STANDARD
 40
0.15625
  1
      DEJE ESPACIO LIBRE PARA OPERAR
 41
0.8
 72
0
  0
TEXT
  8
___NOTE
 62
2
  6
CONTINUOUS
 10
5.376286719
 20
19.8452400075
  7
STANDARD
 40
0.15625
  1
"REMARQUE: AVANT DE COUPER L'OUVERTURE, PRÉVOIR
 41
0.8
 72
0
  0
TEXT
  8
___NOTE
 62
2
  6
CONTINUOUS
 10
5.376286719
 20
19.6108650075
  7
STANDARD
 40
0.15625
  1
           LE DÉGAGEMENT POUR LES POIGNÉES" 
 41
0.8
 72
0
  0
TEXT
  8
___NOTE
 62
2
  6
CONTINUOUS
 10
19.2577795925
 20
19.9115223053
  7
STANDARD
 40
0.15625
  1
CENTERLINE OF FITTING
 41
0.8
 72
0
  0
TEXT
  8
___NOTE
 62
2
  6
CONTINUOUS
 10
19.2577795925
 20
19.6771473053
  7
STANDARD
 40
0.15625
  1
LÍNEA CENTRAL DEL GRIFO
 41
0.8
 72
0
  0
TEXT
  8
___NOTE
 62
2
  6
CONTINUOUS
 10
19.2577795925
 20
19.4427723053
  7
STANDARD
 40
0.15625
  1
AXE DU ROBINET
 41
0.8
 72
0
  0
TEXT
  8
___NOTE
 62
2
  6
CONTINUOUS
 10
13.8515051789
 20
15.5852199585
  7
STANDARD
 40
0.15625
  1
RIM OF LAVATORY
 41
0.8
 72
2
 11
15.7265051789
 21
15.5852199585
  0
TEXT
  8
___NOTE
 62
2
  6
CONTINUOUS
 10
13.7265051789
 20
15.3508449585
  7
STANDARD
 40
0.15625
  1
BORDE DEL LAVABO
 41
0.8
 72
2
 11
15.7265051789
 21
15.3508449585
  0
TEXT
  8
___NOTE
 62
2
  6
CONTINUOUS
 10
13.7265051789
 20
15.1164699585
  7
STANDARD
 40
0.15625
  1
REBORD DE LAVABO
 41
0.8
 72
2
 11
15.7265051789
 21
15.1164699585
  0
LINE
  8
___NOTE
 62
2
  6
CONTINUOUS
 10
17.3849916655
 20
16.8201082002
 11
15.9765051789
 21
15.6633449585
  0
LINE
  8
___NOTE
 62
2
  6
CONTINUOUS
 10
15.9765051789
 20
15.6633449585
 11
15.7265051789
 21
15.6633449585
  0
SOLID
  8
___NOTE
 62
2
  6
CONTINUOUS
 10
17.2599284877
 20
16.6769578804
 11
17.3849916655
 21
16.8201082002
 12
17.2202615287
 22
16.7252567662
 13
17.2202615287
 23
16.7252567662
  0
TEXT
  8
___NOTE
 62
2
  6
CONTINUOUS
 10
3.1595292285
 20
5.4452477765
  7
STANDARD
 40
0.15625
  1
CUT ALONG THIS LINE
 41
0.8
 72
2
 11
5.5345292285
 21
5.4452477765
  0
TEXT
  8
___NOTE
 62
2
  6
CONTINUOUS
 10
1.7845292285
 20
5.2108727765
  7
STANDARD
 40
0.15625
  1
CORTE A LO LARGO DE ESTA LÍNEA
 41
0.8
 72
2
 11
5.5345292285
 21
5.2108727765
  0
TEXT
  8
___NOTE
 62
2
  6
CONTINUOUS
 10
1.6595292285
 20
4.9764977765
  7
STANDARD
 40
0.15625
  1
DÉCOUPER AU LONG DE CETTE LIGNE
 41
0.8
 72
2
 11
5.5345292285
 21
4.9764977765
  0
LINE
  8
___NOTE
 62
2
  6
CONTINUOUS
 10
7.1734781574
 20
6.7052406962
 11
5.7845292285
 21
5.5233727765
  0
LINE
  8
___NOTE
 62
2
  6
CONTINUOUS
 10
5.7845292285
 20
5.5233727765
 11
5.5345292285
 21
5.5233727765
  0
SOLID
  8
___NOTE
 62
2
  6
CONTINUOUS
 10
7.0509301056
 20
6.559931414
 11
7.1734781574
 21
6.7052406962
 12
7.0104269898
 22
6.6075312839
 13
7.0104269898
 23
6.6075312839
  0
TEXT
  8
___NOTE
 62
2
  6
CONTINUOUS
 10
29.1975560495
 20
15.3523753238
  7
STANDARD
 40
0.15625
  1
WOOD
 41
0.8
 72
1
 11
29.4475560495
 21
15.3523753238
  0
TEXT
  8
___NOTE
 62
2
  6
CONTINUOUS
 10
29.0725560495
 20
15.1180003238
  7
STANDARD
 40
0.15625
  1
MADERA
 41
0.8
 72
1
 11
29.4475560495
 21
15.1180003238
  0
TEXT
  8
___NOTE
 62
2
  6
CONTINUOUS
 10
29.1975560495
 20
14.8836253238
  7
STANDARD
 40
0.15625
  1
BOIS
 41
0.8
 72
1
 11
29.4475560495
 21
14.8836253238
  0
TEXT
  8
___NOTE
 62
2
  6
CONTINUOUS
 10
26.918486494
 20
16.0021747687
  7
STANDARD
 40
0.15625
  1
20/32"
 41
0.8
 72
0
  0
TEXT
  8
___NOTE
 62
2
  6
CONTINUOUS
 10
26.918486494
 20
15.7677997687
  7
STANDARD
 40
0.15625
  1
16mm
 41
0.8
 72
0
  0
TEXT
  8
___NOTE
 62
2
  6
CONTINUOUS
 10
25.9829266104
 20
15.1912297685
  7
STANDARD
 40
0.15625
  1
MARBLE
 41
0.8
 72
0
  0
TEXT
  8
___NOTE
 62
2
  6
CONTINUOUS
 10
25.9829266104
 20
14.9568547685
  7
STANDARD
 40
0.15625
  1
MÁRMOL
 41
0.8
 72
0
  0
TEXT
  8
___NOTE
 62
2
  6
CONTINUOUS
 10
25.9829266104
 20
14.7224797685
  7
STANDARD
 40
0.15625
  1
MARBRE 
 41
0.8
 72
0
  0
TEXT
  8
___NOTE
 62
2
  6
CONTINUOUS
 10
27.1109454976
 20
14.7682226858
  7
STANDARD
 40
0.15625
  1
INSTALATION
 41
0.8
 72
0
  0
TEXT
  8
___NOTE
 62
2
  6
CONTINUOUS
 10
27.1109454976
 20
14.5338476858
  7
STANDARD
 40
0.15625
  1
INSTALACIÓN
 41
0.8
 72
0
  0
TEXT
  8
___NOTE
 62
2
  6
CONTINUOUS
 10
27.1109454976
 20
14.2994726858
  7
STANDARD
 40
0.15625
  1
INSTALLATION
 41
0.8
 72
0
  0
TEXT
  8
___NOTE
 62
2
  6
CONTINUOUS
 10
29.4558377166
 20
17.5292670504
  7
STANDARD
 40
0.15625
  1
SEALANT
 41
0.8
 72
0
  0
TEXT
  8
___NOTE
 62
2
  6
CONTINUOUS
 10
29.4558377166
 20
17.2948920504
  7
STANDARD
 40
0.15625
  1
SELLADOR
 41
0.8
 72
0
  0
TEXT
  8
___NOTE
 62
2
  6
CONTINUOUS
 10
29.4558377166
 20
17.0605170504
  7
STANDARD
 40
0.15625
  1
MASTIC D'ÉCHANTÉITÉ 
 41
0.8
 72
0
  0
LINE
  8
___NOTE
 62
2
  6
CONTINUOUS
 10
28.9629261401
 20
16.1163205571
 11
29.2058377166
 21
17.6073920504
  0
LINE
  8
___NOTE
 62
2
  6
CONTINUOUS
 10
29.2058377166
 20
17.6073920504
 11
29.4558377166
 21
17.6073920504
  0
SOLID
  8
___NOTE
 62
2
  6
CONTINUOUS
 10
28.962231069
 20
16.3064056153
 11
28.9629261401
 21
16.1163205571
 12
29.0239178485
 22
16.2963561758
 13
29.0239178485
 23
16.2963561758
  0
TEXT
  8
___NOTE
 62
2
  6
CONTINUOUS
 10
24.9022489464
 20
17.5411467679
  7
STANDARD
 40
0.15625
  1
SEALANT
 41
0.8
 72
0
  0
TEXT
  8
___NOTE
 62
2
  6
CONTINUOUS
 10
24.9022489464
 20
17.3067717679
  7
STANDARD
 40
0.15625
  1
SELLADOR
 41
0.8
 72
0
  0
TEXT
  8
___NOTE
 62
2
  6
CONTINUOUS
 10
24.9022489464
 20
17.0723967679
  7
STANDARD
 40
0.15625
  1
MASTIC D'ÉCHANTÉITÉ
 41
0.8
 72
0
  0
LINE
  8
___NOTE
 62
2
  6
CONTINUOUS
 10
26.0283320799
 20
15.9350318073
 11
24.6084424977
 21
16.5203193705
  0
LINE
  8
___NOTE
 62
2
  6
CONTINUOUS
 10
24.6084424977
 20
16.5203193705
 11
24.5182562632
 21
17.6192717679
  0
LINE
  8
___NOTE
 62
2
  6
CONTINUOUS
 10
24.5182562632
 20
17.6192717679
 11
24.9022489464
 21
17.6192717679
  0
SOLID
  8
___NOTE
 62
2
  6
CONTINUOUS
 10
25.843072564
 20
15.9775961617
 11
26.0283320799
 21
15.9350318073
 12
25.8668912474
 22
16.0353795531
 13
25.8668912474
 23
16.0353795531
  0
TEXT
  8
___NOTE
 62
2
  6
CONTINUOUS
 10
27.1773145719
 20
16.7175728461
  7
TEXTSTYLE_2
 40
0.15625
  1
n
 41
1.0
 72
0
  0
TEXT
  8
___NOTE
 62
2
  6
CONTINUOUS
 10
27.3856479052
 20
16.7175728461
  7
STANDARD
 40
0.15625
  1
12/32"
 41
0.8
 72
0
  0
TEXT
  8
___NOTE
 62
2
  6
CONTINUOUS
 10
27.1773145719
 20
16.4831978461
  7
TEXTSTYLE_2
 40
0.15625
  1
n
 41
1.0
 72
0
  0
TEXT
  8
___NOTE
 62
2
  6
CONTINUOUS
 10
27.3856479052
 20
16.4831978461
  7
STANDARD
 40
0.15625
  1
10mm
 41
0.8
 72
0
  0
TEXT
  8
___NOTE
 62
2
  6
CONTINUOUS
 10
11.2218447111
 20
3.7272899258
  7
STANDARD
 40
0.15625
  1
1035896-7-E
 41
0.8
 72
0
  0
TEXT
  8
___NOTE
 62
2
  6
CONTINUOUS
 10
11.184935873
 20
1.5582240104
  7
STANDARD
 40
0.15625
  1
1035896-7-E
 41
0.8
 72
0
  0
TEXT
  8
___NOTE
 62
2
  6
CONTINUOUS
 10
24.4585760813
 20
13.3835432255
  7
STANDARD
 40
0.15625
  1
IMPORTANT: Basin clamp assembly supplied can only
 41
0.8
 72
0
  0
TEXT
  8
___NOTE
 62
2
  6
CONTINUOUS
 10
24.4585760813
 20
13.1491682255
  7
STANDARD
 40
0.15625
  1
           be used on countertops with a minimum
 41
0.8
 72
0
  0
TEXT
  8
___NOTE
 62
2
  6
CONTINUOUS
 10
24.4585760813
 20
12.9147932255
  7
STANDARD
 40
0.15625
  1
           thickness of 1".  Installer must supply
 41
0.8
 72
0
  0
TEXT
  8
___NOTE
 62
2
  6
CONTINUOUS
 10
24.4585760813
 20
12.6804182255
  7
STANDARD
 40
0.15625
  1
           anchors for thinner countertops.
 41
0.8
 72
0
  0
TEXT
  8
___NOTE
 62
2
  6
CONTINUOUS
 10
24.4585760813
 20
12.4460432255
  7
STANDARD
 40
0.15625
  1
 
 41
0.8
 72
0
  0
TEXT
  8
___NOTE
 62
2
  6
CONTINUOUS
 10
24.4585760813
 20
12.2116682255
  7
STANDARD
 40
0.15625
  1
IMPORTANTE: La grapa de la pileta suministrada para el
 41
0.8
 72
0
  0
TEXT
  8
___NOTE
 62
2
  6
CONTINUOUS
 10
24.4585760813
 20
11.9772932255
  7
STANDARD
 40
0.15625
  1
            ensamblaje puede ser ÚNICAMENTE utilizada en
 41
0.8
 72
0
  0
TEXT
  8
___NOTE
 62
2
  6
CONTINUOUS
 10
24.4585760813
 20
11.7429182255
  7
STANDARD
 40
0.15625
  1
            mostradores con un espesor mínimo de 25mm.
 41
0.8
 72
0
  0
TEXT
  8
___NOTE
 62
2
  6
CONTINUOUS
 10
24.4585760813
 20
11.5085432255
  7
STANDARD
 40
0.15625
  1
            El instalador deberá proporcionar los
 41
0.8
 72
0
  0
TEXT
  8
___NOTE
 62
2
  6
CONTINUOUS
 10
24.4585760813
 20
11.2741682255
  7
STANDARD
 40
0.15625
  1
            sujetadores para los mostradores más delgados.
 41
0.8
 72
0
  0
TEXT
  8
___NOTE
 62
2
  6
CONTINUOUS
 10
24.4585760813
 20
11.0397932255
  7
STANDARD
 40
0.15625
  1
 
 41
0.8
 72
0
  0
TEXT
  8
___NOTE
 62
2
  6
CONTINUOUS
 10
24.4585760813
 20
10.8054182255
  7
STANDARD
 40
0.15625
  1
IMPORTANT: L'agrafe du bassin fournie peut UNIQUEMENT être 
 41
0.8
 72
0
  0
TEXT
  8
___NOTE
 62
2
  6
CONTINUOUS
 10
24.4585760813
 20
10.5710432255
  7
STANDARD
 40
0.15625
  1
           utilisée sur des comptoirs ayant un épaisseur 
 41
0.8
 72
0
  0
TEXT
  8
___NOTE
 62
2
  6
CONTINUOUS
 10
24.4585760813
 20
10.3366682255
  7
STANDARD
 40
0.15625
  1
           minimale de x po (25mm). L'installateur doit 
 41
0.8
 72
0
  0
TEXT
  8
___NOTE
 62
2
  6
CONTINUOUS
 10
24.4585760813
 20
10.1022932255
  7
STANDARD
 40
0.15625
  1
           fournir les dispositifs d'ancrage nécessaires 
 41
0.8
 72
0
  0
TEXT
  8
___NOTE
 62
2
  6
CONTINUOUS
 10
24.4585760813
 20
9.8679182255
  7
STANDARD
 40
0.15625
  1
           pour les comptoirs de moindre épaisseur}
 41
0.8
 72
0
  0
TEXT
  8
___NOTE
 62
2
  6
CONTINUOUS
 10
25.5577126602
 20
8.5893373464
  7
STANDARD
 40
0.15625
  1
When plotting template full size: Make sure horizontal
 41
0.8
 72
0
  0
TEXT
  8
___NOTE
 62
2
  6
CONTINUOUS
 10
25.5577126602
 20
8.3549623464
  7
STANDARD
 40
0.15625
  1
and vertical dimensions match the dimensions labeled
 41
0.8
 72
0
  0
TEXT
  8
___NOTE
 62
2
  6
CONTINUOUS
 10
25.5577126602
 20
8.1205873464
  7
STANDARD
 40
0.15625
  1
on the template.
 41
0.8
 72
0
  0
TEXT
  8
___NOTE
 62
2
  6
CONTINUOUS
 10
25.5577126602
 20
7.8862123464
  7
STANDARD
 40
0.15625
  1
 
 41
0.8
 72
0
  0
TEXT
  8
___NOTE
 62
2
  6
CONTINUOUS
 10
25.5577126602
 20
7.6518373464
  7
STANDARD
 40
0.15625
  1
Al trazar una plantilla a escala, asegúrese de que
 41
0.8
 72
0
  0
TEXT
  8
___NOTE
 62
2
  6
CONTINUOUS
 10
25.5577126602
 20
7.4174623464
  7
STANDARD
 40
0.15625
  1
las dimensiones horizontales y verticales concuerden
 41
0.8
 72
0
  0
TEXT
  8
___NOTE
 62
2
  6
CONTINUOUS
 10
25.5577126602
 20
7.1830873464
  7
STANDARD
 40
0.15625
  1
con las dimensiones marcadas en la plantilla
 41
0.8
 72
0
  0
TEXT
  8
___NOTE
 62
2
  6
CONTINUOUS
 10
25.5577126602
 20
6.9487123464
  7
STANDARD
 40
0.15625
  1
 
 41
0.8
 72
0
  0
TEXT
  8
___NOTE
 62
2
  6
CONTINUOUS
 10
25.5577126602
 20
6.7143373464
  7
STANDARD
 40
0.15625
  1
Au moment de tracer un gabarit à l'échelle, s'assurer 
 41
0.8
 72
0
  0
TEXT
  8
___NOTE
 62
2
  6
CONTINUOUS
 10
25.5577126602
 20
6.4799623464
  7
STANDARD
 40
0.15625
  1
que les dimensions horizotales et verticales correspondent 
 41
0.8
 72
0
  0
TEXT
  8
___NOTE
 62
2
  6
CONTINUOUS
 10
25.5577126602
 20
6.2455873464
  7
STANDARD
 40
0.15625
  1
avec les dimensions sur le gabarit
 41
0.8
 72
0
  0
TEXT
  8
___NOTE
 62
2
  6
CONTINUOUS
 10
8.3335197938
 20
13.7181115715
  7
STANDARD
 40
0.15625
  1
CUT-OUT TEMPLATE
 41
0.8
 72
0
  0
TEXT
  8
___NOTE
 62
2
  6
CONTINUOUS
 10
8.3335197938
 20
13.4837365715
  7
STANDARD
 40
0.15625
  1
UNDERCOUNTER LAVATORY
 41
0.8
 72
0
  0
TEXT
  8
___NOTE
 62
2
  6
CONTINUOUS
 10
8.3335197938
 20
13.2493615235
  7
STANDARD
 40
0.1562500384
  1
PLANTILLA DE RECORTE
 41
0.8
 72
0
  0
TEXT
  8
___NOTE
 62
2
  6
CONTINUOUS
 10
8.3335197938
 20
13.0149864659
  7
STANDARD
 40
0.1562500384
  1
LAVABO MONTADO DEBAJO DEL MOSTRADOR
 41
0.8
 72
0
  0
TEXT
  8
___NOTE
 62
2
  6
CONTINUOUS
 10
8.3335197938
 20
12.7806114563
  7
STANDARD
 40
0.15625
  1
GABARIT
 41
0.8
 72
0
  0
TEXT
  8
___NOTE
 62
2
  6
CONTINUOUS
 10
8.3335197938
 20
12.5462364563
  7
STANDARD
 40
0.15625
  1
LAVABO SOUS-COMPTOIR
 41
0.8
 72
0
  0
TEXT
  8
___NOTE
 62
2
  6
CONTINUOUS
 10
8.3106373535
 20
12.1298206377
  7
STANDARD
 40
0.15625
  1
2349-**-AA        
 41
0.8
 72
0
  0
TEXT
  8
___NOTE
 62
2
  6
CONTINUOUS
 10
8.3106373535
 20
11.7391956377
  7
STANDARD
 40
0.15625
  1
14287-**-**-AA
 41
0.8
 72
0
  0
TEXT
  8
___NOTE
 62
2
  6
CONTINUOUS
 10
8.3106373535
 20
11.3485706377
  7
STANDARD
 40
0.15625
  1
14026-**-**-AA
 41
0.8
 72
0
  0
TEXT
  8
___NOTE
 62
2
  6
CONTINUOUS
 10
8.3106373535
 20
10.9579456377
  7
STANDARD
 40
0.15625
  1
14036-**-**-AA
 41
0.8
 72
0
  0
TEXT
  8
___NOTE
 62
2
  6
CONTINUOUS
 10
8.3106373535
 20
10.5673206377
  7
STANDARD
 40
0.15625
  1
14298-**-**-AA
 41
0.8
 72
0
  0
TEXT
  8
___NOTE
 62
2
  6
CONTINUOUS
 10
8.3106373535
 20
10.1766956377
  7
STANDARD
 40
0.15625
  1
14046-**-**-AA
 41
0.8
 72
0
  0
TEXT
  8
___NOTE
 62
2
  6
CONTINUOUS
 10
8.3106373535
 20
9.7860706377
  7
STANDARD
 40
0.15625
  1
2361-**-AA  
 41
0.8
 72
0
  0
TEXT
  8
___NOTE
 62
2
  6
CONTINUOUS
 10
8.3106373535
 20
9.3954456377
  7
STANDARD
 40
0.15625
  1
29000-**-AA 
 41
0.8
 72
0
  0
INSERT
  8
___SYMBOL
 62
2
  6
CONTINUOUS
  2
REVISION_BL0
 10
7.9988222289
 20
9.4729379724
  0
INSERT
  8
___SYMBOL
 62
2
  6
CONTINUOUS
  2
COPYRIGHT_YEAR_BL1
 10
11.4955636687
 20
4.2011272482
  0
LINE
  8
0
 62
2
  6
CONTINUOUS
 10
8.3187926905
 20
14.3873526418
 11
8.3187926905
 21
14.0211415389
  0
LINE
  8
0
 62
2
  6
CONTINUOUS
 10
8.4278553532
 20
14.3873526418
 11
8.4278553532
 21
14.2849643787
  0
LINE
  8
0
 62
2
  6
CONTINUOUS
 10
8.4278553532
 20
14.1470939613
 11
8.4278553532
 21
14.021156541
  0
LINE
  8
0
 62
2
  6
CONTINUOUS
 10
8.5139579738
 20
14.3873526418
 11
8.4278553532
 21
14.2849643787
  0
LINE
  8
0
 62
2
  6
CONTINUOUS
 10
8.6339966293
 20
14.3873526418
 11
8.5006819464
 21
14.2288224409
  0
LINE
  8
0
 62
2
  6
CONTINUOUS
 10
8.9664248539
 20
14.3873526418
 11
8.9664248539
 21
14.021156541
  0
LINE
  8
0
 62
2
  6
CONTINUOUS
 10
9.0693834235
 20
14.3873526418
 11
9.0693834235
 21
14.2496127657
  0
LINE
  8
0
 62
2
  6
CONTINUOUS
 10
9.0693834235
 20
14.1638594494
 11
9.0693834235
 21
14.021156541
  0
LINE
  8
0
 62
2
  6
CONTINUOUS
 10
9.161881448
 20
14.3873526418
 11
9.161881448
 21
14.2496127657
  0
LINE
  8
0
 62
2
  6
CONTINUOUS
 10
9.161881448
 20
14.1638594494
 11
9.161881448
 21
14.021156541
  0
LINE
  8
0
 62
2
  6
CONTINUOUS
 10
9.2648400176
 20
14.3873526418
 11
9.2648400176
 21
14.021156541
  0
LINE
  8
0
 62
2
  6
CONTINUOUS
 10
9.2929930506
 20
14.021156541
 11
9.2929930506
 21
14.3873526418
  0
LINE
  8
0
 62
2
  6
CONTINUOUS
 10
9.3867718577
 20
14.3873526418
 11
9.3867718577
 21
14.1094232811
  0
LINE
  8
0
 62
2
  6
CONTINUOUS
 10
9.4884494209
 20
14.1094232811
 11
9.4884494209
 21
14.021156541
  0
LINE
  8
0
 62
2
  6
CONTINUOUS
 10
9.506666761
 20
14.021156541
 11
9.506666761
 21
14.3873526418
  0
LINE
  8
0
 62
2
  6
CONTINUOUS
 10
9.6055709374
 20
14.2981280018
 11
9.6055709374
 21
14.2496127657
  0
LINE
  8
0
 62
2
  6
CONTINUOUS
 10
9.6055709374
 20
14.1593742475
 11
9.6055709374
 21
14.1094232811
  0
LINE
  8
0
 62
2
  6
CONTINUOUS
 10
9.6998569075
 20
14.021156541
 11
9.6998569075
 21
14.1094232811
  0
LINE
  8
0
 62
2
  6
CONTINUOUS
 10
9.6998569075
 20
14.1593742475
 11
9.6998569075
 21
14.2496127657
  0
LINE
  8
0
 62
2
  6
CONTINUOUS
 10
9.6998569075
 20
14.2981280018
 11
9.6998569075
 21
14.3873526418
  0
LINE
  8
0
 62
2
  6
CONTINUOUS
 10
9.727869547
 20
14.021156541
 11
9.727869547
 21
14.3873526418
  0
LINE
  8
0
 62
2
  6
CONTINUOUS
 10
9.8220294541
 20
14.2982408539
 11
9.8220294541
 21
14.2313013821
  0
LINE
  8
0
 62
2
  6
CONTINUOUS
 10
9.8220294541
 20
14.1442542963
 11
9.8220294541
 21
14.021156541
  0
LINE
  8
0
 62
2
  6
CONTINUOUS
 10
10.0968159715
 20
14.0006311054
 11
10.0968159715
 21
14.0418599875
  0
LINE
  8
0
 62
2
  6
CONTINUOUS
 10
8.5239415841
 20
14.021156541
 11
8.4278553532
 21
14.1470939613
  0
LINE
  8
0
 62
2
  6
CONTINUOUS
 10
8.6591243733
 20
14.021156541
 11
8.5006819464
 21
14.2288224409
  0
LINE
  8
0
 62
2
  6
CONTINUOUS
 10
9.9000441122
 20
14.021156541
 11
9.8220294541
 21
14.1442542963
  0
LINE
  8
0
 62
2
  6
CONTINUOUS
 10
10.0187634721
 20
14.021156541
 11
9.9191114262
 21
14.1783956593
  0
LINE
  8
0
 62
2
  6
CONTINUOUS
 10
10.104064708
 20
14.0208204476
 11
10.1239822198
 21
14.0006311054
  0
LINE
  8
0
 62
2
  6
CONTINUOUS
 10
25.743085474
 20
15.3821718073
 11
25.754125474
 21
15.3876518073
  0
LINE
  8
0
 62
2
  6
CONTINUOUS
 10
28.6816594461
 20
15.5634605571
 11
28.6927794461
 21
15.5689405571
  0
LINE
  8
0
 62
2
  6
CONTINUOUS
 10
26.255225474
 20
15.6529118073
 11
26.323645474
 21
15.7101718073
  0
LINE
  8
0
 62
2
  6
CONTINUOUS
 10
26.027145474
 20
15.6512118073
 11
26.097625474
 21
15.7101718073
  0
LINE
  8
0
 62
2
  6
CONTINUOUS
 10
26.492285474
 20
15.6647518073
 11
26.542085474
 21
15.7063918073
  0
LINE
  8
0
 62
2
  6
CONTINUOUS
 10
26.147385474
 20
15.6523118073
 11
26.217925474
 21
15.7112718073
  0
LINE
  8
0
 62
2
  6
CONTINUOUS
 10
26.636085474
 20
15.8800918073
 11
26.696945474
 21
15.9308718073
  0
LINE
  8
0
 62
2
  6
CONTINUOUS
 10
26.636085474
 20
15.7849918073
 11
26.696945474
 21
15.8357718073
  0
LINE
  8
0
 62
2
  6
CONTINUOUS
 10
26.595325474
 20
15.6557318073
 11
26.694865474
 21
15.7389718073
  0
LINE
  8
0
 62
2
  6
CONTINUOUS
 10
25.7833247294
 20
15.3505616998
 11
25.8021402601
 21
15.3529178088
  0
LINE
  8
0
 62
2
  6
CONTINUOUS
 10
8.4278553532
 20
14.021156541
 11
8.3187926905
 21
14.0211415389
  0
LINE
  8
0
 62
2
  6
CONTINUOUS
 10
10.1119905575
 20
14.0208204476
 11
10.0968159715
 21
14.0208204476
  0
LINE
  8
0
 62
2
  6
CONTINUOUS
 10
9.2648400176
 20
14.021156541
 11
9.161881448
 21
14.021156541
  0
LINE
  8
0
 62
2
  6
CONTINUOUS
 10
9.0693834235
 20
14.021156541
 11
8.9664248539
 21
14.021156541
  0
LINE
  8
0
 62
2
  6
CONTINUOUS
 10
8.5239415841
 20
14.021156541
 11
8.6591243733
 21
14.021156541
  0
LINE
  8
0
 62
2
  6
CONTINUOUS
 10
9.2929930506
 20
14.021156541
 11
9.4884494209
 21
14.021156541
  0
LINE
  8
0
 62
2
  6
CONTINUOUS
 10
9.506666761
 20
14.021156541
 11
9.6998569075
 21
14.021156541
  0
LINE
  8
0
 62
2
  6
CONTINUOUS
 10
9.727869547
 20
14.021156541
 11
9.8220294541
 21
14.021156541
  0
LINE
  8
0
 62
2
  6
CONTINUOUS
 10
9.9000441122
 20
14.021156541
 11
10.0187634721
 21
14.021156541
  0
LINE
  8
0
 62
2
  6
CONTINUOUS
 10
10.0968159715
 20
14.0418599875
 11
10.1119905575
 21
14.0418599875
  0
LINE
  8
0
 62
2
  6
CONTINUOUS
 10
9.3867718577
 20
14.1094232811
 11
9.4884494209
 21
14.1094232811
  0
LINE
  8
0
 62
2
  6
CONTINUOUS
 10
9.6055709374
 20
14.1094232811
 11
9.6998569075
 21
14.1094232811
  0
LINE
  8
0
 62
2
  6
CONTINUOUS
 10
9.6055709374
 20
14.1593742475
 11
9.6998569075
 21
14.1593742475
  0
LINE
  8
0
 62
2
  6
CONTINUOUS
 10
9.0693834235
 20
14.1638594494
 11
9.161881448
 21
14.1638594494
  0
LINE
  8
0
 62
2
  6
CONTINUOUS
 10
9.8220294541
 20
14.2313013821
 11
9.8547418042
 21
14.2313013821
  0
LINE
  8
0
 62
2
  6
CONTINUOUS
 10
9.0693834235
 20
14.2496127657
 11
9.161881448
 21
14.2496127657
  0
LINE
  8
0
 62
2
  6
CONTINUOUS
 10
9.6055709374
 20
14.2496127657
 11
9.6998569075
 21
14.2496127657
  0
LINE
  8
0
 62
2
  6
CONTINUOUS
 10
9.6055709374
 20
14.2981280018
 11
9.6998569075
 21
14.2981280018
  0
LINE
  8
0
 62
2
  6
CONTINUOUS
 10
9.8569856367
 20
14.2982408539
 11
9.8220294541
 21
14.2982408539
  0
LINE
  8
0
 62
2
  6
CONTINUOUS
 10
8.3187926905
 20
14.3873526418
 11
8.4278553532
 21
14.3873526418
  0
LINE
  8
0
 62
2
  6
CONTINUOUS
 10
8.5139579738
 20
14.3873526418
 11
8.6339966293
 21
14.3873526418
  0
LINE
  8
0
 62
2
  6
CONTINUOUS
 10
8.9664248539
 20
14.3873526418
 11
9.0693834235
 21
14.3873526418
  0
LINE
  8
0
 62
2
  6
CONTINUOUS
 10
9.161881448
 20
14.3873526418
 11
9.2648400176
 21
14.3873526418
  0
LINE
  8
0
 62
2
  6
CONTINUOUS
 10
9.2929930506
 20
14.3873526418
 11
9.3867718577
 21
14.3873526418
  0
LINE
  8
0
 62
2
  6
CONTINUOUS
 10
9.506666761
 20
14.3873526418
 11
9.6998569075
 21
14.3873526418
  0
LINE
  8
0
 62
2
  6
CONTINUOUS
 10
9.727869547
 20
14.3873526418
 11
9.8738368878
 21
14.3873526418
  0
LINE
  8
0
 62
2
  6
CONTINUOUS
 10
29.1938794461
 20
15.8342005571
 11
29.2622994461
 21
15.8914605571
  0
LINE
  8
0
 62
2
  6
CONTINUOUS
 10
28.9657794461
 20
15.8325005571
 11
29.0362794461
 21
15.8914605571
  0
LINE
  8
0
 62
2
  6
CONTINUOUS
 10
29.0860194461
 20
15.8336005571
 11
29.1565194461
 21
15.8925605571
  0
LINE
  8
0
 62
2
  6
CONTINUOUS
 10
29.4309394461
 20
15.8460405571
 11
29.4807394461
 21
15.8876805571
  0
LINE
  8
0
 62
2
  6
CONTINUOUS
 10
29.5339594461
 20
15.8370205571
 11
29.6334994461
 21
15.9202605571
  0
LINE
  8
0
 62
2
  6
CONTINUOUS
 10
29.5747394461
 20
16.0613805571
 11
29.6355194461
 21
16.1121605571
  0
LINE
  8
0
 62
2
  6
CONTINUOUS
 10
29.5747394461
 20
15.9662805571
 11
29.6355194461
 21
16.0170605571
  0
LINE
  8
0
 62
2
  6
CONTINUOUS
 10
25.718185474
 20
15.3821718073
 11
25.743085474
 21
15.3821718073
  0
LINE
  8
0
 62
2
  6
CONTINUOUS
 10
25.676665474
 20
15.4208718073
 11
25.707125474
 21
15.4208718073
  0
LINE
  8
0
 62
2
  6
CONTINUOUS
 10
28.6568194461
 20
15.5634605571
 11
28.6816594461
 21
15.5634605571
  0
LINE
  8
0
 62
2
  6
CONTINUOUS
 10
28.6153194461
 20
15.6021605571
 11
28.6457794461
 21
15.6021605571
  0
LINE
  8
0
 62
2
  6
CONTINUOUS
 10
26.4187529046
 20
15.6241305298
 11
26.4359380435
 21
15.6241305298
  0
LINE
  8
0
 62
2
  6
CONTINUOUS
 10
26.596945474
 20
15.6503518073
 11
25.983625474
 21
15.6503518073
  0
LINE
  8
0
 62
2
  6
CONTINUOUS
 10
26.402445474
 20
15.6571918073
 11
26.453585474
 21
15.6571918073
  0
LINE
  8
0
 62
2
  6
CONTINUOUS
 10
26.387245474
 20
15.6737918073
 11
26.470185474
 21
15.6737918073
  0
LINE
  8
0
 62
2
  6
CONTINUOUS
 10
26.402445474
 20
15.6917318073
 11
26.453585474
 21
15.6917318073
  0
LINE
  8
0
 62
2
  6
CONTINUOUS
 10
25.9753503888
 20
15.7111518073
 11
26.586085474
 21
15.7111518073
  0
LINE
  8
0
 62
2
  6
CONTINUOUS
 10
26.402445474
 20
15.7277518073
 11
26.453585474
 21
15.7277518073
  0
LINE
  8
0
 62
2
  6
CONTINUOUS
 10
26.470185474
 20
15.7470318073
 11
26.387245474
 21
15.7470318073
  0
LINE
  8
0
 62
2
  6
CONTINUOUS
 10
26.402445474
 20
15.7636318073
 11
26.453585474
 21
15.7636318073
  0
LINE
  8
0
 62
2
  6
CONTINUOUS
 10
26.387245474
 20
15.7815718073
 11
26.470185474
 21
15.7815718073
  0
LINE
  8
0
 62
2
  6
CONTINUOUS
 10
26.402445474
 20
15.7996518073
 11
26.453585474
 21
15.7996518073
  0
LINE
  8
0
 62
2
  6
CONTINUOUS
 10
29.3574068767
 20
15.8053486506
 11
29.3745920156
 21
15.8053486506
  0
LINE
  8
0
 62
2
  6
CONTINUOUS
 10
26.387245474
 20
15.8175918073
 11
26.470185474
 21
15.8175918073
  0
LINE
  8
0
 62
2
  6
CONTINUOUS
 10
28.9221994461
 20
15.8316405571
 11
29.5255194461
 21
15.8316405571
  0
LINE
  8
0
 62
2
  6
CONTINUOUS
 10
26.402445474
 20
15.8341918073
 11
26.453585474
 21
15.8341918073
  0
LINE
  8
0
 62
2
  6
CONTINUOUS
 10
26.387245474
 20
15.8549518073
 11
26.470185474
 21
15.8549518073
  0
LINE
  8
0
 62
2
  6
CONTINUOUS
 10
26.402445474
 20
15.8715518073
 11
26.453585474
 21
15.8715518073
  0
LINE
  8
0
 62
2
  6
CONTINUOUS
 10
26.387245474
 20
15.8908318073
 11
26.470185474
 21
15.8908318073
  0
LINE
  8
0
 62
2
  6
CONTINUOUS
 10
29.5247394461
 20
15.8924405571
 11
29.4088394461
 21
15.8924405571
  0
LINE
  8
DEFAULT_3
 62
2
  6
PHANTOM
 10
28.914615793
 20
15.8924405571
 11
29.0553179583
 21
15.8924405571
  0
LINE
  8
0
 62
2
  6
CONTINUOUS
 10
29.0553179583
 20
15.8924405571
 11
29.3258994461
 21
15.8924405571
  0
LINE
  8
0
 62
2
  6
CONTINUOUS
 10
25.765185474
 20
15.3655718073
 11
25.759625474
 21
15.3544518073
  0
LINE
  8
DEFAULT_3
 62
2
  6
PHANTOM
 10
26.2444017983
 20
15.8915488888
 11
26.1702629007
 21
15.7441859703
  0
LINE
  8
0
 62
2
  6
CONTINUOUS
 10
29.3258994461
 20
16.3624005571
 11
29.3667794461
 21
16.4094005571
  0
LINE
  8
0
 62
2
  6
CONTINUOUS
 10
26.402445474
 20
15.9074318073
 11
26.453585474
 21
15.9074318073
  0
LINE
  8
0
 62
2
  6
CONTINUOUS
 10
26.387245474
 20
15.9268518073
 11
26.470185474
 21
15.9268518073
  0
LINE
  8
DEFAULT_3
 62
2
  6
PHANTOM
 10
25.745825474
 20
15.9350318073
 11
26.387245474
 21
15.9350318073
  0
LINE
  8
0
 62
2
  6
CONTINUOUS
 10
26.470185474
 20
15.9378318073
 11
26.760485474
 21
15.9378318073
  0
LINE
  8
0
 62
2
  6
CONTINUOUS
 10
26.779825474
 20
15.9406318073
 11
26.887665474
 21
15.9406318073
  0
LINE
  8
0
 62
2
  6
CONTINUOUS
 10
26.402445474
 20
15.9447918073
 11
26.453585474
 21
15.9447918073
  0
LINE
  8
0
 62
2
  6
CONTINUOUS
 10
26.387245474
 20
15.9627318073
 11
26.470185474
 21
15.9627318073
  0
LINE
  8
0
 62
2
  6
CONTINUOUS
 10
26.402445474
 20
15.9821518073
 11
26.453585474
 21
15.9821518073
  0
LINE
  8
0
 62
2
  6
CONTINUOUS
 10
29.3258994461
 20
15.9988805571
 11
29.4088394461
 21
15.9988805571
  0
LINE
  8
0
 62
2
  6
CONTINUOUS
 10
26.387245474
 20
16.0014318073
 11
26.470185474
 21
16.0014318073
  0
LINE
  8
0
 62
2
  6
CONTINUOUS
 10
29.3410794461
 20
16.0154805571
 11
29.3922394461
 21
16.0154805571
  0
LINE
  8
0
 62
2
  6
CONTINUOUS
 10
26.402445474
 20
16.0180318073
 11
26.453585474
 21
16.0180318073
  0
LINE
  8
0
 62
2
  6
CONTINUOUS
 10
29.3258994461
 20
16.0362405571
 11
29.4088394461
 21
16.0362405571
  0
LINE
  8
0
 62
2
  6
CONTINUOUS
 10
26.387245474
 20
16.0374318073
 11
26.470185474
 21
16.0374318073
  0
LINE
  8
0
 62
2
  6
CONTINUOUS
 10
29.3410794461
 20
16.0528405571
 11
29.3922394461
 21
16.0528405571
  0
LINE
  8
0
 62
2
  6
CONTINUOUS
 10
26.402445474
 20
16.0539118073
 11
26.453585474
 21
16.0539118073
  0
LINE
  8
0
 62
2
  6
CONTINUOUS
 10
26.387245474
 20
16.0719918073
 11
26.470185474
 21
16.0719918073
  0
LINE
  8
0
 62
2
  6
CONTINUOUS
 10
29.3258994461
 20
16.0721205571
 11
29.4088394461
 21
16.0721205571
  0
LINE
  8
0
 62
2
  6
CONTINUOUS
 10
29.3410794461
 20
16.0887205571
 11
29.3922394461
 21
16.0887205571
  0
LINE
  8
0
 62
2
  6
CONTINUOUS
 10
26.402445474
 20
16.0899318073
 11
26.453585474
 21
16.0899318073
  0
LINE
  8
0
 62
2
  6
CONTINUOUS
 10
26.387245474
 20
16.1078718073
 11
26.470185474
 21
16.1078718073
  0
LINE
  8
0
 62
2
  6
CONTINUOUS
 10
29.3258994461
 20
16.1081405571
 11
29.4088394461
 21
16.1081405571
  0
LINE
  8
DEFAULT_3
 62
2
  6
PHANTOM
 10
28.6852594461
 20
16.1163205571
 11
28.8593994461
 21
16.1163205571
  0
LINE
  8
DEFAULT_3
 62
2
  6
PHANTOM
 10
28.8604579308
 20
16.1163205571
 11
29.1562563132
 21
16.1163205571
  0
LINE
  8
DEFAULT_3
 62
2
  6
PHANTOM
 10
28.5545194461
 20
16.1191205571
 11
29.3258994461
 21
16.1191205571
  0
LINE
  8
DEFAULT_3
 62
2
  6
PHANTOM
 10
29.4088394461
 20
16.1191205571
 11
29.6991194461
 21
16.1191205571
  0
LINE
  8
0
 62
2
  6
CONTINUOUS
 10
26.402445474
 20
16.1258118073
 11
26.453585474
 21
16.1258118073
  0
LINE
  8
0
 62
2
  6
CONTINUOUS
 10
29.3410794461
 20
16.1260805571
 11
29.3922394461
 21
16.1260805571
  0
LINE
  8
0
 62
2
  6
CONTINUOUS
 10
29.3258994461
 20
16.1440205571
 11
29.4088394461
 21
16.1440205571
  0
LINE
  8
0
 62
2
  6
CONTINUOUS
 10
26.387245474
 20
16.1452318073
 11
26.470185474
 21
16.1452318073
  0
LINE
  8
0
 62
2
  6
CONTINUOUS
 10
26.402445474
 20
16.1631718073
 11
26.453585474
 21
16.1631718073
  0
LINE
  8
0
 62
2
  6
CONTINUOUS
 10
29.3410794461
 20
16.1634405571
 11
29.3922394461
 21
16.1634405571
  0
LINE
  8
0
 62
2
  6
CONTINUOUS
 10
26.470185474
 20
16.1811118073
 11
26.387245474
 21
16.1811118073
  0
LINE
  8
0
 62
2
  6
CONTINUOUS
 10
29.3258994461
 20
16.1827205571
 11
29.4088394461
 21
16.1827205571
  0
LINE
  8
0
 62
2
  6
CONTINUOUS
 10
29.3410794461
 20
16.1993205571
 11
29.3922394461
 21
16.1993205571
  0
LINE
  8
0
 62
2
  6
CONTINUOUS
 10
29.3258994461
 20
16.2187205571
 11
29.4088394461
 21
16.2187205571
  0
LINE
  8
0
 62
2
  6
CONTINUOUS
 10
26.522745474
 20
16.2281118073
 11
26.326465474
 21
16.2281118073
  0
LINE
  8
0
 62
2
  6
CONTINUOUS
 10
26.555885474
 20
16.2309318073
 11
26.893225474
 21
16.2309318073
  0
LINE
  8
0
 62
2
  6
CONTINUOUS
 10
29.3410794461
 20
16.2352005571
 11
29.3922394461
 21
16.2352005571
  0
LINE
  8
0
 62
2
  6
CONTINUOUS
 10
29.3258994461
 20
16.2532805571
 11
29.4088394461
 21
16.2532805571
  0
LINE
  8
0
 62
2
  6
CONTINUOUS
 10
29.3410794461
 20
16.2712205571
 11
29.3922394461
 21
16.2712205571
  0
LINE
  8
0
 62
2
  6
CONTINUOUS
 10
29.3258994461
 20
16.2891605571
 11
29.4088394461
 21
16.2891605571
  0
LINE
  8
0
 62
2
  6
CONTINUOUS
 10
29.3410794461
 20
16.3071005571
 11
29.3922394461
 21
16.3071005571
  0
LINE
  8
0
 62
2
  6
CONTINUOUS
 10
29.3258994461
 20
16.3265205571
 11
29.4088394461
 21
16.3265205571
  0
LINE
  8
0
 62
2
  6
CONTINUOUS
 10
29.3410794461
 20
16.3444605571
 11
29.3922394461
 21
16.3444605571
  0
LINE
  8
0
 62
2
  6
CONTINUOUS
 10
29.4088394461
 20
16.3624005571
 11
29.3258994461
 21
16.3624005571
  0
LINE
  8
DEFAULT_3
 62
2
  6
PHANTOM
 10
26.760485474
 20
16.4659118073
 11
25.675885474
 21
16.4659118073
  0
LINE
  8
0
 62
2
  6
CONTINUOUS
 10
26.329205474
 20
16.5765118073
 11
27.128945474
 21
16.5765118073
  0
LINE
  8
DEFAULT_3
 62
2
  6
PHANTOM
 10
29.6991194461
 20
16.6472005571
 11
28.5545194461
 21
16.6472005571
  0
LINE
  8
0
 62
2
  6
CONTINUOUS
 10
25.7611232181
 20
15.3533919942
 11
25.7834099346
 21
15.3498356033
  0
LINE
  8
0
 62
2
  6
CONTINUOUS
 10
25.662885474
 20
15.4235518073
 11
25.676665474
 21
15.4208718073
  0
LINE
  8
DEFAULT_3
 62
2
  6
PHANTOM
 10
25.8017571551
 20
15.3536603009
 11
25.9149704578
 21
15.668870193
  0
LINE
  8
0
 62
2
  6
CONTINUOUS
 10
25.8079821904
 20
15.8670652401
 11
25.7973212979
 21
15.8377713122
  0
LINE
  8
0
 62
2
  6
CONTINUOUS
 10
25.8055709377
 20
15.8561525615
 11
25.6467991189
 21
15.4208718073
  0
LINE
  8
0
 62
2
  6
CONTINUOUS
 10
26.719025474
 20
16.2337318073
 11
26.741125474
 21
16.2917118073
  0
LINE
  8
0
 62
2
  6
CONTINUOUS
 10
26.696945474
 20
16.1673318073
 11
26.719025474
 21
16.2226118073
  0
LINE
  8
0
 62
2
  6
CONTINUOUS
 10
26.743945474
 20
16.4161118073
 11
26.754985474
 21
16.4383118073
  0
LINE
  8
0
 62
2
  6
CONTINUOUS
 10
26.754985474
 20
16.4549118073
 11
26.760485474
 21
16.4659118073
  0
LINE
  8
0
 62
2
  6
CONTINUOUS
 10
28.6015194461
 20
15.6048405571
 11
28.6153194461
 21
15.6021605571
  0
LINE
  8
0
 62
2
  6
CONTINUOUS
 10
25.754125474
 20
15.3876518073
 11
25.765185474
 21
15.3848518073
  0
LINE
  8
0
 62
2
  6
CONTINUOUS
 10
25.709885474
 20
15.4097518073
 11
25.707125474
 21
15.3987718073
  0
LINE
  8
0
 62
2
  6
CONTINUOUS
 10
26.741125474
 20
16.4051118073
 11
26.743945474
 21
16.4161118073
  0
LINE
  8
0
 62
2
  6
CONTINUOUS
 10
26.387245474
 20
16.1811118073
 11
26.401105474
 21
16.2281118073
  0
LINE
  8
0
 62
2
  6
CONTINUOUS
 10
28.7038194461
 20
15.5468605571
 11
28.6982594461
 21
15.5357405571
  0
LINE
  8
DEFAULT_1
 62
2
  6
CENTER
 10
22.0377736768
 20
19.2831809343
 11
3.2916126768
 21
19.2831809343
  0
LINE
  8
0
 62
2
  6
CONTINUOUS
 10
28.6927794461
 20
15.5689405571
 11
28.7038194461
 21
15.5661405571
  0
LINE
  8
0
 62
2
  6
CONTINUOUS
 10
25.707125474
 20
15.3876518073
 11
25.718185474
 21
15.3821718073
  0
LINE
  8
0
 62
2
  6
CONTINUOUS
 10
25.615885474
 20
16.4059118073
 11
25.615885474
 21
15.9978318073
  0
LINE
  8
0
 62
2
  6
CONTINUOUS
 10
25.707125474
 20
15.3987718073
 11
25.707125474
 21
15.3876518073
  0
LINE
  8
0
 62
2
  6
CONTINUOUS
 10
25.765185474
 20
15.3848518073
 11
25.765185474
 21
15.3655718073
  0
LINE
  8
0
 62
2
  6
CONTINUOUS
 10
25.983625474
 20
15.6503518073
 11
25.983625474
 21
15.7111518073
  0
LINE
  8
0
 62
2
  6
CONTINUOUS
 10
26.326465474
 20
16.6180118073
 11
26.326465474
 21
16.2586318073
  0
LINE
  8
0
 62
2
  6
CONTINUOUS
 10
26.326465474
 20
16.2281118073
 11
26.326465474
 21
15.9378318073
  0
LINE
  8
0
 62
2
  6
CONTINUOUS
 10
26.365145474
 20
15.7111518073
 11
26.365145474
 21
15.6503518073
  0
LINE
  8
0
 62
2
  6
CONTINUOUS
 10
26.387245474
 20
15.6503518073
 11
26.387245474
 21
16.1811118073
  0
LINE
  8
0
 62
2
  6
CONTINUOUS
 10
26.4187529046
 20
15.6241305298
 11
26.4187529046
 21
15.6098994911
  0
LINE
  8
DEFAULT_1
 62
2
  6
CENTER
 10
26.427345474
 20
16.2799918073
 11
26.427345474
 21
15.4638115488
  0
LINE
  8
0
 62
2
  6
CONTINUOUS
 10
26.4359380435
 20
15.6100357438
 11
26.4359380435
 21
15.6241305298
  0
LINE
  8
0
 62
2
  6
CONTINUOUS
 10
26.470185474
 20
15.6503518073
 11
26.470185474
 21
16.1811118073
  0
LINE
  8
0
 62
2
  6
CONTINUOUS
 10
26.492285474
 20
15.7111518073
 11
26.492285474
 21
15.6503518073
  0
LINE
  8
0
 62
2
  6
CONTINUOUS
 10
26.522745474
 20
16.6180118073
 11
26.522745474
 21
16.2586318073
  0
LINE
  8
0
 62
2
  6
CONTINUOUS
 10
26.522745474
 20
15.9378318073
 11
26.522745474
 21
16.2281118073
  0
LINE
  8
0
 62
2
  6
CONTINUOUS
 10
26.636085474
 20
15.7611518073
 11
26.636085474
 21
15.9378318073
  0
LINE
  8
0
 62
2
  6
CONTINUOUS
 10
26.691385474
 20
16.1258118073
 11
26.696945474
 21
16.1673318073
  0
LINE
  8
DEFAULT_3
 62
2
  6
PHANTOM
 10
28.7488594461
 20
16.0528405571
 11
28.7329994461
 21
16.0092605571
  0
LINE
  8
DEFAULT_3
 62
2
  6
PHANTOM
 10
28.7430260857
 20
16.0341546761
 11
28.5904794461
 21
15.6159405571
  0
LINE
  8
DEFAULT_3
 62
2
  6
PHANTOM
 10
28.7259194461
 20
15.4998605571
 11
28.8535523625
 21
15.849717394
  0
LINE
  8
0
 62
2
  6
CONTINUOUS
 10
29.6825794461
 20
16.5974005571
 11
29.6936194461
 21
16.6196005571
  0
LINE
  8
DEFAULT_3
 62
2
  6
PHANTOM
 10
29.6936194461
 20
16.6362005571
 11
29.6991194461
 21
16.6472005571
  0
LINE
  8
DEFAULT_3
 62
2
  6
PHANTOM
 10
29.1830557704
 20
16.0728376386
 11
29.1089168728
 21
15.9254747201
  0
LINE
  8
0
 62
2
  6
CONTINUOUS
 10
28.7093194461
 20
15.5164605571
 11
28.7231594461
 21
15.5108405571
  0
LINE
  8
0
 62
2
  6
CONTINUOUS
 10
28.6457794461
 20
15.5689405571
 11
28.6568194461
 21
15.5634605571
  0
LINE
  8
0
 62
2
  6
CONTINUOUS
 10
25.651825474
 20
15.4346518073
 11
25.662885474
 21
15.4235518073
  0
LINE
  8
0
 62
2
  6
CONTINUOUS
 10
25.707125474
 20
15.4208718073
 11
25.709885474
 21
15.4097518073
  0
LINE
  8
0
 62
2
  6
CONTINUOUS
 10
26.696945474
 20
15.9378318073
 11
26.696945474
 21
15.7503518073
  0
LINE
  8
0
 62
2
  6
CONTINUOUS
 10
26.719025474
 20
16.2226118073
 11
26.719025474
 21
16.2337318073
  0
LINE
  8
0
 62
2
  6
CONTINUOUS
 10
26.721785474
 20
16.0291318073
 11
26.721785474
 21
16.0401318073
  0
LINE
  8
0
 62
2
  6
CONTINUOUS
 10
26.741125474
 20
16.2917118073
 11
26.741125474
 21
16.4051118073
  0
LINE
  8
0
 62
2
  6
CONTINUOUS
 10
26.754985474
 20
16.4383118073
 11
26.754985474
 21
16.4549118073
  0
LINE
  8
0
 62
2
  6
CONTINUOUS
 10
26.840685474
 20
16.2309318073
 11
26.840685474
 21
15.9406318073
  0
LINE
  8
0
 62
2
  6
CONTINUOUS
 10
28.6485194461
 20
15.5910405571
 11
28.6457794461
 21
15.5800605571
  0
LINE
  8
0
 62
2
  6
CONTINUOUS
 10
29.6576794461
 20
16.4150205571
 11
29.6797794461
 21
16.4730005571
  0
LINE
  8
DEFAULT_1
 62
2
  6
CENTER
 10
22.0377736768
 20
21.2831809343
 11
3.2916126768
 21
21.2831809343
  0
LINE
  8
0
 62
2
  6
CONTINUOUS
 10
26.707985474
 20
16.0954318073
 11
26.699685474
 21
16.1037318073
  0
LINE
  8
0
 62
2
  6
CONTINUOUS
 10
26.470185474
 20
16.1811118073
 11
26.456405474
 21
16.2281118073
  0
LINE
  8
0
 62
2
  6
CONTINUOUS
 10
26.732825474
 20
15.9821518073
 11
26.721785474
 21
16.0291318073
  0
LINE
  8
0
 62
2
  6
CONTINUOUS
 10
26.710725474
 20
16.0816318073
 11
26.707985474
 21
16.0954318073
  0
LINE
  8
0
 62
2
  6
CONTINUOUS
 10
26.721785474
 20
16.0401318073
 11
26.716285474
 21
16.0705318073
  0
LINE
  8
DEFAULT_3
 62
2
  6
PHANTOM
 10
28.5545194461
 20
16.6472005571
 11
28.5545194461
 21
16.1191205571
  0
LINE
  8
0
 62
2
  6
CONTINUOUS
 10
28.6457794461
 20
15.5800605571
 11
28.6457794461
 21
15.5689405571
  0
LINE
  8
0
 62
2
  6
CONTINUOUS
 10
28.7038194461
 20
15.5661405571
 11
28.7038194461
 21
15.5468605571
  0
LINE
  8
0
 62
2
  6
CONTINUOUS
 10
28.9221994461
 20
15.8924405571
 11
28.9221994461
 21
15.8316405571
  0
LINE
  8
0
 62
2
  6
CONTINUOUS
 10
29.6797794461
 20
16.5421005571
 11
29.6825794461
 21
16.5532005571
  0
LINE
  8
0
 62
2
  6
CONTINUOUS
 10
29.6797794461
 20
16.5864005571
 11
29.6825794461
 21
16.5974005571
  0
LINE
  8
0
 62
2
  6
CONTINUOUS
 10
29.6300194461
 20
16.3071005571
 11
29.6576794461
 21
16.4150205571
  0
LINE
  8
0
 62
2
  6
CONTINUOUS
 10
28.5904794461
 20
15.6159405571
 11
28.6015194461
 21
15.6048405571
  0
LINE
  8
0
 62
2
  6
CONTINUOUS
 10
28.7010794461
 20
15.5247605571
 11
28.7093194461
 21
15.5164605571
  0
LINE
  8
0
 62
2
  6
CONTINUOUS
 10
26.7589315217
 20
15.938326815
 11
26.732825474
 21
15.9821518073
  0
LINE
  8
0
 62
2
  6
CONTINUOUS
 10
26.716285474
 20
16.0705318073
 11
26.710725474
 21
16.0816318073
  0
LINE
  8
0
 62
2
  6
CONTINUOUS
 10
26.699685474
 20
16.1037318073
 11
26.691385474
 21
16.1258118073
  0
LINE
  8
0
 62
2
  6
CONTINUOUS
 10
29.3037994461
 20
15.8924405571
 11
29.3037994461
 21
15.8316405571
  0
LINE
  8
0
 62
2
  6
CONTINUOUS
 10
29.3258994461
 20
15.8316405571
 11
29.3258994461
 21
16.3624005571
  0
LINE
  8
0
 62
2
  6
CONTINUOUS
 10
29.3574068767
 20
15.8053486506
 11
29.3574068767
 21
15.7911176118
  0
LINE
  8
DEFAULT_1
 62
2
  6
CENTER
 10
29.3659994461
 20
16.5324685673
 11
29.3659994461
 21
15.6524662176
  0
LINE
  8
0
 62
2
  6
CONTINUOUS
 10
29.3745920156
 20
15.7912538645
 11
29.3745920156
 21
15.8053486506
  0
LINE
  8
0
 62
2
  6
CONTINUOUS
 10
29.4088394461
 20
16.3624005571
 11
29.4088394461
 21
15.8316405571
  0
LINE
  8
0
 62
2
  6
CONTINUOUS
 10
29.4309394461
 20
15.8924405571
 11
29.4309394461
 21
15.8316405571
  0
LINE
  8
0
 62
2
  6
CONTINUOUS
 10
29.5747394461
 20
16.1191205571
 11
29.5747394461
 21
15.9424405571
  0
LINE
  8
0
 62
2
  6
CONTINUOUS
 10
29.6355194461
 20
15.9416405571
 11
29.6355194461
 21
16.1191205571
  0
LINE
  8
0
 62
2
  6
CONTINUOUS
 10
29.6604194461
 20
16.2104205571
 11
29.6604194461
 21
16.2214205571
  0
LINE
  8
0
 62
2
  6
CONTINUOUS
 10
29.6797794461
 20
16.4730005571
 11
29.6797794461
 21
16.5421005571
  0
LINE
  8
0
 62
2
  6
CONTINUOUS
 10
29.6797794461
 20
16.5643205571
 11
29.6797794461
 21
16.5864005571
  0
LINE
  8
0
 62
2
  6
CONTINUOUS
 10
29.6936194461
 20
16.6196005571
 11
29.6936194461
 21
16.6362005571
  0
LINE
  8
0
 62
2
  6
CONTINUOUS
 10
29.6466394461
 20
16.2767205571
 11
29.6383194461
 21
16.2850205571
  0
LINE
  8
0
 62
2
  6
CONTINUOUS
 10
29.3667794461
 20
16.4094005571
 11
29.4088394461
 21
16.3624005571
  0
LINE
  8
0
 62
2
  6
CONTINUOUS
 10
28.6982594461
 20
15.5357405571
 11
28.7010794461
 21
15.5247605571
  0
LINE
  8
0
 62
2
  6
CONTINUOUS
 10
28.7231594461
 20
15.5108405571
 11
28.7259194461
 21
15.4998605571
  0
LINE
  8
0
 62
2
  6
CONTINUOUS
 10
28.6457794461
 20
15.6021605571
 11
28.6485194461
 21
15.5910405571
  0
LINE
  8
0
 62
2
  6
CONTINUOUS
 10
29.6991194461
 20
16.1191205571
 11
29.6714794461
 21
16.1634405571
  0
LINE
  8
0
 62
2
  6
CONTINUOUS
 10
29.6549394461
 20
16.2518205571
 11
29.6493794461
 21
16.2629205571
  0
LINE
  8
0
 62
2
  6
CONTINUOUS
 10
29.6383194461
 20
16.2850205571
 11
29.6300194461
 21
16.3071005571
  0
LINE
  8
0
 62
2
  6
CONTINUOUS
 10
29.6825794461
 20
16.5532005571
 11
29.6797794461
 21
16.5643205571
  0
LINE
  8
0
 62
2
  6
CONTINUOUS
 10
29.6714794461
 20
16.1634405571
 11
29.6604194461
 21
16.2104205571
  0
LINE
  8
0
 62
2
  6
CONTINUOUS
 10
29.6493794461
 20
16.2629205571
 11
29.6466394461
 21
16.2767205571
  0
LINE
  8
0
 62
2
  6
CONTINUOUS
 10
29.6604194461
 20
16.2214205571
 11
29.6549394461
 21
16.2518205571
  0
LINE
  8
DEFAULT_1
 62
7
  6
CENTER
 10
7.0815733686
 20
15.9977133266
 11
7.0815733686
 21
15.7918372215
  0
LINE
  8
DEFAULT_1
 62
7
  6
CENTER
 10
7.0815733686
 20
4.068821928
 11
7.0815733686
 21
3.8648989625
  0
LINE
  8
DEFAULT_1
 62
7
  6
CENTER
 10
7.0815733686
 20
4.068821928
 11
7.0815733686
 21
4.2727448935
  0
LINE
  8
DEFAULT_1
 62
7
  6
CENTER
 10
7.0815733686
 20
15.9977133266
 11
7.0815733686
 21
16.2035894317
  0
LINE
  8
DEFAULT_1
 62
7
  6
CENTER
 10
19.0104647672
 20
4.068821928
 11
18.8064804845
 21
4.068821928
  0
LINE
  8
DEFAULT_1
 62
7
  6
CENTER
 10
7.0815733686
 20
4.068821928
 11
6.8776504032
 21
4.068821928
  0
LINE
  8
DEFAULT_1
 62
7
  6
CENTER
 10
7.0815733686
 20
4.068821928
 11
7.2854963341
 21
4.068821928
  0
LINE
  8
DEFAULT_1
 62
7
  6
CENTER
 10
19.0104647672
 20
4.068821928
 11
19.2144490499
 21
4.068821928
  0
LINE
  8
DEFAULT_1
 62
7
  6
CENTER
 10
13.0460190679
 20
10.0332676273
 11
13.0460190679
 21
1.0775823
  0
LINE
  8
DEFAULT_1
 62
7
  6
CENTER
 10
13.0460190679
 20
10.0332676273
 11
13.0460190679
 21
18.9889529545
  0
LINE
  8
DEFAULT_1
 62
7
  6
CENTER
 10
13.0460190679
 20
10.0332676273
 11
4.0903337407
 21
10.0332676273
  0
LINE
  8
DEFAULT_1
 62
7
  6
CENTER
 10
13.0460190679
 20
10.0332676273
 11
22.0017043952
 21
10.0332676273
  0
LINE
  8
DEFAULT_1
 62
7
  6
CENTER
 10
19.0104647672
 20
15.9977133266
 11
19.0104647672
 21
15.789966927
  0
LINE
  8
DEFAULT_1
 62
7
  6
CENTER
 10
19.0104647672
 20
4.068821928
 11
19.0104647672
 21
3.8648376453
  0
LINE
  8
DEFAULT_1
 62
7
  6
CENTER
 10
19.0104647672
 20
4.068821928
 11
19.0104647672
 21
4.2728062107
  0
LINE
  8
DEFAULT_1
 62
7
  6
CENTER
 10
19.0104647672
 20
15.9977133266
 11
19.0104647672
 21
16.2054597262
  0
LINE
  8
DEFAULT_1
 62
7
  6
CENTER
 10
19.0104647672
 20
15.9977133266
 11
18.8027183676
 21
15.9977133266
  0
LINE
  8
DEFAULT_1
 62
7
  6
CENTER
 10
7.0815733686
 20
15.9977133266
 11
6.8756972635
 21
15.9977133266
  0
LINE
  8
DEFAULT_1
 62
7
  6
CENTER
 10
7.0815733686
 20
15.9977133266
 11
7.2874494737
 21
15.9977133266
  0
LINE
  8
DEFAULT_1
 62
7
  6
CENTER
 10
19.0104647672
 20
15.9977133266
 11
19.2182111669
 21
15.9977133266
  0
CIRCLE
  8
DEFAULT_3
 62
8
  6
PHANTOM
 10
7.0699912552
 20
4.0782264576
 40
0.2134673439
  0
CIRCLE
  8
0
 62
2
  6
CONTINUOUS
 10
9.9338500933
 20
10.262433065
 40
0.1551856946
  0
CIRCLE
  8
0
 62
2
  6
CONTINUOUS
 10
9.4348683823
 20
9.8620228902
 40
0.1551856946
  0
CIRCLE
  8
0
 62
2
  6
CONTINUOUS
 10
9.5712667872
 20
9.4628567677
 40
0.1551856946
  0
CIRCLE
  8
DEFAULT_3
 62
8
  6
PHANTOM
 10
7.0819562665
 20
15.9963036818
 40
0.2134673439
  0
CIRCLE
  8
0
 62
2
  6
CONTINUOUS
 10
8.7694424173
 20
14.2035538089
 40
0.1862854049
  0
CIRCLE
  8
0
 62
2
  6
CONTINUOUS
 10
9.4255991592
 20
12.2004813428
 40
0.1551856946
  0
CIRCLE
  8
0
 62
2
  6
CONTINUOUS
 10
9.9356277886
 20
11.8152016211
 40
0.1551856946
  0
CIRCLE
  8
0
 62
2
  6
CONTINUOUS
 10
9.9226276485
 20
11.4251974204
 40
0.1551856946
  0
CIRCLE
  8
0
 62
2
  6
CONTINUOUS
 10
9.9325738764
 20
11.0351932197
 40
0.1551856946
  0
CIRCLE
  8
0
 62
2
  6
CONTINUOUS
 10
9.9338500933
 20
10.6481919146
 40
0.1551856946
  0
ARC
  8
0
 62
2
  6
CONTINUOUS
 10
9.8738368878
 20
14.2779716767
 40
0.1093854061
 50
294.4500166359
 51
90.0
  0
CIRCLE
  8
0
 62
2
  6
CONTINUOUS
 10
8.7694424173
 20
14.2035538089
 40
0.0779808993
  0
CIRCLE
  8
0
 62
2
  6
CONTINUOUS
 10
10.106744723
 20
14.021156541
 40
0.0408486778
  0
ARC
  8
0
 62
2
  6
CONTINUOUS
 10
9.8569855729
 20
14.2647335131
 40
0.0335073408
 50
266.1604009902
 51
89.9998910512
  0
ARC
  8
0
 62
2
  6
CONTINUOUS
 10
10.1119905575
 20
14.0313403295
 40
0.010519658
 50
270.0
 51
90.0
  0
CIRCLE
  8
DEFAULT_3
 62
8
  6
PHANTOM
 10
19.0064790681
 20
4.0639310589
 40
0.2134673439
  0
CIRCLE
  8
DEFAULT_3
 62
8
  6
PHANTOM
 10
19.0161144487
 20
15.9874914576
 40
0.2134673439
  0
ARC
  8
DEFAULT_3
 62
2
  6
PHANTOM
 10
28.8604579308
 20
15.9913205571
 40
0.125
 50
90.0
 51
159.9601913116
  0
ARC
  8
0
 62
2
  6
CONTINUOUS
 10
25.918305509
 20
15.8150318073
 40
0.12
 50
90.0
 51
159.9601913116
  0
ARC
  8
0
 62
2
  6
CONTINUOUS
 10
29.5255194461
 20
15.9416405571
 40
0.11
 50
270.0
 51
360.0
  0
ARC
  8
0
 62
2
  6
CONTINUOUS
 10
26.596945474
 20
15.7503518073
 40
0.1
 50
270.0
 51
360.0
  0
ARC
  8
0
 62
2
  6
CONTINUOUS
 10
26.426646891
 20
15.6980777612
 40
0.0885309118
 50
212.3058638362
 51
264.8843450297
  0
ARC
  8
0
 62
2
  6
CONTINUOUS
 10
26.426646891
 20
15.6980777612
 40
0.0885309118
 50
276.0241773206
 51
327.6941361638
  0
ARC
  8
0
 62
2
  6
CONTINUOUS
 10
29.3653008631
 20
15.8792958819
 40
0.0885309118
 50
212.3058638362
 51
264.8843450297
  0
ARC
  8
0
 62
2
  6
CONTINUOUS
 10
29.3653008631
 20
15.8792958819
 40
0.0885309118
 50
276.0241773206
 51
327.6941361638
  0
ARC
  8
0
 62
2
  6
CONTINUOUS
 10
25.7275446291
 20
15.8631650241
 40
0.0741554031
 50
340.0021161874
 51
75.728277399
  0
ARC
  8
DEFAULT_3
 62
2
  6
PHANTOM
 10
28.6680723845
 20
16.0450865319
 40
0.0741554031
 50
331.1106122188
 51
75.728277399
  0
ARC
  8
0
 62
2
  6
CONTINUOUS
 10
28.914615793
 20
15.8274405571
 40
0.065
 50
90.0
 51
159.9572872547
  0
ARC
  8
0
 62
2
  6
CONTINUOUS
 10
25.9753503888
 20
15.6471518073
 40
0.064
 50
90.0
 51
159.9445616853
  0
ARC
  8
0
 62
2
  6
CONTINUOUS
 10
29.0553179583
 20
15.9524405571
 40
0.06
 50
270.0
 51
333.2928412651
  0
ARC
  8
0
 62
2
  6
CONTINUOUS
 10
26.1166639862
 20
15.7711518073
 40
0.06
 50
270.0
 51
333.2928412651
  0
ARC
  8
0
 62
2
  6
CONTINUOUS
 10
25.675885474
 20
16.4059118073
 40
0.06
 50
90.0
 51
180.0
  0
ARC
  8
0
 62
2
  6
CONTINUOUS
 10
25.675885474
 20
15.9978318073
 40
0.06
 50
180.0
 51
270.0
  0
ARC
  8
0
 62
2
  6
CONTINUOUS
 10
29.5247394461
 20
15.9424405571
 40
0.05
 50
270.0
 51
360.0
  0
ARC
  8
0
 62
2
  6
CONTINUOUS
 10
26.586085474
 20
15.7611518073
 40
0.05
 50
270.0
 51
360.0
  0
ARC
  8
0
 62
2
  6
CONTINUOUS
 10
29.1562563132
 20
16.0863205571
 40
0.03
 50
333.2928412651
 51
90.0
  0
ARC
  8
0
 62
2
  6
CONTINUOUS
 10
26.2176023411
 20
15.9050318073
 40
0.03
 50
333.2928412651
 51
90.0
  0
CIRCLE
  8
0
 62
7
  6
CONTINUOUS
 10
26.326465474
 20
16.5765118073
 40
0.0298681023
  0
CIRCLE
  8
0
 62
7
  6
CONTINUOUS
 10
26.522745474
 20
16.5765118073
 40
0.0298681023
  0
CIRCLE
  8
0
 62
7
  6
CONTINUOUS
 10
26.840685474
 20
16.2309318073
 40
0.0298681023
  0
CIRCLE
  8
0
 62
7
  6
CONTINUOUS
 10
26.840685474
 20
15.9406318073
 40
0.0298681023
  0
CIRCLE
  8
TEMPLATE
 62
8
  6
HIDDEN
 10
13.0460190679
 20
10.0332676273
 40
8.06
  0
CIRCLE
  8
TEMPLATE
 62
7
  6
CONTINUOUS
 10
13.0460190679
 20
10.0332676273
 40
6.75
  0
ARC
  8
0
 62
2
  6
CONTINUOUS
 10
13.0460190679
 20
10.0332676273
 40
6.75
 50
180.0
 51
219.8821381348
  0
ENDSEC
  0
EOF
