999
DXF file: 1319049_7_c.dxf
999
Pro/ENGINEER 2016130 by Parametric Technology Corporation
  0
SECTION
  2
HEADER
  9
$ACADVER
  1
AC1014
  9
$DWGCODEPAGE
  3
ANSI_1252
  9
$EXTMAX
 10
44.0
 20
34.0
 30
0.0
  9
$EXTMIN
 10
0.0
 20
0.0
 30
0.0
  9
$LIMMIN
 10
0.0
 20
0.0
  9
$LIMMAX
 10
44.0
 20
34.0
  9
$VIEWCTR
 10
22.0
 20
17.0
  9
$VIEWSIZE
 40
34.0
  9
$CLAYER
  8
0
  9
$LTSCALE
 40
2.42
  9
$CELTYPE
  6
BYLAYER
  9
$DIMSCALE
 40
1.0
  9
$DIMASZ
 40
0.1875
  9
$DIMEXO
 40
0.0625
  9
$DIMDLI
 40
1.672
  9
$DIMEXE
 40
0.125
  9
$DIMCEN
 40
0.396
  9
$DIMLFAC
 40
1.0
  9
$DIMBLK
  1
_ARROW_FILLED
  9
$DIMALT
 70
0
  9
$DIMALTF
 40
25.4
  9
$DIMTXT
 40
0.15625
  9
$DIMTOL
 70
1
  9
$DIMLIM
 70
0
  9
$DIMTFAC
 40
1.0
  9
$DIMTP
 40
0.01
  9
$DIMTM
 40
0.01
  9
$DIMGAP
 40
0.09
  9
$AUNITS
 70
0
  9
$PDMODE
 70
3
  9
$PDSIZE
 40
0.3125
  9
$HANDSEED
  5
3A4
  9
$TILEMODE
 70
1
  9
$MEASUREMENT
 70
0
  0
ENDSEC
  0
SECTION
  2
CLASSES
  0
ENDSEC
  0
SECTION
  2
TABLES
  0
TABLE
  2
VPORT
  5
8
100
AcDbSymbolTable
 70
2
  0
VPORT
  5
1F4
100
AcDbSymbolTableRecord
100
AcDbViewportTableRecord
  2
*ACTIVE
 70
0
 10
0.0
 20
0.0
 11
1.0
 21
1.0
 12
22.0
 22
17.0
 13
0.0
 23
0.0
 14
1.0
 24
1.0
 15
0.0
 25
0.0
 16
0.0
 26
0.0
 36
1.0
 17
0.0
 27
0.0
 37
0.0
 40
34.0
 41
1.2941176471
 42
50.0
 43
0.0
 44
0.0
 50
0.0
 51
0.0
 71
0
 72
100
 73
1
 74
1
 75
0
 76
0
 77
0
 78
0
  0
ENDTAB
  0
TABLE
  2
LTYPE
  5
5
100
AcDbSymbolTable
 70
6
  0
LTYPE
  5
14
100
AcDbSymbolTableRecord
100
AcDbLinetypeTableRecord
  2
BYBLOCK
 70
0
  3

 72
65
 73
0
 40
0.0
  0
LTYPE
  5
15
100
AcDbSymbolTableRecord
100
AcDbLinetypeTableRecord
  2
BYLAYER
 70
0
  3

 72
65
 73
0
 40
0.0
  0
LTYPE
  5
16
100
AcDbSymbolTableRecord
100
AcDbLinetypeTableRecord
  2
CONTINUOUS
 70
64
  3
Solid line
 72
65
 73
0
 40
0.0
  0
LTYPE
  5
1F5
100
AcDbSymbolTableRecord
100
AcDbLinetypeTableRecord
  2
CENTER
 70
64
  3
____ _ ____ _ ____ _ ____ _ ____ _ ____ _ ____
 72
65
 73
4
 40
0.6
 49
0.375
 74
0
 49
-0.075
 74
0
 49
0.075
 74
0
 49
-0.075
 74
0
  0
LTYPE
  5
1F6
100
AcDbSymbolTableRecord
100
AcDbLinetypeTableRecord
  2
HIDDEN
 70
64
  3
- - - - - - - - - - - - - - - - - - - -
 72
65
 73
2
 40
0.2
 49
0.1
 74
0
 49
-0.1
 74
0
  0
LTYPE
  5
1F7
100
AcDbSymbolTableRecord
100
AcDbLinetypeTableRecord
  2
PHANTOM
 70
64
  3
_____ _ _ _____ _ _ _____ _ _ _____
 72
65
 73
6
 40
0.8
 49
0.45
 74
0
 49
-0.05
 74
0
 49
0.1
 74
0
 49
-0.05
 74
0
 49
0.1
 74
0
 49
-0.05
 74
0
  0
LTYPE
  5
1F8
100
AcDbSymbolTableRecord
100
AcDbLinetypeTableRecord
  2
DOT
 70
64
  3
. . . . . . . . . . . . . . . . . . . .
 72
65
 73
2
 40
0.2
 49
0.1
 74
0
 49
-0.1
 74
0
  0
LTYPE
  5
1F9
100
AcDbSymbolTableRecord
100
AcDbLinetypeTableRecord
  2
DASHED
 70
64
  3
- - - - - - - - - - - - - - - - - - - -
 72
65
 73
2
 40
0.2
 49
0.1
 74
0
 49
-0.1
 74
0
  0
ENDTAB
  0
TABLE
  2
LAYER
  5
2
100
AcDbSymbolTable
 70
36
  0
LAYER
  5
10
100
AcDbSymbolTableRecord
100
AcDbLayerTableRecord
  2
0
 70
0
 62
7
  6
CONTINUOUS
  0
LAYER
  5
1FA
100
AcDbSymbolTableRecord
100
AcDbLayerTableRecord
  2
DEFAULT_1
 70
0
 62
7
  6
CENTER
  0
LAYER
  5
1FB
100
AcDbSymbolTableRecord
100
AcDbLayerTableRecord
  2
DEFAULT_2
 70
0
 62
8
  6
HIDDEN
  0
LAYER
  5
1FC
100
AcDbSymbolTableRecord
100
AcDbLayerTableRecord
  2
DEFAULT_3
 70
0
 62
7
  6
PHANTOM
  0
LAYER
  5
1FD
100
AcDbSymbolTableRecord
100
AcDbLayerTableRecord
  2
DATUMS
 70
0
 62
7
  6
CONTINUOUS
  0
LAYER
  5
1FE
100
AcDbSymbolTableRecord
100
AcDbLayerTableRecord
  2
DATUM_AXIS
 70
0
 62
7
  6
CONTINUOUS
  0
LAYER
  5
1FF
100
AcDbSymbolTableRecord
100
AcDbLayerTableRecord
  2
DATUM_CSYS
 70
0
 62
7
  6
CONTINUOUS
  0
LAYER
  5
200
100
AcDbSymbolTableRecord
100
AcDbLayerTableRecord
  2
DATUM_PLANE
 70
0
 62
7
  6
CONTINUOUS
  0
LAYER
  5
201
100
AcDbSymbolTableRecord
100
AcDbLayerTableRecord
  2
DATUM_POINT
 70
0
 62
7
  6
CONTINUOUS
  0
LAYER
  5
202
100
AcDbSymbolTableRecord
100
AcDbLayerTableRecord
  2
_CURVE
 70
0
 62
7
  6
CONTINUOUS
  0
LAYER
  5
203
100
AcDbSymbolTableRecord
100
AcDbLayerTableRecord
  2
_SURFACE
 70
0
 62
7
  6
CONTINUOUS
  0
LAYER
  5
204
100
AcDbSymbolTableRecord
100
AcDbLayerTableRecord
  2
__REF_CURVE
 70
0
 62
7
  6
CONTINUOUS
  0
LAYER
  5
205
100
AcDbSymbolTableRecord
100
AcDbLayerTableRecord
  2
__REF_SURFACE
 70
0
 62
7
  6
CONTINUOUS
  0
LAYER
  5
206
100
AcDbSymbolTableRecord
100
AcDbLayerTableRecord
  2
___NOTE
 70
0
 62
7
  6
CONTINUOUS
  0
LAYER
  5
207
100
AcDbSymbolTableRecord
100
AcDbLayerTableRecord
  2
___SYMBOL
 70
0
 62
7
  6
CONTINUOUS
  0
ENDTAB
  0
TABLE
  2
STYLE
  5
3
100
AcDbSymbolTable
 70
1
  0
STYLE
  5
11
100
AcDbSymbolTableRecord
100
AcDbTextStyleTableRecord
  2
STANDARD
 70
0
 40
0.0
 41
0.8
 50
0.0
 71
0
 42
0.2
  3
txt
  4

  0
STYLE
  5
208
100
AcDbSymbolTableRecord
100
AcDbTextStyleTableRecord
  2
TEXTSTYLE_1
 70
0
 40
0.0
 41
0.8
 50
0.0
 71
0
 42
0.2
  3
gdt
  4

  0
STYLE
  5
209
100
AcDbSymbolTableRecord
100
AcDbTextStyleTableRecord
  2
TEXTSTYLE_2
 70
0
 40
0.0
 41
1.0
 50
0.0
 71
0
 42
0.2
  3
txt
  4

  0
ENDTAB
  0
TABLE
  2
VIEW
  5
6
100
AcDbSymbolTable
 70
0
  0
ENDTAB
  0
TABLE
  2
UCS
  5
7
100
AcDbSymbolTable
 70
0
  0
ENDTAB
  0
TABLE
  2
APPID
  5
9
100
AcDbSymbolTable
 70
1
  0
APPID
  5
20A
100
AcDbSymbolTableRecord
100
AcDbRegAppTableRecord
  2
ACAD
 70
0
  0
ENDTAB
  0
TABLE
  2
BLOCK_RECORD
  5
1
100
AcDbSymbolTable
 70
0
  0
BLOCK_RECORD
  5
1F
100
AcDbSymbolTableRecord
100
AcDbBlockTableRecord
  2
*MODEL_SPACE
  0
BLOCK_RECORD
  5
1B
100
AcDbSymbolTableRecord
100
AcDbBlockTableRecord
  2
*PAPER_SPACE
  0
BLOCK_RECORD
  5
20B
100
AcDbSymbolTableRecord
100
AcDbBlockTableRecord
  2
_ARROW_FILLED
  0
BLOCK_RECORD
  5
20C
100
AcDbSymbolTableRecord
100
AcDbBlockTableRecord
  2
*D0
  0
BLOCK_RECORD
  5
20D
100
AcDbSymbolTableRecord
100
AcDbBlockTableRecord
  2
*D1
  0
BLOCK_RECORD
  5
20E
100
AcDbSymbolTableRecord
100
AcDbBlockTableRecord
  2
*D2
  0
BLOCK_RECORD
  5
20F
100
AcDbSymbolTableRecord
100
AcDbBlockTableRecord
  2
*D3
  0
BLOCK_RECORD
  5
210
100
AcDbSymbolTableRecord
100
AcDbBlockTableRecord
  2
*D4
  0
BLOCK_RECORD
  5
211
100
AcDbSymbolTableRecord
100
AcDbBlockTableRecord
  2
*D5
  0
BLOCK_RECORD
  5
212
100
AcDbSymbolTableRecord
100
AcDbBlockTableRecord
  2
WHEN_PLOTTING_TEMPLATE_N_BL6
  0
BLOCK_RECORD
  5
213
100
AcDbSymbolTableRecord
100
AcDbBlockTableRecord
  2
TEMPLATE_NUMBER_BL5
  0
BLOCK_RECORD
  5
214
100
AcDbSymbolTableRecord
100
AcDbBlockTableRecord
  2
TEMPLATE_NUMBER_BL4
  0
BLOCK_RECORD
  5
215
100
AcDbSymbolTableRecord
100
AcDbBlockTableRecord
  2
COPYRIGHT_YEAR_BL3
  0
BLOCK_RECORD
  5
216
100
AcDbSymbolTableRecord
100
AcDbBlockTableRecord
  2
SCISSORS_BL2
  0
BLOCK_RECORD
  5
217
100
AcDbSymbolTableRecord
100
AcDbBlockTableRecord
  2
SCISSORS_BL1
  0
BLOCK_RECORD
  5
218
100
AcDbSymbolTableRecord
100
AcDbBlockTableRecord
  2
SCISSORS_BL0
  0
ENDTAB
  0
TABLE
  2
DIMSTYLE
  5
A
100
AcDbSymbolTable
 70
1
  0
DIMSTYLE
105
219
100
AcDbSymbolTableRecord
100
AcDbDimStyleTableRecord
  2
STANDARD
 70
0
  3

  4

  5
_ARROW_FILLED
  6
_ARROW_FILLED
  7
_ARROW_FILLED
 40
1.0
 41
0.1875
 42
0.0625
 43
0.38
 44
0.125
 45
0.0
 46
0.0
 47
0.01
 48
0.01
140
0.15625
141
0.09
142
0.0
143
25.4
144
1.0
145
0.0
146
1.0
147
0.09
 71
1.0
 72
0.0
 73
1
 74
1
 75
0
 76
0
 77
0
 78
4
170
0
171
2
172
0
173
0
174
0
175
0
176
0
177
0
178
0
270
2
271
3
272
3
273
2
274
2
275
0
280
0
281
0
282
0
283
1
284
4
285
0
286
0
287
3
288
0
340
11
  0
DIMSTYLE
105
21A
100
AcDbSymbolTableRecord
100
AcDbDimStyleTableRecord
  2
DIMSTYLE_1
 70
0
  3

  4

  5
_ARROW_FILLED
  6
_ARROW_FILLED
  7
_ARROW_FILLED
 40
1.0
 41
0.1875
 42
0.0625
 43
0.38
 44
0.125
 45
0.0
 46
0.0
 47
0.0000000001
 48
0.0000000001
140
0.15625
141
0.09
142
0.0
143
25.4
144
1.0
145
0.0
146
1.0
147
0.078125
 71
0.0
 72
0.0
 73
1
 74
1
 75
0
 76
0
 77
0
 78
4
170
0
171
2
172
0
173
0
174
0
175
0
176
0
177
0
178
0
270
2
271
5
272
5
273
2
274
2
275
0
280
0
281
0
282
0
283
1
284
4
285
0
286
0
287
3
288
0
340
11
  0
ENDTAB
  0
ENDSEC
  0
SECTION
  2
BLOCKS
  0
BLOCK
  5
20
100
AcDbEntity
  8
0
100
AcDbBlockBegin
  2
*MODEL_SPACE
 70
0
 10
0.0
 20
0.0
 30
0.0
  3
*MODEL_SPACE
  1

  0
ENDBLK
  5
21
100
AcDbEntity
  8
0
100
AcDbBlockEnd
  0
BLOCK
  5
1C
100
AcDbEntity
  8
0
100
AcDbBlockBegin
  2
*PAPER_SPACE
 70
0
 10
0.0
 20
0.0
 30
0.0
  3
*PAPER_SPACE
  1

  0
ENDBLK
  5
1D
100
AcDbEntity
  8
0
100
AcDbBlockEnd
  0
BLOCK
  5
21B
100
AcDbEntity
  8
___SYMBOL
100
AcDbBlockBegin
 62
2
  6
CONTINUOUS
  2
WHEN_PLOTTING_TEMPLATE_N_BL6
 70
64
 10
13.6730385507
 20
14.7065230161
  3
WHEN_PLOTTING_TEMPLATE_N_BL6
  1

  0
TEXT
  5
21C
100
AcDbEntity
  8
___SYMBOL
100
AcDbText
 62
2
  6
CONTINUOUS
 10
9.5480385507
 20
15.8002730161
  7
STANDARD
 40
0.15625
  1
WHEN PLOTTING TEMPLATE FULL SIZE:
 41
0.8
 72
0
100
AcDbText
  0
TEXT
  5
21D
100
AcDbEntity
  8
___SYMBOL
100
AcDbText
 62
2
  6
CONTINUOUS
 10
9.5480385507
 20
15.5658980161
  7
STANDARD
 40
0.15625
  1
Make sure horizontal and vertical dimensions
 41
0.8
 72
0
100
AcDbText
  0
TEXT
  5
21E
100
AcDbEntity
  8
___SYMBOL
100
AcDbText
 62
2
  6
CONTINUOUS
 10
9.5480385507
 20
15.3315230161
  7
STANDARD
 40
0.15625
  1
match the dimensions labeled on the template.
 41
0.8
 72
0
100
AcDbText
  0
TEXT
  5
21F
100
AcDbEntity
  8
___SYMBOL
100
AcDbText
 62
2
  6
CONTINUOUS
 10
9.5480385507
 20
15.0971480161
  7
STANDARD
 40
0.15625
  1
 
 41
0.8
 72
0
100
AcDbText
  0
TEXT
  5
220
100
AcDbEntity
  8
___SYMBOL
100
AcDbText
 62
2
  6
CONTINUOUS
 10
9.5480385507
 20
14.8627730161
  7
STANDARD
 40
0.15625
  1
LORS DU TRACÉ DU GABARIT À L'ÉCHELLE:  
 41
0.8
 72
0
100
AcDbText
  0
TEXT
  5
221
100
AcDbEntity
  8
___SYMBOL
100
AcDbText
 62
2
  6
CONTINUOUS
 10
9.5480385507
 20
14.6283980161
  7
STANDARD
 40
0.15625
  1
S'assurer que les dimensions horizontales et verticales 
 41
0.8
 72
0
100
AcDbText
  0
TEXT
  5
222
100
AcDbEntity
  8
___SYMBOL
100
AcDbText
 62
2
  6
CONTINUOUS
 10
9.5480385507
 20
14.3940230161
  7
STANDARD
 40
0.15625
  1
correspondent à celles marquées sur le gabarit.
 41
0.8
 72
0
100
AcDbText
  0
TEXT
  5
223
100
AcDbEntity
  8
___SYMBOL
100
AcDbText
 62
2
  6
CONTINUOUS
 10
9.5480385507
 20
14.1596480161
  7
STANDARD
 40
0.15625
  1
 
 41
0.8
 72
0
100
AcDbText
  0
TEXT
  5
224
100
AcDbEntity
  8
___SYMBOL
100
AcDbText
 62
2
  6
CONTINUOUS
 10
9.5480385507
 20
13.9252730161
  7
STANDARD
 40
0.15625
  1
AL TRAZAR LA PLANTILLA A ESCALA COMPLETA: 
 41
0.8
 72
0
100
AcDbText
  0
TEXT
  5
225
100
AcDbEntity
  8
___SYMBOL
100
AcDbText
 62
2
  6
CONTINUOUS
 10
9.5480385507
 20
13.6908980161
  7
STANDARD
 40
0.15625
  1
Asegúrese de que la dimensión horizontal y la dimensión 
 41
0.8
 72
0
100
AcDbText
  0
TEXT
  5
226
100
AcDbEntity
  8
___SYMBOL
100
AcDbText
 62
2
  6
CONTINUOUS
 10
9.5480385507
 20
13.4565230161
  7
STANDARD
 40
0.15625
  1
vertical sean iguales a las dimensiones indicadas en la plantilla.
 41
0.8
 72
0
100
AcDbText
  0
ENDBLK
  5
227
100
AcDbEntity
  8
0
  6
BYBLOCK
 62
0
100
AcDbBlockEnd
  0
BLOCK
  5
228
100
AcDbEntity
  8
___SYMBOL
100
AcDbBlockBegin
 62
2
  6
CONTINUOUS
  2
TEMPLATE_NUMBER_BL5
 70
64
 10
29.8771291872
 20
9.7225516365
  3
TEMPLATE_NUMBER_BL5
  1

  0
TEXT
  5
229
100
AcDbEntity
  8
___SYMBOL
100
AcDbText
 62
2
  6
CONTINUOUS
 10
29.1896291872
 20
9.6444266365
  7
STANDARD
 40
0.15625
  1
1319049-7
 41
0.8
 72
0
100
AcDbText
  0
TEXT
  5
22A
100
AcDbEntity
  8
___SYMBOL
100
AcDbText
 62
2
  6
CONTINUOUS
 10
30.3146291872
 20
9.6444266365
  7
STANDARD
 40
0.15625
  1
-C
 41
0.8
 72
0
100
AcDbText
  0
ENDBLK
  5
22B
100
AcDbEntity
  8
0
  6
BYBLOCK
 62
0
100
AcDbBlockEnd
  0
BLOCK
  5
22C
100
AcDbEntity
  8
___SYMBOL
100
AcDbBlockBegin
 62
2
  6
CONTINUOUS
  2
TEMPLATE_NUMBER_BL4
 70
64
 10
29.8219429535
 20
12.4117616859
  3
TEMPLATE_NUMBER_BL4
  1

  0
TEXT
  5
22D
100
AcDbEntity
  8
___SYMBOL
100
AcDbText
 62
2
  6
CONTINUOUS
 10
29.1344429535
 20
12.3336366859
  7
STANDARD
 40
0.15625
  1
1319049-7
 41
0.8
 72
0
100
AcDbText
  0
TEXT
  5
22E
100
AcDbEntity
  8
___SYMBOL
100
AcDbText
 62
2
  6
CONTINUOUS
 10
30.2594429535
 20
12.3336366859
  7
STANDARD
 40
0.15625
  1
-C
 41
0.8
 72
0
100
AcDbText
  0
ENDBLK
  5
22F
100
AcDbEntity
  8
0
  6
BYBLOCK
 62
0
100
AcDbBlockEnd
  0
BLOCK
  5
230
100
AcDbEntity
  8
___SYMBOL
100
AcDbBlockBegin
 62
2
  6
CONTINUOUS
  2
COPYRIGHT_YEAR_BL3
 70
64
 10
26.5658149552
 20
13.6827169163
  3
COPYRIGHT_YEAR_BL3
  1

  0
TEXT
  5
231
100
AcDbEntity
  8
___SYMBOL
100
AcDbText
 62
2
  6
CONTINUOUS
 10
25.7838267642
 20
13.6026289674
  7
STANDARD
 40
0.15625
  1
2017 KOHLER CO.
 41
0.8
 72
0
100
AcDbText
  0
TEXT
  5
232
100
AcDbEntity
  8
___SYMBOL
100
AcDbText
 62
7
  6
CONTINUOUS
 10
25.5265047651
 20
13.6049577174
  7
TEXTSTYLE_2
 40
0.15625
  1
C
 41
1.0
 72
0
100
AcDbText
  0
CIRCLE
  5
233
100
AcDbEntity
  8
___SYMBOL
100
AcDbCircle
 62
7
  6
CONTINUOUS
 10
25.6051601833
 20
13.6827169163
 40
0.1323570371
  0
ENDBLK
  5
234
100
AcDbEntity
  8
0
  6
BYBLOCK
 62
0
100
AcDbBlockEnd
  0
BLOCK
  5
235
100
AcDbEntity
  8
___SYMBOL
100
AcDbBlockBegin
 62
2
  6
CONTINUOUS
  2
SCISSORS_BL2
 70
64
 10
36.2552805502
 20
13.0205702343
  3
SCISSORS_BL2
  1

  0
LINE
  5
236
100
AcDbEntity
  8
___SYMBOL
100
AcDbLine
 62
7
  6
CONTINUOUS
 10
36.2302202318
 20
13.0616304567
 11
36.410237971
 21
13.3924106933
  0
LINE
  5
237
100
AcDbEntity
  8
___SYMBOL
100
AcDbLine
 62
7
  6
CONTINUOUS
 10
36.1928709685
 20
13.0672962637
 11
36.410237971
 21
13.3924106933
  0
LINE
  5
238
100
AcDbEntity
  8
___SYMBOL
100
AcDbLine
 62
7
  6
CONTINUOUS
 10
36.2031398982
 20
13.0010825008
 11
36.2241312835
 21
13.0277249091
  0
LINE
  5
239
100
AcDbEntity
  8
___SYMBOL
100
AcDbLine
 62
7
  6
CONTINUOUS
 10
36.2327867074
 20
13.0210539216
 11
36.2116508797
 21
12.994228186
  0
LINE
  5
23A
100
AcDbEntity
  8
___SYMBOL
100
AcDbLine
 62
7
  6
CONTINUOUS
 10
36.3057716208
 20
13.1141718895
 11
36.5776336115
 21
13.2434765612
  0
LINE
  5
23B
100
AcDbEntity
  8
___SYMBOL
100
AcDbLine
 62
7
  6
CONTINUOUS
 10
36.1368214545
 20
13.0311727971
 11
36.1797507675
 21
13.0485964357
  0
LINE
  5
23C
100
AcDbEntity
  8
___SYMBOL
100
AcDbLine
 62
7
  6
CONTINUOUS
 10
36.2584502694
 20
12.9881347857
 11
36.4853007043
 21
13.1334384872
  0
LINE
  5
23D
100
AcDbEntity
  8
___SYMBOL
100
AcDbLine
 62
7
  6
CONTINUOUS
 10
36.2791475082
 20
13.0432604309
 11
36.2302202318
 21
13.0616304567
  0
LINE
  5
23E
100
AcDbEntity
  8
___SYMBOL
100
AcDbLine
 62
7
  6
CONTINUOUS
 10
36.2411051911
 20
12.9419373851
 11
36.152599219
 21
12.8958750364
  0
LINE
  5
23F
100
AcDbEntity
  8
___SYMBOL
100
AcDbLine
 62
7
  6
CONTINUOUS
 10
36.1061494317
 20
12.9387773612
 11
36.1482856392
 21
12.9432786264
  0
LINE
  5
240
100
AcDbEntity
  8
___SYMBOL
100
AcDbLine
 62
7
  6
CONTINUOUS
 10
36.410237971
 20
13.3924106933
 11
36.2411051911
 21
12.9419373851
  0
LINE
  5
241
100
AcDbEntity
  8
___SYMBOL
100
AcDbLine
 62
7
  6
CONTINUOUS
 10
36.1061494317
 20
12.9387773612
 11
36.1368214545
 21
13.0311727971
  0
ARC
  5
242
100
AcDbEntity
  8
___SYMBOL
100
AcDbCircle
 62
7
  6
CONTINUOUS
 10
36.3554638511
 20
13.336141834
 40
0.2407202841
100
AcDbArc
 50
302.6406360869
 51
337.3593639131
  0
ARC
  5
243
100
AcDbEntity
  8
___SYMBOL
100
AcDbCircle
 62
7
  6
CONTINUOUS
 10
36.3567656598
 20
12.9383516062
 40
0.2085382328
100
AcDbArc
 50
141.8059909349
 51
191.752660067
  0
CIRCLE
  5
244
100
AcDbEntity
  8
___SYMBOL
100
AcDbCircle
 62
7
  6
CONTINUOUS
 10
36.2180699444
 20
13.0109099058
 40
0.0178741201
  0
ARC
  5
245
100
AcDbEntity
  8
___SYMBOL
100
AcDbCircle
 62
7
  6
CONTINUOUS
 10
36.1399570318
 20
12.7524370182
 40
0.0097392375
100
AcDbArc
 50
145.3133793157
 51
274.0675041521
  0
ARC
  5
246
100
AcDbEntity
  8
___SYMBOL
100
AcDbCircle
 62
7
  6
CONTINUOUS
 10
35.9658238425
 20
12.8920071759
 40
0.0097391571
100
AcDbArc
 50
193.3109272841
 51
319.4467240969
  0
SPLINE
  5
247
100
AcDbEntity
  8
___SYMBOL
100
AcDbSpline
 62
7
  6
CONTINUOUS
 70
0
 71
3
 72
12
 73
8
 74
0
 42
0.0000001
 43
0.0000001
 44
0.0000000001
 40
0.0
 40
0.0
 40
0.0
 40
0.0
 40
0.4884256058
 40
0.6683914397
 40
0.8669439281
 40
0.9099489479
 40
1.0
 40
1.0
 40
1.0
 40
1.0
 10
36.0200886824
 20
12.6487297752
 30
0.0
 10
36.0373843058
 20
12.6934331597
 30
0.0
 10
36.0781377938
 20
12.7471556396
 30
0.0
 10
36.1333189284
 20
12.8112674996
 30
0.0
 10
36.1577435723
 20
12.8454410834
 30
0.0
 10
36.1679383537
 20
12.8768252022
 30
0.0
 10
36.1602267318
 20
12.8914119152
 30
0.0
 10
36.152599219
 20
12.8958750364
 30
0.0
  0
SPLINE
  5
248
100
AcDbEntity
  8
___SYMBOL
100
AcDbSpline
 62
7
  6
CONTINUOUS
 70
0
 71
3
 72
14
 73
10
 74
0
 42
0.0000001
 43
0.0000001
 44
0.0000000001
 40
0.0
 40
0.0
 40
0.0
 40
0.0
 40
0.0469735811
 40
0.2606095073
 40
0.5805460666
 40
0.7382389988
 40
0.8401572415
 40
0.925087268
 40
1.0
 40
1.0
 40
1.0
 40
1.0
 10
36.1319486813
 20
12.7579794968
 30
0.0
 10
36.1338922936
 20
12.7607878304
 30
0.0
 10
36.1450658335
 20
12.7761351801
 30
0.0
 10
36.1732368233
 20
12.8069242985
 30
0.0
 10
36.2102811312
 20
12.8450126676
 30
0.0
 10
36.216253121
 20
12.887343641
 30
0.0
 10
36.2192504253
 20
12.9127303143
 30
0.0
 10
36.2308952089
 20
12.9283540077
 30
0.0
 10
36.2382731419
 20
12.9372848683
 30
0.0
 10
36.2411051911
 20
12.9419373851
 30
0.0
  0
SPLINE
  5
249
100
AcDbEntity
  8
___SYMBOL
100
AcDbSpline
 62
7
  6
CONTINUOUS
 70
0
 71
3
 72
12
 73
8
 74
0
 42
0.0000001
 43
0.0000001
 44
0.0000000001
 40
0.0
 40
0.0
 40
0.0
 40
0.0
 40
0.2870411994
 40
0.5613888029
 40
0.7613462239
 40
0.9013972407
 40
1.0
 40
1.0
 40
1.0
 40
1.0
 10
35.914376965
 20
12.7710741622
 30
0.0
 10
35.9347974932
 20
12.7858670826
 30
0.0
 10
35.9687518035
 20
12.8223805177
 30
0.0
 10
36.008670493
 20
12.8764840672
 30
0.0
 10
36.046544405
 20
12.9137550674
 30
0.0
 10
36.0747151267
 20
12.9431001746
 30
0.0
 10
36.0982313908
 20
12.9422892996
 30
0.0
 10
36.1061494317
 20
12.9387773612
 30
0.0
  0
SPLINE
  5
24A
100
AcDbEntity
  8
___SYMBOL
100
AcDbSpline
 62
7
  6
CONTINUOUS
 70
0
 71
3
 72
13
 73
9
 74
0
 42
0.0000001
 43
0.0000001
 44
0.0000000001
 40
0.0
 40
0.0
 40
0.0
 40
0.0
 40
0.0902051637
 40
0.4170421866
 40
0.6587388922
 40
0.9356437381
 40
0.9595034934
 40
1.0
 40
1.0
 40
1.0
 40
1.0
 10
35.9732236712
 20
12.8856752159
 30
0.0
 10
35.9775482504
 20
12.8907291243
 30
0.0
 10
35.9971408881
 20
12.9143741054
 30
0.0
 10
36.0276636322
 20
12.9529506395
 30
0.0
 10
36.0742495245
 20
12.992509917
 30
0.0
 10
36.1220195167
 20
13.0032198445
 30
0.0
 10
36.1292747511
 20
13.0275606716
 30
0.0
 10
36.1338411535
 20
13.0309858111
 30
0.0
 10
36.1368214545
 20
13.0311727971
 30
0.0
  0
ELLIPSE
  5
24B
100
AcDbEntity
  8
___SYMBOL
100
AcDbEllipse
 62
7
  6
CONTINUOUS
 10
36.112044695
 20
12.6342435468
 30
0.0
 11
-0.0499361282
 21
-0.0658036101
 31
0.0
 40
0.774293327
 41
0.0
 42
6.2831853072
  0
ELLIPSE
  5
24C
100
AcDbEntity
  8
___SYMBOL
100
AcDbEllipse
 62
7
  6
CONTINUOUS
 10
36.112044695
 20
12.6342435468
 30
0.0
 11
-0.0805807072
 21
-0.0928863223
 31
0.0
 40
0.700902774
 41
5.1250505418
 42
10.0362700851
  0
ELLIPSE
  5
24D
100
AcDbEntity
  8
___SYMBOL
100
AcDbEllipse
 62
7
  6
CONTINUOUS
 10
35.8665453026
 20
12.8514278499
 30
0.0
 11
-0.0448988251
 21
-0.0692384608
 31
0.0
 40
0.7501188416
 41
0.0
 42
6.2831853072
  0
ELLIPSE
  5
24E
100
AcDbEntity
  8
___SYMBOL
100
AcDbEllipse
 62
7
  6
CONTINUOUS
 10
35.8589330722
 20
12.8399964282
 30
0.0
 11
-0.073255247
 21
-0.0896617225
 31
0.0
 40
0.7569683881
 41
2.6163261196
 42
7.6953125801
  0
LINE
  5
24F
100
AcDbEntity
  8
___SYMBOL
100
AcDbLine
 62
7
  6
CONTINUOUS
 10
36.2136355909
 20
13.014403705
 11
36.2179271922
 21
13.0110223794
  0
ENDBLK
  5
250
100
AcDbEntity
  8
0
  6
BYBLOCK
 62
0
100
AcDbBlockEnd
  0
BLOCK
  5
251
100
AcDbEntity
  8
___SYMBOL
100
AcDbBlockBegin
 62
2
  6
CONTINUOUS
  2
SCISSORS_BL1
 70
64
 10
35.2648899469
 20
12.7117169233
  3
SCISSORS_BL1
  1

  0
LINE
  5
252
100
AcDbEntity
  8
___SYMBOL
100
AcDbLine
 62
7
  6
CONTINUOUS
 10
35.2397748954
 20
12.7495387446
 11
35.4744971459
 21
13.0440339338
  0
LINE
  5
253
100
AcDbEntity
  8
___SYMBOL
100
AcDbLine
 62
7
  6
CONTINUOUS
 10
35.2039769084
 20
12.7616041068
 11
35.4744971459
 21
13.0440339338
  0
LINE
  5
254
100
AcDbEntity
  8
___SYMBOL
100
AcDbLine
 62
7
  6
CONTINUOUS
 10
35.2025919307
 20
12.6946130988
 11
35.2278908154
 21
12.7172056333
  0
LINE
  5
255
100
AcDbEntity
  8
___SYMBOL
100
AcDbLine
 62
7
  6
CONTINUOUS
 10
35.2352563391
 20
12.7091329944
 11
35.209783372
 21
12.686385
  0
LINE
  5
256
100
AcDbEntity
  8
___SYMBOL
100
AcDbLine
 62
7
  6
CONTINUOUS
 10
35.3233022131
 20
12.7881625939
 11
35.6134875299
 21
12.8682944978
  0
LINE
  5
257
100
AcDbEntity
  8
___SYMBOL
100
AcDbLine
 62
7
  6
CONTINUOUS
 10
35.1425061383
 20
12.7357623327
 11
35.1878088416
 21
12.7454666701
  0
LINE
  5
258
100
AcDbEntity
  8
___SYMBOL
100
AcDbLine
 62
7
  6
CONTINUOUS
 10
35.254813666
 20
12.6722575434
 11
35.5034494559
 21
12.7759615906
  0
LINE
  5
259
100
AcDbEntity
  8
___SYMBOL
100
AcDbLine
 62
7
  6
CONTINUOUS
 10
35.284768935
 20
12.7229516684
 11
35.2397748954
 21
12.7495387446
  0
LINE
  5
25A
100
AcDbEntity
  8
___SYMBOL
100
AcDbLine
 62
7
  6
CONTINUOUS
 10
35.2297100039
 20
12.6297739263
 11
35.1345499935
 21
12.599780269
  0
LINE
  5
25B
100
AcDbEntity
  8
___SYMBOL
100
AcDbLine
 62
7
  6
CONTINUOUS
 10
35.0962557934
 20
12.650096732
 11
35.1385334937
 21
12.6472127372
  0
LINE
  5
25C
100
AcDbEntity
  8
___SYMBOL
100
AcDbLine
 62
7
  6
CONTINUOUS
 10
35.4744971459
 20
13.0440339338
 11
35.2297100039
 21
12.6297739263
  0
LINE
  5
25D
100
AcDbEntity
  8
___SYMBOL
100
AcDbLine
 62
7
  6
CONTINUOUS
 10
35.0962557934
 20
12.650096732
 11
35.1425061383
 21
12.7357623327
  0
ARC
  5
25E
100
AcDbEntity
  8
___SYMBOL
100
AcDbCircle
 62
7
  6
CONTINUOUS
 10
35.4107841831
 20
12.9981313509
 40
0.2407202841
100
AcDbArc
 50
292.6406360869
 51
327.3593639131
  0
ARC
  5
25F
100
AcDbEntity
  8
___SYMBOL
100
AcDbCircle
 62
7
  6
CONTINUOUS
 10
35.3429906663
 20
12.6061583938
 40
0.2085382328
100
AcDbArc
 50
131.8059909349
 51
181.752660067
  0
CIRCLE
  5
260
100
AcDbEntity
  8
___SYMBOL
100
AcDbCircle
 62
7
  6
CONTINUOUS
 10
35.2190016669
 20
12.7016986281
 40
0.0178741201
  0
ARC
  5
261
100
AcDbEntity
  8
___SYMBOL
100
AcDbCircle
 62
7
  6
CONTINUOUS
 10
35.0971921191
 20
12.4607166894
 40
0.0097392375
100
AcDbArc
 50
135.3133793157
 51
264.0675041521
  0
ARC
  5
262
100
AcDbEntity
  8
___SYMBOL
100
AcDbCircle
 62
7
  6
CONTINUOUS
 10
34.9499405077
 20
12.6284043737
 40
0.0097391571
100
AcDbArc
 50
183.3109272841
 51
309.4467240969
  0
SPLINE
  5
263
100
AcDbEntity
  8
___SYMBOL
100
AcDbSpline
 62
7
  6
CONTINUOUS
 70
0
 71
3
 72
12
 73
8
 74
0
 42
0.0000001
 43
0.0000001
 44
0.0000000001
 40
0.0
 40
0.0
 40
0.0
 40
0.0
 40
0.4884256058
 40
0.6683914397
 40
0.8669439281
 40
0.9099489479
 40
1.0
 40
1.0
 40
1.0
 40
1.0
 10
34.9611362655
 20
12.3793999129
 30
0.0
 10
34.9859317908
 20
12.420420799
 30
0.0
 10
35.0353949524
 20
12.4662503448
 30
0.0
 10
35.1008706693
 20
12.5198060981
 30
0.0
 10
35.1308584285
 20
12.5492192135
 30
0.0
 10
35.1463481233
 20
12.5783562318
 30
0.0
 10
35.1412866143
 20
12.5940604489
 30
0.0
 10
35.1345499935
 20
12.599780269
 30
0.0
  0
SPLINE
  5
264
100
AcDbEntity
  8
___SYMBOL
100
AcDbSpline
 62
7
  6
CONTINUOUS
 70
0
 71
3
 72
14
 73
10
 74
0
 42
0.0000001
 43
0.0000001
 44
0.0000000001
 40
0.0
 40
0.0
 40
0.0
 40
0.0
 40
0.0469735811
 40
0.2606095073
 40
0.5805460666
 40
0.7382389988
 40
0.8401572415
 40
0.925087268
 40
1.0
 40
1.0
 40
1.0
 40
1.0
 10
35.0902678747
 20
12.4675656008
 30
0.0
 10
35.0926696211
 20
12.4699937647
 30
0.0
 10
35.1063384492
 20
12.4831676888
 30
0.0
 10
35.1394279327
 20
12.5085972103
 30
0.0
 10
35.1825234302
 20
12.5396742549
 30
0.0
 10
35.1957553884
 20
12.5803251006
 30
0.0
 10
35.2031155065
 20
12.6048056168
 30
0.0
 10
35.2172964056
 20
12.6181698558
 30
0.0
 10
35.2261130788
 20
12.6256838719
 30
0.0
 10
35.2297100039
 20
12.6297739263
 30
0.0
  0
SPLINE
  5
265
100
AcDbEntity
  8
___SYMBOL
100
AcDbSpline
 62
7
  6
CONTINUOUS
 70
0
 71
3
 72
12
 73
8
 74
0
 42
0.0000001
 43
0.0000001
 44
0.0000000001
 40
0.0
 40
0.0
 40
0.0
 40
0.0
 40
0.2870411994
 40
0.5613888029
 40
0.7613462239
 40
0.9013972407
 40
1.0
 40
1.0
 40
1.0
 40
1.0
 10
34.8782754265
 20
12.5182422607
 30
0.0
 10
34.9009544846
 20
12.529264456
 30
0.0
 10
34.9407334441
 20
12.5593270659
 30
0.0
 10
34.9894406618
 20
12.6056768532
 30
0.0
 10
35.0332112252
 20
12.6358048873
 30
0.0
 10
35.0660496948
 20
12.6598123819
 30
0.0
 10
35.089067887
 20
12.6549302695
 30
0.0
 10
35.0962557934
 20
12.650096732
 30
0.0
  0
SPLINE
  5
266
100
AcDbEntity
  8
___SYMBOL
100
AcDbSpline
 62
7
  6
CONTINUOUS
 70
0
 71
3
 72
13
 73
9
 74
0
 42
0.0000001
 43
0.0000001
 44
0.0000000001
 40
0.0
 40
0.0
 40
0.0
 40
0.0
 40
0.0902051637
 40
0.4170421866
 40
0.6587388922
 40
0.9356437381
 40
0.9595034934
 40
1.0
 40
1.0
 40
1.0
 40
1.0
 10
34.956128383
 20
12.6208836437
 30
0.0
 10
34.9612648642
 20
12.6251098165
 30
0.0
 10
34.9846657536
 20
12.6449933515
 30
0.0
 10
35.0214235335
 20
12.6776836024
 30
0.0
 10
35.0741710779
 20
12.7085523303
 30
0.0
 10
35.1230750959
 20
12.7108043778
 30
0.0
 10
35.1344468472
 20
12.7335155549
 30
0.0
 10
35.139538645
 20
12.7360957114
 30
0.0
 10
35.1425061383
 20
12.7357623327
 30
0.0
  0
ELLIPSE
  5
267
100
AcDbEntity
  8
___SYMBOL
100
AcDbEllipse
 62
7
  6
CONTINUOUS
 10
35.0491797525
 20
12.3491657688
 30
0.0
 11
-0.0606041632
 21
-0.0561325877
 31
0.0
 40
0.774293327
 41
0.0
 42
6.2831853072
  0
ELLIPSE
  5
268
100
AcDbEntity
  8
___SYMBOL
100
AcDbEllipse
 62
7
  6
CONTINUOUS
 10
35.0491797525
 20
12.3491657688
 30
0.0
 11
-0.0954860457
 21
-0.0774824774
 31
0.0
 40
0.700902774
 41
5.1250505418
 42
10.0362700851
  0
ELLIPSE
  5
269
100
AcDbEntity
  8
___SYMBOL
100
AcDbEllipse
 62
7
  6
CONTINUOUS
 10
34.8451237059
 20
12.6056810764
 30
0.0
 11
-0.0562398436
 21
-0.0603899738
 31
0.0
 40
0.7501188416
 41
0.0
 42
6.2831853072
  0
ELLIPSE
  5
26A
100
AcDbEntity
  8
___SYMBOL
100
AcDbEllipse
 62
7
  6
CONTINUOUS
 10
34.8356420768
 20
12.5957451737
 30
0.0
 11
-0.08771193
 21
-0.0755789193
 31
0.0
 40
0.7569683881
 41
2.6163261196
 42
7.6953125801
  0
LINE
  5
26B
100
AcDbEntity
  8
___SYMBOL
100
AcDbLine
 62
7
  6
CONTINUOUS
 10
35.2152413731
 20
12.705909366
 11
35.2188806143
 21
12.7018341816
  0
ENDBLK
  5
26C
100
AcDbEntity
  8
0
  6
BYBLOCK
 62
0
100
AcDbBlockEnd
  0
BLOCK
  5
26D
100
AcDbEntity
  8
___SYMBOL
100
AcDbBlockBegin
 62
2
  6
CONTINUOUS
  2
SCISSORS_BL0
 70
64
 10
33.961392265
 20
13.0369789877
  3
SCISSORS_BL0
  1

  0
LINE
  5
26E
100
AcDbEntity
  8
___SYMBOL
100
AcDbLine
 62
7
  6
CONTINUOUS
 10
33.9651497013
 20
13.0704132109
 11
34.2474445464
 21
13.3196752654
  0
LINE
  5
26F
100
AcDbEntity
  8
___SYMBOL
100
AcDbLine
 62
7
  6
CONTINUOUS
 10
33.9319906944
 20
13.0885115283
 11
34.2474445464
 21
13.3196752654
  0
LINE
  5
270
100
AcDbEntity
  8
___SYMBOL
100
AcDbLine
 62
7
  6
CONTINUOUS
 10
33.9189938912
 20
13.0227787631
 11
33.9478315813
 21
13.040634961
  0
LINE
  5
271
100
AcDbEntity
  8
___SYMBOL
100
AcDbLine
 62
7
  6
CONTINUOUS
 10
33.9536834072
 20
13.0314059539
 11
33.9246472839
 21
13.0134268869
  0
LINE
  5
272
100
AcDbEntity
  8
___SYMBOL
100
AcDbLine
 62
7
  6
CONTINUOUS
 10
34.0541150125
 20
13.0939459107
 11
34.3538065213
 21
13.1224702795
  0
LINE
  5
273
100
AcDbEntity
  8
___SYMBOL
100
AcDbLine
 62
7
  6
CONTINUOUS
 10
33.8669664264
 20
13.0737366361
 11
33.9132660204
 21
13.0754268109
  0
LINE
  5
274
100
AcDbEntity
  8
___SYMBOL
100
AcDbLine
 62
7
  6
CONTINUOUS
 10
33.9665402594
 20
12.9916946297
 11
34.2294067319
 21
13.0506480276
  0
LINE
  5
275
100
AcDbEntity
  8
___SYMBOL
100
AcDbLine
 62
7
  6
CONTINUOUS
 10
34.004843383
 20
13.0364169192
 11
33.9651497013
 21
13.0704132109
  0
LINE
  5
276
100
AcDbEntity
  8
___SYMBOL
100
AcDbLine
 62
7
  6
CONTINUOUS
 10
33.9344407757
 20
12.9542156394
 11
33.8355181157
 21
12.9412020155
  0
LINE
  5
277
100
AcDbEntity
  8
___SYMBOL
100
AcDbLine
 62
7
  6
CONTINUOUS
 10
33.8065430527
 20
12.9974037765
 11
33.8476776593
 21
12.9872221504
  0
LINE
  5
278
100
AcDbEntity
  8
___SYMBOL
100
AcDbLine
 62
7
  6
CONTINUOUS
 10
34.2474445464
 20
13.3196752654
 11
33.9344407757
 21
12.9542156394
  0
LINE
  5
279
100
AcDbEntity
  8
___SYMBOL
100
AcDbLine
 62
7
  6
CONTINUOUS
 10
33.8065430527
 20
12.9974037765
 11
33.8669664264
 21
13.0737366361
  0
ARC
  5
27A
100
AcDbEntity
  8
___SYMBOL
100
AcDbCircle
 62
7
  6
CONTINUOUS
 10
34.1767286268
 20
13.2855336858
 40
0.2407202841
100
AcDbArc
 50
282.6406360869
 51
317.3593639131
  0
ARC
  5
27B
100
AcDbEntity
  8
___SYMBOL
100
AcDbCircle
 62
7
  6
CONTINUOUS
 10
34.0418996561
 20
12.9112878993
 40
0.2085382328
100
AcDbArc
 50
121.8059909349
 51
171.752660067
  0
CIRCLE
  5
27C
100
AcDbEntity
  8
___SYMBOL
100
AcDbCircle
 62
7
  6
CONTINUOUS
 10
33.9363847158
 20
13.0269071266
 40
0.0178741201
  0
ARC
  5
27D
100
AcDbEntity
  8
___SYMBOL
100
AcDbCircle
 62
7
  6
CONTINUOUS
 10
33.7745796542
 20
12.810738251
 40
0.0097392375
100
AcDbArc
 50
125.3133793157
 51
254.0675041521
  0
ARC
  5
27E
100
AcDbEntity
  8
___SYMBOL
100
AcDbCircle
 62
7
  6
CONTINUOUS
 10
33.6586837865
 20
13.0014483566
 40
0.0097391571
100
AcDbArc
 50
173.3109272841
 51
299.4467240969
  0
SPLINE
  5
27F
100
AcDbEntity
  8
___SYMBOL
100
AcDbSpline
 62
7
  6
CONTINUOUS
 70
0
 71
3
 72
12
 73
8
 74
0
 42
0.0000001
 43
0.0000001
 44
0.0000000001
 40
0.0
 40
0.0
 40
0.0
 40
0.0
 40
0.4884256058
 40
0.6683914397
 40
0.8669439281
 40
0.9099489479
 40
1.0
 40
1.0
 40
1.0
 40
1.0
 10
33.6264702847
 20
12.7542827101
 30
0.0
 10
33.6580123124
 20
12.790374699
 30
0.0
 10
33.7146822346
 20
12.8269188031
 30
0.0
 10
33.7884630871
 20
12.8682911853
 30
0.0
 10
33.8231027988
 20
12.8920501296
 30
0.0
 10
33.8434167604
 20
12.9180547339
 30
0.0
 10
33.8411591559
 20
12.9343992904
 30
0.0
 10
33.8355181157
 20
12.9412020155
 30
0.0
  0
SPLINE
  5
280
100
AcDbEntity
  8
___SYMBOL
100
AcDbSpline
 62
7
  6
CONTINUOUS
 70
0
 71
3
 72
14
 73
10
 74
0
 42
0.0000001
 43
0.0000001
 44
0.0000000001
 40
0.0
 40
0.0
 40
0.0
 40
0.0
 40
0.0469735811
 40
0.2606095073
 40
0.5805460666
 40
0.7382389988
 40
0.8401572415
 40
0.925087268
 40
1.0
 40
1.0
 40
1.0
 40
1.0
 10
33.7689499056
 20
12.8186854944
 30
0.0
 10
33.7717368104
 20
12.8206597102
 30
0.0
 10
33.7874856062
 20
12.8312599257
 30
0.0
 10
33.8244881761
 20
12.8505571871
 30
0.0
 10
33.8723254284
 20
12.873678647
 30
0.0
 10
33.8924153087
 20
12.9114142095
 30
0.0
 10
33.9039146071
 20
12.9342447406
 30
0.0
 10
33.9202007422
 20
12.9449434595
 30
0.0
 10
33.9301882655
 20
12.9508123216
 30
0.0
 10
33.9344407757
 20
12.9542156394
 30
0.0
  0
SPLINE
  5
281
100
AcDbEntity
  8
___SYMBOL
100
AcDbSpline
 62
7
  6
CONTINUOUS
 70
0
 71
3
 72
12
 73
8
 74
0
 42
0.0000001
 43
0.0000001
 44
0.0000000001
 40
0.0
 40
0.0
 40
0.0
 40
0.0
 40
0.2870411994
 40
0.5613888029
 40
0.7613462239
 40
0.9013972407
 40
1.0
 40
1.0
 40
1.0
 40
1.0
 10
33.5689780087
 20
12.9054043644
 30
0.0
 10
33.5932265051
 20
12.9123209306
 30
0.0
 10
33.6376214502
 20
12.9350192781
 30
0.0
 10
33.693637252
 20
12.9722069883
 30
0.0
 10
33.7419745204
 20
12.9942766314
 30
0.0
 10
33.7784829575
 20
13.0122170578
 30
0.0
 10
33.8003036818
 20
13.0034120485
 30
0.0
 10
33.8065430527
 20
12.9974037765
 30
0.0
  0
SPLINE
  5
282
100
AcDbEntity
  8
___SYMBOL
100
AcDbSpline
 62
7
  6
CONTINUOUS
 70
0
 71
3
 72
13
 73
9
 74
0
 42
0.0000001
 43
0.0000001
 44
0.0000000001
 40
0.0
 40
0.0
 40
0.0
 40
0.0
 40
0.0902051637
 40
0.4170421866
 40
0.6587388922
 40
0.9356437381
 40
0.9595034934
 40
1.0
 40
1.0
 40
1.0
 40
1.0
 10
33.663471693
 20
12.99296737
 30
0.0
 10
33.6692640067
 20
12.9962373972
 30
0.0
 10
33.6957621236
 20
13.0117553348
 30
0.0
 10
33.7376380728
 20
13.0375660259
 30
0.0
 10
33.7949445617
 20
13.0588062734
 30
0.0
 10
33.8434966819
 20
13.0525320137
 30
0.0
 10
33.8586394252
 20
13.0729234731
 30
0.0
 10
33.8641019066
 20
13.0745802498
 30
0.0
 10
33.8669664264
 20
13.0737366361
 30
0.0
  0
ELLIPSE
  5
283
100
AcDbEntity
  8
___SYMBOL
100
AcDbEllipse
 62
7
  6
CONTINUOUS
 10
33.7079260893
 20
12.7092192995
 30
0.0
 11
-0.0694307714
 21
-0.0447560051
 31
0.0
 40
0.774293327
 41
0.0
 42
6.2831853072
  0
ELLIPSE
  5
284
100
AcDbEntity
  8
___SYMBOL
100
AcDbEllipse
 62
7
  6
CONTINUOUS
 10
33.7079260893
 20
12.7092192995
 30
0.0
 11
-0.1074900892
 21
-0.0597243666
 31
0.0
 40
0.700902774
 41
5.1250505418
 42
10.0362700851
  0
ELLIPSE
  5
285
100
AcDbEntity
  8
___SYMBOL
100
AcDbEllipse
 62
7
  6
CONTINUOUS
 10
33.5515135283
 20
12.9972715238
 30
0.0
 11
-0.0658720429
 21
-0.0497065681
 31
0.0
 40
0.7501188416
 41
0.0
 42
6.2831853072
  0
ELLIPSE
  5
286
100
AcDbEntity
  8
___SYMBOL
100
AcDbEllipse
 62
7
  6
CONTINUOUS
 10
33.540450595
 20
12.9891330374
 30
0.0
 11
-0.0995035303
 21
-0.0591996889
 31
0.0
 40
0.7569683881
 41
2.6163261196
 42
7.6953125801
  0
LINE
  5
287
100
AcDbEntity
  8
___SYMBOL
100
AcDbLine
 62
7
  6
CONTINUOUS
 10
33.9334127362
 20
13.0317068621
 11
33.9362890409
 21
13.0270616413
  0
ENDBLK
  5
288
100
AcDbEntity
  8
0
  6
BYBLOCK
 62
0
100
AcDbBlockEnd
  0
BLOCK
  5
289
100
AcDbEntity
  8
0
100
AcDbBlockBegin
  2
_ARROW_FILLED
 70
64
 10
0.0
 20
0.0
  3
_ARROW_FILLED
  1

  0
SOLID
  5
28A
100
AcDbEntity
  8
0
  6
BYBLOCK
 62
0
100
AcDbTrace
 10
0.0
 20
0.0
 11
-1.0
 21
0.1666666667
 12
-1.0
 22
-0.1666666667
 13
-1.0
 23
-0.1666666667
  0
ENDBLK
  5
28B
100
AcDbEntity
  8
0
  6
BYBLOCK
 62
0
100
AcDbBlockEnd
  0
BLOCK
  5
28C
100
AcDbEntity
  8
0
100
AcDbBlockBegin
 62
2
  6
CONTINUOUS
  2
*D0
 70
65
 10
0.0
 20
0.0
  3
*D0
  1

  0
MTEXT
  5
28D
100
AcDbEntity
  8
0
100
AcDbMText
 62
2
  6
CONTINUOUS
  7
STANDARD
 71
2
 72
1
 10
18.8975145308
 20
19.9607519753
 30
0.0
 11
1.0
 21
0.0
 31
0.0
  1
13-31/32\P[35,5]
 40
0.15625
 41
1.0
  0
LINE
  5
28E
100
AcDbEntity
  8
0
100
AcDbLine
 62
2
  6
CONTINUOUS
 10
18.8975145308
 20
25.1053726481
 11
18.8975145308
 21
20.0388769753
  0
LINE
  5
28F
100
AcDbEntity
  8
0
100
AcDbLine
 62
2
  6
CONTINUOUS
 10
18.8975145308
 20
11.1354302605
 11
18.8975145308
 21
19.4920019753
  0
INSERT
  5
290
100
AcDbEntity
  8
0
100
AcDbBlockReference
 62
2
  6
CONTINUOUS
  2
_ARROW_FILLED
 10
18.8975145308
 20
25.1053726481
 41
0.1875
 42
0.1875
 43
0.1875
 50
90.0
  0
INSERT
  5
291
100
AcDbEntity
  8
0
100
AcDbBlockReference
 62
2
  6
CONTINUOUS
  2
_ARROW_FILLED
 10
18.8975145308
 20
11.1354302605
 41
0.1875
 42
0.1875
 43
0.1875
 50
270.0
  0
ENDBLK
  5
292
100
AcDbEntity
  8
0
  6
BYBLOCK
 62
0
100
AcDbBlockEnd
  0
BLOCK
  5
293
100
AcDbEntity
  8
0
100
AcDbBlockBegin
 62
2
  6
CONTINUOUS
  2
*D1
 70
65
 10
0.0
 20
0.0
  3
*D1
  1

  0
MTEXT
  5
294
100
AcDbEntity
  8
0
100
AcDbMText
 62
2
  6
CONTINUOUS
  7
STANDARD
 71
2
 72
1
 10
18.0387143649
 20
21.2070705322
 30
0.0
 11
1.0
 21
0.0
 31
0.0
  1
14-29/32\P[37,8]
 40
0.15625
 41
1.0
  0
LINE
  5
295
100
AcDbEntity
  8
0
100
AcDbLine
 62
2
  6
CONTINUOUS
 10
18.0387143649
 20
25.5680126481
 11
18.0387143649
 21
21.2851955322
  0
LINE
  5
296
100
AcDbEntity
  8
0
100
AcDbLine
 62
2
  6
CONTINUOUS
 10
18.0387143649
 20
10.6727902605
 11
18.0387143649
 21
20.7383205322
  0
INSERT
  5
297
100
AcDbEntity
  8
0
100
AcDbBlockReference
 62
2
  6
CONTINUOUS
  2
_ARROW_FILLED
 10
18.0387143649
 20
25.5680126481
 41
0.1875
 42
0.1875
 43
0.1875
 50
90.0
  0
INSERT
  5
298
100
AcDbEntity
  8
0
100
AcDbBlockReference
 62
2
  6
CONTINUOUS
  2
_ARROW_FILLED
 10
18.0387143649
 20
10.6727902605
 41
0.1875
 42
0.1875
 43
0.1875
 50
270.0
  0
ENDBLK
  5
299
100
AcDbEntity
  8
0
  6
BYBLOCK
 62
0
100
AcDbBlockEnd
  0
BLOCK
  5
29A
100
AcDbEntity
  8
0
100
AcDbBlockBegin
 62
2
  6
CONTINUOUS
  2
*D2
 70
65
 10
0.0
 20
0.0
  3
*D2
  1

  0
MTEXT
  5
29B
100
AcDbEntity
  8
0
100
AcDbMText
 62
2
  6
CONTINUOUS
  7
STANDARD
 71
2
 72
1
 10
19.7393297046
 20
19.2216114478
 30
0.0
 11
1.0
 21
0.0
 31
0.0
  1
11-29/32\P[30,2]
 40
0.15625
 41
1.0
  0
LINE
  5
29C
100
AcDbEntity
  8
0
100
AcDbLine
 62
2
  6
CONTINUOUS
 10
20.1007933185
 20
24.0735306599
 11
19.6143297046
 21
24.0735306599
  0
LINE
  5
29D
100
AcDbEntity
  8
0
100
AcDbLine
 62
2
  6
CONTINUOUS
 10
19.7393297046
 20
24.0735306599
 11
19.7393297046
 21
19.2997364478
  0
LINE
  5
29E
100
AcDbEntity
  8
0
100
AcDbLine
 62
2
  6
CONTINUOUS
 10
19.7393297046
 20
12.1672722489
 11
19.7393297046
 21
18.7528614478
  0
INSERT
  5
29F
100
AcDbEntity
  8
0
100
AcDbBlockReference
 62
2
  6
CONTINUOUS
  2
_ARROW_FILLED
 10
19.7393297046
 20
24.0735306599
 41
0.1875
 42
0.1875
 43
0.1875
 50
90.0
  0
INSERT
  5
2A0
100
AcDbEntity
  8
0
100
AcDbBlockReference
 62
2
  6
CONTINUOUS
  2
_ARROW_FILLED
 10
19.7393297046
 20
12.1672722489
 41
0.1875
 42
0.1875
 43
0.1875
 50
270.0
  0
ENDBLK
  5
2A1
100
AcDbEntity
  8
0
  6
BYBLOCK
 62
0
100
AcDbBlockEnd
  0
BLOCK
  5
2A2
100
AcDbEntity
  8
0
100
AcDbBlockBegin
 62
2
  6
CONTINUOUS
  2
*D3
 70
65
 10
0.0
 20
0.0
  3
*D3
  1

  0
MTEXT
  5
2A3
100
AcDbEntity
  8
0
100
AcDbMText
 62
2
  6
CONTINUOUS
  7
STANDARD
 71
2
 72
1
 10
21.906069097
 20
17.7217896184
 30
0.0
 11
1.0
 21
0.0
 31
0.0
  1
29-9/32\P[74,4]
 40
0.15625
 41
0.875
  0
LINE
  5
2A4
100
AcDbEntity
  8
0
100
AcDbLine
 62
2
  6
CONTINUOUS
 10
7.2685704855
 20
18.0579014543
 11
7.2685704855
 21
17.5186646184
  0
LINE
  5
2A5
100
AcDbEntity
  8
0
100
AcDbLine
 62
2
  6
CONTINUOUS
 10
36.5435677085
 20
18.0579014543
 11
36.5435677085
 21
17.5186646184
  0
LINE
  5
2A6
100
AcDbEntity
  8
0
100
AcDbLine
 62
2
  6
CONTINUOUS
 10
7.2685704855
 20
17.6436646184
 11
21.390444097
 21
17.6436646184
  0
LINE
  5
2A7
100
AcDbEntity
  8
0
100
AcDbLine
 62
2
  6
CONTINUOUS
 10
36.5435677085
 20
17.6436646184
 11
22.421694097
 21
17.6436646184
  0
INSERT
  5
2A8
100
AcDbEntity
  8
0
100
AcDbBlockReference
 62
2
  6
CONTINUOUS
  2
_ARROW_FILLED
 10
7.2685704855
 20
17.6436646184
 41
0.1875
 42
0.1875
 43
0.1875
 50
180.0
  0
INSERT
  5
2A9
100
AcDbEntity
  8
0
100
AcDbBlockReference
 62
2
  6
CONTINUOUS
  2
_ARROW_FILLED
 10
36.5435677085
 20
17.6436646184
 41
0.1875
 42
0.1875
 43
0.1875
  0
ENDBLK
  5
2AA
100
AcDbEntity
  8
0
  6
BYBLOCK
 62
0
100
AcDbBlockEnd
  0
BLOCK
  5
2AB
100
AcDbEntity
  8
0
100
AcDbBlockBegin
 62
2
  6
CONTINUOUS
  2
*D4
 70
65
 10
0.0
 20
0.0
  3
*D4
  1

  0
MTEXT
  5
2AC
100
AcDbEntity
  8
0
100
AcDbMText
 62
2
  6
CONTINUOUS
  7
STANDARD
 71
2
 72
1
 10
21.8446839974
 20
16.2495583911
 30
0.0
 11
1.0
 21
0.0
 31
0.0
  1
32-1/4\P[82]
 40
0.15625
 41
0.75
  0
LINE
  5
2AD
100
AcDbEntity
  8
0
100
AcDbLine
 62
2
  6
CONTINUOUS
 10
5.7741079066
 20
18.057915744
 11
5.7741079066
 21
16.0464333911
  0
LINE
  5
2AE
100
AcDbEntity
  8
0
100
AcDbLine
 62
2
  6
CONTINUOUS
 10
38.0380302874
 20
18.0578871645
 11
38.0380302874
 21
16.0464333911
  0
LINE
  5
2AF
100
AcDbEntity
  8
0
100
AcDbLine
 62
2
  6
CONTINUOUS
 10
5.7741079066
 20
16.1714333911
 11
21.3915589974
 21
16.1714333911
  0
LINE
  5
2B0
100
AcDbEntity
  8
0
100
AcDbLine
 62
2
  6
CONTINUOUS
 10
38.0380302874
 20
16.1714333911
 11
22.2978089974
 21
16.1714333911
  0
INSERT
  5
2B1
100
AcDbEntity
  8
0
100
AcDbBlockReference
 62
2
  6
CONTINUOUS
  2
_ARROW_FILLED
 10
5.7741079066
 20
16.1714333911
 41
0.1875
 42
0.1875
 43
0.1875
 50
180.0
  0
INSERT
  5
2B2
100
AcDbEntity
  8
0
100
AcDbBlockReference
 62
2
  6
CONTINUOUS
  2
_ARROW_FILLED
 10
38.0380302874
 20
16.1714333911
 41
0.1875
 42
0.1875
 43
0.1875
  0
ENDBLK
  5
2B3
100
AcDbEntity
  8
0
  6
BYBLOCK
 62
0
100
AcDbBlockEnd
  0
BLOCK
  5
2B4
100
AcDbEntity
  8
0
100
AcDbBlockBegin
 62
2
  6
CONTINUOUS
  2
*D5
 70
65
 10
0.0
 20
0.0
  3
*D5
  1

  0
MTEXT
  5
2B5
100
AcDbEntity
  8
0
100
AcDbMText
 62
2
  6
CONTINUOUS
  7
STANDARD
 71
2
 72
1
 10
23.3149931994
 20
16.877466655
 30
0.0
 11
1.0
 21
0.0
 31
0.0
  1
31-11/32\P[79,6]
 40
0.15625
 41
1.0
  0
LINE
  5
2B6
100
AcDbEntity
  8
0
100
AcDbLine
 62
2
  6
CONTINUOUS
 10
6.2367479545
 20
18.0579014543
 11
6.2367479545
 21
16.674341655
  0
LINE
  5
2B7
100
AcDbEntity
  8
0
100
AcDbLine
 62
2
  6
CONTINUOUS
 10
37.5753902395
 20
18.0579014543
 11
37.5753902395
 21
16.674341655
  0
LINE
  5
2B8
100
AcDbEntity
  8
0
100
AcDbLine
 62
2
  6
CONTINUOUS
 10
6.2367479545
 20
16.799341655
 11
22.7368681994
 21
16.799341655
  0
LINE
  5
2B9
100
AcDbEntity
  8
0
100
AcDbLine
 62
2
  6
CONTINUOUS
 10
37.5753902395
 20
16.799341655
 11
23.8931181994
 21
16.799341655
  0
INSERT
  5
2BA
100
AcDbEntity
  8
0
100
AcDbBlockReference
 62
2
  6
CONTINUOUS
  2
_ARROW_FILLED
 10
6.2367479545
 20
16.799341655
 41
0.1875
 42
0.1875
 43
0.1875
 50
180.0
  0
INSERT
  5
2BB
100
AcDbEntity
  8
0
100
AcDbBlockReference
 62
2
  6
CONTINUOUS
  2
_ARROW_FILLED
 10
37.5753902395
 20
16.799341655
 41
0.1875
 42
0.1875
 43
0.1875
  0
ENDBLK
  5
2BC
100
AcDbEntity
  8
0
  6
BYBLOCK
 62
0
100
AcDbBlockEnd
  0
ENDSEC
  0
SECTION
  2
ENTITIES
  0
SOLID
  5
2BD
100
AcDbEntity
  8
0
100
AcDbTrace
 62
2
  6
CONTINUOUS
 10
12.8829431815
 20
22.9126209062
 11
13.0207073482
 21
23.0764420959
 12
13.2127691603
 22
23.0764420959
 13
13.2127691603
 23
23.0764420959
  0
SOLID
  5
2BE
100
AcDbEntity
  8
0
100
AcDbTrace
 62
2
  6
CONTINUOUS
 10
13.2127691603
 20
23.0764420959
 11
12.9994657084
 21
22.8227938229
 12
12.8829431815
 22
22.9126209062
 13
12.8829431815
 23
22.9126209062
  0
SOLID
  5
2BF
100
AcDbEntity
  8
0
100
AcDbTrace
 62
2
  6
CONTINUOUS
 10
12.8829431815
 20
22.6920282805
 11
12.9994657084
 21
22.8227938229
 12
13.0366811215
 22
22.4905284465
 13
13.0366811215
 23
22.4905284465
  0
SOLID
  5
2C0
100
AcDbEntity
  8
0
100
AcDbTrace
 62
2
  6
CONTINUOUS
 10
12.9994657084
 20
22.8227938229
 11
13.2529735431
 21
22.4905284465
 12
13.0366811215
 22
22.4905284465
 13
13.0366811215
 23
22.4905284465
  0
SOLID
  5
2C1
100
AcDbEntity
  8
0
100
AcDbTrace
 62
2
  6
CONTINUOUS
 10
12.8829431815
 20
22.4905284465
 11
12.7084429545
 21
22.490504443
 12
12.8829431815
 22
22.6920282805
 13
12.8829431815
 23
22.6920282805
  0
SOLID
  5
2C2
100
AcDbEntity
  8
0
100
AcDbTrace
 62
2
  6
CONTINUOUS
 10
12.9994657084
 20
22.8227938229
 11
12.8829431815
 21
22.6920282805
 12
12.8829431815
 22
22.9126209062
 13
12.8829431815
 23
22.9126209062
  0
SOLID
  5
2C3
100
AcDbEntity
  8
0
100
AcDbTrace
 62
2
  6
CONTINUOUS
 10
12.8829431815
 20
22.6920282805
 11
12.7084429545
 21
22.490504443
 12
12.8829431815
 22
22.9126209062
 13
12.8829431815
 23
22.9126209062
  0
SOLID
  5
2C4
100
AcDbEntity
  8
0
100
AcDbTrace
 62
2
  6
CONTINUOUS
 10
12.8829431815
 20
22.9126209062
 11
12.7084429545
 21
22.490504443
 12
12.8829431815
 22
23.0764420959
 13
12.8829431815
 23
23.0764420959
  0
SOLID
  5
2C5
100
AcDbEntity
  8
0
100
AcDbTrace
 62
2
  6
CONTINUOUS
 10
12.7084429545
 20
22.490504443
 11
12.7084429545
 21
23.0764420959
 12
12.8829431815
 22
23.0764420959
 13
12.8829431815
 23
23.0764420959
  0
SOLID
  5
2C6
100
AcDbEntity
  8
0
100
AcDbTrace
 62
2
  6
CONTINUOUS
 10
13.3373778278
 20
23.0658326824
 11
13.3983269823
 21
23.0787878251
 12
13.4606377772
 22
23.0787878251
 13
13.4606377772
 23
23.0787878251
  0
SOLID
  5
2C7
100
AcDbEntity
  8
0
100
AcDbTrace
 62
2
  6
CONTINUOUS
 10
13.4606377772
 20
23.0787878251
 11
13.5215869316
 21
23.0658326824
 12
13.3373778278
 22
23.0658326824
 13
13.3373778278
 23
23.0658326824
  0
SOLID
  5
2C8
100
AcDbEntity
  8
0
100
AcDbTrace
 62
2
  6
CONTINUOUS
 10
13.2804540842
 20
23.0404885989
 11
13.3373778278
 21
23.0658326824
 12
13.5215869316
 22
23.0658326824
 13
13.5215869316
 23
23.0658326824
  0
SOLID
  5
2C9
100
AcDbEntity
  8
0
100
AcDbTrace
 62
2
  6
CONTINUOUS
 10
13.5215869316
 20
23.0658326824
 11
13.5785106752
 21
23.0404885989
 12
13.2804540842
 22
23.0404885989
 13
13.2804540842
 23
23.0404885989
  0
SOLID
  5
2CA
100
AcDbEntity
  8
0
100
AcDbTrace
 62
2
  6
CONTINUOUS
 10
13.2300435923
 20
23.0038632326
 11
13.2804540842
 21
23.0404885989
 12
13.5785106752
 22
23.0404885989
 13
13.5785106752
 23
23.0404885989
  0
SOLID
  5
2CB
100
AcDbEntity
  8
0
100
AcDbTrace
 62
2
  6
CONTINUOUS
 10
13.5785106752
 20
23.0404885989
 11
13.6289211672
 21
23.0038632326
 12
13.2300435923
 22
23.0038632326
 13
13.2300435923
 23
23.0038632326
  0
SOLID
  5
2CC
100
AcDbEntity
  8
0
100
AcDbTrace
 62
2
  6
CONTINUOUS
 10
13.1883495323
 20
22.9575572879
 11
13.2300435923
 21
23.0038632326
 12
13.6289211672
 22
23.0038632326
 13
13.6289211672
 23
23.0038632326
  0
SOLID
  5
2CD
100
AcDbEntity
  8
0
100
AcDbTrace
 62
2
  6
CONTINUOUS
 10
13.6289211672
 20
23.0038632326
 11
13.6706152271
 21
22.9575572879
 12
13.1883495323
 22
22.9575572879
 13
13.1883495323
 23
22.9575572879
  0
SOLID
  5
2CE
100
AcDbEntity
  8
0
100
AcDbTrace
 62
2
  6
CONTINUOUS
 10
13.4294823797
 20
22.9071334344
 11
13.1571941349
 21
22.9035945566
 12
13.6706152271
 22
22.9575572879
 13
13.6706152271
 23
22.9575572879
  0
SOLID
  5
2CF
100
AcDbEntity
  8
0
100
AcDbTrace
 62
2
  6
CONTINUOUS
 10
13.1571941349
 20
22.9035945566
 11
13.1883495323
 21
22.9575572879
 12
13.6706152271
 22
22.9575572879
 13
13.6706152271
 23
22.9575572879
  0
SOLID
  5
2D0
100
AcDbEntity
  8
0
100
AcDbTrace
 62
2
  6
CONTINUOUS
 10
13.6706152271
 20
22.9575572879
 11
13.7017706246
 21
22.9035945566
 12
13.4294823797
 22
22.9071334344
 13
13.4294823797
 23
22.9071334344
  0
SOLID
  5
2D1
100
AcDbEntity
  8
0
100
AcDbTrace
 62
2
  6
CONTINUOUS
 10
13.4294823797
 20
22.9071334344
 11
13.3909265101
 21
22.9010267846
 12
13.1571941349
 22
22.9035945566
 13
13.1571941349
 23
22.9035945566
  0
SOLID
  5
2D2
100
AcDbEntity
  8
0
100
AcDbTrace
 62
2
  6
CONTINUOUS
 10
13.4680382494
 20
22.9010267846
 11
13.4294823797
 21
22.9071334344
 12
13.7017706246
 22
22.9035945566
 13
13.7017706246
 23
22.9035945566
  0
SOLID
  5
2D3
100
AcDbEntity
  8
0
100
AcDbTrace
 62
2
  6
CONTINUOUS
 10
13.3285418026
 20
22.8557016414
 11
13.1379390404
 21
22.8443334691
 12
13.3561447576
 22
22.8833045965
 13
13.3561447576
 23
22.8833045965
  0
SOLID
  5
2D4
100
AcDbEntity
  8
0
100
AcDbTrace
 62
2
  6
CONTINUOUS
 10
13.3561447576
 20
22.8833045965
 11
13.1379390404
 21
22.8443334691
 12
13.3909265101
 22
22.9010267846
 13
13.3909265101
 23
22.9010267846
  0
SOLID
  5
2D5
100
AcDbEntity
  8
0
100
AcDbTrace
 62
2
  6
CONTINUOUS
 10
13.1379390404
 20
22.8443334691
 11
13.1571941349
 21
22.9035945566
 12
13.3909265101
 22
22.9010267846
 13
13.3909265101
 23
22.9010267846
  0
SOLID
  5
2D6
100
AcDbEntity
  8
0
100
AcDbTrace
 62
2
  6
CONTINUOUS
 10
13.4680382494
 20
22.9010267846
 11
13.7017706246
 21
22.9035945566
 12
13.5028200019
 22
22.8833045965
 13
13.5028200019
 23
22.8833045965
  0
SOLID
  5
2D7
100
AcDbEntity
  8
0
100
AcDbTrace
 62
2
  6
CONTINUOUS
 10
13.5028200019
 20
22.8833045965
 11
13.7017706246
 21
22.9035945566
 12
13.5304229569
 22
22.8557016414
 13
13.5304229569
 23
22.8557016414
  0
SOLID
  5
2D8
100
AcDbEntity
  8
0
100
AcDbTrace
 62
2
  6
CONTINUOUS
 10
13.7017706246
 20
22.9035945566
 11
13.7210257191
 21
22.8443334691
 12
13.5304229569
 22
22.8557016414
 13
13.5304229569
 23
22.8557016414
  0
SOLID
  5
2D9
100
AcDbEntity
  8
0
100
AcDbTrace
 62
2
  6
CONTINUOUS
 10
13.3285418026
 20
22.8557016414
 11
13.3108196145
 21
22.820919889
 12
13.1379390404
 22
22.8443334691
 13
13.1379390404
 23
22.8443334691
  0
SOLID
  5
2DA
100
AcDbEntity
  8
0
100
AcDbTrace
 62
2
  6
CONTINUOUS
 10
13.548145145
 20
22.820919889
 11
13.5304229569
 21
22.8557016414
 12
13.7210257191
 22
22.8443334691
 13
13.7210257191
 23
22.8443334691
  0
SOLID
  5
2DB
100
AcDbEntity
  8
0
100
AcDbTrace
 62
2
  6
CONTINUOUS
 10
13.1314257888
 20
22.7823640193
 11
13.1379390404
 21
22.8443334691
 12
13.3108196145
 22
22.820919889
 13
13.3108196145
 23
22.820919889
  0
SOLID
  5
2DC
100
AcDbEntity
  8
0
100
AcDbTrace
 62
2
  6
CONTINUOUS
 10
13.3108196145
 20
22.820919889
 11
13.3047129647
 21
22.7823640193
 12
13.1314257888
 22
22.7823640193
 13
13.1314257888
 23
22.7823640193
  0
SOLID
  5
2DD
100
AcDbEntity
  8
0
100
AcDbTrace
 62
2
  6
CONTINUOUS
 10
13.548145145
 20
22.820919889
 11
13.7210257191
 21
22.8443334691
 12
13.5542517948
 22
22.7823640193
 13
13.5542517948
 23
22.7823640193
  0
SOLID
  5
2DE
100
AcDbEntity
  8
0
100
AcDbTrace
 62
2
  6
CONTINUOUS
 10
13.7210257191
 20
22.8443334691
 11
13.7275389707
 21
22.7823640193
 12
13.5542517948
 22
22.7823640193
 13
13.5542517948
 23
22.7823640193
  0
SOLID
  5
2DF
100
AcDbEntity
  8
0
100
AcDbTrace
 62
2
  6
CONTINUOUS
 10
13.548145145
 20
22.7438081497
 11
13.5542517948
 21
22.7823640193
 12
13.7275389707
 22
22.7823640193
 13
13.7275389707
 23
22.7823640193
  0
SOLID
  5
2E0
100
AcDbEntity
  8
0
100
AcDbTrace
 62
2
  6
CONTINUOUS
 10
13.3108196145
 20
22.7438081497
 11
13.1379390404
 21
22.7203945695
 12
13.3047129647
 22
22.7823640193
 13
13.3047129647
 23
22.7823640193
  0
SOLID
  5
2E1
100
AcDbEntity
  8
0
100
AcDbTrace
 62
2
  6
CONTINUOUS
 10
13.1379390404
 20
22.7203945695
 11
13.1314257888
 21
22.7823640193
 12
13.3047129647
 22
22.7823640193
 13
13.3047129647
 23
22.7823640193
  0
SOLID
  5
2E2
100
AcDbEntity
  8
0
100
AcDbTrace
 62
2
  6
CONTINUOUS
 10
13.7275389707
 20
22.7823640193
 11
13.7210257191
 21
22.7203945695
 12
13.548145145
 22
22.7438081497
 13
13.548145145
 23
22.7438081497
  0
SOLID
  5
2E3
100
AcDbEntity
  8
0
100
AcDbTrace
 62
2
  6
CONTINUOUS
 10
13.3108196145
 20
22.7438081497
 11
13.3285418026
 21
22.7090263972
 12
13.1379390404
 22
22.7203945695
 13
13.1379390404
 23
22.7203945695
  0
SOLID
  5
2E4
100
AcDbEntity
  8
0
100
AcDbTrace
 62
2
  6
CONTINUOUS
 10
13.5304229569
 20
22.7090263972
 11
13.548145145
 21
22.7438081497
 12
13.7210257191
 22
22.7203945695
 13
13.7210257191
 23
22.7203945695
  0
SOLID
  5
2E5
100
AcDbEntity
  8
0
100
AcDbTrace
 62
2
  6
CONTINUOUS
 10
13.3909265101
 20
22.6637012541
 11
13.1571941349
 21
22.6611334821
 12
13.3561447576
 22
22.6814234422
 13
13.3561447576
 23
22.6814234422
  0
SOLID
  5
2E6
100
AcDbEntity
  8
0
100
AcDbTrace
 62
2
  6
CONTINUOUS
 10
13.3561447576
 20
22.6814234422
 11
13.1571941349
 21
22.6611334821
 12
13.3285418026
 22
22.7090263972
 13
13.3285418026
 23
22.7090263972
  0
SOLID
  5
2E7
100
AcDbEntity
  8
0
100
AcDbTrace
 62
2
  6
CONTINUOUS
 10
13.1571941349
 20
22.6611334821
 11
13.1379390404
 21
22.7203945695
 12
13.3285418026
 22
22.7090263972
 13
13.3285418026
 23
22.7090263972
  0
SOLID
  5
2E8
100
AcDbEntity
  8
0
100
AcDbTrace
 62
2
  6
CONTINUOUS
 10
13.5304229569
 20
22.7090263972
 11
13.7210257191
 21
22.7203945695
 12
13.5028200019
 22
22.6814234422
 13
13.5028200019
 23
22.6814234422
  0
SOLID
  5
2E9
100
AcDbEntity
  8
0
100
AcDbTrace
 62
2
  6
CONTINUOUS
 10
13.5028200019
 20
22.6814234422
 11
13.7210257191
 21
22.7203945695
 12
13.4680382494
 22
22.6637012541
 13
13.4680382494
 23
22.6637012541
  0
SOLID
  5
2EA
100
AcDbEntity
  8
0
100
AcDbTrace
 62
2
  6
CONTINUOUS
 10
13.7210257191
 20
22.7203945695
 11
13.7017706246
 21
22.6611334821
 12
13.4680382494
 22
22.6637012541
 13
13.4680382494
 23
22.6637012541
  0
SOLID
  5
2EB
100
AcDbEntity
  8
0
100
AcDbTrace
 62
2
  6
CONTINUOUS
 10
13.3909265101
 20
22.6637012541
 11
13.4294823797
 21
22.6575946043
 12
13.1571941349
 22
22.6611334821
 13
13.1571941349
 23
22.6611334821
  0
SOLID
  5
2EC
100
AcDbEntity
  8
0
100
AcDbTrace
 62
2
  6
CONTINUOUS
 10
13.4294823797
 20
22.6575946043
 11
13.4680382494
 21
22.6637012541
 12
13.7017706246
 22
22.6611334821
 13
13.7017706246
 23
22.6611334821
  0
SOLID
  5
2ED
100
AcDbEntity
  8
0
100
AcDbTrace
 62
2
  6
CONTINUOUS
 10
13.1883495323
 20
22.6071707508
 11
13.1571941349
 21
22.6611334821
 12
13.4294823797
 22
22.6575946043
 13
13.4294823797
 23
22.6575946043
  0
SOLID
  5
2EE
100
AcDbEntity
  8
0
100
AcDbTrace
 62
2
  6
CONTINUOUS
 10
13.4294823797
 20
22.6575946043
 11
13.7017706246
 21
22.6611334821
 12
13.1883495323
 22
22.6071707508
 13
13.1883495323
 23
22.6071707508
  0
SOLID
  5
2EF
100
AcDbEntity
  8
0
100
AcDbTrace
 62
2
  6
CONTINUOUS
 10
13.7017706246
 20
22.6611334821
 11
13.6706152271
 21
22.6071707508
 12
13.1883495323
 22
22.6071707508
 13
13.1883495323
 23
22.6071707508
  0
SOLID
  5
2F0
100
AcDbEntity
  8
0
100
AcDbTrace
 62
2
  6
CONTINUOUS
 10
13.2300435923
 20
22.560864806
 11
13.1883495323
 21
22.6071707508
 12
13.6706152271
 22
22.6071707508
 13
13.6706152271
 23
22.6071707508
  0
SOLID
  5
2F1
100
AcDbEntity
  8
0
100
AcDbTrace
 62
2
  6
CONTINUOUS
 10
13.6706152271
 20
22.6071707508
 11
13.6289211672
 21
22.560864806
 12
13.2300435923
 22
22.560864806
 13
13.2300435923
 23
22.560864806
  0
SOLID
  5
2F2
100
AcDbEntity
  8
0
100
AcDbTrace
 62
2
  6
CONTINUOUS
 10
13.2804540842
 20
22.5242394398
 11
13.2300435923
 21
22.560864806
 12
13.6289211672
 22
22.560864806
 13
13.6289211672
 23
22.560864806
  0
SOLID
  5
2F3
100
AcDbEntity
  8
0
100
AcDbTrace
 62
2
  6
CONTINUOUS
 10
13.6289211672
 20
22.560864806
 11
13.5785106752
 21
22.5242394398
 12
13.2804540842
 22
22.5242394398
 13
13.2804540842
 23
22.5242394398
  0
SOLID
  5
2F4
100
AcDbEntity
  8
0
100
AcDbTrace
 62
2
  6
CONTINUOUS
 10
13.3373778278
 20
22.4988953562
 11
13.2804540842
 21
22.5242394398
 12
13.5785106752
 22
22.5242394398
 13
13.5785106752
 23
22.5242394398
  0
SOLID
  5
2F5
100
AcDbEntity
  8
0
100
AcDbTrace
 62
2
  6
CONTINUOUS
 10
13.5785106752
 20
22.5242394398
 11
13.5215869316
 21
22.4988953562
 12
13.3373778278
 22
22.4988953562
 13
13.3373778278
 23
22.4988953562
  0
SOLID
  5
2F6
100
AcDbEntity
  8
0
100
AcDbTrace
 62
2
  6
CONTINUOUS
 10
13.3983269823
 20
22.4859402135
 11
13.3373778278
 21
22.4988953562
 12
13.5215869316
 22
22.4988953562
 13
13.5215869316
 23
22.4988953562
  0
SOLID
  5
2F7
100
AcDbEntity
  8
0
100
AcDbTrace
 62
2
  6
CONTINUOUS
 10
13.5215869316
 20
22.4988953562
 11
13.4606377772
 21
22.4859402135
 12
13.3983269823
 22
22.4859402135
 13
13.3983269823
 23
22.4859402135
  0
SOLID
  5
2F8
100
AcDbEntity
  8
0
100
AcDbTrace
 62
2
  6
CONTINUOUS
 10
14.0573847091
 20
22.8560583362
 11
14.0573847091
 21
23.0764420959
 12
14.2221183889
 22
23.0764420959
 13
14.2221183889
 23
23.0764420959
  0
SOLID
  5
2F9
100
AcDbEntity
  8
0
100
AcDbTrace
 62
2
  6
CONTINUOUS
 10
14.0573847091
 20
22.8560583362
 11
13.909387898
 21
22.7188530563
 12
13.909387898
 22
22.8560583362
 13
13.909387898
 23
22.8560583362
  0
SOLID
  5
2FA
100
AcDbEntity
  8
0
100
AcDbTrace
 62
2
  6
CONTINUOUS
 10
13.909387898
 20
22.7188530563
 11
13.7446542181
 21
22.4905284465
 12
13.909387898
 22
22.8560583362
 13
13.909387898
 23
22.8560583362
  0
SOLID
  5
2FB
100
AcDbEntity
  8
0
100
AcDbTrace
 62
2
  6
CONTINUOUS
 10
13.909387898
 20
22.8560583362
 11
13.7446542181
 21
22.4905284465
 12
13.909387898
 22
23.0764420959
 13
13.909387898
 23
23.0764420959
  0
SOLID
  5
2FC
100
AcDbEntity
  8
0
100
AcDbTrace
 62
2
  6
CONTINUOUS
 10
13.7446542181
 20
22.4905284465
 11
13.7446542181
 21
23.0764420959
 12
13.909387898
 22
23.0764420959
 13
13.909387898
 23
23.0764420959
  0
SOLID
  5
2FD
100
AcDbEntity
  8
0
100
AcDbTrace
 62
2
  6
CONTINUOUS
 10
13.909387898
 20
22.7188530563
 11
13.909387898
 21
22.4905284465
 12
13.7446542181
 22
22.4905284465
 13
13.7446542181
 23
22.4905284465
  0
SOLID
  5
2FE
100
AcDbEntity
  8
0
100
AcDbTrace
 62
2
  6
CONTINUOUS
 10
13.909387898
 20
22.7188530563
 11
14.0573847091
 21
22.8560583362
 12
14.0573847091
 22
22.7188530563
 13
14.0573847091
 23
22.7188530563
  0
SOLID
  5
2FF
100
AcDbEntity
  8
0
100
AcDbTrace
 62
2
  6
CONTINUOUS
 10
14.0573847091
 20
22.8560583362
 11
14.2221183889
 21
23.0764420959
 12
14.0573847091
 22
22.7188530563
 13
14.0573847091
 23
22.7188530563
  0
SOLID
  5
300
100
AcDbEntity
  8
0
100
AcDbTrace
 62
2
  6
CONTINUOUS
 10
14.0573847091
 20
22.7188530563
 11
14.2221183889
 21
23.0764420959
 12
14.0573847091
 22
22.4905284465
 13
14.0573847091
 23
22.4905284465
  0
SOLID
  5
301
100
AcDbEntity
  8
0
100
AcDbTrace
 62
2
  6
CONTINUOUS
 10
14.2221183889
 20
23.0764420959
 11
14.2221183889
 21
22.4905284465
 12
14.0573847091
 22
22.4905284465
 13
14.0573847091
 23
22.4905284465
  0
SOLID
  5
302
100
AcDbEntity
  8
0
100
AcDbTrace
 62
2
  6
CONTINUOUS
 10
14.5798933658
 20
22.6317552037
 11
14.2671632332
 21
22.4905284465
 12
14.4172092959
 22
22.6317552037
 13
14.4172092959
 23
22.6317552037
  0
SOLID
  5
303
100
AcDbEntity
  8
0
100
AcDbTrace
 62
2
  6
CONTINUOUS
 10
14.4172092959
 20
22.6317552037
 11
14.2671632332
 21
22.4905284465
 12
14.4172092959
 22
23.0764420959
 13
14.4172092959
 23
23.0764420959
  0
SOLID
  5
304
100
AcDbEntity
  8
0
100
AcDbTrace
 62
2
  6
CONTINUOUS
 10
14.2671632332
 20
22.4905284465
 11
14.2671632332
 21
23.0764420959
 12
14.4172092959
 22
23.0764420959
 13
14.4172092959
 23
23.0764420959
  0
SOLID
  5
305
100
AcDbEntity
  8
0
100
AcDbTrace
 62
2
  6
CONTINUOUS
 10
14.2671632332
 20
22.4905284465
 11
14.5798933658
 21
22.6317552037
 12
14.4172092959
 22
22.4905284465
 13
14.4172092959
 23
22.4905284465
  0
SOLID
  5
306
100
AcDbEntity
  8
0
100
AcDbTrace
 62
2
  6
CONTINUOUS
 10
14.5798933658
 20
22.6317552037
 11
14.5798933658
 21
22.4905284465
 12
14.4172092959
 22
22.4905284465
 13
14.4172092959
 23
22.4905284465
  0
SOLID
  5
307
100
AcDbEntity
  8
0
100
AcDbTrace
 62
2
  6
CONTINUOUS
 10
14.9181452799
 20
23.0764420959
 11
14.9181452799
 21
22.9336826991
 12
14.7672877565
 22
22.9336826991
 13
14.7672877565
 23
22.9336826991
  0
SOLID
  5
308
100
AcDbEntity
  8
0
100
AcDbTrace
 62
2
  6
CONTINUOUS
 10
14.9181452799
 20
22.8560583362
 11
14.9181452799
 21
22.7116767347
 12
14.7672877565
 22
22.7116767347
 13
14.7672877565
 23
22.7116767347
  0
SOLID
  5
309
100
AcDbEntity
  8
0
100
AcDbTrace
 62
2
  6
CONTINUOUS
 10
14.9181452799
 20
22.6317552037
 11
14.6090411045
 21
22.4905284465
 12
14.7672877565
 22
22.6317552037
 13
14.7672877565
 23
22.6317552037
  0
SOLID
  5
30A
100
AcDbEntity
  8
0
100
AcDbTrace
 62
2
  6
CONTINUOUS
 10
14.7672877565
 20
22.6317552037
 11
14.6090411045
 21
22.4905284465
 12
14.7672877565
 22
22.7116767347
 13
14.7672877565
 23
22.7116767347
  0
SOLID
  5
30B
100
AcDbEntity
  8
0
100
AcDbTrace
 62
2
  6
CONTINUOUS
 10
14.9181452799
 20
22.8560583362
 11
14.7672877565
 21
22.7116767347
 12
14.7672877565
 22
22.8560583362
 13
14.7672877565
 23
22.8560583362
  0
SOLID
  5
30C
100
AcDbEntity
  8
0
100
AcDbTrace
 62
2
  6
CONTINUOUS
 10
14.7672877565
 20
22.7116767347
 11
14.6090411045
 21
22.4905284465
 12
14.7672877565
 22
22.8560583362
 13
14.7672877565
 23
22.8560583362
  0
SOLID
  5
30D
100
AcDbEntity
  8
0
100
AcDbTrace
 62
2
  6
CONTINUOUS
 10
14.7672877565
 20
22.8560583362
 11
14.6090411045
 21
22.4905284465
 12
14.7672877565
 22
22.9336826991
 13
14.7672877565
 23
22.9336826991
  0
SOLID
  5
30E
100
AcDbEntity
  8
0
100
AcDbTrace
 62
2
  6
CONTINUOUS
 10
14.9181452799
 20
23.0764420959
 11
14.7672877565
 21
22.9336826991
 12
14.7814920798
 22
23.0764420959
 13
14.7814920798
 23
23.0764420959
  0
SOLID
  5
30F
100
AcDbEntity
  8
0
100
AcDbTrace
 62
2
  6
CONTINUOUS
 10
14.7672877565
 20
22.9336826991
 11
14.6090411045
 21
22.4905284465
 12
14.7814920798
 22
23.0764420959
 13
14.7814920798
 23
23.0764420959
  0
SOLID
  5
310
100
AcDbEntity
  8
0
100
AcDbTrace
 62
2
  6
CONTINUOUS
 10
14.6090411045
 20
22.4905284465
 11
14.6090411045
 21
23.0764420959
 12
14.7814920798
 22
23.0764420959
 13
14.7814920798
 23
23.0764420959
  0
SOLID
  5
311
100
AcDbEntity
  8
0
100
AcDbTrace
 62
2
  6
CONTINUOUS
 10
14.9181452799
 20
22.6317552037
 11
14.9181452799
 21
22.4905284465
 12
14.6090411045
 22
22.4905284465
 13
14.6090411045
 23
22.4905284465
  0
SOLID
  5
312
100
AcDbEntity
  8
0
100
AcDbTrace
 62
2
  6
CONTINUOUS
 10
15.1965131952
 20
23.0764492015
 11
15.2434462188
 21
23.070038953
 12
14.9629654946
 22
23.0764420959
 13
14.9629654946
 23
23.0764420959
  0
SOLID
  5
313
100
AcDbEntity
  8
0
100
AcDbTrace
 62
2
  6
CONTINUOUS
 10
15.1136213172
 20
22.9338632625
 11
15.3675610582
 21
22.9384925981
 12
15.1695511986
 22
22.9338632625
 13
15.1695511986
 23
22.9338632625
  0
SOLID
  5
314
100
AcDbEntity
  8
0
100
AcDbTrace
 62
2
  6
CONTINUOUS
 10
15.1695511986
 20
22.9338632625
 11
15.3675610582
 21
22.9384925981
 12
15.1932737802
 22
22.9283290942
 13
15.1932737802
 23
22.9283290942
  0
SOLID
  5
315
100
AcDbEntity
  8
0
100
AcDbTrace
 62
2
  6
CONTINUOUS
 10
15.1932737802
 20
22.9283290942
 11
15.3675610582
 21
22.9384925981
 12
15.2120987678
 22
22.9128692192
 13
15.2120987678
 23
22.9128692192
  0
SOLID
  5
316
100
AcDbEntity
  8
0
100
AcDbTrace
 62
2
  6
CONTINUOUS
 10
15.3675610582
 20
22.9384925981
 11
15.3712343046
 21
22.8912664692
 12
15.2120987678
 22
22.9128692192
 13
15.2120987678
 23
22.9128692192
  0
SOLID
  5
317
100
AcDbEntity
  8
0
100
AcDbTrace
 62
2
  6
CONTINUOUS
 10
15.2221397064
 20
22.8906753585
 11
15.2120987678
 21
22.9128692192
 12
15.3712343046
 22
22.8912664692
 13
15.3712343046
 23
22.8912664692
  0
SOLID
  5
318
100
AcDbEntity
  8
0
100
AcDbTrace
 62
2
  6
CONTINUOUS
 10
15.2221397064
 20
22.8906753585
 11
15.3712343046
 21
22.8912664692
 12
15.2213236247
 22
22.8663294778
 13
15.2213236247
 23
22.8663294778
  0
SOLID
  5
319
100
AcDbEntity
  8
0
100
AcDbTrace
 62
2
  6
CONTINUOUS
 10
15.2213236247
 20
22.8663294778
 11
15.3712343046
 21
22.8912664692
 12
15.2098190044
 22
22.8448578312
 13
15.2098190044
 23
22.8448578312
  0
SOLID
  5
31A
100
AcDbEntity
  8
0
100
AcDbTrace
 62
2
  6
CONTINUOUS
 10
15.3712343046
 20
22.8912664692
 11
15.362108701
 21
22.8447850392
 12
15.2098190044
 22
22.8448578312
 13
15.2098190044
 23
22.8448578312
  0
SOLID
  5
31B
100
AcDbEntity
  8
0
100
AcDbTrace
 62
2
  6
CONTINUOUS
 10
15.1900009966
 20
22.8306932817
 11
15.2098190044
 21
22.8448578312
 12
15.362108701
 22
22.8447850392
 13
15.362108701
 23
22.8447850392
  0
SOLID
  5
31C
100
AcDbEntity
  8
0
100
AcDbTrace
 62
2
  6
CONTINUOUS
 10
15.1900009966
 20
22.8306932817
 11
15.362108701
 21
22.8447850392
 12
15.1659610673
 22
22.826760128
 13
15.1659610673
 23
22.826760128
  0
SOLID
  5
31D
100
AcDbEntity
  8
0
100
AcDbTrace
 62
2
  6
CONTINUOUS
 10
15.362108701
 20
22.8447850392
 11
15.3408527253
 21
22.8024532133
 12
15.1659610673
 22
22.826760128
 13
15.1659610673
 23
22.826760128
  0
SOLID
  5
31E
100
AcDbEntity
  8
0
100
AcDbTrace
 62
2
  6
CONTINUOUS
 10
15.2689524429
 20
22.7421109878
 11
15.1136213172
 21
22.6874848173
 12
15.3090234422
 22
22.767371926
 13
15.3090234422
 23
22.767371926
  0
SOLID
  5
31F
100
AcDbEntity
  8
0
100
AcDbTrace
 62
2
  6
CONTINUOUS
 10
15.3090234422
 20
22.767371926
 11
15.1136213172
 21
22.6874848173
 12
15.3408527253
 22
22.8024532133
 13
15.3408527253
 23
22.8024532133
  0
SOLID
  5
320
100
AcDbEntity
  8
0
100
AcDbTrace
 62
2
  6
CONTINUOUS
 10
15.3408527253
 20
22.8024532133
 11
15.1136213172
 21
22.6874848173
 12
15.1659610673
 22
22.826760128
 13
15.1659610673
 23
22.826760128
  0
SOLID
  5
321
100
AcDbEntity
  8
0
100
AcDbTrace
 62
2
  6
CONTINUOUS
 10
15.1136213172
 20
22.6874848173
 11
14.9629654946
 21
22.4905284465
 12
15.1659610673
 22
22.826760128
 13
15.1659610673
 23
22.826760128
  0
SOLID
  5
322
100
AcDbEntity
  8
0
100
AcDbTrace
 62
2
  6
CONTINUOUS
 10
15.1659610673
 20
22.826760128
 11
14.9629654946
 21
22.4905284465
 12
15.1136213172
 22
22.826760128
 13
15.1136213172
 23
22.826760128
  0
SOLID
  5
323
100
AcDbEntity
  8
0
100
AcDbTrace
 62
2
  6
CONTINUOUS
 10
15.1136213172
 20
22.826760128
 11
14.9629654946
 21
22.4905284465
 12
15.1136213172
 22
22.9338632625
 13
15.1136213172
 23
22.9338632625
  0
SOLID
  5
324
100
AcDbEntity
  8
0
100
AcDbTrace
 62
2
  6
CONTINUOUS
 10
15.3675610582
 20
22.9384925981
 11
15.1136213172
 21
22.9338632625
 12
15.3513580381
 22
22.9830039688
 13
15.3513580381
 23
22.9830039688
  0
SOLID
  5
325
100
AcDbEntity
  8
0
100
AcDbTrace
 62
2
  6
CONTINUOUS
 10
15.3513580381
 20
22.9830039688
 11
15.1136213172
 21
22.9338632625
 12
15.3238121646
 22
23.0215399887
 13
15.3238121646
 23
23.0215399887
  0
SOLID
  5
326
100
AcDbEntity
  8
0
100
AcDbTrace
 62
2
  6
CONTINUOUS
 10
15.3238121646
 20
23.0215399887
 11
15.1136213172
 21
22.9338632625
 12
15.2869412563
 22
23.0512777778
 13
15.2869412563
 23
23.0512777778
  0
SOLID
  5
327
100
AcDbEntity
  8
0
100
AcDbTrace
 62
2
  6
CONTINUOUS
 10
15.2869412563
 20
23.0512777778
 11
15.1136213172
 21
22.9338632625
 12
15.2434462188
 22
23.070038953
 13
15.2434462188
 23
23.070038953
  0
SOLID
  5
328
100
AcDbEntity
  8
0
100
AcDbTrace
 62
2
  6
CONTINUOUS
 10
15.2434462188
 20
23.070038953
 11
15.1136213172
 21
22.9338632625
 12
14.9629654946
 22
23.0764420959
 13
14.9629654946
 23
23.0764420959
  0
SOLID
  5
329
100
AcDbEntity
  8
0
100
AcDbTrace
 62
2
  6
CONTINUOUS
 10
14.9629654946
 20
22.4905284465
 11
14.9629654946
 21
23.0764420959
 12
15.1136213172
 22
22.9338632625
 13
15.1136213172
 23
22.9338632625
  0
SOLID
  5
32A
100
AcDbEntity
  8
0
100
AcDbTrace
 62
2
  6
CONTINUOUS
 10
15.1136213172
 20
22.6874848173
 11
15.1136213172
 21
22.4905284465
 12
14.9629654946
 22
22.4905284465
 13
14.9629654946
 23
22.4905284465
  0
SOLID
  5
32B
100
AcDbEntity
  8
0
100
AcDbTrace
 62
2
  6
CONTINUOUS
 10
15.1136213172
 20
22.6874848173
 11
15.2689524429
 21
22.7421109878
 12
15.2384447463
 22
22.4905284465
 13
15.2384447463
 23
22.4905284465
  0
SOLID
  5
32C
100
AcDbEntity
  8
0
100
AcDbTrace
 62
2
  6
CONTINUOUS
 10
15.2689524429
 20
22.7421109878
 11
15.4283956858
 21
22.4905284465
 12
15.2384447463
 22
22.4905284465
 13
15.2384447463
 23
22.4905284465
  0
DIMENSION
  5
32D
100
AcDbEntity
  8
0
100
AcDbDimension
 62
2
  6
CONTINUOUS
  2
*D0
 10
18.8975145308
 20
11.1354302605
 11
18.8975145308
 21
19.7654394753
 70
160
  3
DIMSTYLE_1
100
AcDbAlignedDimension
 13
13.281207533
 23
25.1053726481
 14
13.2880529649
 24
11.1354302605
 50
270.0
100
AcDbRotatedDimension
  0
DIMENSION
  5
32E
100
AcDbEntity
  8
0
100
AcDbDimension
 62
2
  6
CONTINUOUS
  2
*D1
 10
18.0387143649
 20
10.6727902605
 11
18.0387143649
 21
21.0117580322
 70
160
  3
DIMSTYLE_1
100
AcDbAlignedDimension
 13
30.531069097
 23
25.5680126481
 14
30.531069097
 24
10.6727902605
 50
270.0
100
AcDbRotatedDimension
  0
DIMENSION
  5
32F
100
AcDbEntity
  8
0
100
AcDbDimension
 62
2
  6
CONTINUOUS
  2
*D2
 10
19.7393297046
 20
12.1672722489
 11
19.7393297046
 21
19.0262989478
 70
160
  3
DIMSTYLE_1
100
AcDbAlignedDimension
 13
20.1632933185
 23
24.0735306599
 14
13.281069083
 24
12.1672722489
 50
270.0
100
AcDbRotatedDimension
  0
DIMENSION
  5
330
100
AcDbEntity
  8
0
100
AcDbDimension
 62
2
  6
CONTINUOUS
  2
*D3
 10
36.5435677085
 20
17.6436646184
 11
21.906069097
 21
17.5264771184
 70
160
  3
DIMSTYLE_1
100
AcDbAlignedDimension
 13
7.2685704855
 23
18.1204014543
 14
36.5435677085
 24
18.1204014543
100
AcDbRotatedDimension
  0
DIMENSION
  5
331
100
AcDbEntity
  8
0
100
AcDbDimension
 62
2
  6
CONTINUOUS
  2
*D4
 10
38.0380302874
 20
16.1714333911
 11
21.8446839974
 21
16.0542458911
 70
160
  3
DIMSTYLE_1
100
AcDbAlignedDimension
 13
5.7741079066
 23
18.120415744
 14
38.0380302874
 24
18.1203871645
100
AcDbRotatedDimension
  0
DIMENSION
  5
332
100
AcDbEntity
  8
0
100
AcDbDimension
 62
2
  6
CONTINUOUS
  2
*D5
 10
37.5753902395
 20
16.799341655
 11
23.3149931994
 21
16.682154155
 70
160
  3
DIMSTYLE_1
100
AcDbAlignedDimension
 13
6.2367479545
 23
18.1204014543
 14
37.5753902395
 24
18.1204014543
100
AcDbRotatedDimension
  0
MTEXT
  5
333
100
AcDbEntity
  8
___NOTE
100
AcDbMText
 62
2
  6
CONTINUOUS
  7
STANDARD
 71
1
 72
1
 10
12.5372744141
 20
22.2983833952
 30
0.0
 11
1.0
 21
0.0
 31
0.0
  1
CUT-OUT TEMPLATE\PPLAN DE DÉCOUPE\PPLANTILLA DE CORTE\P20213
 40
0.25
 41
3.6
  0
LEADER
  5
334
100
AcDbEntity
  8
___NOTE
100
AcDbLeader
 62
2
  6
CONTINUOUS
  3
STANDARD
 71
1
 72
0
 73
0
 75
0
 40
0.15625
 41
3.625
 76
3
 10
37.849584235
 20
19.9583714097
 30
0.0
 10
35.8087970186
 20
19.4723295233
 30
0.0
 10
35.5587970186
 20
19.4723295233
 30
0.0
340
335
1001
ACAD
1000
DSTYLE
1002
{
1070
77
1070
0
1002
}
  0
MTEXT
  5
335
102
{ACAD_REACTORS
330
334
102
}
100
AcDbEntity
  8
___NOTE
100
AcDbMText
 62
2
  6
CONTINUOUS
  7
STANDARD
 71
3
 72
1
 10
35.5587970186
 20
19.5504545233
 30
0.0
 11
1.0
 21
0.0
 31
0.0
  1
FOR SELF-RIMMING INSTALLATION\PCUT ALONG THIS LINE. \PPOUR DES INSTALLATIONS À REBORD INTÉGRÉ \PDÉCOUPER AU LONG DE CETTE LIGNE.\PPARA INSTALACIONES DE BORDE TERMINADO \PCORTE A LO LARGO DE ESTA LÍNEA.\P 
 40
0.15625
 41
5.0
  0
LEADER
  5
336
100
AcDbEntity
  8
___NOTE
100
AcDbLeader
 62
2
  6
CONTINUOUS
  3
STANDARD
 71
1
 72
0
 73
0
 75
0
 40
0.15625
 41
2.0
 76
3
 10
33.2283509508
 20
25.5452061199
 30
0.0
 10
31.8431821801
 20
23.503960177
 30
0.0
 10
31.5931821801
 20
23.503960177
 30
0.0
340
337
1001
ACAD
1000
DSTYLE
1002
{
1070
77
1070
0
1002
}
  0
MTEXT
  5
337
102
{ACAD_REACTORS
330
336
102
}
100
AcDbEntity
  8
___NOTE
100
AcDbMText
 62
2
  6
CONTINUOUS
  7
STANDARD
 71
3
 72
1
 10
31.5931821801
 20
23.582085177
 30
0.0
 11
1.0
 21
0.0
 31
0.0
  1
RIM OF LAVATORY \PREBORD DE LAVABO \PBORDE DEL LAVABO \P 
 40
0.15625
 41
2.125
  0
LEADER
  5
338
100
AcDbEntity
  8
___NOTE
100
AcDbLeader
 62
2
  6
CONTINUOUS
  3
STANDARD
 71
1
 72
0
 73
0
 75
0
 40
0.15625
 41
1.5
 76
3
 10
34.9228488267
 20
22.4146083752
 30
0.0
 10
33.643498749
 20
22.8443646507
 30
0.0
 10
33.393498749
 20
22.8443646507
 30
0.0
340
339
1001
ACAD
1000
DSTYLE
1002
{
1070
77
1070
0
1002
}
  0
MTEXT
  5
339
102
{ACAD_REACTORS
330
338
102
}
100
AcDbEntity
  8
___NOTE
100
AcDbMText
 62
2
  6
CONTINUOUS
  7
STANDARD
 71
3
 72
1
 10
33.393498749
 20
22.9224896507
 30
0.0
 11
1.0
 21
0.0
 31
0.0
  1
FOR VESSELS \PCUT ALONG THIS LINE \PPOUR VASQUES, \PDÉCOUPER LE LONG DE CETTE LIGNE \PPARA LAVABOS VESSELS, \PCORTE POR ESTA LÍNEA 
 40
0.15625
 41
4.0
  0
LEADER
  5
33A
100
AcDbEntity
  8
___NOTE
100
AcDbLeader
 62
2
  6
CONTINUOUS
  3
STANDARD
 71
1
 72
0
 73
0
 75
0
 40
0.15625
 41
3.75
 76
3
 10
36.8313154331
 20
21.4956255487
 30
0.0
 10
35.1163256318
 20
21.180411666
 30
0.0
 10
34.8663256318
 20
21.180411666
 30
0.0
340
33B
1001
ACAD
1000
DSTYLE
1002
{
1070
77
1070
0
1002
}
  0
MTEXT
  5
33B
102
{ACAD_REACTORS
330
33A
102
}
100
AcDbEntity
  8
___NOTE
100
AcDbMText
 62
2
  6
CONTINUOUS
  7
STANDARD
 71
3
 72
1
 10
34.8663256318
 20
21.258536666
 30
0.0
 11
1.0
 21
0.0
 31
0.0
  1
FOR UNDERCOUNTER INSTALLATION \PCUT ALONG THIS LINE \PPOUR INSTALLATION SOUS COMPTOIR  \PDÉCOUPER LE LONG DE CETTE LIGNE \PPARA INSTALACIÓN BAJO CUBIERTA, \PCORTE POR ESTA LÍNEA 
 40
0.15625
 41
4.125
  0
INSERT
  5
33C
100
AcDbEntity
  8
___SYMBOL
100
AcDbBlockReference
 62
2
  6
CONTINUOUS
  2
SCISSORS_BL0
 10
33.961392265
 20
13.0369789877
  0
INSERT
  5
33D
100
AcDbEntity
  8
___SYMBOL
100
AcDbBlockReference
 62
2
  6
CONTINUOUS
  2
SCISSORS_BL1
 10
35.2648899469
 20
12.7117169233
  0
INSERT
  5
33E
100
AcDbEntity
  8
___SYMBOL
100
AcDbBlockReference
 62
2
  6
CONTINUOUS
  2
SCISSORS_BL2
 10
36.2552805502
 20
13.0205702343
  0
INSERT
  5
33F
100
AcDbEntity
  8
___SYMBOL
100
AcDbBlockReference
 62
2
  6
CONTINUOUS
  2
COPYRIGHT_YEAR_BL3
 10
26.5658149552
 20
13.6827169163
  0
INSERT
  5
340
100
AcDbEntity
  8
___SYMBOL
100
AcDbBlockReference
 62
2
  6
CONTINUOUS
  2
TEMPLATE_NUMBER_BL4
 10
29.8219429535
 20
12.4117616859
  0
INSERT
  5
341
100
AcDbEntity
  8
___SYMBOL
100
AcDbBlockReference
 62
2
  6
CONTINUOUS
  2
TEMPLATE_NUMBER_BL5
 10
29.8771291872
 20
9.7225516365
  0
INSERT
  5
342
100
AcDbEntity
  8
___SYMBOL
100
AcDbBlockReference
 62
2
  6
CONTINUOUS
  2
WHEN_PLOTTING_TEMPLATE_N_BL6
 10
13.6730385507
 20
14.7065230161
  0
LINE
  5
343
100
AcDbEntity
  8
0
100
AcDbLine
 62
2
  6
CONTINUOUS
 10
13.0207073482
 20
23.0764420959
 11
12.8829431815
 21
22.9126209062
  0
LINE
  5
344
100
AcDbEntity
  8
0
100
AcDbLine
 62
2
  6
CONTINUOUS
 10
13.2127691603
 20
23.0764420959
 11
12.9994657084
 21
22.8227938229
  0
LINE
  5
345
100
AcDbEntity
  8
0
100
AcDbLine
 62
2
  6
CONTINUOUS
 10
12.7084429545
 20
23.0764420959
 11
12.7084429545
 21
22.490504443
  0
LINE
  5
346
100
AcDbEntity
  8
0
100
AcDbLine
 62
2
  6
CONTINUOUS
 10
12.8829431815
 20
23.0764420959
 11
12.8829431815
 21
22.9126209062
  0
LINE
  5
347
100
AcDbEntity
  8
0
100
AcDbLine
 62
2
  6
CONTINUOUS
 10
12.8829431815
 20
22.6920282805
 11
12.8829431815
 21
22.4905284465
  0
LINE
  5
348
100
AcDbEntity
  8
0
100
AcDbLine
 62
2
  6
CONTINUOUS
 10
13.7446542181
 20
23.0764420959
 11
13.7446542181
 21
22.4905284465
  0
LINE
  5
349
100
AcDbEntity
  8
0
100
AcDbLine
 62
2
  6
CONTINUOUS
 10
13.909387898
 20
23.0764420959
 11
13.909387898
 21
22.8560583362
  0
LINE
  5
34A
100
AcDbEntity
  8
0
100
AcDbLine
 62
2
  6
CONTINUOUS
 10
13.909387898
 20
22.7188530563
 11
13.909387898
 21
22.4905284465
  0
LINE
  5
34B
100
AcDbEntity
  8
0
100
AcDbLine
 62
2
  6
CONTINUOUS
 10
14.0573847091
 20
23.0764420959
 11
14.0573847091
 21
22.8560583362
  0
LINE
  5
34C
100
AcDbEntity
  8
0
100
AcDbLine
 62
2
  6
CONTINUOUS
 10
14.0573847091
 20
22.7188530563
 11
14.0573847091
 21
22.4905284465
  0
LINE
  5
34D
100
AcDbEntity
  8
0
100
AcDbLine
 62
2
  6
CONTINUOUS
 10
14.2221183889
 20
23.0764420959
 11
14.2221183889
 21
22.4905284465
  0
LINE
  5
34E
100
AcDbEntity
  8
0
100
AcDbLine
 62
2
  6
CONTINUOUS
 10
14.2671632332
 20
22.4905284465
 11
14.2671632332
 21
23.0764420959
  0
LINE
  5
34F
100
AcDbEntity
  8
0
100
AcDbLine
 62
2
  6
CONTINUOUS
 10
14.4172092959
 20
23.0764420959
 11
14.4172092959
 21
22.6317552037
  0
LINE
  5
350
100
AcDbEntity
  8
0
100
AcDbLine
 62
2
  6
CONTINUOUS
 10
14.5798933658
 20
22.6317552037
 11
14.5798933658
 21
22.4905284465
  0
LINE
  5
351
100
AcDbEntity
  8
0
100
AcDbLine
 62
2
  6
CONTINUOUS
 10
14.6090411045
 20
22.4905284465
 11
14.6090411045
 21
23.0764420959
  0
LINE
  5
352
100
AcDbEntity
  8
0
100
AcDbLine
 62
2
  6
CONTINUOUS
 10
14.7672877565
 20
22.9336826991
 11
14.7672877565
 21
22.8560583362
  0
LINE
  5
353
100
AcDbEntity
  8
0
100
AcDbLine
 62
2
  6
CONTINUOUS
 10
14.7672877565
 20
22.7116767347
 11
14.7672877565
 21
22.6317552037
  0
LINE
  5
354
100
AcDbEntity
  8
0
100
AcDbLine
 62
2
  6
CONTINUOUS
 10
14.9181452799
 20
22.4905284465
 11
14.9181452799
 21
22.6317552037
  0
LINE
  5
355
100
AcDbEntity
  8
0
100
AcDbLine
 62
2
  6
CONTINUOUS
 10
14.9181452799
 20
22.7116767347
 11
14.9181452799
 21
22.8560583362
  0
LINE
  5
356
100
AcDbEntity
  8
0
100
AcDbLine
 62
2
  6
CONTINUOUS
 10
14.9181452799
 20
22.9336826991
 11
14.9181452799
 21
23.0764420959
  0
LINE
  5
357
100
AcDbEntity
  8
0
100
AcDbLine
 62
2
  6
CONTINUOUS
 10
14.9629654946
 20
22.4905284465
 11
14.9629654946
 21
23.0764420959
  0
LINE
  5
358
100
AcDbEntity
  8
0
100
AcDbLine
 62
2
  6
CONTINUOUS
 10
15.1136213172
 20
22.9338632625
 11
15.1136213172
 21
22.826760128
  0
LINE
  5
359
100
AcDbEntity
  8
0
100
AcDbLine
 62
2
  6
CONTINUOUS
 10
15.1136213172
 20
22.6874848173
 11
15.1136213172
 21
22.4905284465
  0
LINE
  5
35A
100
AcDbEntity
  8
0
100
AcDbLine
 62
2
  6
CONTINUOUS
 10
15.5532796611
 20
22.4576877557
 11
15.5532796611
 21
22.5236539546
  0
LINE
  5
35B
100
AcDbEntity
  8
0
100
AcDbLine
 62
2
  6
CONTINUOUS
 10
13.0366811215
 20
22.4905284465
 11
12.8829431815
 21
22.6920282805
  0
LINE
  5
35C
100
AcDbEntity
  8
0
100
AcDbLine
 62
2
  6
CONTINUOUS
 10
13.2529735431
 20
22.4905284465
 11
12.9994657084
 21
22.8227938229
  0
LINE
  5
35D
100
AcDbEntity
  8
0
100
AcDbLine
 62
2
  6
CONTINUOUS
 10
15.2384447463
 20
22.4905284465
 11
15.1136213172
 21
22.6874848173
  0
LINE
  5
35E
100
AcDbEntity
  8
0
100
AcDbLine
 62
2
  6
CONTINUOUS
 10
15.4283956858
 20
22.4905284465
 11
15.2689524429
 21
22.7421109878
  0
LINE
  5
35F
100
AcDbEntity
  8
0
100
AcDbLine
 62
2
  6
CONTINUOUS
 10
15.5648776372
 20
22.4899906971
 11
15.59674565
 21
22.4576877557
  0
LINE
  5
360
100
AcDbEntity
  8
0
100
AcDbLine
 62
2
  6
CONTINUOUS
 10
12.8829431815
 20
22.4905284465
 11
12.7084429545
 21
22.490504443
  0
LINE
  5
361
100
AcDbEntity
  8
0
100
AcDbLine
 62
2
  6
CONTINUOUS
 10
15.577558994
 20
22.4899906971
 11
15.5532796611
 21
22.4899906971
  0
LINE
  5
362
100
AcDbEntity
  8
0
100
AcDbLine
 62
2
  6
CONTINUOUS
 10
14.2221183889
 20
22.4905284465
 11
14.0573847091
 21
22.4905284465
  0
LINE
  5
363
100
AcDbEntity
  8
0
100
AcDbLine
 62
2
  6
CONTINUOUS
 10
13.909387898
 20
22.4905284465
 11
13.7446542181
 21
22.4905284465
  0
LINE
  5
364
100
AcDbEntity
  8
0
100
AcDbLine
 62
2
  6
CONTINUOUS
 10
13.0366811215
 20
22.4905284465
 11
13.2529735431
 21
22.4905284465
  0
LINE
  5
365
100
AcDbEntity
  8
0
100
AcDbLine
 62
2
  6
CONTINUOUS
 10
14.2671632332
 20
22.4905284465
 11
14.5798933658
 21
22.4905284465
  0
LINE
  5
366
100
AcDbEntity
  8
0
100
AcDbLine
 62
2
  6
CONTINUOUS
 10
14.6090411045
 20
22.4905284465
 11
14.9181452799
 21
22.4905284465
  0
LINE
  5
367
100
AcDbEntity
  8
0
100
AcDbLine
 62
2
  6
CONTINUOUS
 10
14.9629654946
 20
22.4905284465
 11
15.1136213172
 21
22.4905284465
  0
LINE
  5
368
100
AcDbEntity
  8
0
100
AcDbLine
 62
2
  6
CONTINUOUS
 10
15.2384447463
 20
22.4905284465
 11
15.4283956858
 21
22.4905284465
  0
LINE
  5
369
100
AcDbEntity
  8
0
100
AcDbLine
 62
2
  6
CONTINUOUS
 10
15.5532796611
 20
22.5236539546
 11
15.577558994
 21
22.5236539546
  0
LINE
  5
36A
100
AcDbEntity
  8
0
100
AcDbLine
 62
2
  6
CONTINUOUS
 10
14.4172092959
 20
22.6317552037
 11
14.5798933658
 21
22.6317552037
  0
LINE
  5
36B
100
AcDbEntity
  8
0
100
AcDbLine
 62
2
  6
CONTINUOUS
 10
14.7672877565
 20
22.6317552037
 11
14.9181452799
 21
22.6317552037
  0
LINE
  5
36C
100
AcDbEntity
  8
0
100
AcDbLine
 62
2
  6
CONTINUOUS
 10
14.7672877565
 20
22.7116767347
 11
14.9181452799
 21
22.7116767347
  0
LINE
  5
36D
100
AcDbEntity
  8
0
100
AcDbLine
 62
2
  6
CONTINUOUS
 10
13.909387898
 20
22.7188530563
 11
14.0573847091
 21
22.7188530563
  0
LINE
  5
36E
100
AcDbEntity
  8
0
100
AcDbLine
 62
2
  6
CONTINUOUS
 10
15.1136213172
 20
22.826760128
 11
15.1659610673
 21
22.826760128
  0
LINE
  5
36F
100
AcDbEntity
  8
0
100
AcDbLine
 62
2
  6
CONTINUOUS
 10
13.909387898
 20
22.8560583362
 11
14.0573847091
 21
22.8560583362
  0
LINE
  5
370
100
AcDbEntity
  8
0
100
AcDbLine
 62
2
  6
CONTINUOUS
 10
14.7672877565
 20
22.8560583362
 11
14.9181452799
 21
22.8560583362
  0
LINE
  5
371
100
AcDbEntity
  8
0
100
AcDbLine
 62
2
  6
CONTINUOUS
 10
14.7672877565
 20
22.9336826991
 11
14.9181452799
 21
22.9336826991
  0
LINE
  5
372
100
AcDbEntity
  8
0
100
AcDbLine
 62
2
  6
CONTINUOUS
 10
15.1695511986
 20
22.9338632625
 11
15.1136213172
 21
22.9338632625
  0
LINE
  5
373
100
AcDbEntity
  8
0
100
AcDbLine
 62
2
  6
CONTINUOUS
 10
12.7084429545
 20
23.0764420959
 11
12.8829431815
 21
23.0764420959
  0
LINE
  5
374
100
AcDbEntity
  8
0
100
AcDbLine
 62
2
  6
CONTINUOUS
 10
13.0207073482
 20
23.0764420959
 11
13.2127691603
 21
23.0764420959
  0
LINE
  5
375
100
AcDbEntity
  8
0
100
AcDbLine
 62
2
  6
CONTINUOUS
 10
13.7446542181
 20
23.0764420959
 11
13.909387898
 21
23.0764420959
  0
LINE
  5
376
100
AcDbEntity
  8
0
100
AcDbLine
 62
2
  6
CONTINUOUS
 10
14.0573847091
 20
23.0764420959
 11
14.2221183889
 21
23.0764420959
  0
LINE
  5
377
100
AcDbEntity
  8
0
100
AcDbLine
 62
2
  6
CONTINUOUS
 10
14.2671632332
 20
23.0764420959
 11
14.4172092959
 21
23.0764420959
  0
LINE
  5
378
100
AcDbEntity
  8
0
100
AcDbLine
 62
2
  6
CONTINUOUS
 10
14.6090411045
 20
23.0764420959
 11
14.9181452799
 21
23.0764420959
  0
LINE
  5
379
100
AcDbEntity
  8
0
100
AcDbLine
 62
2
  6
CONTINUOUS
 10
14.9629654946
 20
23.0764420959
 11
15.1965131952
 21
23.0764420959
  0
LINE
  5
37A
100
AcDbEntity
  8
_CURVE
100
AcDbLine
 62
8
  6
PHANTOM
 10
13.281069097
 20
10.3047461646
 11
30.531069097
 21
10.3047461646
  0
LINE
  5
37B
100
AcDbEntity
  8
_CURVE
100
AcDbLine
 62
4
  6
CONTINUOUS
 10
13.281069097
 20
10.6727902605
 11
30.531069097
 21
10.6727902605
  0
LINE
  5
37C
100
AcDbEntity
  8
_CURVE
100
AcDbLine
 62
4
  6
CONTINUOUS
 10
13.2880529649
 20
11.1354302605
 11
30.530930661
 21
11.1354302605
  0
LINE
  5
37D
100
AcDbEntity
  8
_CURVE
100
AcDbLine
 62
4
  6
CONTINUOUS
 10
20.2798513163
 20
24.0735306596
 11
20.9617574465
 21
24.9827406396
  0
LINE
  5
37E
100
AcDbEntity
  8
_CURVE
100
AcDbLine
 62
4
  6
CONTINUOUS
 10
30.5310677542
 20
12.1672722489
 11
13.281069083
 21
12.1672722489
  0
LINE
  5
37F
100
AcDbEntity
  8
_CURVE
100
AcDbLine
 62
2
  6
CENTER
 10
21.906069097
 20
12.4488527317
 11
21.906069097
 21
9.1049033268
  0
LINE
  5
380
100
AcDbEntity
  8
_CURVE
100
AcDbLine
 62
2
  6
CENTER
 10
21.906069097
 20
23.8704142427
 11
21.906069097
 21
26.9850534877
  0
LINE
  5
381
100
AcDbEntity
  8
_CURVE
100
AcDbLine
 62
2
  6
CENTER
 10
7.2316515667
 20
18.1204014543
 11
4.7188134186
 21
18.1204014543
  0
LINE
  5
382
100
AcDbEntity
  8
_CURVE
100
AcDbLine
 62
2
  6
CENTER
 10
36.2944956043
 20
18.1204014543
 11
39.8677049758
 21
18.1204014543
  0
LINE
  5
383
100
AcDbEntity
  8
_CURVE
100
AcDbLine
 62
4
  6
CONTINUOUS
 10
23.5322855226
 20
24.0735306599
 11
22.8503780377
 21
24.9827406396
  0
LINE
  5
384
100
AcDbEntity
  8
_CURVE
100
AcDbLine
 62
4
  6
CONTINUOUS
 10
13.2810704397
 20
24.0735306596
 11
20.2798513163
 21
24.0735306596
  0
LINE
  5
385
100
AcDbEntity
  8
_CURVE
100
AcDbLine
 62
4
  6
CONTINUOUS
 10
23.5322855226
 20
24.0735306599
 11
30.5310677542
 21
24.0735306599
  0
LINE
  5
386
100
AcDbEntity
  8
_CURVE
100
AcDbLine
 62
4
  6
CONTINUOUS
 10
20.9617574465
 20
24.9827406396
 11
22.8503780377
 21
24.9827406396
  0
LINE
  5
387
100
AcDbEntity
  8
_CURVE
100
AcDbLine
 62
4
  6
CONTINUOUS
 10
30.5240852291
 20
25.1053726481
 11
13.281207533
 21
25.1053726481
  0
LINE
  5
388
100
AcDbEntity
  8
_CURVE
100
AcDbLine
 62
4
  6
CONTINUOUS
 10
30.531069097
 20
25.5680126481
 11
13.2810595992
 21
25.5680126481
  0
LINE
  5
389
100
AcDbEntity
  8
_CURVE
100
AcDbLine
 62
8
  6
PHANTOM
 10
30.531069097
 20
25.936056744
 11
13.281069097
 21
25.936056744
  0
CIRCLE
  5
38A
100
AcDbEntity
  8
0
100
AcDbCircle
 62
2
  6
CONTINUOUS
 10
13.4294823797
 20
22.7823640193
 40
0.298056591
  0
ARC
  5
38B
100
AcDbEntity
  8
0
100
AcDbCircle
 62
2
  6
CONTINUOUS
 10
15.1965131952
 20
22.9014325852
 40
0.1750166163
100
AcDbArc
 50
294.4500166359
 51
90.0
  0
CIRCLE
  5
38C
100
AcDbEntity
  8
0
100
AcDbCircle
 62
2
  6
CONTINUOUS
 10
13.4294823797
 20
22.7823640193
 40
0.1247694151
  0
CIRCLE
  5
38D
100
AcDbEntity
  8
0
100
AcDbCircle
 62
2
  6
CONTINUOUS
 10
15.5691656605
 20
22.4905284465
 40
0.0653578721
  0
ARC
  5
38E
100
AcDbEntity
  8
0
100
AcDbCircle
 62
2
  6
CONTINUOUS
 10
15.1695510966
 20
22.8802515275
 40
0.053611735
100
AcDbArc
 50
266.1604009902
 51
89.9998910513
  0
ARC
  5
38F
100
AcDbEntity
  8
0
100
AcDbCircle
 62
2
  6
CONTINUOUS
 10
15.577558994
 20
22.506822505
 40
0.0168314496
100
AcDbArc
 50
270.0
 51
90.0
  0
SPLINE
  5
390
100
AcDbEntity
  8
_CURVE
100
AcDbSpline
 62
4
  6
CONTINUOUS
 70
0
 71
3
 72
50
 73
46
 74
0
 42
0.0000001
 43
0.0000001
 44
0.0000000001
 40
0.0
 40
0.0
 40
0.0
 40
0.0
 40
0.0287602375
 40
0.056535942
 40
0.0834201285
 40
0.1095008633
 40
0.1348551184
 40
0.1595611904
 40
0.1836874708
 40
0.2072993366
 40
0.2304638031
 40
0.2532338982
 40
0.2756665206
 40
0.2978169422
 40
0.3197312194
 40
0.3414636816
 40
0.3630561441
 40
0.3845487569
 40
0.4059887825
 40
0.4274150099
 40
0.4488633347
 40
0.4703719812
 40
0.4919638675
 40
0.5134660064
 40
0.5348324402
 40
0.5561094238
 40
0.5773423105
 40
0.5985732231
 40
0.619845822
 40
0.6412064589
 40
0.6626927018
 40
0.6843458188
 40
0.7062124723
 40
0.7283312055
 40
0.75074279
 40
0.7734912821
 40
0.7966160969
 40
0.8201586821
 40
0.8441605279
 40
0.8686613302
 40
0.8937006161
 40
0.9193180028
 40
0.9455503785
 40
0.9724321443
 40
1.0
 40
1.0
 40
1.0
 40
1.0
 10
13.2810595992
 20
25.5680126481
 30
0.0
 10
13.1672796916
 20
25.5679406531
 30
0.0
 10
12.9435414182
 20
25.5643356421
 30
0.0
 10
12.6137349183
 20
25.5475358915
 30
0.0
 10
12.2952432927
 20
25.5202957466
 30
0.0
 10
11.9873652013
 20
25.4830767314
 30
0.0
 10
11.6894749544
 20
25.4363526474
 30
0.0
 10
11.4009982801
 20
25.3805149829
 30
0.0
 10
11.1214020156
 20
25.3159050272
 30
0.0
 10
10.8501912089
 20
25.2428042718
 30
0.0
 10
10.5869283914
 20
25.1614539516
 30
0.0
 10
10.3312083322
 20
25.0720477569
 30
0.0
 10
10.082675986
 20
24.9747387433
 30
0.0
 10
9.8410066357
 20
24.8696458365
 30
0.0
 10
9.605894926
 20
24.7568413262
 30
0.0
 10
9.3770959371
 20
24.6363776267
 30
0.0
 10
9.1543960302
 20
24.5082807448
 30
0.0
 10
8.9376226713
 20
24.3725500412
 30
0.0
 10
8.7266291288
 20
24.2291606807
 30
0.0
 10
8.5212992281
 20
24.0780669572
 30
0.0
 10
8.3215649191
 20
23.9192148201
 30
0.0
 10
8.1274275857
 20
23.7525666792
 30
0.0
 10
7.9395033277
 20
23.5786398236
 30
0.0
 10
7.7585853434
 20
23.3982246625
 30
0.0
 10
7.5854018671
 20
23.2120559666
 30
0.0
 10
7.4200251999
 20
23.020319479
 30
0.0
 10
7.2623063818
 20
22.8229184721
 30
0.0
 10
7.1121328132
 20
22.6197398639
 30
0.0
 10
6.9694205732
 20
22.4106430605
 30
0.0
 10
6.8341263571
 20
22.1954829068
 30
0.0
 10
6.7062432459
 20
21.974103749
 30
0.0
 10
6.5857997934
 20
21.746332718
 30
0.0
 10
6.472853411
 20
21.5119835062
 30
0.0
 10
6.3674972709
 20
21.2708604184
 30
0.0
 10
6.269865745
 20
21.0227697101
 30
0.0
 10
6.1801246283
 20
20.7675113395
 30
0.0
 10
6.098474231
 20
20.5048803683
 30
0.0
 10
6.0251537191
 20
20.2346824048
 30
0.0
 10
5.9604349175
 20
19.9567261404
 30
0.0
 10
5.9046247334
 20
19.6708330268
 30
0.0
 10
5.8580649603
 20
19.3768417298
 30
0.0
 10
5.8211250588
 20
19.0746090244
 30
0.0
 10
5.7942205045
 20
18.7640355785
 30
0.0
 10
5.7777340125
 20
18.4450241557
 30
0.0
 10
5.774159868
 20
18.2295037988
 30
0.0
 10
5.7741079066
 20
18.120415744
 30
0.0
  0
SPLINE
  5
391
100
AcDbEntity
  8
_CURVE
100
AcDbSpline
 62
4
  6
CONTINUOUS
 70
0
 71
3
 72
50
 73
46
 74
0
 42
0.0000001
 43
0.0000001
 44
0.0000000001
 40
0.0
 40
0.0
 40
0.0
 40
0.0
 40
0.0275678778
 40
0.0544496651
 40
0.0806820618
 40
0.1062994691
 40
0.131338775
 40
0.155839597
 40
0.179841462
 40
0.2033840661
 40
0.2265088994
 40
0.2492574097
 40
0.2716690122
 40
0.2937877632
 40
0.3156544342
 40
0.3373075685
 40
0.3587938286
 40
0.3801544827
 40
0.4014270986
 40
0.4226580282
 40
0.4438909319
 40
0.4651679326
 40
0.4865343835
 40
0.5080365396
 40
0.5296284432
 40
0.5511371069
 40
0.5725854489
 40
0.5940116935
 40
0.6154517363
 40
0.6369443663
 40
0.6585368461
 40
0.6802693257
 40
0.7021836205
 40
0.7243340599
 40
0.7467667003
 40
0.7695368136
 40
0.7927012986
 40
0.8163131834
 40
0.8404394831
 40
0.8651455749
 40
0.8904998503
 40
0.916580606
 40
0.9434648141
 40
0.9712405408
 40
1.0
 40
1.0
 40
1.0
 40
1.0
 10
5.7741079066
 20
18.1203871645
 30
0.0
 10
5.774159868
 20
18.0112991097
 30
0.0
 10
5.7777340125
 20
17.7957787528
 30
0.0
 10
5.7942205045
 20
17.4767673301
 30
0.0
 10
5.8211250588
 20
17.1661938842
 30
0.0
 10
5.8580649603
 20
16.8639611787
 30
0.0
 10
5.9046247334
 20
16.5699698818
 30
0.0
 10
5.9604349175
 20
16.2840767682
 30
0.0
 10
6.0251537191
 20
16.0061205038
 30
0.0
 10
6.098474231
 20
15.7359225402
 30
0.0
 10
6.1801246283
 20
15.4732915691
 30
0.0
 10
6.269865745
 20
15.2180331984
 30
0.0
 10
6.3674972709
 20
14.9699424902
 30
0.0
 10
6.472853411
 20
14.7288194024
 30
0.0
 10
6.5857997934
 20
14.4944701905
 30
0.0
 10
6.7062432459
 20
14.2666991595
 30
0.0
 10
6.8341263571
 20
14.0453200017
 30
0.0
 10
6.9694205732
 20
13.830159848
 30
0.0
 10
7.1121328132
 20
13.6210630447
 30
0.0
 10
7.2623063818
 20
13.4178844364
 30
0.0
 10
7.4200251999
 20
13.2204834295
 30
0.0
 10
7.5854018671
 20
13.028746942
 30
0.0
 10
7.7585853434
 20
12.8425782461
 30
0.0
 10
7.9395033277
 20
12.662163085
 30
0.0
 10
8.1274275857
 20
12.4882362293
 30
0.0
 10
8.3215649191
 20
12.3215880884
 30
0.0
 10
8.5212992281
 20
12.1627359514
 30
0.0
 10
8.7266291288
 20
12.0116422278
 30
0.0
 10
8.9376226713
 20
11.8682528674
 30
0.0
 10
9.1543960302
 20
11.7325221637
 30
0.0
 10
9.3770959371
 20
11.6044252819
 30
0.0
 10
9.605894926
 20
11.4839615824
 30
0.0
 10
9.8410066357
 20
11.3711570721
 30
0.0
 10
10.082675986
 20
11.2660641652
 30
0.0
 10
10.3312083323
 20
11.1687551516
 30
0.0
 10
10.5869283914
 20
11.0793489569
 30
0.0
 10
10.8501912089
 20
10.9979986367
 30
0.0
 10
11.1214020156
 20
10.9248978814
 30
0.0
 10
11.4009982801
 20
10.8602879257
 30
0.0
 10
11.6894749544
 20
10.8044502612
 30
0.0
 10
11.9873652013
 20
10.7577261772
 30
0.0
 10
12.2952432927
 20
10.7205071619
 30
0.0
 10
12.6137349183
 20
10.6932670171
 30
0.0
 10
12.9435382501
 20
10.6764674278
 30
0.0
 10
13.1672733491
 20
10.6728623576
 30
0.0
 10
13.2810500884
 20
10.6727902665
 30
0.0
  0
SPLINE
  5
392
100
AcDbEntity
  8
_CURVE
100
AcDbSpline
 62
4
  6
CONTINUOUS
 70
0
 71
3
 72
50
 73
46
 74
0
 42
0.0000001
 43
0.0000001
 44
0.0000000001
 40
0.0
 40
0.0
 40
0.0
 40
0.0
 40
0.0287594592
 40
0.0565351859
 40
0.083419394
 40
0.1095001497
 40
0.1348544251
 40
0.1595605169
 40
0.1836868166
 40
0.2072987014
 40
0.2304631864
 40
0.2532332997
 40
0.2756659401
 40
0.2978163795
 40
0.3197306743
 40
0.3414631539
 40
0.3630556337
 40
0.3845482637
 40
0.4059883065
 40
0.4274145511
 40
0.4488628931
 40
0.4703715568
 40
0.4919634604
 40
0.5134656165
 40
0.5348320674
 40
0.5561090681
 40
0.5773419718
 40
0.5985729014
 40
0.6198455173
 40
0.6412061714
 40
0.6626924315
 40
0.6843455658
 40
0.7062122368
 40
0.7283309878
 40
0.7507425903
 40
0.7734911006
 40
0.7966159339
 40
0.820158538
 40
0.844160403
 40
0.868661225
 40
0.8937005309
 40
0.9193179382
 40
0.9455503349
 40
0.9724321222
 40
1.0
 40
1.0
 40
1.0
 40
1.0
 10
30.5310881056
 20
10.6727902665
 30
0.0
 10
30.6448648449
 20
10.6728623576
 30
0.0
 10
30.8685999439
 20
10.6764674278
 30
0.0
 10
31.1984032757
 20
10.6932670171
 30
0.0
 10
31.5168949013
 20
10.7205071619
 30
0.0
 10
31.8247729927
 20
10.7577261772
 30
0.0
 10
32.1226632396
 20
10.8044502612
 30
0.0
 10
32.4111399139
 20
10.8602879257
 30
0.0
 10
32.6907361784
 20
10.9248978814
 30
0.0
 10
32.9619469851
 20
10.9979986367
 30
0.0
 10
33.2252098026
 20
11.0793489569
 30
0.0
 10
33.4809298617
 20
11.1687551516
 30
0.0
 10
33.729462208
 20
11.2660641652
 30
0.0
 10
33.9711315583
 20
11.3711570721
 30
0.0
 10
34.206243268
 20
11.4839615824
 30
0.0
 10
34.4350422569
 20
11.6044252819
 30
0.0
 10
34.6577421638
 20
11.7325221638
 30
0.0
 10
34.8745155227
 20
11.8682528674
 30
0.0
 10
35.0855090652
 20
12.0116422278
 30
0.0
 10
35.2908389659
 20
12.1627359514
 30
0.0
 10
35.4905732749
 20
12.3215880884
 30
0.0
 10
35.6847106083
 20
12.4882362293
 30
0.0
 10
35.8726348663
 20
12.662163085
 30
0.0
 10
36.0535528506
 20
12.8425782461
 30
0.0
 10
36.2267363268
 20
13.028746942
 30
0.0
 10
36.3921129941
 20
13.2204834295
 30
0.0
 10
36.5498318122
 20
13.4178844364
 30
0.0
 10
36.7000053808
 20
13.6210630447
 30
0.0
 10
36.8427176208
 20
13.830159848
 30
0.0
 10
36.9780118368
 20
14.0453200017
 30
0.0
 10
37.1058949481
 20
14.2666991595
 30
0.0
 10
37.2263384006
 20
14.4944701905
 30
0.0
 10
37.3392847829
 20
14.7288194024
 30
0.0
 10
37.4446409231
 20
14.9699424902
 30
0.0
 10
37.542272449
 20
15.2180331984
 30
0.0
 10
37.6320135657
 20
15.4732915691
 30
0.0
 10
37.713663963
 20
15.7359225402
 30
0.0
 10
37.7869844749
 20
16.0061205038
 30
0.0
 10
37.8517032765
 20
16.2840767682
 30
0.0
 10
37.9075134606
 20
16.5699698818
 30
0.0
 10
37.9540732337
 20
16.8639611787
 30
0.0
 10
37.9910131352
 20
17.1661938842
 30
0.0
 10
38.0179176895
 20
17.4767673301
 30
0.0
 10
38.0344041815
 20
17.7957787528
 30
0.0
 10
38.037978326
 20
18.0112991097
 30
0.0
 10
38.0380302874
 20
18.1203871645
 30
0.0
  0
SPLINE
  5
393
100
AcDbEntity
  8
_CURVE
100
AcDbSpline
 62
4
  6
CONTINUOUS
 70
0
 71
3
 72
50
 73
46
 74
0
 42
0.0000001
 43
0.0000001
 44
0.0000000001
 40
0.0
 40
0.0
 40
0.0
 40
0.0
 40
0.0275678778
 40
0.0544496651
 40
0.0806820618
 40
0.1062994691
 40
0.131338775
 40
0.155839597
 40
0.179841462
 40
0.2033840661
 40
0.2265088994
 40
0.2492574097
 40
0.2716690122
 40
0.2937877632
 40
0.3156544342
 40
0.3373075685
 40
0.3587938286
 40
0.3801544827
 40
0.4014270986
 40
0.4226580282
 40
0.4438909319
 40
0.4651679326
 40
0.4865343835
 40
0.5080365396
 40
0.5296284432
 40
0.5511371069
 40
0.5725854489
 40
0.5940116935
 40
0.6154517363
 40
0.6369443663
 40
0.6585368461
 40
0.6802693257
 40
0.7021836205
 40
0.7243340599
 40
0.7467667003
 40
0.7695368136
 40
0.7927012986
 40
0.8163131834
 40
0.8404394831
 40
0.8651455749
 40
0.8904998503
 40
0.916580606
 40
0.9434648141
 40
0.9712405408
 40
1.0
 40
1.0
 40
1.0
 40
1.0
 10
38.0380302874
 20
18.120415744
 30
0.0
 10
38.037978326
 20
18.2295037988
 30
0.0
 10
38.0344041815
 20
18.4450241557
 30
0.0
 10
38.0179176895
 20
18.7640355785
 30
0.0
 10
37.9910131352
 20
19.0746090244
 30
0.0
 10
37.9540732337
 20
19.3768417298
 30
0.0
 10
37.9075134606
 20
19.6708330268
 30
0.0
 10
37.8517032765
 20
19.9567261404
 30
0.0
 10
37.7869844749
 20
20.2346824048
 30
0.0
 10
37.713663963
 20
20.5048803683
 30
0.0
 10
37.6320135657
 20
20.7675113395
 30
0.0
 10
37.542272449
 20
21.0227697101
 30
0.0
 10
37.4446409231
 20
21.2708604184
 30
0.0
 10
37.3392847829
 20
21.5119835062
 30
0.0
 10
37.2263384006
 20
21.746332718
 30
0.0
 10
37.1058949481
 20
21.974103749
 30
0.0
 10
36.9780118368
 20
22.1954829068
 30
0.0
 10
36.8427176208
 20
22.4106430605
 30
0.0
 10
36.7000053808
 20
22.6197398639
 30
0.0
 10
36.5498318122
 20
22.8229184721
 30
0.0
 10
36.3921129941
 20
23.020319479
 30
0.0
 10
36.2267363268
 20
23.2120559666
 30
0.0
 10
36.0535528506
 20
23.3982246625
 30
0.0
 10
35.8726348663
 20
23.5786398236
 30
0.0
 10
35.6847106083
 20
23.7525666792
 30
0.0
 10
35.4905732749
 20
23.9192148201
 30
0.0
 10
35.2908389659
 20
24.0780669572
 30
0.0
 10
35.0855090652
 20
24.2291606807
 30
0.0
 10
34.8745155227
 20
24.3725500412
 30
0.0
 10
34.6577421638
 20
24.5082807448
 30
0.0
 10
34.4350422569
 20
24.6363776267
 30
0.0
 10
34.206243268
 20
24.7568413262
 30
0.0
 10
33.9711315583
 20
24.8696458365
 30
0.0
 10
33.7294622079
 20
24.9747387433
 30
0.0
 10
33.4809298617
 20
25.0720477569
 30
0.0
 10
33.2252098026
 20
25.1614539516
 30
0.0
 10
32.9619469851
 20
25.2428042718
 30
0.0
 10
32.6907361784
 20
25.3159050272
 30
0.0
 10
32.4111399139
 20
25.3805149829
 30
0.0
 10
32.1226632396
 20
25.4363526474
 30
0.0
 10
31.8247729927
 20
25.4830767314
 30
0.0
 10
31.5168949013
 20
25.5202957466
 30
0.0
 10
31.1984032757
 20
25.5475358915
 30
0.0
 10
30.8685999439
 20
25.5643354807
 30
0.0
 10
30.6448648449
 20
25.5679405509
 30
0.0
 10
30.5310881056
 20
25.5680126421
 30
0.0
  0
SPLINE
  5
394
100
AcDbEntity
  8
_CURVE
100
AcDbSpline
 62
8
  6
PHANTOM
 70
0
 71
3
 72
29
 73
25
 74
0
 42
0.0000001
 43
0.0000001
 44
0.0000000001
 40
0.0
 40
0.0
 40
0.0
 40
0.0
 40
0.049270228
 40
0.1026463083
 40
0.1560223886
 40
0.2138464756
 40
0.2672225559
 40
0.3250466429
 40
0.3528022047
 40
0.38287073
 40
0.4129392552
 40
0.4285748883
 40
0.4455134909
 40
0.4596420272
 40
0.4749479415
 40
0.5068352629
 40
0.5387225843
 40
0.5732671826
 40
0.6396991023
 40
0.7116670153
 40
0.7780989349
 40
0.8500668479
 40
0.9220347609
 40
1.0
 40
1.0
 40
1.0
 40
1.0
 10
30.531069097
 20
10.3047516987
 30
0.0
 10
30.7974793891
 20
10.3047516987
 30
0.0
 10
31.3384542243
 20
10.3255555131
 30
0.0
 10
32.1163433507
 20
10.4199399102
 30
0.0
 10
32.8879415951
 20
10.5844246579
 30
0.0
 10
33.6080254837
 20
10.8120830706
 30
0.0
 10
34.2939357798
 20
11.1052698805
 30
0.0
 10
34.8132509451
 20
11.3905192627
 30
0.0
 10
35.216762931
 20
11.6528265623
 30
0.0
 10
35.5087151289
 20
11.8640948214
 30
0.0
 10
35.7472510439
 20
12.0560553917
 30
0.0
 10
35.9362500188
 20
12.2203996089
 30
0.0
 10
36.0727851203
 20
12.3457476962
 30
0.0
 10
36.2043566207
 20
12.4728443424
 30
0.0
 10
36.3734905053
 20
12.6443030885
 30
0.0
 10
36.5814667508
 20
12.8721879608
 30
0.0
 10
36.8229693803
 20
13.1663290332
 30
0.0
 10
37.1252496871
 20
13.5781776855
 30
0.0
 10
37.4711017411
 20
14.1408130024
 30
0.0
 10
37.804087588
 20
14.8444006064
 30
0.0
 10
38.0689382564
 20
15.5989604534
 30
0.0
 10
38.2586319253
 20
16.3801550929
 30
0.0
 10
38.3789559629
 20
17.2276960848
 30
0.0
 10
38.4060688526
 20
17.8133229912
 30
0.0
 10
38.4060688526
 20
18.1204014543
 30
0.0
  0
SPLINE
  5
395
100
AcDbEntity
  8
_CURVE
100
AcDbSpline
 62
8
  6
PHANTOM
 70
0
 71
3
 72
29
 73
25
 74
0
 42
0.0000001
 43
0.0000001
 44
0.0000000001
 40
0.0
 40
0.0
 40
0.0
 40
0.0
 40
0.0779652391
 40
0.1499331521
 40
0.2219010651
 40
0.2883329847
 40
0.3603008977
 40
0.4267328174
 40
0.4612774157
 40
0.4931647371
 40
0.5250520585
 40
0.5403579728
 40
0.5544865091
 40
0.5714251117
 40
0.5870607448
 40
0.61712927
 40
0.6471977953
 40
0.6749533571
 40
0.7327774441
 40
0.7861535244
 40
0.8439776114
 40
0.8973536917
 40
0.950729772
 40
1.0
 40
1.0
 40
1.0
 40
1.0
 10
38.4060688526
 20
18.1204014543
 30
0.0
 10
38.4060688526
 20
18.4274799174
 30
0.0
 10
38.3789559629
 20
19.0131068238
 30
0.0
 10
38.2586319253
 20
19.8606478157
 30
0.0
 10
38.0689382564
 20
20.6418424552
 30
0.0
 10
37.804087588
 20
21.3964023022
 30
0.0
 10
37.4711017412
 20
22.0999899061
 30
0.0
 10
37.1252496871
 20
22.6626252231
 30
0.0
 10
36.8229693803
 20
23.0744738753
 30
0.0
 10
36.5814667508
 20
23.3686149478
 30
0.0
 10
36.3734905053
 20
23.5964998201
 30
0.0
 10
36.2043566207
 20
23.7679585662
 30
0.0
 10
36.0727851204
 20
23.8950552123
 30
0.0
 10
35.9362500188
 20
24.0204032996
 30
0.0
 10
35.747251044
 20
24.1847475168
 30
0.0
 10
35.5087151289
 20
24.3767080872
 30
0.0
 10
35.216762931
 20
24.5879763463
 30
0.0
 10
34.8132509451
 20
24.8502836459
 30
0.0
 10
34.2939357798
 20
25.1355330281
 30
0.0
 10
33.6080254837
 20
25.4287198379
 30
0.0
 10
32.8879415951
 20
25.6563782507
 30
0.0
 10
32.1163433507
 20
25.8208629984
 30
0.0
 10
31.3384542243
 20
25.9152473955
 30
0.0
 10
30.7974793891
 20
25.9360512099
 30
0.0
 10
30.531069097
 20
25.9360512099
 30
0.0
  0
SPLINE
  5
396
100
AcDbEntity
  8
_CURVE
100
AcDbSpline
 62
8
  6
PHANTOM
 70
0
 71
3
 72
29
 73
25
 74
0
 42
0.0000001
 43
0.0000001
 44
0.0000000001
 40
0.0
 40
0.0
 40
0.0
 40
0.0
 40
0.049270228
 40
0.1026463083
 40
0.1560223886
 40
0.2138464756
 40
0.2672225559
 40
0.3250466429
 40
0.3528022047
 40
0.38287073
 40
0.4129392552
 40
0.4285748883
 40
0.4455134909
 40
0.4596420272
 40
0.4749479415
 40
0.5068352629
 40
0.5387225843
 40
0.5732671826
 40
0.6396991023
 40
0.7116670153
 40
0.7780989349
 40
0.8500668479
 40
0.9220347609
 40
1.0
 40
1.0
 40
1.0
 40
1.0
 10
13.281069097
 20
25.9360512099
 30
0.0
 10
13.0146588049
 20
25.9360512099
 30
0.0
 10
12.4736839697
 20
25.9152473955
 30
0.0
 10
11.6957948433
 20
25.8208629984
 30
0.0
 10
10.9241965989
 20
25.6563782506
 30
0.0
 10
10.2041127102
 20
25.4287198379
 30
0.0
 10
9.5182024142
 20
25.1355330281
 30
0.0
 10
8.9988872489
 20
24.8502836459
 30
0.0
 10
8.595375263
 20
24.5879763463
 30
0.0
 10
8.3034230651
 20
24.3767080872
 30
0.0
 10
8.06488715
 20
24.1847475168
 30
0.0
 10
7.8758881752
 20
24.0204032996
 30
0.0
 10
7.7393530736
 20
23.8950552123
 30
0.0
 10
7.6077815733
 20
23.7679585662
 30
0.0
 10
7.4386476887
 20
23.59649982
 30
0.0
 10
7.2306714432
 20
23.3686149478
 30
0.0
 10
6.9891688137
 20
23.0744738753
 30
0.0
 10
6.6868885069
 20
22.6626252231
 30
0.0
 10
6.3410364528
 20
22.0999899061
 30
0.0
 10
6.008050606
 20
21.3964023022
 30
0.0
 10
5.7431999376
 20
20.6418424552
 30
0.0
 10
5.5535062687
 20
19.8606478157
 30
0.0
 10
5.4331822311
 20
19.0131068238
 30
0.0
 10
5.4060693414
 20
18.4274799174
 30
0.0
 10
5.4060693414
 20
18.1204014543
 30
0.0
  0
SPLINE
  5
397
100
AcDbEntity
  8
_CURVE
100
AcDbSpline
 62
8
  6
PHANTOM
 70
0
 71
3
 72
29
 73
25
 74
0
 42
0.0000001
 43
0.0000001
 44
0.0000000001
 40
0.0
 40
0.0
 40
0.0
 40
0.0
 40
0.0779652391
 40
0.1499331521
 40
0.2219010651
 40
0.2883329847
 40
0.3603008977
 40
0.4267328174
 40
0.4612774157
 40
0.4931647371
 40
0.5250520585
 40
0.5403579728
 40
0.5544865091
 40
0.5714251117
 40
0.5870607448
 40
0.61712927
 40
0.6471977953
 40
0.6749533571
 40
0.7327774441
 40
0.7861535244
 40
0.8439776114
 40
0.8973536917
 40
0.950729772
 40
1.0
 40
1.0
 40
1.0
 40
1.0
 10
5.4060693414
 20
18.1204014543
 30
0.0
 10
5.4060693414
 20
17.8133229912
 30
0.0
 10
5.4331822311
 20
17.2276960848
 30
0.0
 10
5.5535062687
 20
16.3801550929
 30
0.0
 10
5.7431999375
 20
15.5989604534
 30
0.0
 10
6.008050606
 20
14.8444006064
 30
0.0
 10
6.3410364528
 20
14.1408130024
 30
0.0
 10
6.6868885069
 20
13.5781776855
 30
0.0
 10
6.9891688137
 20
13.1663290332
 30
0.0
 10
7.2306714432
 20
12.8721879608
 30
0.0
 10
7.4386476887
 20
12.6443030885
 30
0.0
 10
7.6077815732
 20
12.4728443424
 30
0.0
 10
7.7393530736
 20
12.3457476962
 30
0.0
 10
7.8758881752
 20
12.2203996089
 30
0.0
 10
8.06488715
 20
12.0560553917
 30
0.0
 10
8.3034230651
 20
11.8640948214
 30
0.0
 10
8.5953752629
 20
11.6528265622
 30
0.0
 10
8.9988872489
 20
11.3905192627
 30
0.0
 10
9.5182024142
 20
11.1052698805
 30
0.0
 10
10.2041127102
 20
10.8120830706
 30
0.0
 10
10.9241965989
 20
10.5844246579
 30
0.0
 10
11.6957948433
 20
10.4199399102
 30
0.0
 10
12.4736839697
 20
10.3255555131
 30
0.0
 10
13.0146588049
 20
10.3047516986
 30
0.0
 10
13.281069097
 20
10.3047516986
 30
0.0
  0
SPLINE
  5
398
100
AcDbEntity
  8
_CURVE
100
AcDbSpline
 62
4
  6
CONTINUOUS
 70
0
 71
3
 72
29
 73
25
 74
0
 42
0.0000001
 43
0.0000001
 44
0.0000000001
 40
0.0
 40
0.0
 40
0.0
 40
0.0
 40
0.0492702281
 40
0.1026463085
 40
0.1560223888
 40
0.2138464758
 40
0.2672225561
 40
0.3250466431
 40
0.3528022048
 40
0.3828707301
 40
0.4129392553
 40
0.4285748884
 40
0.445513491
 40
0.4596420272
 40
0.4749479415
 40
0.506835263
 40
0.5387225844
 40
0.5732671827
 40
0.6396991023
 40
0.7116670153
 40
0.778098935
 40
0.850066848
 40
0.9220347609
 40
1.0
 40
1.0
 40
1.0
 40
1.0
 10
13.2810704397
 20
24.0735306596
 30
0.0
 10
13.0612006945
 20
24.0735306596
 30
0.0
 10
12.6198410424
 20
24.0563955355
 30
0.0
 10
11.999863822
 20
23.9808305107
 30
0.0
 10
11.3988435382
 20
23.8524002513
 30
0.0
 10
10.8495541306
 20
23.6784422792
 30
0.0
 10
10.3346293622
 20
23.4581575067
 30
0.0
 10
9.948818888
 20
23.2461422846
 30
0.0
 10
9.6500246372
 20
23.0519042671
 30
0.0
 10
9.4340055487
 20
22.8955833635
 30
0.0
 10
9.2573927013
 20
22.7534594766
 30
0.0
 10
9.1172633542
 20
22.631613018
 30
0.0
 10
9.0158413561
 20
22.538501778
 30
0.0
 10
8.9181406739
 20
22.4441226315
 30
0.0
 10
8.792884787
 20
22.3171403945
 30
0.0
 10
8.6392846273
 20
22.1488244113
 30
0.0
 10
8.4612838725
 20
21.9320198749
 30
0.0
 10
8.2385430001
 20
21.6285431691
 30
0.0
 10
7.9829334817
 20
21.2128788418
 30
0.0
 10
7.7340916596
 20
20.6876207543
 30
0.0
 10
7.5329135687
 20
20.1152319102
 30
0.0
 10
7.3859560444
 20
19.511379713
 30
0.0
 10
7.290662071
 20
18.8424906743
 30
0.0
 10
7.2685704855
 20
18.3704637944
 30
0.0
 10
7.2685704855
 20
18.1204014543
 30
0.0
  0
SPLINE
  5
399
100
AcDbEntity
  8
_CURVE
100
AcDbSpline
 62
4
  6
CONTINUOUS
 70
0
 71
3
 72
29
 73
25
 74
0
 42
0.0000001
 43
0.0000001
 44
0.0000000001
 40
0.0
 40
0.0
 40
0.0
 40
0.0
 40
0.077965247
 40
0.1499331672
 40
0.2219010875
 40
0.2883330139
 40
0.3603009342
 40
0.4267328606
 40
0.4612774623
 40
0.493164787
 40
0.5250521117
 40
0.5403580275
 40
0.5544865652
 40
0.5714251695
 40
0.5870608042
 40
0.6171293325
 40
0.6471978608
 40
0.6749534253
 40
0.7327775182
 40
0.7861536039
 40
0.8439776968
 40
0.8973537825
 40
0.9507298682
 40
1.0
 40
1.0
 40
1.0
 40
1.0
 10
7.2685704855
 20
18.1204014543
 30
0.0
 10
7.2685704855
 20
17.8703391141
 30
0.0
 10
7.290662071
 20
17.3983122342
 30
0.0
 10
7.3859560444
 20
16.7294231956
 30
0.0
 10
7.5329135687
 20
16.1255709983
 30
0.0
 10
7.7340916596
 20
15.5531821542
 30
0.0
 10
7.9829334817
 20
15.0279240667
 30
0.0
 10
8.2385430001
 20
14.6122597394
 30
0.0
 10
8.4612838725
 20
14.3087830337
 30
0.0
 10
8.6392846273
 20
14.0919784972
 30
0.0
 10
8.792884787
 20
13.9236625141
 30
0.0
 10
8.9181406739
 20
13.796680277
 30
0.0
 10
9.0158413561
 20
13.7023011305
 30
0.0
 10
9.1172633542
 20
13.6091898905
 30
0.0
 10
9.2573927013
 20
13.4873434319
 30
0.0
 10
9.4340055487
 20
13.3452195451
 30
0.0
 10
9.6500246372
 20
13.1888986415
 30
0.0
 10
9.948818888
 20
12.994660624
 30
0.0
 10
10.3346293622
 20
12.7826454018
 30
0.0
 10
10.8495541306
 20
12.5623606294
 30
0.0
 10
11.3988435382
 20
12.3884026572
 30
0.0
 10
11.999863822
 20
12.2599723979
 30
0.0
 10
12.6198406397
 20
12.1844074221
 30
0.0
 10
13.061199823
 20
12.1672722828
 30
0.0
 10
13.281069083
 20
12.1672722489
 30
0.0
  0
SPLINE
  5
39A
100
AcDbEntity
  8
_CURVE
100
AcDbSpline
 62
4
  6
CONTINUOUS
 70
0
 71
3
 72
29
 73
25
 74
0
 42
0.0000001
 43
0.0000001
 44
0.0000000001
 40
0.0
 40
0.0
 40
0.0
 40
0.0
 40
0.0492702281
 40
0.1026463085
 40
0.1560223888
 40
0.2138464758
 40
0.2672225561
 40
0.3250466431
 40
0.3528022048
 40
0.3828707301
 40
0.4129392553
 40
0.4285748884
 40
0.445513491
 40
0.4596420272
 40
0.4749479415
 40
0.506835263
 40
0.5387225844
 40
0.5732671827
 40
0.6396991023
 40
0.7116670153
 40
0.778098935
 40
0.850066848
 40
0.9220347609
 40
1.0
 40
1.0
 40
1.0
 40
1.0
 10
30.5310677542
 20
12.1672722489
 30
0.0
 10
30.7509374994
 20
12.1672722489
 30
0.0
 10
31.1922971516
 20
12.1844073731
 30
0.0
 10
31.812274372
 20
12.2599723979
 30
0.0
 10
32.4132946558
 20
12.3884026572
 30
0.0
 10
32.9625840634
 20
12.5623606294
 30
0.0
 10
33.4775088318
 20
12.7826454018
 30
0.0
 10
33.863319306
 20
12.994660624
 30
0.0
 10
34.1621135567
 20
13.1888986415
 30
0.0
 10
34.3781326453
 20
13.3452195451
 30
0.0
 10
34.5547454927
 20
13.4873434319
 30
0.0
 10
34.6948748397
 20
13.6091898905
 30
0.0
 10
34.7962968379
 20
13.7023011305
 30
0.0
 10
34.8939975201
 20
13.796680277
 30
0.0
 10
35.019253407
 20
13.9236625141
 30
0.0
 10
35.1728535667
 20
14.0919784972
 30
0.0
 10
35.3508543215
 20
14.3087830337
 30
0.0
 10
35.5735951939
 20
14.6122597394
 30
0.0
 10
35.8292047123
 20
15.0279240667
 30
0.0
 10
36.0780465344
 20
15.5531821542
 30
0.0
 10
36.2792246253
 20
16.1255709983
 30
0.0
 10
36.4261821495
 20
16.7294231956
 30
0.0
 10
36.521476123
 20
17.3983122342
 30
0.0
 10
36.5435677085
 20
17.8703391141
 30
0.0
 10
36.5435677085
 20
18.1204014543
 30
0.0
  0
SPLINE
  5
39B
100
AcDbEntity
  8
_CURVE
100
AcDbSpline
 62
4
  6
CONTINUOUS
 70
0
 71
3
 72
29
 73
25
 74
0
 42
0.0000001
 43
0.0000001
 44
0.0000000001
 40
0.0
 40
0.0
 40
0.0
 40
0.0
 40
0.0779652391
 40
0.149933152
 40
0.221901065
 40
0.2883329847
 40
0.3603008977
 40
0.4267328173
 40
0.4612774156
 40
0.493164737
 40
0.5250520585
 40
0.5403579728
 40
0.554486509
 40
0.5714251116
 40
0.5870607447
 40
0.6171292699
 40
0.6471977952
 40
0.6749533569
 40
0.7327774439
 40
0.7861535242
 40
0.8439776112
 40
0.8973536915
 40
0.9507297719
 40
1.0
 40
1.0
 40
1.0
 40
1.0
 10
36.5435677085
 20
18.1204014543
 30
0.0
 10
36.5435677085
 20
18.3704637944
 30
0.0
 10
36.521476123
 20
18.8424906743
 30
0.0
 10
36.4261821495
 20
19.511379713
 30
0.0
 10
36.2792246253
 20
20.1152319102
 30
0.0
 10
36.0780465344
 20
20.6876207543
 30
0.0
 10
35.8292047123
 20
21.2128788418
 30
0.0
 10
35.5735951939
 20
21.6285431691
 30
0.0
 10
35.3508543215
 20
21.9320198749
 30
0.0
 10
35.1728535667
 20
22.1488244113
 30
0.0
 10
35.019253407
 20
22.3171403945
 30
0.0
 10
34.8939975201
 20
22.4441226315
 30
0.0
 10
34.7962968379
 20
22.538501778
 30
0.0
 10
34.6948748397
 20
22.631613018
 30
0.0
 10
34.5547454927
 20
22.7534594766
 30
0.0
 10
34.3781326453
 20
22.8955833635
 30
0.0
 10
34.1621135567
 20
23.0519042671
 30
0.0
 10
33.863319306
 20
23.2461422846
 30
0.0
 10
33.4775088318
 20
23.4581575067
 30
0.0
 10
32.9625840634
 20
23.6784422792
 30
0.0
 10
32.4132946558
 20
23.8524002513
 30
0.0
 10
31.812274372
 20
23.9808305107
 30
0.0
 10
31.1922971516
 20
24.0563955355
 30
0.0
 10
30.7509374994
 20
24.0735306596
 30
0.0
 10
30.5310677542
 20
24.0735306596
 30
0.0
  0
SPLINE
  5
39C
100
AcDbEntity
  8
_CURVE
100
AcDbSpline
 62
4
  6
CONTINUOUS
 70
0
 71
3
 72
50
 73
46
 74
0
 42
0.0000001
 43
0.0000001
 44
0.0000000001
 40
0.0
 40
0.0
 40
0.0
 40
0.0
 40
0.0287483907
 40
0.0565249542
 40
0.0834099722
 40
0.1094915135
 40
0.1348465526
 40
0.1595533887
 40
0.1836804152
 40
0.2072930112
 40
0.2304581941
 40
0.2532289933
 40
0.2756623094
 40
0.2978134161
 40
0.319728371
 40
0.3414615053
 40
0.3630546355
 40
0.384547913
 40
0.4059886016
 40
0.4274154916
 40
0.4488644798
 40
0.4703737914
 40
0.4919663454
 40
0.5134691492
 40
0.5348362438
 40
0.5561138854
 40
0.5773474288
 40
0.5985789979
 40
0.6198522546
 40
0.6412135522
 40
0.6627004596
 40
0.6843542461
 40
0.7062215759
 40
0.7283409931
 40
0.7507532707
 40
0.7735024663
 40
0.7966279963
 40
0.8201713095
 40
0.8441738975
 40
0.8686754576
 40
0.8937155177
 40
0.9193336967
 40
0.9455668836
 40
0.9724494807
 40
1.0
 40
1.0
 40
1.0
 40
1.0
 10
30.530930661
 20
11.1354302605
 30
0.0
 10
30.6398826227
 20
11.1354302605
 30
0.0
 10
30.8533683709
 20
11.1389817501
 30
0.0
 10
31.1670250258
 20
11.1549265514
 30
0.0
 10
31.469570567
 20
11.1808163866
 30
0.0
 10
31.7612771479
 20
11.2160850043
 30
0.0
 10
32.0429603695
 20
11.2602722704
 30
0.0
 10
32.3151809191
 20
11.3129684785
 30
0.0
 10
32.5785178893
 20
11.373825784
 30
0.0
 10
32.8334973646
 20
11.4425559082
 30
0.0
 10
33.080600285
 20
11.5189165918
 30
0.0
 10
33.3202591681
 20
11.6027109242
 30
0.0
 10
33.5528690936
 20
11.6937888693
 30
0.0
 10
33.7787936931
 20
11.7920376681
 30
0.0
 10
33.9983672749
 20
11.8973893674
 30
0.0
 10
34.2118779889
 20
12.0098055045
 30
0.0
 10
34.4195692908
 20
12.1292708158
 30
0.0
 10
34.621642353
 20
12.2557979801
 30
0.0
 10
34.8182819491
 20
12.3894328785
 30
0.0
 10
35.0096331363
 20
12.5302402295
 30
0.0
 10
35.1957844242
 20
12.6782890803
 30
0.0
 10
35.3767755969
 20
12.8336509539
 30
0.0
 10
35.5520571378
 20
12.995876796
 30
0.0
 10
35.7207363898
 20
13.1640890929
 30
0.0
 10
35.8820747514
 20
13.3375268426
 30
0.0
 10
36.0360878678
 20
13.5160891789
 30
0.0
 10
36.1829371142
 20
13.699886362
 30
0.0
 10
36.3227601337
 20
13.8890607207
 30
0.0
 10
36.4556623665
 20
14.0837830618
 30
0.0
 10
36.5817085955
 20
14.2842339883
 30
0.0
 10
36.7009179908
 20
14.490595107
 30
0.0
 10
36.8132762384
 20
14.7030721402
 30
0.0
 10
36.9187402854
 20
14.9218912093
 30
0.0
 10
37.0172226567
 20
15.1472761709
 30
0.0
 10
37.10859539
 20
15.3794546568
 30
0.0
 10
37.1926974893
 20
15.6186636411
 30
0.0
 10
37.2693285613
 20
15.8651379427
 30
0.0
 10
37.3382485621
 20
16.1191048146
 30
0.0
 10
37.3991826135
 20
16.3807887095
 30
0.0
 10
37.4518176485
 20
16.6503945877
 30
0.0
 10
37.4958062992
 20
16.9281235142
 30
0.0
 10
37.5307640382
 20
17.2141081824
 30
0.0
 10
37.556285458
 20
17.5085965073
 30
0.0
 10
37.5719064405
 20
17.8113246644
 30
0.0
 10
37.5753902395
 20
18.0163546487
 30
0.0
 10
37.5753902395
 20
18.1204014543
 30
0.0
  0
SPLINE
  5
39D
100
AcDbEntity
  8
_CURVE
100
AcDbSpline
 62
4
  6
CONTINUOUS
 70
0
 71
3
 72
50
 73
46
 74
0
 42
0.0000001
 43
0.0000001
 44
0.0000000001
 40
0.0
 40
0.0
 40
0.0
 40
0.0
 40
0.0275505193
 40
0.0544331164
 40
0.0806663033
 40
0.1062844823
 40
0.1313245424
 40
0.1558261025
 40
0.1798286905
 40
0.2033720037
 40
0.2264975337
 40
0.2492467293
 40
0.2716590069
 40
0.2937784241
 40
0.3156457539
 40
0.3372995404
 40
0.3587864478
 40
0.3801477454
 40
0.4014210021
 40
0.4226525712
 40
0.4438861146
 40
0.4651637562
 40
0.4865308508
 40
0.5080336546
 40
0.5296262086
 40
0.5511355202
 40
0.5725845084
 40
0.5940113984
 40
0.615452087
 40
0.6369453645
 40
0.6585384947
 40
0.680271629
 40
0.7021865839
 40
0.7243376906
 40
0.7467710067
 40
0.7695418059
 40
0.7927069888
 40
0.8163195848
 40
0.8404466113
 40
0.8651534474
 40
0.8905084865
 40
0.9165900278
 40
0.9434750458
 40
0.9712516093
 40
1.0
 40
1.0
 40
1.0
 40
1.0
 10
37.5753902395
 20
18.1204014543
 30
0.0
 10
37.5753902395
 20
18.2244992544
 30
0.0
 10
37.5717316741
 20
18.4296279917
 30
0.0
 10
37.5559847598
 20
18.7324969012
 30
0.0
 10
37.5303003155
 20
19.027117122
 30
0.0
 10
37.4951884236
 20
19.313224937
 30
0.0
 10
37.4510427846
 20
19.5910685767
 30
0.0
 10
37.3982510982
 20
19.8607809871
 30
0.0
 10
37.3371600152
 20
20.1225635003
 30
0.0
 10
37.2680828615
 20
20.3766213291
 30
0.0
 10
37.1912944875
 20
20.62317917
 30
0.0
 10
37.1070349581
 20
20.8624645037
 30
0.0
 10
37.0155046473
 20
21.0947123616
 30
0.0
 10
36.9168645156
 20
21.3201599123
 30
0.0
 10
36.8112424773
 20
21.539034961
 30
0.0
 10
36.6987259416
 20
21.7515615167
 30
0.0
 10
36.5793578727
 20
21.9579658326
 30
0.0
 10
36.4531524915
 20
22.1584537385
 30
0.0
 10
36.3200905304
 20
22.3532069209
 30
0.0
 10
36.180107087
 20
22.54240604
 30
0.0
 10
36.0330965865
 20
22.726221935
 30
0.0
 10
35.8789212489
 20
22.9047969376
 30
0.0
 10
35.7174195668
 20
23.0782412836
 30
0.0
 10
35.5485759361
 20
23.2464540496
 30
0.0
 10
35.3731296899
 20
23.4086742198
 30
0.0
 10
35.1919743491
 20
23.5640242841
 30
0.0
 10
35.0056599178
 20
23.7120552352
 30
0.0
 10
34.8141465576
 20
23.8528386118
 30
0.0
 10
34.617345682
 20
23.9864434519
 30
0.0
 10
34.4151121313
 20
24.1129344354
 30
0.0
 10
34.2072610189
 20
24.2323573759
 30
0.0
 10
33.993591068
 20
24.3447248608
 30
0.0
 10
33.7738587107
 20
24.4500215006
 30
0.0
 10
33.5477756748
 20
24.5482086739
 30
0.0
 10
33.315007521
 20
24.6392182315
 30
0.0
 10
33.0751904946
 20
24.7229371835
 30
0.0
 10
32.8279293951
 20
24.7992152247
 30
0.0
 10
32.5727915883
 20
24.8678551515
 30
0.0
 10
32.3092960168
 20
24.9286142997
 30
0.0
 10
32.036916478
 20
24.9812041972
 30
0.0
 10
31.7550737649
 20
25.0252757582
 30
0.0
 10
31.4632071136
 20
25.060421874
 30
0.0
 10
31.1605007501
 20
25.0861698043
 30
0.0
 10
30.8466826512
 20
25.101999812
 30
0.0
 10
30.6330905894
 20
25.1053726481
 30
0.0
 10
30.5240852291
 20
25.1053726481
 30
0.0
  0
SPLINE
  5
39E
100
AcDbEntity
  8
_CURVE
100
AcDbSpline
 62
4
  6
CONTINUOUS
 70
0
 71
3
 72
50
 73
46
 74
0
 42
0.0000001
 43
0.0000001
 44
0.0000000001
 40
0.0
 40
0.0
 40
0.0
 40
0.0
 40
0.0287483907
 40
0.0565249542
 40
0.0834099722
 40
0.1094915135
 40
0.1348465526
 40
0.1595533887
 40
0.1836804152
 40
0.2072930112
 40
0.2304581941
 40
0.2532289933
 40
0.2756623094
 40
0.2978134161
 40
0.319728371
 40
0.3414615053
 40
0.3630546355
 40
0.384547913
 40
0.4059886016
 40
0.4274154916
 40
0.4488644798
 40
0.4703737914
 40
0.4919663454
 40
0.5134691492
 40
0.5348362438
 40
0.5561138854
 40
0.5773474288
 40
0.5985789979
 40
0.6198522546
 40
0.6412135522
 40
0.6627004596
 40
0.6843542461
 40
0.7062215759
 40
0.7283409931
 40
0.7507532707
 40
0.7735024663
 40
0.7966279963
 40
0.8201713095
 40
0.8441738975
 40
0.8686754576
 40
0.8937155177
 40
0.9193336967
 40
0.9455668836
 40
0.9724494807
 40
1.0
 40
1.0
 40
1.0
 40
1.0
 10
13.281207533
 20
25.1053726481
 30
0.0
 10
13.1722555713
 20
25.1053726481
 30
0.0
 10
12.958769823
 20
25.1018211585
 30
0.0
 10
12.6451131681
 20
25.0858763572
 30
0.0
 10
12.342567627
 20
25.059986522
 30
0.0
 10
12.0508610461
 20
25.0247179042
 30
0.0
 10
11.7691778245
 20
24.9805306382
 30
0.0
 10
11.4969572749
 20
24.9278344301
 30
0.0
 10
11.2336203047
 20
24.8669771245
 30
0.0
 10
10.9786408293
 20
24.7982470004
 30
0.0
 10
10.731537909
 20
24.7218863167
 30
0.0
 10
10.4918790259
 20
24.6380919843
 30
0.0
 10
10.2592691004
 20
24.5470140392
 30
0.0
 10
10.0333445008
 20
24.4487652405
 30
0.0
 10
9.813770919
 20
24.3434135412
 30
0.0
 10
9.6002602051
 20
24.230997404
 30
0.0
 10
9.3925689031
 20
24.1115320928
 30
0.0
 10
9.190495841
 20
23.9850049284
 30
0.0
 10
8.9938562448
 20
23.85137003
 30
0.0
 10
8.8025050577
 20
23.7105626791
 30
0.0
 10
8.6163537698
 20
23.5625138282
 30
0.0
 10
8.435362597
 20
23.4071519547
 30
0.0
 10
8.2600810561
 20
23.2449261126
 30
0.0
 10
8.0914018042
 20
23.0767138157
 30
0.0
 10
7.9300634426
 20
22.9032760659
 30
0.0
 10
7.7760503261
 20
22.7247137296
 30
0.0
 10
7.6292010798
 20
22.5409165465
 30
0.0
 10
7.4893780603
 20
22.3517421879
 30
0.0
 10
7.3564758275
 20
22.1570198468
 30
0.0
 10
7.2304295985
 20
21.9565689203
 30
0.0
 10
7.1112202032
 20
21.7502078015
 30
0.0
 10
6.9988619556
 20
21.5377307683
 30
0.0
 10
6.8933979085
 20
21.3189116992
 30
0.0
 10
6.7949155373
 20
21.0935267376
 30
0.0
 10
6.703542804
 20
20.8613482517
 30
0.0
 10
6.6194407047
 20
20.6221392674
 30
0.0
 10
6.5428096327
 20
20.3756649658
 30
0.0
 10
6.4738896319
 20
20.121698094
 30
0.0
 10
6.4129555805
 20
19.8600141991
 30
0.0
 10
6.3603205455
 20
19.5904083209
 30
0.0
 10
6.3163318948
 20
19.3126793944
 30
0.0
 10
6.2813741558
 20
19.0266947262
 30
0.0
 10
6.255852736
 20
18.7322064013
 30
0.0
 10
6.2402317535
 20
18.4294782441
 30
0.0
 10
6.2367479545
 20
18.2244482599
 30
0.0
 10
6.2367479545
 20
18.1204014543
 30
0.0
  0
SPLINE
  5
39F
100
AcDbEntity
  8
_CURVE
100
AcDbSpline
 62
4
  6
CONTINUOUS
 70
0
 71
3
 72
50
 73
46
 74
0
 42
0.0000001
 43
0.0000001
 44
0.0000000001
 40
0.0
 40
0.0
 40
0.0
 40
0.0
 40
0.0275505193
 40
0.0544331164
 40
0.0806663033
 40
0.1062844823
 40
0.1313245424
 40
0.1558261025
 40
0.1798286905
 40
0.2033720037
 40
0.2264975337
 40
0.2492467293
 40
0.2716590069
 40
0.2937784241
 40
0.3156457539
 40
0.3372995404
 40
0.3587864478
 40
0.3801477454
 40
0.4014210021
 40
0.4226525712
 40
0.4438861146
 40
0.4651637562
 40
0.4865308508
 40
0.5080336546
 40
0.5296262086
 40
0.5511355202
 40
0.5725845084
 40
0.5940113984
 40
0.615452087
 40
0.6369453645
 40
0.6585384947
 40
0.680271629
 40
0.7021865839
 40
0.7243376906
 40
0.7467710067
 40
0.7695418059
 40
0.7927069888
 40
0.8163195848
 40
0.8404466113
 40
0.8651534474
 40
0.8905084865
 40
0.9165900278
 40
0.9434750458
 40
0.9712516093
 40
1.0
 40
1.0
 40
1.0
 40
1.0
 10
6.2367479545
 20
18.1204014543
 30
0.0
 10
6.2367479545
 20
18.0163036541
 30
0.0
 10
6.2404065199
 20
17.8111749169
 30
0.0
 10
6.2561534341
 20
17.5083060074
 30
0.0
 10
6.2818378785
 20
17.2136857865
 30
0.0
 10
6.3169497704
 20
16.9275779715
 30
0.0
 10
6.3610954094
 20
16.6497343319
 30
0.0
 10
6.4138870958
 20
16.3800219215
 30
0.0
 10
6.4749781788
 20
16.1182394082
 30
0.0
 10
6.5440553325
 20
15.8641815794
 30
0.0
 10
6.6208437065
 20
15.6176237385
 30
0.0
 10
6.7051032359
 20
15.3783384048
 30
0.0
 10
6.7966335467
 20
15.1460905469
 30
0.0
 10
6.8952736783
 20
14.9206429963
 30
0.0
 10
7.0008957167
 20
14.7017679476
 30
0.0
 10
7.1134122524
 20
14.4892413919
 30
0.0
 10
7.2327803213
 20
14.282837076
 30
0.0
 10
7.3589857025
 20
14.0823491701
 30
0.0
 10
7.4920476636
 20
13.8875959876
 30
0.0
 10
7.632031107
 20
13.6983968685
 30
0.0
 10
7.7790416075
 20
13.5145809735
 30
0.0
 10
7.933216945
 20
13.336005971
 30
0.0
 10
8.0947186272
 20
13.162561625
 30
0.0
 10
8.2635622579
 20
12.9943488589
 30
0.0
 10
8.4390085041
 20
12.8321286888
 30
0.0
 10
8.6201638449
 20
12.6767786245
 30
0.0
 10
8.8064782762
 20
12.5287476733
 30
0.0
 10
8.9979916364
 20
12.3879642968
 30
0.0
 10
9.194792512
 20
12.2543594566
 30
0.0
 10
9.3970260627
 20
12.1278684731
 30
0.0
 10
9.6048771751
 20
12.0084455327
 30
0.0
 10
9.818547126
 20
11.8960780478
 30
0.0
 10
10.0382794833
 20
11.790781408
 30
0.0
 10
10.2643625192
 20
11.6925942347
 30
0.0
 10
10.497130673
 20
11.601584677
 30
0.0
 10
10.7369476994
 20
11.517865725
 30
0.0
 10
10.9842087989
 20
11.4415876838
 30
0.0
 10
11.2393466056
 20
11.372947757
 30
0.0
 10
11.5028421772
 20
11.3121886088
 30
0.0
 10
11.775221716
 20
11.2595987113
 30
0.0
 10
12.0570644291
 20
11.2155271503
 30
0.0
 10
12.3489310804
 20
11.1803810345
 30
0.0
 10
12.6516374439
 20
11.1546331042
 30
0.0
 10
12.9654555427
 20
11.1388030966
 30
0.0
 10
13.1790476046
 20
11.1354302605
 30
0.0
 10
13.2880529649
 20
11.1354302605
 30
0.0
  0
ENDSEC
  0
SECTION
  2
OBJECTS
  0
DICTIONARY
  5
3A0
100
AcDbDictionary
  3
ACAD_GROUP
350
3A1
  3
ACAD_MLINESTYLE
350
3A2
  0
DICTIONARY
  5
3A1
102
{ACAD_REACTORS
330
3A0
102
}
100
AcDbDictionary
  0
DICTIONARY
  5
3A2
102
{ACAD_REACTORS
330
3A0
102
}
100
AcDbDictionary
  3
STANDARD
350
3A3
  0
MLINESTYLE
  5
3A3
102
{ACAD_REACTORS
330
3A2
102
}
100
AcDbMlineStyle
  2
STANDARD
 70
0
  3

 62
256
 51
90.0
 52
90.0
 71
2
 49
0.5
 62
256
  6
BYLAYER
 49
-0.5
 62
256
  6
BYLAYER
  0
ENDSEC
  0
EOF
