999
DXF file: 1398641-7.dxf
999
Pro/ENGINEER 2019030 by Parametric Technology Corporation
  0
SECTION
  2
HEADER
  9
$ACADVER
  1
AC1014
  9
$DWGCODEPAGE
  3
ANSI_1252
  9
$EXTMAX
 10
44.0
 20
34.0
 30
0.0
  9
$EXTMIN
 10
0.0
 20
0.0
 30
0.0
  9
$LIMMIN
 10
0.0
 20
0.0
  9
$LIMMAX
 10
44.0
 20
34.0
  9
$VIEWCTR
 10
22.0
 20
17.0
  9
$VIEWSIZE
 40
34.0
  9
$CLAYER
  8
0
  9
$LTSCALE
 40
2.42
  9
$CELTYPE
  6
BYLAYER
  9
$DIMSCALE
 40
1.0
  9
$DIMASZ
 40
0.1875
  9
$DIMEXO
 40
0.0625
  9
$DIMDLI
 40
1.672
  9
$DIMEXE
 40
0.125
  9
$DIMCEN
 40
0.396
  9
$DIMLFAC
 40
1.0
  9
$DIMBLK
  1
_ARROW_FILLED
  9
$DIMALT
 70
1
  9
$DIMALTD
 70
2
  9
$DIMALTTD
 70
2
  9
$DIMALTF
 40
25.4
  9
$DIMTXT
 40
0.15625
  9
$DIMTOL
 70
1
  9
$DIMLIM
 70
0
  9
$DIMTFAC
 40
1.0
  9
$DIMTP
 40
0.01
  9
$DIMTM
 40
0.01
  9
$DIMGAP
 40
0.09
  9
$AUNITS
 70
0
  9
$PDMODE
 70
3
  9
$PDSIZE
 40
0.3125
  9
$HANDSEED
  5
337
  9
$TILEMODE
 70
1
  9
$MEASUREMENT
 70
0
  0
ENDSEC
  0
SECTION
  2
CLASSES
  0
ENDSEC
  0
SECTION
  2
TABLES
  0
TABLE
  2
VPORT
  5
8
100
AcDbSymbolTable
 70
2
  0
VPORT
  5
1F4
100
AcDbSymbolTableRecord
100
AcDbViewportTableRecord
  2
*ACTIVE
 70
0
 10
0.0
 20
0.0
 11
1.0
 21
1.0
 12
22.0
 22
17.0
 13
0.0
 23
0.0
 14
1.0
 24
1.0
 15
0.0
 25
0.0
 16
0.0
 26
0.0
 36
1.0
 17
0.0
 27
0.0
 37
0.0
 40
34.0
 41
1.2941176471
 42
50.0
 43
0.0
 44
0.0
 50
0.0
 51
0.0
 71
0
 72
100
 73
1
 74
1
 75
0
 76
0
 77
0
 78
0
  0
ENDTAB
  0
TABLE
  2
LTYPE
  5
5
100
AcDbSymbolTable
 70
6
  0
LTYPE
  5
14
100
AcDbSymbolTableRecord
100
AcDbLinetypeTableRecord
  2
BYBLOCK
 70
0
  3

 72
65
 73
0
 40
0.0
  0
LTYPE
  5
15
100
AcDbSymbolTableRecord
100
AcDbLinetypeTableRecord
  2
BYLAYER
 70
0
  3

 72
65
 73
0
 40
0.0
  0
LTYPE
  5
16
100
AcDbSymbolTableRecord
100
AcDbLinetypeTableRecord
  2
CONTINUOUS
 70
64
  3
Solid line
 72
65
 73
0
 40
0.0
  0
LTYPE
  5
1F5
100
AcDbSymbolTableRecord
100
AcDbLinetypeTableRecord
  2
CENTER
 70
64
  3
____ _ ____ _ ____ _ ____ _ ____ _ ____ _ ____
 72
65
 73
4
 40
0.6
 49
0.375
 74
0
 49
-0.075
 74
0
 49
0.075
 74
0
 49
-0.075
 74
0
  0
LTYPE
  5
1F6
100
AcDbSymbolTableRecord
100
AcDbLinetypeTableRecord
  2
HIDDEN
 70
64
  3
- - - - - - - - - - - - - - - - - - - -
 72
65
 73
2
 40
0.2
 49
0.1
 74
0
 49
-0.1
 74
0
  0
LTYPE
  5
1F7
100
AcDbSymbolTableRecord
100
AcDbLinetypeTableRecord
  2
PHANTOM
 70
64
  3
_____ _ _ _____ _ _ _____ _ _ _____
 72
65
 73
6
 40
0.8
 49
0.45
 74
0
 49
-0.05
 74
0
 49
0.1
 74
0
 49
-0.05
 74
0
 49
0.1
 74
0
 49
-0.05
 74
0
  0
LTYPE
  5
1F8
100
AcDbSymbolTableRecord
100
AcDbLinetypeTableRecord
  2
DOT
 70
64
  3
. . . . . . . . . . . . . . . . . . . .
 72
65
 73
2
 40
0.2
 49
0.1
 74
0
 49
-0.1
 74
0
  0
LTYPE
  5
1F9
100
AcDbSymbolTableRecord
100
AcDbLinetypeTableRecord
  2
DASHED
 70
64
  3
- - - - - - - - - - - - - - - - - - - -
 72
65
 73
2
 40
0.2
 49
0.1
 74
0
 49
-0.1
 74
0
  0
ENDTAB
  0
TABLE
  2
LAYER
  5
2
100
AcDbSymbolTable
 70
36
  0
LAYER
  5
10
100
AcDbSymbolTableRecord
100
AcDbLayerTableRecord
  2
0
 70
0
 62
7
  6
CONTINUOUS
  0
LAYER
  5
1FA
100
AcDbSymbolTableRecord
100
AcDbLayerTableRecord
  2
DEFAULT_1
 70
0
 62
7
  6
CENTER
  0
LAYER
  5
1FB
100
AcDbSymbolTableRecord
100
AcDbLayerTableRecord
  2
DEFAULT_2
 70
0
 62
8
  6
HIDDEN
  0
LAYER
  5
1FC
100
AcDbSymbolTableRecord
100
AcDbLayerTableRecord
  2
DEFAULT_3
 70
0
 62
7
  6
PHANTOM
  0
LAYER
  5
1FD
100
AcDbSymbolTableRecord
100
AcDbLayerTableRecord
  2
DATUMS
 70
0
 62
7
  6
CONTINUOUS
  0
LAYER
  5
1FE
100
AcDbSymbolTableRecord
100
AcDbLayerTableRecord
  2
DATUM_AXIS
 70
0
 62
7
  6
CONTINUOUS
  0
LAYER
  5
1FF
100
AcDbSymbolTableRecord
100
AcDbLayerTableRecord
  2
DATUM_CSYS
 70
0
 62
7
  6
CONTINUOUS
  0
LAYER
  5
200
100
AcDbSymbolTableRecord
100
AcDbLayerTableRecord
  2
DATUM_PLANE
 70
0
 62
7
  6
CONTINUOUS
  0
LAYER
  5
201
100
AcDbSymbolTableRecord
100
AcDbLayerTableRecord
  2
DATUM_POINT
 70
0
 62
7
  6
CONTINUOUS
  0
LAYER
  5
202
100
AcDbSymbolTableRecord
100
AcDbLayerTableRecord
  2
_CURVE
 70
0
 62
7
  6
CONTINUOUS
  0
LAYER
  5
203
100
AcDbSymbolTableRecord
100
AcDbLayerTableRecord
  2
_SURFACE
 70
0
 62
7
  6
CONTINUOUS
  0
LAYER
  5
204
100
AcDbSymbolTableRecord
100
AcDbLayerTableRecord
  2
__REF_CURVE
 70
0
 62
7
  6
CONTINUOUS
  0
LAYER
  5
205
100
AcDbSymbolTableRecord
100
AcDbLayerTableRecord
  2
__REF_SURFACE
 70
0
 62
7
  6
CONTINUOUS
  0
LAYER
  5
206
100
AcDbSymbolTableRecord
100
AcDbLayerTableRecord
  2
___NOTE
 70
0
 62
7
  6
CONTINUOUS
  0
LAYER
  5
207
100
AcDbSymbolTableRecord
100
AcDbLayerTableRecord
  2
___SYMBOL
 70
0
 62
7
  6
CONTINUOUS
  0
ENDTAB
  0
TABLE
  2
STYLE
  5
3
100
AcDbSymbolTable
 70
1
  0
STYLE
  5
11
100
AcDbSymbolTableRecord
100
AcDbTextStyleTableRecord
  2
STANDARD
 70
0
 40
0.0
 41
0.8
 50
0.0
 71
0
 42
0.2
  3
txt
  4

  0
STYLE
  5
208
100
AcDbSymbolTableRecord
100
AcDbTextStyleTableRecord
  2
TEXTSTYLE_1
 70
0
 40
0.0
 41
0.8
 50
0.0
 71
0
 42
0.2
  3
gdt
  4

  0
STYLE
  5
209
100
AcDbSymbolTableRecord
100
AcDbTextStyleTableRecord
  2
TEXTSTYLE_2
 70
0
 40
0.0
 41
1.0
 50
0.0
 71
0
 42
0.2
  3
txt
  4

  0
ENDTAB
  0
TABLE
  2
VIEW
  5
6
100
AcDbSymbolTable
 70
0
  0
ENDTAB
  0
TABLE
  2
UCS
  5
7
100
AcDbSymbolTable
 70
0
  0
ENDTAB
  0
TABLE
  2
APPID
  5
9
100
AcDbSymbolTable
 70
1
  0
APPID
  5
20A
100
AcDbSymbolTableRecord
100
AcDbRegAppTableRecord
  2
ACAD
 70
0
  0
ENDTAB
  0
TABLE
  2
BLOCK_RECORD
  5
1
100
AcDbSymbolTable
 70
0
  0
BLOCK_RECORD
  5
1F
100
AcDbSymbolTableRecord
100
AcDbBlockTableRecord
  2
*MODEL_SPACE
  0
BLOCK_RECORD
  5
1B
100
AcDbSymbolTableRecord
100
AcDbBlockTableRecord
  2
*PAPER_SPACE
  0
BLOCK_RECORD
  5
20B
100
AcDbSymbolTableRecord
100
AcDbBlockTableRecord
  2
_ARROW_FILLED
  0
BLOCK_RECORD
  5
20C
100
AcDbSymbolTableRecord
100
AcDbBlockTableRecord
  2
*D0
  0
BLOCK_RECORD
  5
20D
100
AcDbSymbolTableRecord
100
AcDbBlockTableRecord
  2
*D1
  0
BLOCK_RECORD
  5
20E
100
AcDbSymbolTableRecord
100
AcDbBlockTableRecord
  2
*D2
  0
BLOCK_RECORD
  5
20F
100
AcDbSymbolTableRecord
100
AcDbBlockTableRecord
  2
*D3
  0
BLOCK_RECORD
  5
210
100
AcDbSymbolTableRecord
100
AcDbBlockTableRecord
  2
CUT-OUT_TEMPLATE_SKU_SIN_BL2
  0
BLOCK_RECORD
  5
211
100
AcDbSymbolTableRecord
100
AcDbBlockTableRecord
  2
WHEN_PLOTTING_TEMPLATE_N_BL1
  0
BLOCK_RECORD
  5
212
100
AcDbSymbolTableRecord
100
AcDbBlockTableRecord
  2
COPYRIGHT_YEAR_BL0
  0
ENDTAB
  0
TABLE
  2
DIMSTYLE
  5
A
100
AcDbSymbolTable
 70
1
  0
DIMSTYLE
105
213
100
AcDbSymbolTableRecord
100
AcDbDimStyleTableRecord
  2
STANDARD
 70
0
  3

  4

  5
_ARROW_FILLED
  6
_ARROW_FILLED
  7
_ARROW_FILLED
 40
1.0
 41
0.1875
 42
0.0625
 43
0.38
 44
0.125
 45
0.0
 46
0.0
 47
0.01
 48
0.01
140
0.15625
141
0.09
142
0.0
143
2.54
144
1.0
145
0.0
146
1.0
147
0.09
 71
1.0
 72
0.0
 73
1
 74
1
 75
0
 76
0
 77
0
 78
4
 79
1
170
1
171
2
172
0
173
0
174
0
175
0
176
0
177
0
178
0
270
2
271
3
272
3
273
2
274
2
275
0
280
0
281
0
282
0
283
1
284
4
285
0
286
0
287
3
288
0
340
11
  0
DIMSTYLE
105
214
100
AcDbSymbolTableRecord
100
AcDbDimStyleTableRecord
  2
DIMSTYLE_1
 70
0
  3

  4

  5
_ARROW_FILLED
  6
_ARROW_FILLED
  7
_ARROW_FILLED
 40
1.0
 41
0.1875
 42
0.0625
 43
0.38
 44
0.125
 45
0.0
 46
0.0
 47
0.03125
 48
0.03125
140
0.15625
141
0.09
142
0.0
143
2.54
144
1.0
145
0.0
146
1.0
147
0.078125
 71
0.0
 72
0.0
 73
1
 74
1
 75
0
 76
0
 77
0
 78
4
 79
1
170
1
171
0
172
0
173
0
174
0
175
0
176
0
177
0
178
0
270
2
271
4
272
16
273
2
274
2
275
0
280
0
281
0
282
0
283
1
284
4
285
0
286
0
287
3
288
0
340
11
  0
DIMSTYLE
105
215
100
AcDbSymbolTableRecord
100
AcDbDimStyleTableRecord
  2
DIMSTYLE_2
 70
0
  3

  4

  5
_ARROW_FILLED
  6
_ARROW_FILLED
  7
_ARROW_FILLED
 40
1.0
 41
0.1875
 42
0.0625
 43
0.38
 44
0.125
 45
0.0
 46
0.0
 47
0.03125
 48
0.03125
140
0.15625
141
0.09
142
0.0
143
2.54
144
1.0
145
0.0
146
1.0
147
0.078125
 71
0.0
 72
0.0
 73
1
 74
1
 75
0
 76
0
 77
0
 78
4
 79
1
170
1
171
2
172
0
173
0
174
0
175
0
176
0
177
0
178
0
270
2
271
5
272
2
273
2
274
-14
275
0
280
0
281
0
282
0
283
1
284
4
285
0
286
0
287
3
288
0
340
11
  0
DIMSTYLE
105
216
100
AcDbSymbolTableRecord
100
AcDbDimStyleTableRecord
  2
DIMSTYLE_3
 70
0
  3

  4

  5
_ARROW_FILLED
  6
_ARROW_FILLED
  7
_ARROW_FILLED
 40
1.0
 41
0.1875
 42
0.0625
 43
0.38
 44
0.125
 45
0.0
 46
0.0
 47
0.03125
 48
0.03125
140
0.15625
141
0.09
142
0.0
143
2.54
144
1.0
145
0.0
146
1.0
147
0.078125
 71
0.0
 72
0.0
 73
1
 74
1
 75
0
 76
0
 77
0
 78
4
 79
1
170
1
171
1
172
0
173
0
174
0
175
0
176
0
177
0
178
0
270
2
271
5
272
32
273
2
274
2
275
0
280
0
281
0
282
0
283
1
284
4
285
0
286
0
287
3
288
0
340
11
  0
ENDTAB
  0
ENDSEC
  0
SECTION
  2
BLOCKS
  0
BLOCK
  5
20
100
AcDbEntity
  8
0
100
AcDbBlockBegin
  2
*MODEL_SPACE
 70
0
 10
0.0
 20
0.0
 30
0.0
  3
*MODEL_SPACE
  1

  0
ENDBLK
  5
21
100
AcDbEntity
  8
0
100
AcDbBlockEnd
  0
BLOCK
  5
1C
100
AcDbEntity
  8
0
100
AcDbBlockBegin
  2
*PAPER_SPACE
 70
0
 10
0.0
 20
0.0
 30
0.0
  3
*PAPER_SPACE
  1

  0
ENDBLK
  5
1D
100
AcDbEntity
  8
0
100
AcDbBlockEnd
  0
BLOCK
  5
217
100
AcDbEntity
  8
___SYMBOL
100
AcDbBlockBegin
 62
2
  6
CONTINUOUS
  2
CUT-OUT_TEMPLATE_SKU_SIN_BL2
 70
64
 10
11.9353154354
 20
24.4874599116
  3
CUT-OUT_TEMPLATE_SKU_SIN_BL2
  1

  0
TEXT
  5
218
100
AcDbEntity
  8
___SYMBOL
100
AcDbText
 62
2
  6
CONTINUOUS
 10
9.5353154354
 20
25.7020099976
  7
STANDARD
 40
0.25
  1
CUT-OUT TEMPLATE
 41
0.8
 72
0
100
AcDbText
  0
TEXT
  5
219
100
AcDbEntity
  8
___SYMBOL
100
AcDbText
 62
2
  6
CONTINUOUS
 10
9.5353154354
 20
25.3270099976
  7
STANDARD
 40
0.25
  1
UNDERCOUNTER SINK
 41
0.8
 72
0
100
AcDbText
  0
TEXT
  5
21A
100
AcDbEntity
  8
___SYMBOL
100
AcDbText
 62
2
  6
CONTINUOUS
 10
9.5353154354
 20
24.9520099976
  7
STANDARD
 40
0.25
  1
PLANTILLA DE RECORTE
 41
0.8
 72
0
100
AcDbText
  0
TEXT
  5
21B
100
AcDbEntity
  8
___SYMBOL
100
AcDbText
 62
2
  6
CONTINUOUS
 10
9.5353154354
 20
24.5770099976
  7
STANDARD
 40
0.25
  1
FREGADERO MONTADO DEBAJO
 41
0.8
 72
0
100
AcDbText
  0
TEXT
  5
21C
100
AcDbEntity
  8
___SYMBOL
100
AcDbText
 62
2
  6
CONTINUOUS
 10
9.5353154354
 20
24.2020099976
  7
STANDARD
 40
0.25
  1
  DEL MOSTRADOR
 41
0.8
 72
0
100
AcDbText
  0
TEXT
  5
21D
100
AcDbEntity
  8
___SYMBOL
100
AcDbText
 62
2
  6
CONTINUOUS
 10
9.5353154354
 20
23.8270099976
  7
STANDARD
 40
0.25
  1
PLAN DE DÉCOUPE
 41
0.8
 72
0
100
AcDbText
  0
TEXT
  5
21E
100
AcDbEntity
  8
___SYMBOL
100
AcDbText
 62
2
  6
CONTINUOUS
 10
9.5353154354
 20
23.4520099976
  7
STANDARD
 40
0.25
  1
ÉVIER SOUS-COMPTOIR
 41
0.8
 72
0
100
AcDbText
  0
TEXT
  5
21F
100
AcDbEntity
  8
___SYMBOL
100
AcDbText
 62
2
  6
CONTINUOUS
 10
9.5353154354
 20
23.0770099976
  7
STANDARD
 40
0.25
  1
   24564-** 
 41
0.8
 72
0
100
AcDbText
  0
TEXT
  5
220
100
AcDbEntity
  8
___SYMBOL
100
AcDbText
 62
2
  6
CONTINUOUS
 10
9.5430547507
 20
22.2170180733
  7
STANDARD
 40
0.25
  1
   28874-**
 41
0.8
 72
0
100
AcDbText
  0
LINE
  5
221
100
AcDbEntity
  8
___SYMBOL
100
AcDbLine
 62
2
  6
CONTINUOUS
 10
10.0618872115
 20
26.7539232354
 11
9.8485837597
 21
26.5002749625
  0
LINE
  5
222
100
AcDbEntity
  8
___SYMBOL
100
AcDbLine
 62
2
  6
CONTINUOUS
 10
9.8698253995
 20
26.7539232354
 11
10.0618872115
 21
26.7539232354
  0
LINE
  5
223
100
AcDbEntity
  8
___SYMBOL
100
AcDbLine
 62
2
  6
CONTINUOUS
 10
9.8698253995
 20
26.7539232354
 11
9.7320612328
 21
26.5901020457
  0
LINE
  5
224
100
AcDbEntity
  8
___SYMBOL
100
AcDbLine
 62
2
  6
CONTINUOUS
 10
9.7320612328
 20
26.7539232354
 11
9.7320612328
 21
26.5901020457
  0
LINE
  5
225
100
AcDbEntity
  8
___SYMBOL
100
AcDbLine
 62
2
  6
CONTINUOUS
 10
9.5575610058
 20
26.7539232354
 11
9.7320612328
 21
26.7539232354
  0
LINE
  5
226
100
AcDbEntity
  8
___SYMBOL
100
AcDbLine
 62
2
  6
CONTINUOUS
 10
9.5575610058
 20
26.7539232354
 11
9.5575610058
 21
26.1679855826
  0
LINE
  5
227
100
AcDbEntity
  8
___SYMBOL
100
AcDbLine
 62
2
  6
CONTINUOUS
 10
9.7320612328
 20
26.1680095861
 11
9.5575610058
 21
26.1679855826
  0
LINE
  5
228
100
AcDbEntity
  8
___SYMBOL
100
AcDbLine
 62
2
  6
CONTINUOUS
 10
9.7320612328
 20
26.3695094201
 11
9.7320612328
 21
26.1680095861
  0
LINE
  5
229
100
AcDbEntity
  8
___SYMBOL
100
AcDbLine
 62
2
  6
CONTINUOUS
 10
9.8857991728
 20
26.1680095861
 11
9.7320612328
 21
26.3695094201
  0
LINE
  5
22A
100
AcDbEntity
  8
___SYMBOL
100
AcDbLine
 62
2
  6
CONTINUOUS
 10
9.8857991728
 20
26.1680095861
 11
10.1020915944
 21
26.1680095861
  0
LINE
  5
22B
100
AcDbEntity
  8
___SYMBOL
100
AcDbLine
 62
2
  6
CONTINUOUS
 10
10.1020915944
 20
26.1680095861
 11
9.8485837597
 21
26.5002749625
  0
SOLID
  5
22C
100
AcDbEntity
  8
___SYMBOL
100
AcDbTrace
 62
2
  6
CONTINUOUS
 10
9.7320612328
 20
26.5901020457
 11
9.8698253995
 21
26.7539232354
 12
10.0618872115
 22
26.7539232354
 13
10.0618872115
 23
26.7539232354
  0
SOLID
  5
22D
100
AcDbEntity
  8
___SYMBOL
100
AcDbTrace
 62
2
  6
CONTINUOUS
 10
10.0618872115
 20
26.7539232354
 11
9.8485837597
 21
26.5002749625
 12
9.7320612328
 22
26.5901020457
 13
9.7320612328
 23
26.5901020457
  0
SOLID
  5
22E
100
AcDbEntity
  8
___SYMBOL
100
AcDbTrace
 62
2
  6
CONTINUOUS
 10
9.7320612328
 20
26.3695094201
 11
9.8485837597
 21
26.5002749625
 12
9.8857991728
 22
26.1680095861
 13
9.8857991728
 23
26.1680095861
  0
SOLID
  5
22F
100
AcDbEntity
  8
___SYMBOL
100
AcDbTrace
 62
2
  6
CONTINUOUS
 10
9.8485837597
 20
26.5002749625
 11
10.1020915944
 21
26.1680095861
 12
9.8857991728
 22
26.1680095861
 13
9.8857991728
 23
26.1680095861
  0
SOLID
  5
230
100
AcDbEntity
  8
___SYMBOL
100
AcDbTrace
 62
2
  6
CONTINUOUS
 10
9.7320612328
 20
26.1680095861
 11
9.5575610058
 21
26.1679855826
 12
9.7320612328
 22
26.3695094201
 13
9.7320612328
 23
26.3695094201
  0
SOLID
  5
231
100
AcDbEntity
  8
___SYMBOL
100
AcDbTrace
 62
2
  6
CONTINUOUS
 10
9.8485837597
 20
26.5002749625
 11
9.7320612328
 21
26.3695094201
 12
9.7320612328
 22
26.5901020457
 13
9.7320612328
 23
26.5901020457
  0
SOLID
  5
232
100
AcDbEntity
  8
___SYMBOL
100
AcDbTrace
 62
2
  6
CONTINUOUS
 10
9.7320612328
 20
26.3695094201
 11
9.5575610058
 21
26.1679855826
 12
9.7320612328
 22
26.5901020457
 13
9.7320612328
 23
26.5901020457
  0
SOLID
  5
233
100
AcDbEntity
  8
___SYMBOL
100
AcDbTrace
 62
2
  6
CONTINUOUS
 10
9.7320612328
 20
26.5901020457
 11
9.5575610058
 21
26.1679855826
 12
9.7320612328
 22
26.7539232354
 13
9.7320612328
 23
26.7539232354
  0
SOLID
  5
234
100
AcDbEntity
  8
___SYMBOL
100
AcDbTrace
 62
2
  6
CONTINUOUS
 10
9.5575610058
 20
26.1679855826
 11
9.5575610058
 21
26.7539232354
 12
9.7320612328
 22
26.7539232354
 13
9.7320612328
 23
26.7539232354
  0
CIRCLE
  5
235
100
AcDbEntity
  8
___SYMBOL
100
AcDbCircle
 62
2
  6
CONTINUOUS
 10
10.278600431
 20
26.4598451589
 40
0.298056591
  0
CIRCLE
  5
236
100
AcDbEntity
  8
___SYMBOL
100
AcDbCircle
 62
2
  6
CONTINUOUS
 10
10.278600431
 20
26.4598451589
 40
0.1247694151
  0
SOLID
  5
237
100
AcDbEntity
  8
___SYMBOL
100
AcDbTrace
 62
2
  6
CONTINUOUS
 10
10.1864958791
 20
26.7433138219
 11
10.2474450336
 21
26.7562689647
 12
10.3097558284
 22
26.7562689647
 13
10.3097558284
 23
26.7562689647
  0
SOLID
  5
238
100
AcDbEntity
  8
___SYMBOL
100
AcDbTrace
 62
2
  6
CONTINUOUS
 10
10.3097558284
 20
26.7562689647
 11
10.3707049829
 21
26.7433138219
 12
10.1864958791
 22
26.7433138219
 13
10.1864958791
 23
26.7433138219
  0
SOLID
  5
239
100
AcDbEntity
  8
___SYMBOL
100
AcDbTrace
 62
2
  6
CONTINUOUS
 10
10.1295721355
 20
26.7179697384
 11
10.1864958791
 21
26.7433138219
 12
10.3707049829
 22
26.7433138219
 13
10.3707049829
 23
26.7433138219
  0
SOLID
  5
23A
100
AcDbEntity
  8
___SYMBOL
100
AcDbTrace
 62
2
  6
CONTINUOUS
 10
10.3707049829
 20
26.7433138219
 11
10.4276287265
 21
26.7179697384
 12
10.1295721355
 22
26.7179697384
 13
10.1295721355
 23
26.7179697384
  0
SOLID
  5
23B
100
AcDbEntity
  8
___SYMBOL
100
AcDbTrace
 62
2
  6
CONTINUOUS
 10
10.0791616436
 20
26.6813443722
 11
10.1295721355
 21
26.7179697384
 12
10.4276287265
 22
26.7179697384
 13
10.4276287265
 23
26.7179697384
  0
SOLID
  5
23C
100
AcDbEntity
  8
___SYMBOL
100
AcDbTrace
 62
2
  6
CONTINUOUS
 10
10.4276287265
 20
26.7179697384
 11
10.4780392185
 21
26.6813443722
 12
10.0791616436
 22
26.6813443722
 13
10.0791616436
 23
26.6813443722
  0
SOLID
  5
23D
100
AcDbEntity
  8
___SYMBOL
100
AcDbTrace
 62
2
  6
CONTINUOUS
 10
10.0374675836
 20
26.6350384274
 11
10.0791616436
 21
26.6813443722
 12
10.4780392185
 22
26.6813443722
 13
10.4780392185
 23
26.6813443722
  0
SOLID
  5
23E
100
AcDbEntity
  8
___SYMBOL
100
AcDbTrace
 62
2
  6
CONTINUOUS
 10
10.4780392185
 20
26.6813443722
 11
10.5197332784
 21
26.6350384274
 12
10.0374675836
 22
26.6350384274
 13
10.0374675836
 23
26.6350384274
  0
SOLID
  5
23F
100
AcDbEntity
  8
___SYMBOL
100
AcDbTrace
 62
2
  6
CONTINUOUS
 10
10.278600431
 20
26.5846145739
 11
10.0063121862
 21
26.5810756961
 12
10.5197332784
 22
26.6350384274
 13
10.5197332784
 23
26.6350384274
  0
SOLID
  5
240
100
AcDbEntity
  8
___SYMBOL
100
AcDbTrace
 62
2
  6
CONTINUOUS
 10
10.0063121862
 20
26.5810756961
 11
10.0374675836
 21
26.6350384274
 12
10.5197332784
 22
26.6350384274
 13
10.5197332784
 23
26.6350384274
  0
SOLID
  5
241
100
AcDbEntity
  8
___SYMBOL
100
AcDbTrace
 62
2
  6
CONTINUOUS
 10
10.5197332784
 20
26.6350384274
 11
10.5508886758
 21
26.5810756961
 12
10.278600431
 22
26.5846145739
 13
10.278600431
 23
26.5846145739
  0
SOLID
  5
242
100
AcDbEntity
  8
___SYMBOL
100
AcDbTrace
 62
2
  6
CONTINUOUS
 10
10.278600431
 20
26.5846145739
 11
10.2400445614
 21
26.5785079241
 12
10.0063121862
 22
26.5810756961
 13
10.0063121862
 23
26.5810756961
  0
SOLID
  5
243
100
AcDbEntity
  8
___SYMBOL
100
AcDbTrace
 62
2
  6
CONTINUOUS
 10
10.3171563007
 20
26.5785079241
 11
10.278600431
 21
26.5846145739
 12
10.5508886758
 22
26.5810756961
 13
10.5508886758
 23
26.5810756961
  0
SOLID
  5
244
100
AcDbEntity
  8
___SYMBOL
100
AcDbTrace
 62
2
  6
CONTINUOUS
 10
10.1776598538
 20
26.533182781
 11
9.9870570917
 21
26.5218146087
 12
10.2052628089
 22
26.560785736
 13
10.2052628089
 23
26.560785736
  0
SOLID
  5
245
100
AcDbEntity
  8
___SYMBOL
100
AcDbTrace
 62
2
  6
CONTINUOUS
 10
10.2052628089
 20
26.560785736
 11
9.9870570917
 21
26.5218146087
 12
10.2400445614
 22
26.5785079241
 13
10.2400445614
 23
26.5785079241
  0
SOLID
  5
246
100
AcDbEntity
  8
___SYMBOL
100
AcDbTrace
 62
2
  6
CONTINUOUS
 10
9.9870570917
 20
26.5218146087
 11
10.0063121862
 21
26.5810756961
 12
10.2400445614
 22
26.5785079241
 13
10.2400445614
 23
26.5785079241
  0
SOLID
  5
247
100
AcDbEntity
  8
___SYMBOL
100
AcDbTrace
 62
2
  6
CONTINUOUS
 10
10.3171563007
 20
26.5785079241
 11
10.5508886758
 21
26.5810756961
 12
10.3519380531
 22
26.560785736
 13
10.3519380531
 23
26.560785736
  0
SOLID
  5
248
100
AcDbEntity
  8
___SYMBOL
100
AcDbTrace
 62
2
  6
CONTINUOUS
 10
10.3519380531
 20
26.560785736
 11
10.5508886758
 21
26.5810756961
 12
10.3795410082
 22
26.533182781
 13
10.3795410082
 23
26.533182781
  0
SOLID
  5
249
100
AcDbEntity
  8
___SYMBOL
100
AcDbTrace
 62
2
  6
CONTINUOUS
 10
10.5508886758
 20
26.5810756961
 11
10.5701437704
 21
26.5218146087
 12
10.3795410082
 22
26.533182781
 13
10.3795410082
 23
26.533182781
  0
SOLID
  5
24A
100
AcDbEntity
  8
___SYMBOL
100
AcDbTrace
 62
2
  6
CONTINUOUS
 10
10.1776598538
 20
26.533182781
 11
10.1599376658
 21
26.4984010285
 12
9.9870570917
 22
26.5218146087
 13
9.9870570917
 23
26.5218146087
  0
SOLID
  5
24B
100
AcDbEntity
  8
___SYMBOL
100
AcDbTrace
 62
2
  6
CONTINUOUS
 10
10.3972631963
 20
26.4984010285
 11
10.3795410082
 21
26.533182781
 12
10.5701437704
 22
26.5218146087
 13
10.5701437704
 23
26.5218146087
  0
SOLID
  5
24C
100
AcDbEntity
  8
___SYMBOL
100
AcDbTrace
 62
2
  6
CONTINUOUS
 10
9.98054384
 20
26.4598451589
 11
9.9870570917
 21
26.5218146087
 12
10.1599376658
 22
26.4984010285
 13
10.1599376658
 23
26.4984010285
  0
SOLID
  5
24D
100
AcDbEntity
  8
___SYMBOL
100
AcDbTrace
 62
2
  6
CONTINUOUS
 10
10.1599376658
 20
26.4984010285
 11
10.1538310159
 21
26.4598451589
 12
9.98054384
 22
26.4598451589
 13
9.98054384
 23
26.4598451589
  0
SOLID
  5
24E
100
AcDbEntity
  8
___SYMBOL
100
AcDbTrace
 62
2
  6
CONTINUOUS
 10
10.3972631963
 20
26.4984010285
 11
10.5701437704
 21
26.5218146087
 12
10.4033698461
 22
26.4598451589
 13
10.4033698461
 23
26.4598451589
  0
SOLID
  5
24F
100
AcDbEntity
  8
___SYMBOL
100
AcDbTrace
 62
2
  6
CONTINUOUS
 10
10.5701437704
 20
26.5218146087
 11
10.576657022
 21
26.4598451589
 12
10.4033698461
 22
26.4598451589
 13
10.4033698461
 23
26.4598451589
  0
SOLID
  5
250
100
AcDbEntity
  8
___SYMBOL
100
AcDbTrace
 62
2
  6
CONTINUOUS
 10
10.3972631963
 20
26.4212892892
 11
10.4033698461
 21
26.4598451589
 12
10.576657022
 22
26.4598451589
 13
10.576657022
 23
26.4598451589
  0
SOLID
  5
251
100
AcDbEntity
  8
___SYMBOL
100
AcDbTrace
 62
2
  6
CONTINUOUS
 10
10.1599376658
 20
26.4212892892
 11
9.9870570917
 21
26.3978757091
 12
10.1538310159
 22
26.4598451589
 13
10.1538310159
 23
26.4598451589
  0
SOLID
  5
252
100
AcDbEntity
  8
___SYMBOL
100
AcDbTrace
 62
2
  6
CONTINUOUS
 10
9.9870570917
 20
26.3978757091
 11
9.98054384
 21
26.4598451589
 12
10.1538310159
 22
26.4598451589
 13
10.1538310159
 23
26.4598451589
  0
SOLID
  5
253
100
AcDbEntity
  8
___SYMBOL
100
AcDbTrace
 62
2
  6
CONTINUOUS
 10
10.576657022
 20
26.4598451589
 11
10.5701437704
 21
26.3978757091
 12
10.3972631963
 22
26.4212892892
 13
10.3972631963
 23
26.4212892892
  0
SOLID
  5
254
100
AcDbEntity
  8
___SYMBOL
100
AcDbTrace
 62
2
  6
CONTINUOUS
 10
10.1599376658
 20
26.4212892892
 11
10.1776598538
 21
26.3865075367
 12
9.9870570917
 22
26.3978757091
 13
9.9870570917
 23
26.3978757091
  0
SOLID
  5
255
100
AcDbEntity
  8
___SYMBOL
100
AcDbTrace
 62
2
  6
CONTINUOUS
 10
10.3795410082
 20
26.3865075367
 11
10.3972631963
 21
26.4212892892
 12
10.5701437704
 22
26.3978757091
 13
10.5701437704
 23
26.3978757091
  0
SOLID
  5
256
100
AcDbEntity
  8
___SYMBOL
100
AcDbTrace
 62
2
  6
CONTINUOUS
 10
10.2400445614
 20
26.3411823936
 11
10.0063121862
 21
26.3386146216
 12
10.2052628089
 22
26.3589045817
 13
10.2052628089
 23
26.3589045817
  0
SOLID
  5
257
100
AcDbEntity
  8
___SYMBOL
100
AcDbTrace
 62
2
  6
CONTINUOUS
 10
10.2052628089
 20
26.3589045817
 11
10.0063121862
 21
26.3386146216
 12
10.1776598538
 22
26.3865075367
 13
10.1776598538
 23
26.3865075367
  0
SOLID
  5
258
100
AcDbEntity
  8
___SYMBOL
100
AcDbTrace
 62
2
  6
CONTINUOUS
 10
10.0063121862
 20
26.3386146216
 11
9.9870570917
 21
26.3978757091
 12
10.1776598538
 22
26.3865075367
 13
10.1776598538
 23
26.3865075367
  0
SOLID
  5
259
100
AcDbEntity
  8
___SYMBOL
100
AcDbTrace
 62
2
  6
CONTINUOUS
 10
10.3795410082
 20
26.3865075367
 11
10.5701437704
 21
26.3978757091
 12
10.3519380531
 22
26.3589045817
 13
10.3519380531
 23
26.3589045817
  0
SOLID
  5
25A
100
AcDbEntity
  8
___SYMBOL
100
AcDbTrace
 62
2
  6
CONTINUOUS
 10
10.3519380531
 20
26.3589045817
 11
10.5701437704
 21
26.3978757091
 12
10.3171563007
 22
26.3411823936
 13
10.3171563007
 23
26.3411823936
  0
SOLID
  5
25B
100
AcDbEntity
  8
___SYMBOL
100
AcDbTrace
 62
2
  6
CONTINUOUS
 10
10.5701437704
 20
26.3978757091
 11
10.5508886758
 21
26.3386146216
 12
10.3171563007
 22
26.3411823936
 13
10.3171563007
 23
26.3411823936
  0
SOLID
  5
25C
100
AcDbEntity
  8
___SYMBOL
100
AcDbTrace
 62
2
  6
CONTINUOUS
 10
10.2400445614
 20
26.3411823936
 11
10.278600431
 21
26.3350757438
 12
10.0063121862
 22
26.3386146216
 13
10.0063121862
 23
26.3386146216
  0
SOLID
  5
25D
100
AcDbEntity
  8
___SYMBOL
100
AcDbTrace
 62
2
  6
CONTINUOUS
 10
10.278600431
 20
26.3350757438
 11
10.3171563007
 21
26.3411823936
 12
10.5508886758
 22
26.3386146216
 13
10.5508886758
 23
26.3386146216
  0
SOLID
  5
25E
100
AcDbEntity
  8
___SYMBOL
100
AcDbTrace
 62
2
  6
CONTINUOUS
 10
10.0374675836
 20
26.2846518903
 11
10.0063121862
 21
26.3386146216
 12
10.278600431
 22
26.3350757438
 13
10.278600431
 23
26.3350757438
  0
SOLID
  5
25F
100
AcDbEntity
  8
___SYMBOL
100
AcDbTrace
 62
2
  6
CONTINUOUS
 10
10.278600431
 20
26.3350757438
 11
10.5508886758
 21
26.3386146216
 12
10.0374675836
 22
26.2846518903
 13
10.0374675836
 23
26.2846518903
  0
SOLID
  5
260
100
AcDbEntity
  8
___SYMBOL
100
AcDbTrace
 62
2
  6
CONTINUOUS
 10
10.5508886758
 20
26.3386146216
 11
10.5197332784
 21
26.2846518903
 12
10.0374675836
 22
26.2846518903
 13
10.0374675836
 23
26.2846518903
  0
SOLID
  5
261
100
AcDbEntity
  8
___SYMBOL
100
AcDbTrace
 62
2
  6
CONTINUOUS
 10
10.0791616436
 20
26.2383459456
 11
10.0374675836
 21
26.2846518903
 12
10.5197332784
 22
26.2846518903
 13
10.5197332784
 23
26.2846518903
  0
SOLID
  5
262
100
AcDbEntity
  8
___SYMBOL
100
AcDbTrace
 62
2
  6
CONTINUOUS
 10
10.5197332784
 20
26.2846518903
 11
10.4780392185
 21
26.2383459456
 12
10.0791616436
 22
26.2383459456
 13
10.0791616436
 23
26.2383459456
  0
SOLID
  5
263
100
AcDbEntity
  8
___SYMBOL
100
AcDbTrace
 62
2
  6
CONTINUOUS
 10
10.1295721355
 20
26.2017205793
 11
10.0791616436
 21
26.2383459456
 12
10.4780392185
 22
26.2383459456
 13
10.4780392185
 23
26.2383459456
  0
SOLID
  5
264
100
AcDbEntity
  8
___SYMBOL
100
AcDbTrace
 62
2
  6
CONTINUOUS
 10
10.4780392185
 20
26.2383459456
 11
10.4276287265
 21
26.2017205793
 12
10.1295721355
 22
26.2017205793
 13
10.1295721355
 23
26.2017205793
  0
SOLID
  5
265
100
AcDbEntity
  8
___SYMBOL
100
AcDbTrace
 62
2
  6
CONTINUOUS
 10
10.1864958791
 20
26.1763764958
 11
10.1295721355
 21
26.2017205793
 12
10.4276287265
 22
26.2017205793
 13
10.4276287265
 23
26.2017205793
  0
SOLID
  5
266
100
AcDbEntity
  8
___SYMBOL
100
AcDbTrace
 62
2
  6
CONTINUOUS
 10
10.4276287265
 20
26.2017205793
 11
10.3707049829
 21
26.1763764958
 12
10.1864958791
 22
26.1763764958
 13
10.1864958791
 23
26.1763764958
  0
SOLID
  5
267
100
AcDbEntity
  8
___SYMBOL
100
AcDbTrace
 62
2
  6
CONTINUOUS
 10
10.2474450336
 20
26.1634213531
 11
10.1864958791
 21
26.1763764958
 12
10.3707049829
 22
26.1763764958
 13
10.3707049829
 23
26.1763764958
  0
SOLID
  5
268
100
AcDbEntity
  8
___SYMBOL
100
AcDbTrace
 62
2
  6
CONTINUOUS
 10
10.3707049829
 20
26.1763764958
 11
10.3097558284
 21
26.1634213531
 12
10.2474450336
 22
26.1634213531
 13
10.2474450336
 23
26.1634213531
  0
LINE
  5
269
100
AcDbEntity
  8
___SYMBOL
100
AcDbLine
 62
2
  6
CONTINUOUS
 10
11.0712364402
 20
26.7539232354
 11
11.0712364402
 21
26.1680095861
  0
LINE
  5
26A
100
AcDbEntity
  8
___SYMBOL
100
AcDbLine
 62
2
  6
CONTINUOUS
 10
11.0712364402
 20
26.1680095861
 11
10.9065027604
 21
26.1680095861
  0
LINE
  5
26B
100
AcDbEntity
  8
___SYMBOL
100
AcDbLine
 62
2
  6
CONTINUOUS
 10
10.9065027604
 20
26.3963341958
 11
10.9065027604
 21
26.1680095861
  0
LINE
  5
26C
100
AcDbEntity
  8
___SYMBOL
100
AcDbLine
 62
2
  6
CONTINUOUS
 10
10.7585059493
 20
26.3963341958
 11
10.9065027604
 21
26.3963341958
  0
LINE
  5
26D
100
AcDbEntity
  8
___SYMBOL
100
AcDbLine
 62
2
  6
CONTINUOUS
 10
10.7585059493
 20
26.3963341958
 11
10.7585059493
 21
26.1680095861
  0
LINE
  5
26E
100
AcDbEntity
  8
___SYMBOL
100
AcDbLine
 62
2
  6
CONTINUOUS
 10
10.7585059493
 20
26.1680095861
 11
10.5937722694
 21
26.1680095861
  0
LINE
  5
26F
100
AcDbEntity
  8
___SYMBOL
100
AcDbLine
 62
2
  6
CONTINUOUS
 10
10.5937722694
 20
26.7539232354
 11
10.5937722694
 21
26.1680095861
  0
LINE
  5
270
100
AcDbEntity
  8
___SYMBOL
100
AcDbLine
 62
2
  6
CONTINUOUS
 10
10.5937722694
 20
26.7539232354
 11
10.7585059493
 21
26.7539232354
  0
LINE
  5
271
100
AcDbEntity
  8
___SYMBOL
100
AcDbLine
 62
2
  6
CONTINUOUS
 10
10.7585059493
 20
26.7539232354
 11
10.7585059493
 21
26.5335394758
  0
LINE
  5
272
100
AcDbEntity
  8
___SYMBOL
100
AcDbLine
 62
2
  6
CONTINUOUS
 10
10.7585059493
 20
26.5335394758
 11
10.9065027604
 21
26.5335394758
  0
LINE
  5
273
100
AcDbEntity
  8
___SYMBOL
100
AcDbLine
 62
2
  6
CONTINUOUS
 10
10.9065027604
 20
26.7539232354
 11
10.9065027604
 21
26.5335394758
  0
LINE
  5
274
100
AcDbEntity
  8
___SYMBOL
100
AcDbLine
 62
2
  6
CONTINUOUS
 10
10.9065027604
 20
26.7539232354
 11
11.0712364402
 21
26.7539232354
  0
SOLID
  5
275
100
AcDbEntity
  8
___SYMBOL
100
AcDbTrace
 62
2
  6
CONTINUOUS
 10
10.9065027604
 20
26.5335394758
 11
10.9065027604
 21
26.7539232354
 12
11.0712364402
 22
26.7539232354
 13
11.0712364402
 23
26.7539232354
  0
SOLID
  5
276
100
AcDbEntity
  8
___SYMBOL
100
AcDbTrace
 62
2
  6
CONTINUOUS
 10
10.9065027604
 20
26.5335394758
 11
10.7585059493
 21
26.3963341958
 12
10.7585059493
 22
26.5335394758
 13
10.7585059493
 23
26.5335394758
  0
SOLID
  5
277
100
AcDbEntity
  8
___SYMBOL
100
AcDbTrace
 62
2
  6
CONTINUOUS
 10
10.7585059493
 20
26.3963341958
 11
10.5937722694
 21
26.1680095861
 12
10.7585059493
 22
26.5335394758
 13
10.7585059493
 23
26.5335394758
  0
SOLID
  5
278
100
AcDbEntity
  8
___SYMBOL
100
AcDbTrace
 62
2
  6
CONTINUOUS
 10
10.7585059493
 20
26.5335394758
 11
10.5937722694
 21
26.1680095861
 12
10.7585059493
 22
26.7539232354
 13
10.7585059493
 23
26.7539232354
  0
SOLID
  5
279
100
AcDbEntity
  8
___SYMBOL
100
AcDbTrace
 62
2
  6
CONTINUOUS
 10
10.5937722694
 20
26.1680095861
 11
10.5937722694
 21
26.7539232354
 12
10.7585059493
 22
26.7539232354
 13
10.7585059493
 23
26.7539232354
  0
SOLID
  5
27A
100
AcDbEntity
  8
___SYMBOL
100
AcDbTrace
 62
2
  6
CONTINUOUS
 10
10.7585059493
 20
26.3963341958
 11
10.7585059493
 21
26.1680095861
 12
10.5937722694
 22
26.1680095861
 13
10.5937722694
 23
26.1680095861
  0
SOLID
  5
27B
100
AcDbEntity
  8
___SYMBOL
100
AcDbTrace
 62
2
  6
CONTINUOUS
 10
10.7585059493
 20
26.3963341958
 11
10.9065027604
 21
26.5335394758
 12
10.9065027604
 22
26.3963341958
 13
10.9065027604
 23
26.3963341958
  0
SOLID
  5
27C
100
AcDbEntity
  8
___SYMBOL
100
AcDbTrace
 62
2
  6
CONTINUOUS
 10
10.9065027604
 20
26.5335394758
 11
11.0712364402
 21
26.7539232354
 12
10.9065027604
 22
26.3963341958
 13
10.9065027604
 23
26.3963341958
  0
SOLID
  5
27D
100
AcDbEntity
  8
___SYMBOL
100
AcDbTrace
 62
2
  6
CONTINUOUS
 10
10.9065027604
 20
26.3963341958
 11
11.0712364402
 21
26.7539232354
 12
10.9065027604
 22
26.1680095861
 13
10.9065027604
 23
26.1680095861
  0
SOLID
  5
27E
100
AcDbEntity
  8
___SYMBOL
100
AcDbTrace
 62
2
  6
CONTINUOUS
 10
11.0712364402
 20
26.7539232354
 11
11.0712364402
 21
26.1680095861
 12
10.9065027604
 22
26.1680095861
 13
10.9065027604
 23
26.1680095861
  0
LINE
  5
27F
100
AcDbEntity
  8
___SYMBOL
100
AcDbLine
 62
2
  6
CONTINUOUS
 10
11.2663273472
 20
26.1680095861
 11
11.4290114171
 21
26.1680095861
  0
LINE
  5
280
100
AcDbEntity
  8
___SYMBOL
100
AcDbLine
 62
2
  6
CONTINUOUS
 10
11.2663273472
 20
26.1680095861
 11
11.1162812844
 21
26.1680095861
  0
LINE
  5
281
100
AcDbEntity
  8
___SYMBOL
100
AcDbLine
 62
2
  6
CONTINUOUS
 10
11.1162812844
 20
26.1680095861
 11
11.1162812844
 21
26.7539232354
  0
LINE
  5
282
100
AcDbEntity
  8
___SYMBOL
100
AcDbLine
 62
2
  6
CONTINUOUS
 10
11.1162812844
 20
26.7539232354
 11
11.2663273472
 21
26.7539232354
  0
LINE
  5
283
100
AcDbEntity
  8
___SYMBOL
100
AcDbLine
 62
2
  6
CONTINUOUS
 10
11.2663273472
 20
26.7539232354
 11
11.2663273472
 21
26.3092363432
  0
LINE
  5
284
100
AcDbEntity
  8
___SYMBOL
100
AcDbLine
 62
2
  6
CONTINUOUS
 10
11.2663273472
 20
26.3092363432
 11
11.4290114171
 21
26.3092363432
  0
LINE
  5
285
100
AcDbEntity
  8
___SYMBOL
100
AcDbLine
 62
2
  6
CONTINUOUS
 10
11.4290114171
 20
26.3092363432
 11
11.4290114171
 21
26.1680095861
  0
SOLID
  5
286
100
AcDbEntity
  8
___SYMBOL
100
AcDbTrace
 62
2
  6
CONTINUOUS
 10
11.4290114171
 20
26.3092363432
 11
11.1162812844
 21
26.1680095861
 12
11.2663273472
 22
26.3092363432
 13
11.2663273472
 23
26.3092363432
  0
SOLID
  5
287
100
AcDbEntity
  8
___SYMBOL
100
AcDbTrace
 62
2
  6
CONTINUOUS
 10
11.2663273472
 20
26.3092363432
 11
11.1162812844
 21
26.1680095861
 12
11.2663273472
 22
26.7539232354
 13
11.2663273472
 23
26.7539232354
  0
SOLID
  5
288
100
AcDbEntity
  8
___SYMBOL
100
AcDbTrace
 62
2
  6
CONTINUOUS
 10
11.1162812844
 20
26.1680095861
 11
11.1162812844
 21
26.7539232354
 12
11.2663273472
 22
26.7539232354
 13
11.2663273472
 23
26.7539232354
  0
SOLID
  5
289
100
AcDbEntity
  8
___SYMBOL
100
AcDbTrace
 62
2
  6
CONTINUOUS
 10
11.1162812844
 20
26.1680095861
 11
11.4290114171
 21
26.3092363432
 12
11.2663273472
 22
26.1680095861
 13
11.2663273472
 23
26.1680095861
  0
SOLID
  5
28A
100
AcDbEntity
  8
___SYMBOL
100
AcDbTrace
 62
2
  6
CONTINUOUS
 10
11.4290114171
 20
26.3092363432
 11
11.4290114171
 21
26.1680095861
 12
11.2663273472
 22
26.1680095861
 13
11.2663273472
 23
26.1680095861
  0
LINE
  5
28B
100
AcDbEntity
  8
___SYMBOL
100
AcDbLine
 62
2
  6
CONTINUOUS
 10
11.7672633312
 20
26.3891578742
 11
11.7672633312
 21
26.5335394758
  0
LINE
  5
28C
100
AcDbEntity
  8
___SYMBOL
100
AcDbLine
 62
2
  6
CONTINUOUS
 10
11.6164058078
 20
26.5335394758
 11
11.7672633312
 21
26.5335394758
  0
LINE
  5
28D
100
AcDbEntity
  8
___SYMBOL
100
AcDbLine
 62
2
  6
CONTINUOUS
 10
11.6164058078
 20
26.6111638386
 11
11.6164058078
 21
26.5335394758
  0
LINE
  5
28E
100
AcDbEntity
  8
___SYMBOL
100
AcDbLine
 62
2
  6
CONTINUOUS
 10
11.6164058078
 20
26.6111638386
 11
11.7672633312
 21
26.6111638386
  0
LINE
  5
28F
100
AcDbEntity
  8
___SYMBOL
100
AcDbLine
 62
2
  6
CONTINUOUS
 10
11.7672633312
 20
26.6111638386
 11
11.7672633312
 21
26.7539232354
  0
LINE
  5
290
100
AcDbEntity
  8
___SYMBOL
100
AcDbLine
 62
2
  6
CONTINUOUS
 10
11.6306101311
 20
26.7539232354
 11
11.7672633312
 21
26.7539232354
  0
LINE
  5
291
100
AcDbEntity
  8
___SYMBOL
100
AcDbLine
 62
2
  6
CONTINUOUS
 10
11.4581591558
 20
26.7539232354
 11
11.6306101311
 21
26.7539232354
  0
LINE
  5
292
100
AcDbEntity
  8
___SYMBOL
100
AcDbLine
 62
2
  6
CONTINUOUS
 10
11.4581591558
 20
26.1680095861
 11
11.4581591558
 21
26.7539232354
  0
LINE
  5
293
100
AcDbEntity
  8
___SYMBOL
100
AcDbLine
 62
2
  6
CONTINUOUS
 10
11.4581591558
 20
26.1680095861
 11
11.7672633312
 21
26.1680095861
  0
LINE
  5
294
100
AcDbEntity
  8
___SYMBOL
100
AcDbLine
 62
2
  6
CONTINUOUS
 10
11.7672633312
 20
26.1680095861
 11
11.7672633312
 21
26.3092363432
  0
LINE
  5
295
100
AcDbEntity
  8
___SYMBOL
100
AcDbLine
 62
2
  6
CONTINUOUS
 10
11.6164058078
 20
26.3092363432
 11
11.7672633312
 21
26.3092363432
  0
LINE
  5
296
100
AcDbEntity
  8
___SYMBOL
100
AcDbLine
 62
2
  6
CONTINUOUS
 10
11.6164058078
 20
26.3891578742
 11
11.6164058078
 21
26.3092363432
  0
LINE
  5
297
100
AcDbEntity
  8
___SYMBOL
100
AcDbLine
 62
2
  6
CONTINUOUS
 10
11.6164058078
 20
26.3891578742
 11
11.7672633312
 21
26.3891578742
  0
SOLID
  5
298
100
AcDbEntity
  8
___SYMBOL
100
AcDbTrace
 62
2
  6
CONTINUOUS
 10
11.7672633312
 20
26.7539232354
 11
11.7672633312
 21
26.6111638386
 12
11.6164058078
 22
26.6111638386
 13
11.6164058078
 23
26.6111638386
  0
SOLID
  5
299
100
AcDbEntity
  8
___SYMBOL
100
AcDbTrace
 62
2
  6
CONTINUOUS
 10
11.7672633312
 20
26.5335394758
 11
11.7672633312
 21
26.3891578742
 12
11.6164058078
 22
26.3891578742
 13
11.6164058078
 23
26.3891578742
  0
SOLID
  5
29A
100
AcDbEntity
  8
___SYMBOL
100
AcDbTrace
 62
2
  6
CONTINUOUS
 10
11.7672633312
 20
26.3092363432
 11
11.4581591558
 21
26.1680095861
 12
11.6164058078
 22
26.3092363432
 13
11.6164058078
 23
26.3092363432
  0
SOLID
  5
29B
100
AcDbEntity
  8
___SYMBOL
100
AcDbTrace
 62
2
  6
CONTINUOUS
 10
11.6164058078
 20
26.3092363432
 11
11.4581591558
 21
26.1680095861
 12
11.6164058078
 22
26.3891578742
 13
11.6164058078
 23
26.3891578742
  0
SOLID
  5
29C
100
AcDbEntity
  8
___SYMBOL
100
AcDbTrace
 62
2
  6
CONTINUOUS
 10
11.7672633312
 20
26.5335394758
 11
11.6164058078
 21
26.3891578742
 12
11.6164058078
 22
26.5335394758
 13
11.6164058078
 23
26.5335394758
  0
SOLID
  5
29D
100
AcDbEntity
  8
___SYMBOL
100
AcDbTrace
 62
2
  6
CONTINUOUS
 10
11.6164058078
 20
26.3891578742
 11
11.4581591558
 21
26.1680095861
 12
11.6164058078
 22
26.5335394758
 13
11.6164058078
 23
26.5335394758
  0
SOLID
  5
29E
100
AcDbEntity
  8
___SYMBOL
100
AcDbTrace
 62
2
  6
CONTINUOUS
 10
11.6164058078
 20
26.5335394758
 11
11.4581591558
 21
26.1680095861
 12
11.6164058078
 22
26.6111638386
 13
11.6164058078
 23
26.6111638386
  0
SOLID
  5
29F
100
AcDbEntity
  8
___SYMBOL
100
AcDbTrace
 62
2
  6
CONTINUOUS
 10
11.7672633312
 20
26.7539232354
 11
11.6164058078
 21
26.6111638386
 12
11.6306101311
 22
26.7539232354
 13
11.6306101311
 23
26.7539232354
  0
SOLID
  5
2A0
100
AcDbEntity
  8
___SYMBOL
100
AcDbTrace
 62
2
  6
CONTINUOUS
 10
11.6164058078
 20
26.6111638386
 11
11.4581591558
 21
26.1680095861
 12
11.6306101311
 22
26.7539232354
 13
11.6306101311
 23
26.7539232354
  0
SOLID
  5
2A1
100
AcDbEntity
  8
___SYMBOL
100
AcDbTrace
 62
2
  6
CONTINUOUS
 10
11.4581591558
 20
26.1680095861
 11
11.4581591558
 21
26.7539232354
 12
11.6306101311
 22
26.7539232354
 13
11.6306101311
 23
26.7539232354
  0
SOLID
  5
2A2
100
AcDbEntity
  8
___SYMBOL
100
AcDbTrace
 62
2
  6
CONTINUOUS
 10
11.7672633312
 20
26.3092363432
 11
11.7672633312
 21
26.1680095861
 12
11.4581591558
 22
26.1680095861
 13
11.4581591558
 23
26.1680095861
  0
LINE
  5
2A3
100
AcDbEntity
  8
___SYMBOL
100
AcDbLine
 62
2
  6
CONTINUOUS
 10
12.2775137371
 20
26.1680095861
 11
12.1180704942
 21
26.4195921273
  0
ARC
  5
2A4
100
AcDbEntity
  8
___SYMBOL
100
AcDbCircle
 62
2
  6
CONTINUOUS
 10
12.0456312465
 20
26.5789137247
 40
0.1750166163
100
AcDbArc
 50
294.4500166359
 51
90.0
  0
LINE
  5
2A5
100
AcDbEntity
  8
___SYMBOL
100
AcDbLine
 62
2
  6
CONTINUOUS
 10
11.8120835459
 20
26.7539232354
 11
12.0456312465
 21
26.7539232354
  0
LINE
  5
2A6
100
AcDbEntity
  8
___SYMBOL
100
AcDbLine
 62
2
  6
CONTINUOUS
 10
11.8120835459
 20
26.1680095861
 11
11.8120835459
 21
26.7539232354
  0
LINE
  5
2A7
100
AcDbEntity
  8
___SYMBOL
100
AcDbLine
 62
2
  6
CONTINUOUS
 10
11.8120835459
 20
26.1680095861
 11
11.9627393684
 21
26.1680095861
  0
LINE
  5
2A8
100
AcDbEntity
  8
___SYMBOL
100
AcDbLine
 62
2
  6
CONTINUOUS
 10
11.9627393684
 20
26.3649659569
 11
11.9627393684
 21
26.1680095861
  0
LINE
  5
2A9
100
AcDbEntity
  8
___SYMBOL
100
AcDbLine
 62
2
  6
CONTINUOUS
 10
12.0875627976
 20
26.1680095861
 11
11.9627393684
 21
26.3649659569
  0
LINE
  5
2AA
100
AcDbEntity
  8
___SYMBOL
100
AcDbLine
 62
2
  6
CONTINUOUS
 10
12.0875627976
 20
26.1680095861
 11
12.2775137371
 21
26.1680095861
  0
LINE
  5
2AB
100
AcDbEntity
  8
___SYMBOL
100
AcDbLine
 62
2
  6
CONTINUOUS
 10
11.9627393684
 20
26.5042412676
 11
12.0150791186
 21
26.5042412676
  0
ARC
  5
2AC
100
AcDbEntity
  8
___SYMBOL
100
AcDbCircle
 62
2
  6
CONTINUOUS
 10
12.0186691479
 20
26.5577326671
 40
0.053611735
100
AcDbArc
 50
266.1604009902
 51
89.9998910512
  0
LINE
  5
2AD
100
AcDbEntity
  8
___SYMBOL
100
AcDbLine
 62
2
  6
CONTINUOUS
 10
12.0186692499
 20
26.6113444021
 11
11.9627393684
 21
26.6113444021
  0
LINE
  5
2AE
100
AcDbEntity
  8
___SYMBOL
100
AcDbLine
 62
2
  6
CONTINUOUS
 10
11.9627393684
 20
26.6113444021
 11
11.9627393684
 21
26.5042412676
  0
SOLID
  5
2AF
100
AcDbEntity
  8
___SYMBOL
100
AcDbTrace
 62
2
  6
CONTINUOUS
 10
12.0456312465
 20
26.753930341
 11
12.09256427
 21
26.7475200926
 12
11.8120835459
 22
26.7539232354
 13
11.8120835459
 23
26.7539232354
  0
SOLID
  5
2B0
100
AcDbEntity
  8
___SYMBOL
100
AcDbTrace
 62
2
  6
CONTINUOUS
 10
11.9627393684
 20
26.6113444021
 11
12.2166791095
 21
26.6159737376
 12
12.0186692499
 22
26.6113444021
 13
12.0186692499
 23
26.6113444021
  0
SOLID
  5
2B1
100
AcDbEntity
  8
___SYMBOL
100
AcDbTrace
 62
2
  6
CONTINUOUS
 10
12.0186692499
 20
26.6113444021
 11
12.2166791095
 21
26.6159737376
 12
12.0423918315
 22
26.6058102337
 13
12.0423918315
 23
26.6058102337
  0
SOLID
  5
2B2
100
AcDbEntity
  8
___SYMBOL
100
AcDbTrace
 62
2
  6
CONTINUOUS
 10
12.0423918315
 20
26.6058102337
 11
12.2166791095
 21
26.6159737376
 12
12.0612168191
 22
26.5903503587
 13
12.0612168191
 23
26.5903503587
  0
SOLID
  5
2B3
100
AcDbEntity
  8
___SYMBOL
100
AcDbTrace
 62
2
  6
CONTINUOUS
 10
12.2166791095
 20
26.6159737376
 11
12.2203523559
 21
26.5687476088
 12
12.0612168191
 22
26.5903503587
 13
12.0612168191
 23
26.5903503587
  0
SOLID
  5
2B4
100
AcDbEntity
  8
___SYMBOL
100
AcDbTrace
 62
2
  6
CONTINUOUS
 10
12.0712577577
 20
26.5681564981
 11
12.0612168191
 21
26.5903503587
 12
12.2203523559
 22
26.5687476088
 13
12.2203523559
 23
26.5687476088
  0
SOLID
  5
2B5
100
AcDbEntity
  8
___SYMBOL
100
AcDbTrace
 62
2
  6
CONTINUOUS
 10
12.0712577577
 20
26.5681564981
 11
12.2203523559
 21
26.5687476088
 12
12.070441676
 22
26.5438106174
 13
12.070441676
 23
26.5438106174
  0
SOLID
  5
2B6
100
AcDbEntity
  8
___SYMBOL
100
AcDbTrace
 62
2
  6
CONTINUOUS
 10
12.070441676
 20
26.5438106174
 11
12.2203523559
 21
26.5687476088
 12
12.0589370557
 22
26.5223389708
 13
12.0589370557
 23
26.5223389708
  0
SOLID
  5
2B7
100
AcDbEntity
  8
___SYMBOL
100
AcDbTrace
 62
2
  6
CONTINUOUS
 10
12.2203523559
 20
26.5687476088
 11
12.2112267523
 21
26.5222661787
 12
12.0589370557
 22
26.5223389708
 13
12.0589370557
 23
26.5223389708
  0
SOLID
  5
2B8
100
AcDbEntity
  8
___SYMBOL
100
AcDbTrace
 62
2
  6
CONTINUOUS
 10
12.0391190479
 20
26.5081744213
 11
12.0589370557
 21
26.5223389708
 12
12.2112267523
 22
26.5222661787
 13
12.2112267523
 23
26.5222661787
  0
SOLID
  5
2B9
100
AcDbEntity
  8
___SYMBOL
100
AcDbTrace
 62
2
  6
CONTINUOUS
 10
12.0391190479
 20
26.5081744213
 11
12.2112267523
 21
26.5222661787
 12
12.0150791186
 22
26.5042412676
 13
12.0150791186
 23
26.5042412676
  0
SOLID
  5
2BA
100
AcDbEntity
  8
___SYMBOL
100
AcDbTrace
 62
2
  6
CONTINUOUS
 10
12.2112267523
 20
26.5222661787
 11
12.1899707766
 21
26.4799343528
 12
12.0150791186
 22
26.5042412676
 13
12.0150791186
 23
26.5042412676
  0
SOLID
  5
2BB
100
AcDbEntity
  8
___SYMBOL
100
AcDbTrace
 62
2
  6
CONTINUOUS
 10
12.1180704942
 20
26.4195921273
 11
11.9627393684
 21
26.3649659569
 12
12.1581414934
 22
26.4448530656
 13
12.1581414934
 23
26.4448530656
  0
SOLID
  5
2BC
100
AcDbEntity
  8
___SYMBOL
100
AcDbTrace
 62
2
  6
CONTINUOUS
 10
12.1581414934
 20
26.4448530656
 11
11.9627393684
 21
26.3649659569
 12
12.1899707766
 22
26.4799343528
 13
12.1899707766
 23
26.4799343528
  0
SOLID
  5
2BD
100
AcDbEntity
  8
___SYMBOL
100
AcDbTrace
 62
2
  6
CONTINUOUS
 10
12.1899707766
 20
26.4799343528
 11
11.9627393684
 21
26.3649659569
 12
12.0150791186
 22
26.5042412676
 13
12.0150791186
 23
26.5042412676
  0
SOLID
  5
2BE
100
AcDbEntity
  8
___SYMBOL
100
AcDbTrace
 62
2
  6
CONTINUOUS
 10
11.9627393684
 20
26.3649659569
 11
11.8120835459
 21
26.1680095861
 12
12.0150791186
 22
26.5042412676
 13
12.0150791186
 23
26.5042412676
  0
SOLID
  5
2BF
100
AcDbEntity
  8
___SYMBOL
100
AcDbTrace
 62
2
  6
CONTINUOUS
 10
12.0150791186
 20
26.5042412676
 11
11.8120835459
 21
26.1680095861
 12
11.9627393684
 22
26.5042412676
 13
11.9627393684
 23
26.5042412676
  0
SOLID
  5
2C0
100
AcDbEntity
  8
___SYMBOL
100
AcDbTrace
 62
2
  6
CONTINUOUS
 10
11.9627393684
 20
26.5042412676
 11
11.8120835459
 21
26.1680095861
 12
11.9627393684
 22
26.6113444021
 13
11.9627393684
 23
26.6113444021
  0
SOLID
  5
2C1
100
AcDbEntity
  8
___SYMBOL
100
AcDbTrace
 62
2
  6
CONTINUOUS
 10
12.2166791095
 20
26.6159737376
 11
11.9627393684
 21
26.6113444021
 12
12.2004760894
 22
26.6604851083
 13
12.2004760894
 23
26.6604851083
  0
SOLID
  5
2C2
100
AcDbEntity
  8
___SYMBOL
100
AcDbTrace
 62
2
  6
CONTINUOUS
 10
12.2004760894
 20
26.6604851083
 11
11.9627393684
 21
26.6113444021
 12
12.1729302159
 22
26.6990211283
 13
12.1729302159
 23
26.6990211283
  0
SOLID
  5
2C3
100
AcDbEntity
  8
___SYMBOL
100
AcDbTrace
 62
2
  6
CONTINUOUS
 10
12.1729302159
 20
26.6990211283
 11
11.9627393684
 21
26.6113444021
 12
12.1360593075
 22
26.7287589174
 13
12.1360593075
 23
26.7287589174
  0
SOLID
  5
2C4
100
AcDbEntity
  8
___SYMBOL
100
AcDbTrace
 62
2
  6
CONTINUOUS
 10
12.1360593075
 20
26.7287589174
 11
11.9627393684
 21
26.6113444021
 12
12.09256427
 22
26.7475200926
 13
12.09256427
 23
26.7475200926
  0
SOLID
  5
2C5
100
AcDbEntity
  8
___SYMBOL
100
AcDbTrace
 62
2
  6
CONTINUOUS
 10
12.09256427
 20
26.7475200926
 11
11.9627393684
 21
26.6113444021
 12
11.8120835459
 22
26.7539232354
 13
11.8120835459
 23
26.7539232354
  0
SOLID
  5
2C6
100
AcDbEntity
  8
___SYMBOL
100
AcDbTrace
 62
2
  6
CONTINUOUS
 10
11.8120835459
 20
26.1680095861
 11
11.8120835459
 21
26.7539232354
 12
11.9627393684
 22
26.6113444021
 13
11.9627393684
 23
26.6113444021
  0
SOLID
  5
2C7
100
AcDbEntity
  8
___SYMBOL
100
AcDbTrace
 62
2
  6
CONTINUOUS
 10
11.9627393684
 20
26.3649659569
 11
11.9627393684
 21
26.1680095861
 12
11.8120835459
 22
26.1680095861
 13
11.8120835459
 23
26.1680095861
  0
SOLID
  5
2C8
100
AcDbEntity
  8
___SYMBOL
100
AcDbTrace
 62
2
  6
CONTINUOUS
 10
11.9627393684
 20
26.3649659569
 11
12.1180704942
 21
26.4195921273
 12
12.0875627976
 22
26.1680095861
 13
12.0875627976
 23
26.1680095861
  0
SOLID
  5
2C9
100
AcDbEntity
  8
___SYMBOL
100
AcDbTrace
 62
2
  6
CONTINUOUS
 10
12.1180704942
 20
26.4195921273
 11
12.2775137371
 21
26.1680095861
 12
12.0875627976
 22
26.1680095861
 13
12.0875627976
 23
26.1680095861
  0
CIRCLE
  5
2CA
100
AcDbEntity
  8
___SYMBOL
100
AcDbCircle
 62
2
  6
CONTINUOUS
 10
12.4182837118
 20
26.1680095861
 40
0.0653578721
  0
LINE
  5
2CB
100
AcDbEntity
  8
___SYMBOL
100
AcDbLine
 62
2
  6
CONTINUOUS
 10
12.4139956885
 20
26.1674718366
 11
12.4458637013
 21
26.1351688953
  0
LINE
  5
2CC
100
AcDbEntity
  8
___SYMBOL
100
AcDbLine
 62
2
  6
CONTINUOUS
 10
12.4023977123
 20
26.1351688953
 11
12.4023977123
 21
26.2011350942
  0
LINE
  5
2CD
100
AcDbEntity
  8
___SYMBOL
100
AcDbLine
 62
2
  6
CONTINUOUS
 10
12.4023977123
 20
26.2011350942
 11
12.4266770453
 21
26.2011350942
  0
ARC
  5
2CE
100
AcDbEntity
  8
___SYMBOL
100
AcDbCircle
 62
2
  6
CONTINUOUS
 10
12.4266770453
 20
26.1843036445
 40
0.0168314496
100
AcDbArc
 50
270.0
 51
90.0
  0
LINE
  5
2CF
100
AcDbEntity
  8
___SYMBOL
100
AcDbLine
 62
2
  6
CONTINUOUS
 10
12.4266770453
 20
26.1674718366
 11
12.4023977123
 21
26.1674718366
  0
ENDBLK
  5
2D0
100
AcDbEntity
  8
0
  6
BYBLOCK
 62
0
100
AcDbBlockEnd
  0
BLOCK
  5
2D1
100
AcDbEntity
  8
___SYMBOL
100
AcDbBlockBegin
 62
2
  6
CONTINUOUS
  2
WHEN_PLOTTING_TEMPLATE_N_BL1
 70
64
 10
33.2798885637
 20
12.1919668067
  3
WHEN_PLOTTING_TEMPLATE_N_BL1
  1

  0
TEXT
  5
2D2
100
AcDbEntity
  8
___SYMBOL
100
AcDbText
 62
2
  6
CONTINUOUS
 10
29.9673883313
 20
13.4029043916
  7
STANDARD
 40
0.156250011
  1
WHEN PLOTTING TEMPLATE FULL SIZE:
 41
0.8
 72
0
100
AcDbText
  0
TEXT
  5
2D3
100
AcDbEntity
  8
___SYMBOL
100
AcDbText
 62
2
  6
CONTINUOUS
 10
29.9673883313
 20
13.1685293752
  7
STANDARD
 40
0.156250011
  1
Make sure horizontal and vertical dimensions
 41
0.8
 72
0
100
AcDbText
  0
TEXT
  5
2D4
100
AcDbEntity
  8
___SYMBOL
100
AcDbText
 62
2
  6
CONTINUOUS
 10
29.9673883313
 20
12.9341543588
  7
STANDARD
 40
0.156250011
  1
match the dimensions labeled on the template.
 41
0.8
 72
0
100
AcDbText
  0
TEXT
  5
2D5
100
AcDbEntity
  8
___SYMBOL
100
AcDbText
 62
2
  6
CONTINUOUS
 10
29.9673883313
 20
12.6997793423
  7
STANDARD
 40
0.156250011
  1
 
 41
0.8
 72
0
100
AcDbText
  0
TEXT
  5
2D6
100
AcDbEntity
  8
___SYMBOL
100
AcDbText
 62
2
  6
CONTINUOUS
 10
29.9673883313
 20
12.4654043259
  7
STANDARD
 40
0.156250011
  1
AL TRAZAR LA PLANTILLA A ESCALA,
 41
0.8
 72
0
100
AcDbText
  0
TEXT
  5
2D7
100
AcDbEntity
  8
___SYMBOL
100
AcDbText
 62
2
  6
CONTINUOUS
 10
29.9673883313
 20
12.2310293094
  7
STANDARD
 40
0.156250011
  1
asegúrese de que las dimensiones horizontales
 41
0.8
 72
0
100
AcDbText
  0
TEXT
  5
2D8
100
AcDbEntity
  8
___SYMBOL
100
AcDbText
 62
2
  6
CONTINUOUS
 10
29.9673883313
 20
11.996654293
  7
STANDARD
 40
0.156250011
  1
y verticales concuerden con las dimensiones marcadas
 41
0.8
 72
0
100
AcDbText
  0
TEXT
  5
2D9
100
AcDbEntity
  8
___SYMBOL
100
AcDbText
 62
2
  6
CONTINUOUS
 10
29.9673883313
 20
11.7622792765
  7
STANDARD
 40
0.156250011
  1
en la plantilla.
 41
0.8
 72
0
100
AcDbText
  0
TEXT
  5
2DA
100
AcDbEntity
  8
___SYMBOL
100
AcDbText
 62
2
  6
CONTINUOUS
 10
29.9673883313
 20
11.5279042601
  7
STANDARD
 40
0.156250011
  1
 
 41
0.8
 72
0
100
AcDbText
  0
TEXT
  5
2DB
100
AcDbEntity
  8
___SYMBOL
100
AcDbText
 62
2
  6
CONTINUOUS
 10
29.9673883313
 20
11.2935292436
  7
STANDARD
 40
0.156250011
  1
AU MOMENT DE TRACER LA DÉCOUPE À L'ÉCHELLE,
 41
0.8
 72
0
100
AcDbText
  0
TEXT
  5
2DC
100
AcDbEntity
  8
___SYMBOL
100
AcDbText
 62
2
  6
CONTINUOUS
 10
29.9673883313
 20
11.0591542272
  7
STANDARD
 40
0.156250011
  1
Assurez vos que les dimensions horizotales et
 41
0.8
 72
0
100
AcDbText
  0
TEXT
  5
2DD
100
AcDbEntity
  8
___SYMBOL
100
AcDbText
 62
2
  6
CONTINUOUS
 10
29.9673883313
 20
10.8247792108
  7
STANDARD
 40
0.156250011
  1
verticales correspondent avec les dimensions du plan.
 41
0.8
 72
0
100
AcDbText
  0
ENDBLK
  5
2DE
100
AcDbEntity
  8
0
  6
BYBLOCK
 62
0
100
AcDbBlockEnd
  0
BLOCK
  5
2DF
100
AcDbEntity
  8
___SYMBOL
100
AcDbBlockBegin
 62
2
  6
CONTINUOUS
  2
COPYRIGHT_YEAR_BL0
 70
64
 10
34.198943093
 20
8.8070266917
  3
COPYRIGHT_YEAR_BL0
  1

  0
TEXT
  5
2E0
100
AcDbEntity
  8
___SYMBOL
100
AcDbText
 62
2
  6
CONTINUOUS
 10
33.8252527895
 20
8.7717531917
  7
STANDARD
 40
0.0704997506
  1
2020 KOHLER CO.
 41
0.8
 72
0
100
AcDbText
  0
TEXT
  5
2E1
100
AcDbEntity
  8
___SYMBOL
100
AcDbText
 62
7
  6
CONTINUOUS
 10
33.7452273236
 20
8.7882381336
  7
TEXTSTYLE_2
 40
0.0421873503
  1
C
 41
1.0
 72
0
100
AcDbText
  0
CIRCLE
  5
2E2
100
AcDbEntity
  8
___SYMBOL
100
AcDbCircle
 62
7
  6
CONTINUOUS
 10
33.7594622731
 20
8.8094743082
 40
0.0328258835
  0
ENDBLK
  5
2E3
100
AcDbEntity
  8
0
  6
BYBLOCK
 62
0
100
AcDbBlockEnd
  0
BLOCK
  5
2E4
100
AcDbEntity
  8
0
100
AcDbBlockBegin
  2
_ARROW_FILLED
 70
64
 10
0.0
 20
0.0
  3
_ARROW_FILLED
  1

  0
SOLID
  5
2E5
100
AcDbEntity
  8
0
  6
BYBLOCK
 62
0
100
AcDbTrace
 10
0.0
 20
0.0
 11
-1.0
 21
0.1666666667
 12
-1.0
 22
-0.1666666667
 13
-1.0
 23
-0.1666666667
  0
ENDBLK
  5
2E6
100
AcDbEntity
  8
0
  6
BYBLOCK
 62
0
100
AcDbBlockEnd
  0
BLOCK
  5
2E7
100
AcDbEntity
  8
0
100
AcDbBlockBegin
 62
2
  6
CONTINUOUS
  2
*D0
 70
65
 10
0.0
 20
0.0
  3
*D0
  1

  0
MTEXT
  5
2E8
100
AcDbEntity
  8
0
100
AcDbMText
 62
2
  6
CONTINUOUS
  7
STANDARD
 71
1
 72
1
 10
19.1560990511
 20
19.0538066258
 30
0.0
 11
1.0
 21
0.0
 31
0.0
  1
17-15/16"\P[46]
 40
0.15625
 41
1.125
  0
LINE
  5
2E9
100
AcDbEntity
  8
0
100
AcDbLine
 62
2
  6
CONTINUOUS
 10
19.7185990511
 20
10.0196282352
 11
19.7185990511
 21
18.5850566258
  0
LINE
  5
2EA
100
AcDbEntity
  8
0
100
AcDbLine
 62
2
  6
CONTINUOUS
 10
19.7185990511
 20
27.9317350164
 11
19.7185990511
 21
19.1319316258
  0
INSERT
  5
2EB
100
AcDbEntity
  8
0
100
AcDbBlockReference
 62
2
  6
CONTINUOUS
  2
_ARROW_FILLED
 10
19.7185990511
 20
10.0196282352
 41
0.1875
 42
0.1875
 43
0.1875
 50
270.0
  0
INSERT
  5
2EC
100
AcDbEntity
  8
0
100
AcDbBlockReference
 62
2
  6
CONTINUOUS
  2
_ARROW_FILLED
 10
19.7185990511
 20
27.9317350164
 41
0.1875
 42
0.1875
 43
0.1875
 50
90.0
  0
ENDBLK
  5
2ED
100
AcDbEntity
  8
0
  6
BYBLOCK
 62
0
100
AcDbBlockEnd
  0
BLOCK
  5
2EE
100
AcDbEntity
  8
0
100
AcDbBlockBegin
 62
2
  6
CONTINUOUS
  2
*D1
 70
65
 10
0.0
 20
0.0
  3
*D1
  1

  0
MTEXT
  5
2EF
100
AcDbEntity
  8
0
100
AcDbMText
 62
2
  6
CONTINUOUS
  7
STANDARD
 71
1
 72
1
 10
16.8857610882
 20
19.5002532352
 30
0.0
 11
1.0
 21
0.0
 31
0.0
  1
18-13/16"\P[47,76]
 40
0.15625
 41
1.125
  0
LINE
  5
2F0
100
AcDbEntity
  8
0
100
AcDbLine
 62
2
  6
CONTINUOUS
 10
17.4482610882
 20
10.0196282352
 11
17.4482610882
 21
19.0315032352
  0
LINE
  5
2F1
100
AcDbEntity
  8
0
100
AcDbLine
 62
2
  6
CONTINUOUS
 10
17.4482610882
 20
28.8246282352
 11
17.4482610882
 21
19.5783782352
  0
INSERT
  5
2F2
100
AcDbEntity
  8
0
100
AcDbBlockReference
 62
2
  6
CONTINUOUS
  2
_ARROW_FILLED
 10
17.4482610882
 20
10.0196282352
 41
0.1875
 42
0.1875
 43
0.1875
 50
270.0
  0
INSERT
  5
2F3
100
AcDbEntity
  8
0
100
AcDbBlockReference
 62
2
  6
CONTINUOUS
  2
_ARROW_FILLED
 10
17.4482610882
 20
28.8246282352
 41
0.1875
 42
0.1875
 43
0.1875
 50
90.0
  0
ENDBLK
  5
2F4
100
AcDbEntity
  8
0
  6
BYBLOCK
 62
0
100
AcDbBlockEnd
  0
BLOCK
  5
2F5
100
AcDbEntity
  8
0
100
AcDbBlockBegin
 62
2
  6
CONTINUOUS
  2
*D2
 70
65
 10
0.0
 20
0.0
  3
*D2
  1

  0
MTEXT
  5
2F6
100
AcDbEntity
  8
0
100
AcDbMText
 62
2
  6
CONTINUOUS
  7
STANDARD
 71
1
 72
1
 10
21.4271127477
 20
14.8654994843
 30
0.0
 11
1.0
 21
0.0
 31
0.0
  1
31-3/16"\P[79]
 40
0.15625
 41
1.0
  0
LINE
  5
2F7
100
AcDbEntity
  8
0
100
AcDbLine
 62
2
  6
CONTINUOUS
 10
6.3421104724
 20
14.7873744843
 11
21.3489877477
 21
14.7873744843
  0
LINE
  5
2F8
100
AcDbEntity
  8
0
100
AcDbLine
 62
2
  6
CONTINUOUS
 10
37.5121150229
 20
14.7873744843
 11
22.5052377477
 21
14.7873744843
  0
INSERT
  5
2F9
100
AcDbEntity
  8
0
100
AcDbBlockReference
 62
2
  6
CONTINUOUS
  2
_ARROW_FILLED
 10
6.3421104724
 20
14.7873744843
 41
0.1875
 42
0.1875
 43
0.1875
 50
180.0
  0
INSERT
  5
2FA
100
AcDbEntity
  8
0
100
AcDbBlockReference
 62
2
  6
CONTINUOUS
  2
_ARROW_FILLED
 10
37.5121150229
 20
14.7873744843
 41
0.1875
 42
0.1875
 43
0.1875
  0
ENDBLK
  5
2FB
100
AcDbEntity
  8
0
  6
BYBLOCK
 62
0
100
AcDbBlockEnd
  0
BLOCK
  5
2FC
100
AcDbEntity
  8
0
100
AcDbBlockBegin
 62
2
  6
CONTINUOUS
  2
*D3
 70
65
 10
0.0
 20
0.0
  3
*D3
  1

  0
MTEXT
  5
2FD
100
AcDbEntity
  8
0
100
AcDbMText
 62
2
  6
CONTINUOUS
  7
STANDARD
 71
1
 72
1
 10
21.4896127477
 20
16.4537301382
 30
0.0
 11
1.0
 21
0.0
 31
0.0
  1
34{\ftxt.shx;\W3.200000;\H0.156250; }"\P[86,4]
 40
0.15625
 41
0.875
  0
LINE
  5
2FE
100
AcDbEntity
  8
0
100
AcDbLine
 62
2
  6
CONTINUOUS
 10
4.9271127477
 20
16.3756051382
 11
21.4114877477
 21
16.3756051382
  0
LINE
  5
2FF
100
AcDbEntity
  8
0
100
AcDbLine
 62
2
  6
CONTINUOUS
 10
38.9271127477
 20
16.3756051382
 11
22.4427377477
 21
16.3756051382
  0
INSERT
  5
300
100
AcDbEntity
  8
0
100
AcDbBlockReference
 62
2
  6
CONTINUOUS
  2
_ARROW_FILLED
 10
4.9271127477
 20
16.3756051382
 41
0.1875
 42
0.1875
 43
0.1875
 50
180.0
  0
INSERT
  5
301
100
AcDbEntity
  8
0
100
AcDbBlockReference
 62
2
  6
CONTINUOUS
  2
_ARROW_FILLED
 10
38.9271127477
 20
16.3756051382
 41
0.1875
 42
0.1875
 43
0.1875
  0
ENDBLK
  5
302
100
AcDbEntity
  8
0
  6
BYBLOCK
 62
0
100
AcDbBlockEnd
  0
ENDSEC
  0
SECTION
  2
ENTITIES
  0
DIMENSION
  5
303
100
AcDbEntity
  8
0
100
AcDbDimension
 62
2
  6
CONTINUOUS
  2
*D0
 10
19.7185990511
 20
27.9317350164
 11
19.7185990511
 21
18.8584941258
 70
160
  1
<>"\P[]
  3
DIMSTYLE_1
100
AcDbAlignedDimension
 13
39.9271127477
 23
10.0196282352
 14
35.7621150229
 24
27.9317350164
 50
90.0
100
AcDbRotatedDimension
  0
DIMENSION
  5
304
100
AcDbEntity
  8
0
100
AcDbDimension
 62
2
  6
CONTINUOUS
  2
*D1
 10
17.4482610882
 20
28.8246282352
 11
17.4482610882
 21
19.3049407352
 70
160
  1
<>"\P[]
  3
DIMSTYLE_2
100
AcDbAlignedDimension
 13
39.9271127477
 23
10.0196282352
 14
33.1049982241
 24
28.8246282352
 50
90.0
100
AcDbRotatedDimension
  0
DIMENSION
  5
305
100
AcDbEntity
  8
0
100
AcDbDimension
 62
2
  6
CONTINUOUS
  2
*D2
 10
37.5121150229
 20
14.7873744843
 11
21.9271127477
 21
14.6701869843
 70
160
  1
<>"\P[]
  3
DIMSTYLE_1
100
AcDbAlignedDimension
 13
6.3421104724
 23
8.5196282352
 14
37.5121150229
 24
8.5196282352
100
AcDbRotatedDimension
  0
DIMENSION
  5
306
100
AcDbEntity
  8
0
100
AcDbDimension
 62
2
  6
CONTINUOUS
  2
*D3
 10
38.9271127477
 20
16.3756051382
 11
21.9271127477
 21
16.2584176382
 70
160
  1
<>"\P[]
  3
DIMSTYLE_3
100
AcDbAlignedDimension
 13
4.9271127477
 23
10.0796282352
 14
38.9271127477
 24
10.0796282352
100
AcDbRotatedDimension
  0
LEADER
  5
307
100
AcDbEntity
  8
___NOTE
100
AcDbLeader
 62
2
  6
CONTINUOUS
  3
STANDARD
 71
1
 72
0
 73
0
 75
0
 40
0.15625
 41
1.375
 76
3
 10
38.9271127477
 20
21.1509203645
 30
0.0
 10
33.3891845331
 20
24.0918637264
 30
0.0
 10
33.1391845331
 20
24.0918637264
 30
0.0
340
308
1001
ACAD
1000
DSTYLE
1002
{
1070
77
1070
0
1002
}
  0
MTEXT
  5
308
102
{ACAD_REACTORS
330
307
102
}
100
AcDbEntity
  8
___NOTE
100
AcDbMText
 62
2
  6
CONTINUOUS
  7
STANDARD
 71
3
 72
1
 10
33.1391845331
 20
24.1699887264
 30
0.0
 11
1.0
 21
0.0
 31
0.0
  1
RIM OF SINK\PREBORDE DE FREGADERO\PREBORD D'ÉVIER
 40
0.15625
 41
2.5
  0
LEADER
  5
309
100
AcDbEntity
  8
___NOTE
100
AcDbLeader
 62
2
  6
CONTINUOUS
  3
STANDARD
 71
1
 72
0
 73
0
 75
0
 40
0.15625
 41
2.0
 76
3
 10
16.3641613526
 20
10.0196282352
 30
0.0
 10
14.9815369213
 20
12.1017464313
 30
0.0
 10
14.7315369213
 20
12.1017464313
 30
0.0
340
30A
1001
ACAD
1000
DSTYLE
1002
{
1070
77
1070
0
1002
}
  0
MTEXT
  5
30A
102
{ACAD_REACTORS
330
309
102
}
100
AcDbEntity
  8
___NOTE
100
AcDbMText
 62
2
  6
CONTINUOUS
  7
STANDARD
 71
3
 72
1
 10
14.7315369213
 20
12.1798714313
 30
0.0
 11
1.0
 21
0.0
 31
0.0
  1
FRONT OF CABINET
 40
0.15625
 41
2.0
  0
LEADER
  5
30B
100
AcDbEntity
  8
___NOTE
100
AcDbLeader
 62
2
  6
CONTINUOUS
  3
STANDARD
 71
1
 72
0
 73
0
 75
0
 40
0.15625
 41
3.875
 76
3
 10
5.4434409791
 20
8.5196282352
 30
0.0
 10
7.7271887212
 20
12.0921820255
 30
0.0
 10
7.9771887212
 20
12.0921820255
 30
0.0
340
30C
1001
ACAD
1000
DSTYLE
1002
{
1070
77
1070
0
1002
}
  0
MTEXT
  5
30C
102
{ACAD_REACTORS
330
30B
102
}
100
AcDbEntity
  8
___NOTE
100
AcDbMText
 62
2
  6
CONTINUOUS
  7
STANDARD
 71
1
 72
1
 10
7.9771887212
 20
12.1703070255
 30
0.0
 11
1.0
 21
0.0
 31
0.0
  1
EDGE OF COUNTERTOP LINE DEPICTS\P1-1/2" COUNTERTOP OVERHANG\PFOR REFERENCE ONLY
 40
0.15625
 41
3.875
  0
MTEXT
  5
30D
100
AcDbEntity
  8
___NOTE
100
AcDbMText
 62
2
  6
CONTINUOUS
  7
STANDARD
 71
1
 72
1
 10
21.2106686988
 20
7.1444413696
 30
0.0
 11
1.0
 21
0.0
 31
0.0
  1
FRONT OF APRON
 40
0.15625
 41
1.75
  0
MTEXT
  5
30E
100
AcDbEntity
  8
___NOTE
100
AcDbMText
 62
2
  6
CONTINUOUS
  7
STANDARD
 71
1
 72
1
 10
11.2353559735
 20
13.7729330504
 30
0.0
 11
1.0
 21
0.0
 31
0.0
  1
IMPORTANT! POSITION TEMPLATE\PRELATIVE TO FRONT OF CABINET
 40
0.15625
 41
3.5
  0
MTEXT
  5
30F
100
AcDbEntity
  8
___NOTE
100
AcDbMText
 62
2
  6
CONTINUOUS
  7
STANDARD
 71
1
 72
1
 10
4.1387169715
 20
19.4407878891
 30
0.0
 11
0.0
 21
1.0
 31
0.0
  1
1398641-7-A\P \P \P \P \P \P \P \P \P \P1398641-7-A
 40
0.2
 41
1.76
  0
LEADER
  5
310
100
AcDbEntity
  8
___NOTE
100
AcDbLeader
 62
2
  6
CONTINUOUS
  3
STANDARD
 71
1
 72
0
 73
0
 75
0
 40
0.15625
 41
3.5
 76
3
 10
37.5121150229
 20
19.2130176136
 30
0.0
 10
33.6567174252
 20
21.3841103414
 30
0.0
 10
33.4067174252
 20
21.3841103414
 30
0.0
340
311
1001
ACAD
1000
DSTYLE
1002
{
1070
77
1070
0
1002
}
  0
MTEXT
  5
311
102
{ACAD_REACTORS
330
310
102
}
100
AcDbEntity
  8
___NOTE
100
AcDbMText
 62
2
  6
CONTINUOUS
  7
STANDARD
 71
3
 72
1
 10
33.4067174252
 20
21.4622353414
 30
0.0
 11
1.0
 21
0.0
 31
0.0
  1
FOR UNDER-MOUNT INSTALLATION\PCUT ALONG THIS LINE\PPARA INSTALACIÓN DE MONTAJE POR ABAJO\PCORTE A LO LARGO DE ESTA LÍNEA\PPOUR INSTALLATION À MONTAGE SOUS PLAN\PCOUPER LE LONG DE CETTE LIGNE\P 
 40
0.15625
 41
4.625
  0
LEADER
  5
312
100
AcDbEntity
  8
___NOTE
100
AcDbLeader
 62
2
  6
CONTINUOUS
  3
STANDARD
 71
1
 72
0
 73
0
 75
0
 40
0.15625
 41
5.5
 76
3
 10
23.1101672472
 20
30.5746282352
 30
0.0
 10
25.072685937
 20
26.3834395598
 30
0.0
 10
25.322685937
 20
26.3834395598
 30
0.0
340
313
1001
ACAD
1000
DSTYLE
1002
{
1070
77
1070
0
1002
}
  0
MTEXT
  5
313
102
{ACAD_REACTORS
330
312
102
}
100
AcDbEntity
  8
___NOTE
100
AcDbMText
 62
2
  6
CONTINUOUS
  7
STANDARD
 71
1
 72
1
 10
25.322685937
 20
26.4615645598
 30
0.0
 11
1.0
 21
0.0
 31
0.0
  1
SUGGESTED FAUCET HOLES ALONG THIS CENTERLINE\PORIFICIOS PARA GRIFERÍA SUGERIDOS A LO LARGO DE ESTA LÍNEA CENTRAL\PTROUS DE ROBINET SUGGÉRÉS LE LONG DE CETTE LIGNE CENTRALE
 40
0.15625
 41
8.25
  0
INSERT
  5
314
100
AcDbEntity
  8
___SYMBOL
100
AcDbBlockReference
 62
2
  6
CONTINUOUS
  2
COPYRIGHT_YEAR_BL0
 10
34.198943093
 20
8.8070266917
  0
INSERT
  5
315
100
AcDbEntity
  8
___SYMBOL
100
AcDbBlockReference
 62
2
  6
CONTINUOUS
  2
WHEN_PLOTTING_TEMPLATE_N_BL1
 10
33.2798885637
 20
12.1919668067
  0
INSERT
  5
316
100
AcDbEntity
  8
___SYMBOL
100
AcDbBlockReference
 62
2
  6
CONTINUOUS
  2
CUT-OUT_TEMPLATE_SKU_SIN_BL2
 10
11.9353154354
 20
24.4874599116
  0
LINE
  5
317
100
AcDbEntity
  8
_CURVE
100
AcDbLine
 62
8
  6
PHANTOM
 10
4.084318318
 20
9.9564718622
 11
4.1007514192
 21
9.6445250368
  0
LINE
  5
318
100
AcDbEntity
  8
_CURVE
100
AcDbLine
 62
8
  6
PHANTOM
 10
4.9271127477
 20
27.3246282352
 11
4.9271127477
 21
10.0796282352
  0
LINE
  5
319
100
AcDbEntity
  8
_CURVE
100
AcDbLine
 62
7
  6
CONTINUOUS
 10
6.3421104724
 20
8.5196282352
 11
6.3421104724
 21
26.1817350164
  0
LINE
  5
31A
100
AcDbEntity
  8
_CURVE
100
AcDbLine
 62
8
  6
PHANTOM
 10
5.8523361375
 20
7.9557190356
 11
38.0018893579
 21
7.9557190356
  0
LINE
  5
31B
100
AcDbEntity
  8
_CURVE
100
AcDbLine
 62
7
  6
CONTINUOUS
 10
3.3421104724
 20
8.5196282352
 11
6.3421104724
 21
8.5196282352
  0
LINE
  5
31C
100
AcDbEntity
  8
_CURVE
100
AcDbLine
 62
7
  6
CONTINUOUS
 10
37.5121150229
 20
8.5196282352
 11
40.5121150229
 21
8.5196282352
  0
LINE
  5
31D
100
AcDbEntity
  8
_CURVE
100
AcDbLine
 62
8
  6
PHANTOM
 10
3.9271127477
 20
10.0196282352
 11
39.9271127477
 21
10.0196282352
  0
LINE
  5
31E
100
AcDbEntity
  8
_CURVE
100
AcDbLine
 62
2
  6
CENTER
 10
21.9271127477
 20
31.5746282352
 11
21.9271127477
 21
27.0746282352
  0
LINE
  5
31F
100
AcDbEntity
  8
_CURVE
100
AcDbLine
 62
7
  6
CONTINUOUS
 10
8.0921104724
 20
27.9317350164
 11
35.7621150229
 21
27.9317350164
  0
LINE
  5
320
100
AcDbEntity
  8
_CURVE
100
AcDbLine
 62
8
  6
PHANTOM
 10
37.4271127477
 20
28.8246282352
 11
6.4271127477
 21
28.8246282352
  0
LINE
  5
321
100
AcDbEntity
  8
_CURVE
100
AcDbLine
 62
2
  6
CENTER
 10
9.9271127477
 20
30.5746282352
 11
33.9271127477
 21
30.5746282352
  0
LINE
  5
322
100
AcDbEntity
  8
_CURVE
100
AcDbLine
 62
7
  6
CONTINUOUS
 10
37.5121150229
 20
26.1817350164
 11
37.5121150229
 21
8.5196282352
  0
LINE
  5
323
100
AcDbEntity
  8
_CURVE
100
AcDbLine
 62
8
  6
PHANTOM
 10
38.9271127477
 20
10.0796282352
 11
38.9271127477
 21
27.3246282352
  0
LINE
  5
324
100
AcDbEntity
  8
_CURVE
100
AcDbLine
 62
8
  6
PHANTOM
 10
39.7534740761
 20
9.6445250364
 11
39.7699071773
 21
9.9564718622
  0
ARC
  5
325
100
AcDbEntity
  8
_CURVE
100
AcDbCircle
 62
8
  6
PHANTOM
 10
11.6904412204
 20
10.0445098212
 40
7.6002223381
100
AcDbArc
 50
183.0167581189
 51
183.2722846754
  0
ARC
  5
326
100
AcDbEntity
  8
_CURVE
100
AcDbCircle
 62
8
  6
PHANTOM
 10
32.1996777114
 20
10.0425378729
 40
7.5642748241
100
AcDbArc
 50
356.7271085869
 51
356.9838494637
  0
ARC
  5
327
100
AcDbEntity
  8
_CURVE
100
AcDbCircle
 62
7
  6
CONTINUOUS
 10
35.7621150229
 20
26.1817350164
 40
1.75
100
AcDbArc
 50
0.0
 51
90.0
  0
ARC
  5
328
100
AcDbEntity
  8
_CURVE
100
AcDbCircle
 62
7
  6
CONTINUOUS
 10
8.0921104724
 20
26.1817350164
 40
1.75
100
AcDbArc
 50
90.0
 51
180.0
  0
ARC
  5
329
100
AcDbEntity
  8
_CURVE
100
AcDbCircle
 62
8
  6
PHANTOM
 10
37.4271127477
 20
27.3246282352
 40
1.5
100
AcDbArc
 50
0.0
 51
90.0
  0
ARC
  5
32A
100
AcDbEntity
  8
_CURVE
100
AcDbCircle
 62
8
  6
PHANTOM
 10
6.4271127477
 20
27.3246282352
 40
1.5
100
AcDbArc
 50
90.0
 51
180.0
  0
ARC
  5
32B
100
AcDbEntity
  8
_CURVE
100
AcDbCircle
 62
8
  6
PHANTOM
 10
4.1442352562
 20
9.9596282352
 40
0.06
100
AcDbArc
 50
90.0
 51
183.0155074903
  0
ARC
  5
32C
100
AcDbEntity
  8
_CURVE
100
AcDbCircle
 62
8
  6
PHANTOM
 10
39.7099902391
 20
9.9596282352
 40
0.06
100
AcDbArc
 50
356.9844925097
 51
90.0
  0
SPLINE
  5
32D
100
AcDbEntity
  8
_CURVE
100
AcDbSpline
 62
8
  6
PHANTOM
 70
0
 71
3
 72
35
 73
31
 74
0
 42
0.0000001
 43
0.0000001
 44
0.0000000001
 40
0.0
 40
0.0
 40
0.0
 40
0.0
 40
0.0357156395
 40
0.0714346815
 40
0.1071579628
 40
0.1428851927
 40
0.1786145534
 40
0.2143451723
 40
0.2500763783
 40
0.2858072613
 40
0.3215369203
 40
0.3572646395
 40
0.3929899235
 40
0.4287124694
 40
0.4644321073
 40
0.5001490313
 40
0.5358637406
 40
0.5715767979
 40
0.6072885406
 40
0.6429990478
 40
0.6787084151
 40
0.7144165823
 40
0.7501232369
 40
0.7858280579
 40
0.8215307332
 40
0.8572309172
 40
0.892928243
 40
0.9286216174
 40
0.9643115845
 40
1.0
 40
1.0
 40
1.0
 40
1.0
 10
4.10261071
 20
9.6106808031
 30
0.0
 10
4.1044142638
 20
9.5791301567
 30
0.0
 10
4.1097220341
 20
9.5161098023
 30
0.0
 10
4.1227627681
 20
9.4221505514
 30
0.0
 10
4.1408494567
 20
9.3290174912
 30
0.0
 10
4.1639327872
 20
9.2369867677
 30
0.0
 10
4.1919480747
 20
9.1463285309
 30
0.0
 10
4.2248153731
 20
9.0573106804
 30
0.0
 10
4.2624401413
 20
8.9701953644
 30
0.0
 10
4.3047133361
 20
8.885239365
 30
0.0
 10
4.3515116966
 20
8.8026931524
 30
0.0
 10
4.4026983536
 20
8.7227997665
 30
0.0
 10
4.4581234354
 20
8.6457939507
 30
0.0
 10
4.5176246203
 20
8.5719015307
 30
0.0
 10
4.5810278146
 20
8.5013386938
 30
0.0
 10
4.6481478758
 20
8.4343113672
 30
0.0
 10
4.7187892566
 20
8.3710147834
 30
0.0
 10
4.7927462761
 20
8.3116333586
 30
0.0
 10
4.8698033104
 20
8.2563404629
 30
0.0
 10
4.9497353085
 20
8.2052978452
 30
0.0
 10
5.032308444
 20
8.1586550348
 30
0.0
 10
5.1172807667
 20
8.1165488188
 30
0.0
 10
5.2044028541
 20
8.0791027443
 30
0.0
 10
5.2934186719
 20
8.0464266049
 30
0.0
 10
5.3840664913
 20
8.0186159944
 30
0.0
 10
5.4760797951
 20
7.995752031
 30
0.0
 10
5.5691870228
 20
7.9779011736
 30
0.0
 10
5.6631154197
 20
7.9651147247
 30
0.0
 10
5.7575872247
 20
7.9574286148
 30
0.0
 10
5.8207580726
 20
7.9557190622
 30
0.0
 10
5.8523361375
 20
7.9557190356
 30
0.0
  0
SPLINE
  5
32E
100
AcDbEntity
  8
_CURVE
100
AcDbSpline
 62
8
  6
PHANTOM
 70
0
 71
3
 72
35
 73
31
 74
0
 42
0.0000001
 43
0.0000001
 44
0.0000000001
 40
0.0
 40
0.0
 40
0.0
 40
0.0
 40
0.0356882634
 40
0.0713781357
 40
0.1070714853
 40
0.1427688276
 40
0.1784690449
 40
0.2141717529
 40
0.2498765893
 40
0.2855832379
 40
0.3212913817
 40
0.3570007126
 40
0.3927111774
 40
0.4284228799
 40
0.4641359074
 40
0.4998506021
 40
0.5355675274
 40
0.5712871823
 40
0.6070097566
 40
0.6427350713
 40
0.6784628154
 40
0.7141924872
 40
0.7499233691
 40
0.7856545582
 40
0.8213851498
 40
0.8571144889
 40
0.8928417181
 40
0.9285650455
 40
0.964284201
 40
1.0
 40
1.0
 40
1.0
 40
1.0
 10
38.0018893579
 20
7.9557190356
 30
0.0
 10
38.0334672881
 20
7.9557190619
 30
0.0
 10
38.0966379174
 20
7.9574286011
 30
0.0
 10
38.1911094845
 20
7.9651146643
 30
0.0
 10
38.2850377959
 20
7.9779010631
 30
0.0
 10
38.3781450524
 20
7.995751888
 30
0.0
 10
38.4701584356
 20
8.0186158356
 30
0.0
 10
38.5608063325
 20
8.046426439
 30
0.0
 10
38.6498221941
 20
8.0791025667
 30
0.0
 10
38.73694428
 20
8.1165486129
 30
0.0
 10
38.8219165627
 20
8.1586547782
 30
0.0
 10
38.9044896351
 20
8.2052975162
 30
0.0
 10
38.9844215645
 20
8.2563400454
 30
0.0
 10
39.0614785432
 20
8.3116328476
 30
0.0
 10
39.1354355345
 20
8.3710141876
 30
0.0
 10
39.2060769213
 20
8.4343107072
 30
0.0
 10
39.273197022
 20
8.5013379988
 30
0.0
 10
39.3366002823
 20
8.571900832
 30
0.0
 10
39.3961015469
 20
8.6457932744
 30
0.0
 10
39.4515267078
 20
8.7227991248
 30
0.0
 10
39.5027134309
 20
8.8026925403
 30
0.0
 10
39.5495118398
 20
8.8852387625
 30
0.0
 10
39.591785065
 20
8.9701947416
 30
0.0
 10
39.6294098517
 20
9.0573100058
 30
0.0
 10
39.6622771679
 20
9.1463277874
 30
0.0
 10
39.6902924848
 20
9.2369859691
 30
0.0
 10
39.7133758644
 20
9.3290167019
 30
0.0
 10
39.731462622
 20
9.4221498919
 30
0.0
 10
39.7445034247
 20
9.5161094187
 30
0.0
 10
39.7498112231
 20
9.5791300135
 30
0.0
 10
39.7516147852
 20
9.6106808009
 30
0.0
  0
SPLINE
  5
32F
100
AcDbEntity
  8
_CURVE
100
AcDbSpline
 62
8
  6
PHANTOM
 70
0
 71
3
 72
17
 73
13
 74
0
 42
0.0000001
 43
0.0000001
 44
0.0000000001
 40
0.0
 40
0.0
 40
0.0
 40
0.0
 40
0.1020714367
 40
0.203748159
 40
0.3044306303
 40
0.4041842342
 40
0.5035787538
 40
0.6029462343
 40
0.7020708915
 40
0.8012674189
 40
0.9007577658
 40
1.0
 40
1.0
 40
1.0
 40
1.0
 10
38.9877619815
 20
10.0196282352
 30
0.0
 10
38.9854344084
 20
10.0196282352
 30
0.0
 10
38.9807839851
 20
10.0198895568
 30
0.0
 10
38.9739268251
 20
10.0210585291
 30
0.0
 10
38.9672945411
 20
10.0229759824
 30
0.0
 10
38.9609673216
 20
10.0256043764
 30
0.0
 10
38.9550005585
 20
10.0289105536
 30
0.0
 10
38.9494550522
 20
10.0328585569
 30
0.0
 10
38.9443938528
 20
10.0374040785
 30
0.0
 10
38.9398774255
 20
10.0424954754
 30
0.0
 10
38.9359675635
 20
10.0480685943
 30
0.0
 10
38.9337982028
 20
10.0520605974
 30
0.0
 10
38.9328327305
 20
10.0541073738
 30
0.0
  0
SPLINE
  5
330
100
AcDbEntity
  8
_CURVE
100
AcDbSpline
 62
8
  6
PHANTOM
 70
0
 71
3
 72
11
 73
7
 74
0
 42
0.0000001
 43
0.0000001
 44
0.0000000001
 40
0.0
 40
0.0
 40
0.0
 40
0.0
 40
0.2501425321
 40
0.5001564488
 40
0.7500766998
 40
1.0
 40
1.0
 40
1.0
 40
1.0
 10
38.9328327305
 20
10.0541073738
 30
0.0
 10
38.9318951277
 20
10.056094691
 30
0.0
 10
38.9302379459
 20
10.0601751531
 30
0.0
 10
38.9284417221
 20
10.0665280692
 30
0.0
 10
38.9273551474
 20
10.0730380548
 30
0.0
 10
38.9271127534
 20
10.0774327697
 30
0.0
 10
38.9271127477
 20
10.0796282352
 30
0.0
  0
SPLINE
  5
331
100
AcDbEntity
  8
_CURVE
100
AcDbSpline
 62
8
  6
PHANTOM
 70
0
 71
3
 72
11
 73
7
 74
0
 42
0.0000001
 43
0.0000001
 44
0.0000000001
 40
0.0
 40
0.0
 40
0.0
 40
0.0
 40
0.2499234173
 40
0.4998436611
 40
0.7498575473
 40
1.0
 40
1.0
 40
1.0
 40
1.0
 10
4.9271127477
 20
10.0796282352
 30
0.0
 10
4.9271127419
 20
10.0774330006
 30
0.0
 10
4.9268703992
 20
10.07303875
 30
0.0
 10
4.9257840529
 20
10.0665294354
 30
0.0
 10
4.9239882055
 20
10.0601771417
 30
0.0
 10
4.9223313644
 20
10.0560970468
 30
0.0
 10
4.9213939522
 20
10.0541098972
 30
0.0
  0
SPLINE
  5
332
100
AcDbEntity
  8
_CURVE
100
AcDbSpline
 62
8
  6
PHANTOM
 70
0
 71
3
 72
17
 73
13
 74
0
 42
0.0000001
 43
0.0000001
 44
0.0000000001
 40
0.0
 40
0.0
 40
0.0
 40
0.0
 40
0.0992435989
 40
0.1987322738
 40
0.2979263942
 40
0.3970529296
 40
0.4964261123
 40
0.5958231489
 40
0.695572349
 40
0.796253623
 40
0.8979293679
 40
1.0
 40
1.0
 40
1.0
 40
1.0
 10
4.9213939522
 20
10.0541098972
 30
0.0
 10
4.920428523
 20
10.0520629636
 30
0.0
 10
4.9182592514
 20
10.048070707
 30
0.0
 10
4.9143494851
 20
10.0424972553
 30
0.0
 10
4.9098330933
 20
10.0374055209
 30
0.0
 10
4.9047717439
 20
10.0328595699
 30
0.0
 10
4.8992259109
 20
10.0289111418
 30
0.0
 10
4.8932588704
 20
10.0256047047
 30
0.0
 10
4.8869314837
 20
10.0229761665
 30
0.0
 10
4.8802990882
 20
10.0210586189
 30
0.0
 10
4.8734417199
 20
10.0198895736
 30
0.0
 10
4.8687911465
 20
10.0196282352
 30
0.0
 10
4.8664634965
 20
10.0196282352
 30
0.0
  0
ENDSEC
  0
SECTION
  2
OBJECTS
  0
DICTIONARY
  5
333
100
AcDbDictionary
  3
ACAD_GROUP
350
334
  3
ACAD_MLINESTYLE
350
335
  0
DICTIONARY
  5
334
102
{ACAD_REACTORS
330
333
102
}
100
AcDbDictionary
  0
DICTIONARY
  5
335
102
{ACAD_REACTORS
330
333
102
}
100
AcDbDictionary
  3
STANDARD
350
336
  0
MLINESTYLE
  5
336
102
{ACAD_REACTORS
330
335
102
}
100
AcDbMlineStyle
  2
STANDARD
 70
0
  3

 62
256
 51
90.0
 52
90.0
 71
2
 49
0.5
 62
256
  6
BYLAYER
 49
-0.5
 62
256
  6
BYLAYER
  0
ENDSEC
  0
EOF
