  0
SECTION
  2
HEADER
  9
$ACADVER
  1
AC1009
  9
$INSBASE
 10
0.0
 20
0.0
 30
0.0
  9
$EXTMIN
 10
0.0
 20
0.0
 30
0.0
  9
$EXTMAX
 10
43.5
 20
22.0
 30
0.0
  9
$LIMMIN
 10
0.0
 20
0.0
  9
$LIMMAX
 10
34.0
 20
22.0
  9
$ORTHOMODE
 70
     0
  9
$REGENMODE
 70
     1
  9
$FILLMODE
 70
     1
  9
$QTEXTMODE
 70
     0
  9
$MIRRTEXT
 70
     0
  9
$DRAGMODE
 70
     2
  9
$LTSCALE
 40
1.8700000000000001
  9
$OSMODE
 70
  2087
  9
$ATTMODE
 70
     1
  9
$TEXTSIZE
 40
0.2
  9
$TRACEWID
 40
0.05
  9
$TEXTSTYLE
  7
STANDARD
  9
$CLAYER
  8
0
  9
$CELTYPE
  6
ByLayer
  9
$CECOLOR
 62
   256
  9
$DIMSCALE
 40
1.0
  9
$DIMASZ
 40
0.1875
  9
$DIMEXO
 40
0.0625
  9
$DIMDLI
 40
1.2919999999999989
  9
$DIMRND
 40
0.0
  9
$DIMDLE
 40
0.0
  9
$DIMEXE
 40
0.125
  9
$DIMTP
 40
0.0
  9
$DIMTM
 40
0.0
  9
$DIMTXT
 40
0.15625
  9
$DIMCEN
 40
0.306
  9
$DIMTSZ
 40
0.0
  9
$DIMTOL
 70
     0
  9
$DIMLIM
 70
     0
  9
$DIMTIH
 70
     1
  9
$DIMTOH
 70
     1
  9
$DIMSE1
 70
     0
  9
$DIMSE2
 70
     0
  9
$DIMTAD
 70
     0
  9
$DIMZIN
 70
     0
  9
$DIMBLK
  1
_FILLED
  9
$DIMASO
 70
     1
  9
$DIMSHO
 70
     1
  9
$DIMPOST
  1

  9
$DIMAPOST
  1

  9
$DIMALT
 70
     0
  9
$DIMALTD
 70
     2
  9
$DIMALTF
 40
25.3999999999999986
  9
$DIMLFAC
 40
1.0
  9
$DIMTOFL
 70
     0
  9
$DIMTVP
 40
0.0
  9
$DIMTIX
 70
     0
  9
$DIMSOXD
 70
     0
  9
$DIMSAH
 70
     0
  9
$DIMBLK1
  1

  9
$DIMBLK2
  1

  9
$DIMSTYLE
  2
STANDARD
  9
$DIMCLRD
 70
     0
  9
$DIMCLRE
 70
     0
  9
$DIMCLRT
 70
     0
  9
$DIMTFAC
 40
1.0
  9
$DIMGAP
 40
0.09
  9
$LUNITS
 70
     2
  9
$LUPREC
 70
     4
  9
$SKETCHINC
 40
0.1
  9
$FILLETRAD
 40
0.0
  9
$AUNITS
 70
     0
  9
$AUPREC
 70
     0
  9
$MENU
  1
.
  9
$ELEVATION
 40
0.0
  9
$PELEVATION
 40
0.0
  9
$THICKNESS
 40
0.0
  9
$LIMCHECK
 70
     0
  9
$BLIPMODE
 70
     0
  9
$CHAMFERA
 40
0.0
  9
$CHAMFERB
 40
0.0
  9
$SKPOLY
 70
     0
  9
$TDCREATE
 40
2459979.6716435188427567
  9
$TDUPDATE
 40
2459979.6722222222015262
  9
$TDINDWG
 40
0.0005787037
  9
$TDUSRTIMER
 40
0.0005787037
  9
$USRTIMER
 70
     1
  9
$ANGBASE
 50
0.0
  9
$ANGDIR
 70
     0
  9
$PDMODE
 70
     3
  9
$PDSIZE
 40
0.3125
  9
$PLINEWID
 40
0.0
  9
$COORDS
 70
     1
  9
$SPLFRAME
 70
     0
  9
$SPLINETYPE
 70
     6
  9
$SPLINESEGS
 70
     8
  9
$ATTDIA
 70
     1
  9
$ATTREQ
 70
     1
  9
$HANDLING
 70
     1
  9
$HANDSEED
  5
1341
  9
$SURFTAB1
 70
     6
  9
$SURFTAB2
 70
     6
  9
$SURFTYPE
 70
     6
  9
$SURFU
 70
     6
  9
$SURFV
 70
     6
  9
$UCSNAME
  2

  9
$UCSORG
 10
0.0
 20
0.0
 30
0.0
  9
$UCSXDIR
 10
1.0
 20
0.0
 30
0.0
  9
$UCSYDIR
 10
0.0
 20
1.0
 30
0.0
  9
$PUCSNAME
  2

  9
$PUCSORG
 10
0.0
 20
0.0
 30
0.0
  9
$PUCSXDIR
 10
1.0
 20
0.0
 30
0.0
  9
$PUCSYDIR
 10
0.0
 20
1.0
 30
0.0
  9
$USERI1
 70
     0
  9
$USERI2
 70
     0
  9
$USERI3
 70
     0
  9
$USERI4
 70
     0
  9
$USERI5
 70
     0
  9
$USERR1
 40
0.0
  9
$USERR2
 40
0.0
  9
$USERR3
 40
0.0
  9
$USERR4
 40
0.0
  9
$USERR5
 40
0.0
  9
$WORLDVIEW
 70
     1
  9
$SHADEDGE
 70
     3
  9
$SHADEDIF
 70
    70
  9
$TILEMODE
 70
     1
  9
$MAXACTVP
 70
    64
  9
$PLIMCHECK
 70
     0
  9
$PEXTMIN
 10
1.0000000000000000E+20
 20
1.0000000000000000E+20
 30
1.0000000000000000E+20
  9
$PEXTMAX
 10
-1.0000000000000000E+20
 20
-1.0000000000000000E+20
 30
-1.0000000000000000E+20
  9
$PLIMMIN
 10
0.0
 20
0.0
  9
$PLIMMAX
 10
12.0
 20
9.0
  9
$UNITMODE
 70
     0
  9
$VISRETAIN
 70
     1
  9
$PLINEGEN
 70
     0
  9
$PSLTSCALE
 70
     1
  0
ENDSEC
  0
SECTION
  2
TABLES
  0
TABLE
  2
VPORT
 70
     1
  0
VPORT
  2
*ACTIVE
 70
     0
 10
0.0
 20
0.0
 11
1.0
 21
1.0
 12
16.2886794391812586
 22
7.252720275276487
 13
0.0
 23
0.0
 14
1.0
 24
1.0
 15
0.0
 25
0.0
 16
0.0
 26
0.0
 36
1.0
 17
0.0
 27
0.0
 37
0.0
 40
24.8237040362888592
 41
1.7675000000000001
 42
50.0
 43
0.0
 44
0.0
 50
0.0
 51
0.0
 71
     0
 72
   100
 73
     1
 74
     0
 75
     1
 76
     0
 77
     0
 78
     0
  0
ENDTAB
  0
TABLE
  2
LTYPE
 70
     8
  0
LTYPE
  2
ByBlock
 70
     0
  3

 72
    65
 73
     0
 40
0.0
  0
LTYPE
  2
ByLayer
 70
     0
  3

 72
    65
 73
     0
 40
0.0
  0
LTYPE
  2
CONTINUOUS
 70
     0
  3
Solid line
 72
    65
 73
     0
 40
0.0
  0
LTYPE
  2
CENTER
 70
     0
  3
____ _ ____ _ ____ _ ____ _ ____ _ ____ _ ____
 72
    65
 73
     4
 40
0.6
 49
0.375
 49
-0.075
 49
0.075
 49
-0.075
  0
LTYPE
  2
HIDDEN
 70
     0
  3
- - - - - - - - - - - - - - - - - - - -
 72
    65
 73
     2
 40
0.2
 49
0.1
 49
-0.1
  0
LTYPE
  2
PHANTOM
 70
     0
  3
_____ _ _ _____ _ _ _____ _ _ _____
 72
    65
 73
     6
 40
0.8
 49
0.45
 49
-0.05
 49
0.1
 49
-0.05
 49
0.1
 49
-0.05
  0
LTYPE
  2
DOT
 70
     0
  3
. . . . . . . . . . . . . . . . . . . .
 72
    65
 73
     2
 40
0.2
 49
0.1
 49
-0.1
  0
LTYPE
  2
DASHED
 70
     0
  3
- - - - - - - - - - - - - - - - - - - -
 72
    65
 73
     2
 40
0.2
 49
0.1
 49
-0.1
  0
ENDTAB
  0
TABLE
  2
LAYER
 70
    15
  0
LAYER
  2
0
 70
     0
 62
     7
  6
CONTINUOUS
  0
LAYER
  2
DEFAULT_1
 70
     0
 62
     7
  6
CENTER
  0
LAYER
  2
DEFAULT_2
 70
     0
 62
     8
  6
HIDDEN
  0
LAYER
  2
DEFAULT_3
 70
     0
 62
     7
  6
PHANTOM
  0
LAYER
  2
DATUMS
 70
     0
 62
     7
  6
CONTINUOUS
  0
LAYER
  2
DATUM_AXIS
 70
     0
 62
     7
  6
CONTINUOUS
  0
LAYER
  2
DATUM_CSYS
 70
     0
 62
     7
  6
CONTINUOUS
  0
LAYER
  2
DATUM_PLANE
 70
     0
 62
     7
  6
CONTINUOUS
  0
LAYER
  2
DATUM_POINT
 70
     0
 62
     7
  6
CONTINUOUS
  0
LAYER
  2
_CURVE
 70
     0
 62
     7
  6
CONTINUOUS
  0
LAYER
  2
_SURFACE
 70
     0
 62
     7
  6
CONTINUOUS
  0
LAYER
  2
__REF_CURVE
 70
     0
 62
     7
  6
CONTINUOUS
  0
LAYER
  2
__REF_SURFACE
 70
     0
 62
     7
  6
CONTINUOUS
  0
LAYER
  2
___NOTE
 70
     0
 62
     7
  6
CONTINUOUS
  0
LAYER
  2
___SYMBOL
 70
     0
 62
     7
  6
CONTINUOUS
  0
ENDTAB
  0
TABLE
  2
STYLE
 70
    17
  0
STYLE
  2
STANDARD
 70
     0
 40
0.0
 41
0.8
 50
0.0
 71
     0
 42
0.2
  3
txt
  4

  0
STYLE
  2
ANNOTATIVE
 70
     0
 40
0.0
 41
1.0
 50
0.0
 71
     0
 42
0.2
  3
txt
  4

  0
STYLE
  2
TEXTSTYLE_1
 70
     0
 40
0.0
 41
0.8
 50
0.0
 71
     0
 42
0.2
  3
gdt
  4

  0
STYLE
  2
TEXTSTYLE_2
 70
     0
 40
0.0
 41
1.04
 50
0.0
 71
     0
 42
0.2
  3
txt
  4

  0
STYLE
  2
TEXTSTYLE_3
 70
     0
 40
0.0
 41
0.9399999999999998
 50
0.0
 71
     0
 42
0.2
  3
txt
  4

  0
STYLE
  2
TEXTSTYLE_4
 70
     0
 40
0.0
 41
1.0
 50
0.0
 71
     0
 42
0.2
  3
txt
  4

  0
STYLE
  2
TEXTSTYLE_5
 70
     0
 40
0.0
 41
1.1999999999999991
 50
0.0
 71
     0
 42
0.2
  3
txt
  4

  0
STYLE
  2
TEXTSTYLE_6
 70
     0
 40
0.0
 41
1.02
 50
0.0
 71
     0
 42
0.2
  3
txt
  4

  0
STYLE
  2
TEXTSTYLE_7
 70
     0
 40
0.0
 41
0.925
 50
0.0
 71
     0
 42
0.2
  3
txt
  4

  0
STYLE
  2
TEXTSTYLE_8
 70
     0
 40
0.0
 41
1.0500002908999999
 50
0.0
 71
     0
 42
0.2
  3
txt
  4

  0
STYLE
  2
TEXTSTYLE_9
 70
     0
 40
0.0
 41
1.0900000000000001
 50
0.0
 71
     0
 42
0.2
  3
txt
  4

  0
STYLE
  2
TEXTSTYLE_10
 70
     0
 40
0.0
 41
0.9899995429
 50
0.0
 71
     0
 42
0.2
  3
txt
  4

  0
STYLE
  2
TEXTSTYLE_11
 70
     0
 40
0.0
 41
1.0700000000000001
 50
0.0
 71
     0
 42
0.2
  3
txt
  4

  0
STYLE
  2
TEXTSTYLE_12
 70
     0
 40
0.0
 41
1.2299999999999991
 50
0.0
 71
     0
 42
0.2
  3
txt
  4

  0
STYLE
  2
TEXTSTYLE_13
 70
     0
 40
0.0
 41
0.9700032
 50
0.0
 71
     0
 42
0.2
  3
txt
  4

  0
STYLE
  2
TEXTSTYLE_14
 70
     0
 40
0.0
 41
1.379999999999999
 50
0.0
 71
     0
 42
0.2
  3
txt
  4

  0
STYLE
  2
TEXTSTYLE_15
 70
     0
 40
0.0
 41
0.95
 50
0.0
 71
     0
 42
0.2
  3
txt
  4

  0
ENDTAB
  0
TABLE
  2
VIEW
 70
     0
  0
ENDTAB
  0
TABLE
  2
UCS
 70
     0
  0
ENDTAB
  0
TABLE
  2
APPID
 70
     4
  0
APPID
  2
ACAD
 70
     0
  0
APPID
  2
ACADANNOTATIVE
 70
     0
  0
APPID
  2
ACAD_NAV_VCDISPLAY
 70
     0
  0
APPID
  2
ACAD_MLEADERVER
 70
     0
  0
ENDTAB
  0
TABLE
  2
DIMSTYLE
 70
     2
  0
DIMSTYLE
  2
STANDARD
 70
     0
  3

  4

  5

  6

  7

 40
1.0
 41
0.18
 42
0.0625
 43
0.38
 44
0.18
 45
0.0
 46
0.0
 47
0.0
 48
0.0
140
0.18
141
0.09
142
0.0
143
25.3999999999999986
144
1.0
145
0.0
146
1.0
147
0.09
 71
     0
 72
     0
 73
     1
 74
     1
 75
     0
 76
     0
 77
     0
 78
     0
170
     0
171
     2
172
     0
173
     0
174
     0
175
     0
176
     0
177
     0
178
     0
  0
DIMSTYLE
  2
ANNOTATIVE
 70
     0
  3

  4

  5

  6

  7

 40
1.0
 41
0.18
 42
0.0625
 43
0.38
 44
0.18
 45
0.0
 46
0.0
 47
0.0
 48
0.0
140
0.18
141
0.09
142
0.0
143
25.3999999999999986
144
1.0
145
0.0
146
1.0
147
0.09
 71
     0
 72
     0
 73
     1
 74
     1
 75
     0
 76
     0
 77
     0
 78
     0
170
     0
171
     2
172
     0
173
     0
174
     0
175
     0
176
     0
177
     0
178
     0
  0
ENDTAB
  0
ENDSEC
  0
SECTION
  2
BLOCKS
  0
BLOCK
  8
0
  2
$MODEL_SPACE
 70
     0
 10
0.0
 20
0.0
 30
0.0
  3
$MODEL_SPACE
  1

  0
ENDBLK
  5
71
  8
0
  0
BLOCK
 67
     1
  8
0
  2
$PAPER_SPACE
 70
     0
 10
0.0
 20
0.0
 30
0.0
  3
$PAPER_SPACE
  1

  0
ENDBLK
  5
6D
 67
     1
  8
0
  0
BLOCK
  8
___SYMBOL
  6
CONTINUOUS
 62
     2
  2
WHEN_PLOTTING_TEMPLATE__BL
 70
     0
 10
13.4878079810999996
 20
7.7969418385999996
 30
0.0
  3
WHEN_PLOTTING_TEMPLATE__BL
  1

  0
TEXT
  5
9C
  8
___SYMBOL
  6
CONTINUOUS
 62
     2
 10
9.3628079810999996
 20
8.8906918386000005
 30
0.0
 40
0.15625
  1
WHEN PLOTTING TEMPLATE FULL SIZE:
 41
0.8
  0
TEXT
  5
9D
  8
___SYMBOL
  6
CONTINUOUS
 62
     2
 10
9.3628079810999996
 20
8.6563168386000005
 30
0.0
 40
0.15625
  1
Make sure horizontal and vertical dimensions
 41
0.8
  0
TEXT
  5
9E
  8
___SYMBOL
  6
CONTINUOUS
 62
     2
 10
9.3628079810999996
 20
8.4219418386000005
 30
0.0
 40
0.15625
  1
match the dimensions labeled on the template.
 41
0.8
  0
TEXT
  5
9F
  8
___SYMBOL
  6
CONTINUOUS
 62
     2
 10
9.3628079810999996
 20
8.1875668386000005
 30
0.0
 40
0.15625
  1
 
 41
0.8
  0
TEXT
  5
A0
  8
___SYMBOL
  6
CONTINUOUS
 62
     2
 10
9.3628079810999996
 20
7.9531918385999996
 30
0.0
 40
0.15625
  1
LORS DU TRACÉ DU GABARIT À L'ÉCHELLE:  
 41
0.8
  0
TEXT
  5
A1
  8
___SYMBOL
  6
CONTINUOUS
 62
     2
 10
9.3628079810999996
 20
7.7188168385999996
 30
0.0
 40
0.15625
  1
S'assurer que les dimensions horizontales et verticales 
 41
0.8
  0
TEXT
  5
A2
  8
___SYMBOL
  6
CONTINUOUS
 62
     2
 10
9.3628079810999996
 20
7.4844418385999996
 30
0.0
 40
0.15625
  1
correspondent à celles marquées sur le gabarit.
 41
0.8
  0
TEXT
  5
A3
  8
___SYMBOL
  6
CONTINUOUS
 62
     2
 10
9.3628079810999996
 20
7.2500668385999996
 30
0.0
 40
0.15625
  1
 
 41
0.8
  0
TEXT
  5
A4
  8
___SYMBOL
  6
CONTINUOUS
 62
     2
 10
9.3628079810999996
 20
7.0156918385999996
 30
0.0
 40
0.15625
  1
AL TRAZAR LA PLANTILLA A ESCALA COMPLETA: 
 41
0.8
  0
TEXT
  5
A5
  8
___SYMBOL
  6
CONTINUOUS
 62
     2
 10
9.3628079810999996
 20
6.7813168385999996
 30
0.0
 40
0.15625
  1
Asegúrese de que la dimensión horizontal y la dimensión 
 41
0.8
  0
TEXT
  5
A6
  8
___SYMBOL
  6
CONTINUOUS
 62
     2
 10
9.3628079810999996
 20
6.5469418385999996
 30
0.0
 40
0.15625
  1
vertical sean iguales a las dimensiones indicadas en la plantilla.
 41
0.8
  0
ENDBLK
  5
A7
  8
0
  6
ByBlock
 62
     0
  0
BLOCK
  8
___SYMBOL
  6
CONTINUOUS
 62
     2
  2
TEMPLATE_NUMBER_BL9
 70
     0
 10
6.9359367686000004
 20
3.1492549664
 30
0.0
  3
TEMPLATE_NUMBER_BL9
  1

  0
TEXT
  5
AA
  8
___SYMBOL
  6
CONTINUOUS
 62
     2
 10
6.2484367686000004
 20
3.0711299664
 30
0.0
 40
0.15625
  1
1527648-7
 41
0.8
  0
TEXT
  5
AB
  8
___SYMBOL
  6
CONTINUOUS
 62
     2
 10
7.3734367686000004
 20
3.0711299664
 30
0.0
 40
0.15625
  1
-B
 41
0.8
  0
ENDBLK
  5
AC
  8
0
  6
ByBlock
 62
     0
  0
BLOCK
  8
___SYMBOL
  6
CONTINUOUS
 62
     2
  2
TEMPLATE_NUMBER_BL8
 70
     0
 10
12.5227107546000003
 20
5.5053119830999986
 30
0.0
  3
TEMPLATE_NUMBER_BL8
  1

  0
TEXT
  5
AF
  8
___SYMBOL
  6
CONTINUOUS
 62
     2
 10
11.8352107546000003
 20
5.4271869830999986
 30
0.0
 40
0.15625
  1
1527648-7
 41
0.8
  0
TEXT
  5
B0
  8
___SYMBOL
  6
CONTINUOUS
 62
     2
 10
12.9602107546000003
 20
5.4271869830999986
 30
0.0
 40
0.15625
  1
-B
 41
0.8
  0
ENDBLK
  5
B1
  8
0
  6
ByBlock
 62
     0
  0
BLOCK
  8
___SYMBOL
  6
CONTINUOUS
 62
     2
  2
COPYRIGHT_YEAR_BL7
 70
     0
 10
12.6404951945999997
 20
5.0907708499000002
 30
0.0
  3
COPYRIGHT_YEAR_BL7
  1

  0
TEXT
  5
B4
  8
___SYMBOL
  6
CONTINUOUS
 62
     2
 10
11.8679123790999999
 20
5.0155442054000003
 30
0.0
 40
0.15625
  1
2023 KOHLER CO.
 41
0.8
  0
TEXT
  5
B5
  8
___SYMBOL
  6
CONTINUOUS
 62
     7
 10
11.5981785853999995
 20
5.0138132201999994
 30
0.0
 40
0.15625
  1
C
  7
TEXTSTYLE_4
  0
CIRCLE
  5
B6
  8
___SYMBOL
  6
CONTINUOUS
 62
     7
 10
11.6712381359999995
 20
5.0907708499000002
 30
0.0
 40
0.133160126
  0
ENDBLK
  5
B7
  8
0
  6
ByBlock
 62
     0
  0
BLOCK
  8
___SYMBOL
  6
CONTINUOUS
 62
     2
  2
SCISSORS_BL6
 70
     0
 10
17.6402988582000013
 20
17.2727265024999994
 30
0.0
  3
SCISSORS_BL6
  1

  0
LINE
  5
BA
  8
___SYMBOL
  6
CONTINUOUS
 62
     7
 10
17.4884108659000006
 20
17.3525521619000003
 30
0.0
 11
16.9705942193000006
 21
17.5783071421999999
 31
0.0
  0
LINE
  5
BB
  8
___SYMBOL
  6
CONTINUOUS
 62
     7
 10
17.4848272997000009
 20
17.2960007434000005
 30
0.0
 11
16.9705942193000006
 21
17.5783071421999999
 31
0.0
  0
LINE
  5
BC
  8
___SYMBOL
  6
CONTINUOUS
 62
     7
 10
17.5824275047
 20
17.3200018878999984
 30
0.0
 11
17.5398716862000015
 21
17.3478860897000011
 31
0.0
  0
LINE
  5
BD
  8
___SYMBOL
  6
CONTINUOUS
 62
     7
 10
17.5487085349000012
 20
17.3616919430999985
 30
0.0
 11
17.5915571815000007
 21
17.3336158691999991
 31
0.0
  0
LINE
  5
BE
  8
___SYMBOL
  6
CONTINUOUS
 62
     7
 10
17.4000215145999988
 20
17.4585790703000008
 30
0.0
 11
17.1712610714
 21
17.8479158138000003
 31
0.0
  0
LINE
  5
BF
  8
___SYMBOL
  6
CONTINUOUS
 62
     7
 10
17.5461338640999998
 20
17.2169689517999984
 30
0.0
 11
17.5144855552999985
 21
17.2788400274000011
 31
0.0
  0
LINE
  5
C0
  8
___SYMBOL
  6
CONTINUOUS
 62
     7
 10
17.5945442477
 20
17.4043444373000007
 30
0.0
 11
17.3477611048999982
 21
17.7243291599000017
 31
0.0
  0
LINE
  5
C1
  8
___SYMBOL
  6
CONTINUOUS
 62
     7
 10
17.5094646095999984
 20
17.4280653817000015
 30
0.0
 11
17.4884108659000006
 21
17.3525521619000003
 31
0.0
  0
LINE
  5
C2
  8
___SYMBOL
  6
CONTINUOUS
 62
     7
 10
17.6658442409000003
 20
17.3844653778999998
 30
0.0
 11
17.746245547800001
 21
17.2582335049000015
 31
0.0
  0
LINE
  5
C3
  8
___SYMBOL
  6
CONTINUOUS
 62
     7
 10
17.6882094935000005
 20
17.1832151811999907
 30
0.0
 11
17.6759746701000005
 21
17.2455905141999999
 31
0.0
  0
LINE
  5
C4
  8
___SYMBOL
  6
CONTINUOUS
 62
     7
 10
16.9705942193000006
 20
17.5783071421999999
 30
0.0
 11
17.6658442409000003
 21
17.3844653778999998
 31
0.0
  0
LINE
  5
C5
  8
___SYMBOL
  6
CONTINUOUS
 62
     7
 10
17.6882094935000005
 20
17.1832151811999907
 30
0.0
 11
17.5461338640999998
 21
17.2169689517999984
 31
0.0
  0
ARC
  5
C6
  8
___SYMBOL
  6
CONTINUOUS
 62
     7
 10
17.0618371469999985
 20
17.5038148418000006
 30
0.0
 40
0.3610804262
 50
37.6406360869000025
 51
72.3593639130999975
  0
ARC
  5
C7
  8
___SYMBOL
  6
CONTINUOUS
 62
     7
 10
17.6560817306999986
 20
17.5577646782999999
 30
0.0
 40
0.3128073492
 50
236.8059909348999952
 51
286.7526600670000221
  0
CIRCLE
  5
C8
  8
___SYMBOL
  6
CONTINUOUS
 62
     7
 10
17.5657906327000006
 20
17.3410269650000011
 30
0.0
 40
0.0268111801
  0
ARC
  5
C9
  8
___SYMBOL
  6
CONTINUOUS
 62
     7
 10
17.9622365962999986
 20
17.2580945555999996
 30
0.0
 40
0.0146088562
 50
240.31337931569999
 51
9.0675041520999997
  0
ARC
  5
CA
  8
___SYMBOL
  6
CONTINUOUS
 62
     7
 10
17.776443081
 20
16.9796422046000011
 30
0.0
 40
0.0146087357
 50
288.3109272840999893
 51
54.4467240968999917
  0
POLYLINE
  5
CB
  8
___SYMBOL
  6
CONTINUOUS
 62
     7
 66
     1
 10
0.0
 20
0.0
 30
0.0
  0
VERTEX
  5
C1E
  8
___SYMBOL
  6
CONTINUOUS
 62
     7
 10
18.1328763273
 20
17.0925342572000005
 30
0.0
  0
VERTEX
  5
C1F
  8
___SYMBOL
  6
CONTINUOUS
 62
     7
 10
18.1225655627999984
 20
17.0956773839999983
 30
0.0
  0
VERTEX
  5
C20
  8
___SYMBOL
  6
CONTINUOUS
 62
     7
 10
18.1123499764000009
 20
17.099097801300001
 30
0.0
  0
VERTEX
  5
C21
  8
___SYMBOL
  6
CONTINUOUS
 62
     7
 10
18.1022271651000004
 20
17.1027822789000012
 30
0.0
  0
VERTEX
  5
C22
  8
___SYMBOL
  6
CONTINUOUS
 62
     7
 10
18.0921947257999989
 20
17.1067175865999985
 30
0.0
  0
VERTEX
  5
C23
  8
___SYMBOL
  6
CONTINUOUS
 62
     7
 10
18.0822502555
 20
17.1108904943999995
 30
0.0
  0
VERTEX
  5
C24
  8
___SYMBOL
  6
CONTINUOUS
 62
     7
 10
18.0723913510999985
 20
17.1152877721000003
 30
0.0
  0
VERTEX
  5
C25
  8
___SYMBOL
  6
CONTINUOUS
 62
     7
 10
18.0626156096000017
 20
17.1198961895999986
 30
0.0
  0
VERTEX
  5
C26
  8
___SYMBOL
  6
CONTINUOUS
 62
     7
 10
18.0529206277000007
 20
17.1247025167999993
 30
0.0
  0
VERTEX
  5
C27
  8
___SYMBOL
  6
CONTINUOUS
 62
     7
 10
18.0433040025999993
 20
17.1296935234999985
 30
0.0
  0
VERTEX
  5
C28
  8
___SYMBOL
  6
CONTINUOUS
 62
     7
 10
18.0337633311000012
 20
17.1348559796000011
 30
0.0
  0
VERTEX
  5
C29
  8
___SYMBOL
  6
CONTINUOUS
 62
     7
 10
18.0242962101999993
 20
17.1401766550000012
 30
0.0
  0
VERTEX
  5
C2A
  8
___SYMBOL
  6
CONTINUOUS
 62
     7
 10
18.0149002367000008
 20
17.1456423196000003
 30
0.0
  0
VERTEX
  5
C2B
  8
___SYMBOL
  6
CONTINUOUS
 62
     7
 10
18.0055730075999989
 20
17.1512397432999997
 30
0.0
  0
VERTEX
  5
C2C
  8
___SYMBOL
  6
CONTINUOUS
 62
     7
 10
17.9963121199000007
 20
17.1569556958999989
 30
0.0
  0
VERTEX
  5
C2D
  8
___SYMBOL
  6
CONTINUOUS
 62
     7
 10
17.987115170500001
 20
17.1627769472000011
 30
0.0
  0
VERTEX
  5
C2E
  8
___SYMBOL
  6
CONTINUOUS
 62
     7
 10
17.9779797561999999
 20
17.1686902673000006
 30
0.0
  0
VERTEX
  5
C2F
  8
___SYMBOL
  6
CONTINUOUS
 62
     7
 10
17.9689034740999993
 20
17.1746824258999986
 30
0.0
  0
VERTEX
  5
C30
  8
___SYMBOL
  6
CONTINUOUS
 62
     7
 10
17.9598839209999994
 20
17.1807401929000001
 30
0.0
  0
VERTEX
  5
C31
  8
___SYMBOL
  6
CONTINUOUS
 62
     7
 10
17.9509186939999985
 20
17.1868503381999993
 30
0.0
  0
VERTEX
  5
C32
  8
___SYMBOL
  6
CONTINUOUS
 62
     7
 10
17.9420053897999985
 20
17.1929996317000011
 30
0.0
  0
VERTEX
  5
C33
  8
___SYMBOL
  6
CONTINUOUS
 62
     7
 10
17.9289490753000003
 20
17.2021048818999986
 30
0.0
  0
VERTEX
  5
C34
  8
___SYMBOL
  6
CONTINUOUS
 62
     7
 10
17.9159381818000014
 20
17.211216327399999
 30
0.0
  0
VERTEX
  5
C35
  8
___SYMBOL
  6
CONTINUOUS
 62
     7
 10
17.9029105625000007
 20
17.2202838637999989
 30
0.0
  0
VERTEX
  5
C36
  8
___SYMBOL
  6
CONTINUOUS
 62
     7
 10
17.8898040706999986
 20
17.2292573866000005
 30
0.0
  0
VERTEX
  5
C37
  8
___SYMBOL
  6
CONTINUOUS
 62
     7
 10
17.8765565594999991
 20
17.2380867914999989
 30
0.0
  0
VERTEX
  5
C38
  8
___SYMBOL
  6
CONTINUOUS
 62
     7
 10
17.8704022991000002
 20
17.2420809032000015
 30
0.0
  0
VERTEX
  5
C39
  8
___SYMBOL
  6
CONTINUOUS
 62
     7
 10
17.8641992065000004
 20
17.2460133533000004
 30
0.0
  0
VERTEX
  5
C3A
  8
___SYMBOL
  6
CONTINUOUS
 62
     7
 10
17.8579413834999983
 20
17.2498635237999984
 30
0.0
  0
VERTEX
  5
C3B
  8
___SYMBOL
  6
CONTINUOUS
 62
     7
 10
17.8516229316999997
 20
17.2536107970000003
 30
0.0
  0
VERTEX
  5
C3C
  8
___SYMBOL
  6
CONTINUOUS
 62
     7
 10
17.8452379528999998
 20
17.2572345550000001
 30
0.0
  0
VERTEX
  5
C3D
  8
___SYMBOL
  6
CONTINUOUS
 62
     7
 10
17.8387805486999902
 20
17.2607141798000008
 30
0.0
  0
VERTEX
  5
C3E
  8
___SYMBOL
  6
CONTINUOUS
 62
     7
 10
17.8322448207999997
 20
17.2640290536000016
 30
0.0
  0
VERTEX
  5
C3F
  8
___SYMBOL
  6
CONTINUOUS
 62
     7
 10
17.8256248709000005
 20
17.2671585585999985
 30
0.0
  0
VERTEX
  5
C40
  8
___SYMBOL
  6
CONTINUOUS
 62
     7
 10
17.8189148007
 20
17.2700820768999996
 30
0.0
  0
VERTEX
  5
C41
  8
___SYMBOL
  6
CONTINUOUS
 62
     7
 10
17.8121087118000005
 20
17.2727789905999991
 30
0.0
  0
VERTEX
  5
C42
  8
___SYMBOL
  6
CONTINUOUS
 62
     7
 10
17.8052007060999991
 20
17.2752286818000016
 30
0.0
  0
VERTEX
  5
C43
  8
___SYMBOL
  6
CONTINUOUS
 62
     7
 10
17.7981848850999995
 20
17.2774105326000011
 30
0.0
  0
VERTEX
  5
C44
  8
___SYMBOL
  6
CONTINUOUS
 62
     7
 10
17.7951107589000017
 20
17.2782604729000013
 30
0.0
  0
VERTEX
  5
C45
  8
___SYMBOL
  6
CONTINUOUS
 62
     7
 10
17.7920146818000013
 20
17.2790133730999997
 30
0.0
  0
VERTEX
  5
C46
  8
___SYMBOL
  6
CONTINUOUS
 62
     7
 10
17.7888960412999992
 20
17.2796263227000004
 30
0.0
  0
VERTEX
  5
C47
  8
___SYMBOL
  6
CONTINUOUS
 62
     7
 10
17.7857542246999998
 20
17.2800564104999985
 30
0.0
  0
VERTEX
  5
C48
  8
___SYMBOL
  6
CONTINUOUS
 62
     7
 10
17.7825886193999985
 20
17.2802607258999998
 30
0.0
  0
VERTEX
  5
C49
  8
___SYMBOL
  6
CONTINUOUS
 62
     7
 10
17.7793986128000014
 20
17.2801963580000013
 30
0.0
  0
VERTEX
  5
C4A
  8
___SYMBOL
  6
CONTINUOUS
 62
     7
 10
17.7762960957000011
 20
17.2798473900000005
 30
0.0
  0
VERTEX
  5
C4B
  8
___SYMBOL
  6
CONTINUOUS
 62
     7
 10
17.7731949460000003
 20
17.2792218776999995
 30
0.0
  0
VERTEX
  5
C4C
  8
___SYMBOL
  6
CONTINUOUS
 62
     7
 10
17.7701198944000005
 20
17.2783343111999983
 30
0.0
  0
VERTEX
  5
C4D
  8
___SYMBOL
  6
CONTINUOUS
 62
     7
 10
17.7670956717999999
 20
17.2771991806999985
 30
0.0
  0
VERTEX
  5
C4E
  8
___SYMBOL
  6
CONTINUOUS
 62
     7
 10
17.7641470089000002
 20
17.2758309765
 30
0.0
  0
VERTEX
  5
C4F
  8
___SYMBOL
  6
CONTINUOUS
 62
     7
 10
17.7612986365000012
 20
17.2742441886000009
 30
0.0
  0
VERTEX
  5
C50
  8
___SYMBOL
  6
CONTINUOUS
 62
     7
 10
17.7585752853999992
 20
17.2724533071999993
 30
0.0
  0
VERTEX
  5
C51
  8
___SYMBOL
  6
CONTINUOUS
 62
     7
 10
17.7560016862000012
 20
17.2704728223999986
 30
0.0
  0
VERTEX
  5
C52
  8
___SYMBOL
  6
CONTINUOUS
 62
     7
 10
17.7536025699
 20
17.2683172246000005
 30
0.0
  0
VERTEX
  5
C53
  8
___SYMBOL
  6
CONTINUOUS
 62
     7
 10
17.7514026670999989
 20
17.2660010036999907
 30
0.0
  0
VERTEX
  5
C54
  8
___SYMBOL
  6
CONTINUOUS
 62
     7
 10
17.7494267085999908
 20
17.263538650000001
 30
0.0
  0
VERTEX
  5
C55
  8
___SYMBOL
  6
CONTINUOUS
 62
     7
 10
17.7476994252000004
 20
17.2609446537000011
 30
0.0
  0
VERTEX
  5
C56
  8
___SYMBOL
  6
CONTINUOUS
 62
     7
 10
17.746245547800001
 20
17.2582335049000015
 30
0.0
  0
SEQEND
  5
C57
  8
___SYMBOL
  6
CONTINUOUS
 62
     7
  0
POLYLINE
  5
106
  8
___SYMBOL
  6
CONTINUOUS
 62
     7
 66
     1
 10
0.0
 20
0.0
 30
0.0
  0
VERTEX
  5
C58
  8
___SYMBOL
  6
CONTINUOUS
 62
     7
 10
17.9550014753000013
 20
17.2454031528999998
 30
0.0
  0
VERTEX
  5
C59
  8
___SYMBOL
  6
CONTINUOUS
 62
     7
 10
17.9483676267999996
 20
17.2492878205000011
 30
0.0
  0
VERTEX
  5
C5A
  8
___SYMBOL
  6
CONTINUOUS
 62
     7
 10
17.9418248755
 20
17.2533139447999986
 30
0.0
  0
VERTEX
  5
C5B
  8
___SYMBOL
  6
CONTINUOUS
 62
     7
 10
17.9345039855999993
 20
17.2580364465999985
 30
0.0
  0
VERTEX
  5
C5C
  8
___SYMBOL
  6
CONTINUOUS
 62
     7
 10
17.9272944271000014
 20
17.2628985569000015
 30
0.0
  0
VERTEX
  5
C5D
  8
___SYMBOL
  6
CONTINUOUS
 62
     7
 10
17.9201760024000016
 20
17.2678886913999996
 30
0.0
  0
VERTEX
  5
C5E
  8
___SYMBOL
  6
CONTINUOUS
 62
     7
 10
17.9131285142000003
 20
17.2729952657000005
 30
0.0
  0
VERTEX
  5
C5F
  8
___SYMBOL
  6
CONTINUOUS
 62
     7
 10
17.9061317650000014
 20
17.2782066956999998
 30
0.0
  0
VERTEX
  5
C60
  8
___SYMBOL
  6
CONTINUOUS
 62
     7
 10
17.8991655575000017
 20
17.2835113970999998
 30
0.0
  0
VERTEX
  5
C61
  8
___SYMBOL
  6
CONTINUOUS
 62
     7
 10
17.8922096943
 20
17.2888977853999997
 30
0.0
  0
VERTEX
  5
C62
  8
___SYMBOL
  6
CONTINUOUS
 62
     7
 10
17.8852439779999983
 20
17.2943542764999982
 30
0.0
  0
VERTEX
  5
C63
  8
___SYMBOL
  6
CONTINUOUS
 62
     7
 10
17.8808377985
 20
17.2978239205000008
 30
0.0
  0
VERTEX
  5
C64
  8
___SYMBOL
  6
CONTINUOUS
 62
     7
 10
17.8764163344000018
 20
17.3013030418999989
 30
0.0
  0
VERTEX
  5
C65
  8
___SYMBOL
  6
CONTINUOUS
 62
     7
 10
17.8719762491999994
 20
17.3047778511999901
 30
0.0
  0
VERTEX
  5
C66
  8
___SYMBOL
  6
CONTINUOUS
 62
     7
 10
17.867514206500001
 20
17.3082345585999988
 30
0.0
  0
VERTEX
  5
C67
  8
___SYMBOL
  6
CONTINUOUS
 62
     7
 10
17.8630268699999988
 20
17.3116593744000014
 30
0.0
  0
VERTEX
  5
C68
  8
___SYMBOL
  6
CONTINUOUS
 62
     7
 10
17.8585109031000009
 20
17.3150385090000007
 30
0.0
  0
VERTEX
  5
C69
  8
___SYMBOL
  6
CONTINUOUS
 62
     7
 10
17.8539629694999995
 20
17.3183581726
 30
0.0
  0
VERTEX
  5
C6A
  8
___SYMBOL
  6
CONTINUOUS
 62
     7
 10
17.8493797327999992
 20
17.3216045755000003
 30
0.0
  0
VERTEX
  5
C6B
  8
___SYMBOL
  6
CONTINUOUS
 62
     7
 10
17.8447578566000011
 20
17.3247639279999994
 30
0.0
  0
VERTEX
  5
C6C
  8
___SYMBOL
  6
CONTINUOUS
 62
     7
 10
17.8400940044000009
 20
17.3278224403999985
 30
0.0
  0
VERTEX
  5
C6D
  8
___SYMBOL
  6
CONTINUOUS
 62
     7
 10
17.8353848397999997
 20
17.3307663231000006
 30
0.0
  0
VERTEX
  5
C6E
  8
___SYMBOL
  6
CONTINUOUS
 62
     7
 10
17.8306270265000002
 20
17.3335817863000017
 30
0.0
  0
VERTEX
  5
C6F
  8
___SYMBOL
  6
CONTINUOUS
 62
     7
 10
17.8258172279
 20
17.3362550402999993
 30
0.0
  0
VERTEX
  5
C70
  8
___SYMBOL
  6
CONTINUOUS
 62
     7
 10
17.8209521078000002
 20
17.3387722953999983
 30
0.0
  0
VERTEX
  5
C71
  8
___SYMBOL
  6
CONTINUOUS
 62
     7
 10
17.8160283296999999
 20
17.3411197618999999
 30
0.0
  0
VERTEX
  5
C72
  8
___SYMBOL
  6
CONTINUOUS
 62
     7
 10
17.8110425572000004
 20
17.3432836500999983
 30
0.0
  0
VERTEX
  5
C73
  8
___SYMBOL
  6
CONTINUOUS
 62
     7
 10
17.8059914538000008
 20
17.3452501703999999
 30
0.0
  0
VERTEX
  5
C74
  8
___SYMBOL
  6
CONTINUOUS
 62
     7
 10
17.8008716832000005
 20
17.347005532899999
 30
0.0
  0
VERTEX
  5
C75
  8
___SYMBOL
  6
CONTINUOUS
 62
     7
 10
17.7956799090000004
 20
17.3485359481000003
 30
0.0
  0
VERTEX
  5
C76
  8
___SYMBOL
  6
CONTINUOUS
 62
     7
 10
17.7907511133999989
 20
17.3497580923000001
 30
0.0
  0
VERTEX
  5
C77
  8
___SYMBOL
  6
CONTINUOUS
 62
     7
 10
17.7857624214000012
 20
17.3507903729000006
 30
0.0
  0
VERTEX
  5
C78
  8
___SYMBOL
  6
CONTINUOUS
 62
     7
 10
17.7807200101999996
 20
17.3516523004000014
 30
0.0
  0
VERTEX
  5
C79
  8
___SYMBOL
  6
CONTINUOUS
 62
     7
 10
17.7756300572000008
 20
17.3523633858000004
 30
0.0
  0
VERTEX
  5
C7A
  8
___SYMBOL
  6
CONTINUOUS
 62
     7
 10
17.7704987398000007
 20
17.3529431398000007
 30
0.0
  0
VERTEX
  5
C7B
  8
___SYMBOL
  6
CONTINUOUS
 62
     7
 10
17.765332235399999
 20
17.3534110732000002
 30
0.0
  0
VERTEX
  5
C7C
  8
___SYMBOL
  6
CONTINUOUS
 62
     7
 10
17.7601367213000003
 20
17.3537866966999985
 30
0.0
  0
VERTEX
  5
C7D
  8
___SYMBOL
  6
CONTINUOUS
 62
     7
 10
17.754918374999999
 20
17.3540895211999988
 30
0.0
  0
VERTEX
  5
C7E
  8
___SYMBOL
  6
CONTINUOUS
 62
     7
 10
17.7496833737999999
 20
17.3543390572999989
 30
0.0
  0
VERTEX
  5
C7F
  8
___SYMBOL
  6
CONTINUOUS
 62
     7
 10
17.7444378950000008
 20
17.3545548160000003
 30
0.0
  0
VERTEX
  5
C80
  8
___SYMBOL
  6
CONTINUOUS
 62
     7
 10
17.7406688973999991
 20
17.3547029739999985
 30
0.0
  0
VERTEX
  5
C81
  8
___SYMBOL
  6
CONTINUOUS
 62
     7
 10
17.7369053568999995
 20
17.3548698974000004
 30
0.0
  0
VERTEX
  5
C82
  8
___SYMBOL
  6
CONTINUOUS
 62
     7
 10
17.7331549483000011
 20
17.3550817086999984
 30
0.0
  0
VERTEX
  5
C83
  8
___SYMBOL
  6
CONTINUOUS
 62
     7
 10
17.7294253465000011
 20
17.3553645307000011
 30
0.0
  0
VERTEX
  5
C84
  8
___SYMBOL
  6
CONTINUOUS
 62
     7
 10
17.7257242260999988
 20
17.3557444859000007
 30
0.0
  0
VERTEX
  5
C85
  8
___SYMBOL
  6
CONTINUOUS
 62
     7
 10
17.7220592619999984
 20
17.3562476970999988
 30
0.0
  0
VERTEX
  5
C86
  8
___SYMBOL
  6
CONTINUOUS
 62
     7
 10
17.718438128799999
 20
17.3569002867999984
 30
0.0
  0
VERTEX
  5
C87
  8
___SYMBOL
  6
CONTINUOUS
 62
     7
 10
17.7148685012999998
 20
17.3577283778000009
 30
0.0
  0
VERTEX
  5
C88
  8
___SYMBOL
  6
CONTINUOUS
 62
     7
 10
17.7113580544000015
 20
17.3587580925999987
 30
0.0
  0
VERTEX
  5
C89
  8
___SYMBOL
  6
CONTINUOUS
 62
     7
 10
17.7081258577999989
 20
17.3599222751999989
 30
0.0
  0
VERTEX
  5
C8A
  8
___SYMBOL
  6
CONTINUOUS
 62
     7
 10
17.7049479719999994
 20
17.3612631813
 30
0.0
  0
VERTEX
  5
C8B
  8
___SYMBOL
  6
CONTINUOUS
 62
     7
 10
17.7018199506000009
 20
17.3627573752000011
 30
0.0
  0
VERTEX
  5
C8C
  8
___SYMBOL
  6
CONTINUOUS
 62
     7
 10
17.6987373476999998
 20
17.3643814212999992
 30
0.0
  0
VERTEX
  5
C8D
  8
___SYMBOL
  6
CONTINUOUS
 62
     7
 10
17.6956957167999995
 20
17.3661118839000004
 30
0.0
  0
VERTEX
  5
C8E
  8
___SYMBOL
  6
CONTINUOUS
 62
     7
 10
17.6926906119000016
 20
17.3679253273999983
 30
0.0
  0
VERTEX
  5
C8F
  8
___SYMBOL
  6
CONTINUOUS
 62
     7
 10
17.6897175868000005
 20
17.3697983160999989
 30
0.0
  0
VERTEX
  5
C90
  8
___SYMBOL
  6
CONTINUOUS
 62
     7
 10
17.6867721951000014
 20
17.3717074143000012
 30
0.0
  0
VERTEX
  5
C91
  8
___SYMBOL
  6
CONTINUOUS
 62
     7
 10
17.6833350084999985
 20
17.3739683599999992
 30
0.0
  0
VERTEX
  5
C92
  8
___SYMBOL
  6
CONTINUOUS
 62
     7
 10
17.6799074388999991
 20
17.3762162451999984
 30
0.0
  0
VERTEX
  5
C93
  8
___SYMBOL
  6
CONTINUOUS
 62
     7
 10
17.6764670316999997
 20
17.378420479799999
 30
0.0
  0
VERTEX
  5
C94
  8
___SYMBOL
  6
CONTINUOUS
 62
     7
 10
17.6729913325999988
 20
17.3805504735999996
 30
0.0
  0
VERTEX
  5
C95
  8
___SYMBOL
  6
CONTINUOUS
 62
     7
 10
17.6694578870999983
 20
17.3825756363999986
 30
0.0
  0
VERTEX
  5
C96
  8
___SYMBOL
  6
CONTINUOUS
 62
     7
 10
17.6658442409000003
 20
17.3844653778999998
 30
0.0
  0
SEQEND
  5
C97
  8
___SYMBOL
  6
CONTINUOUS
 62
     7
  0
POLYLINE
  5
147
  8
___SYMBOL
  6
CONTINUOUS
 62
     7
 66
     1
 10
0.0
 20
0.0
 30
0.0
  0
VERTEX
  5
C98
  8
___SYMBOL
  6
CONTINUOUS
 62
     7
 10
17.9638781578
 20
16.9185755546999985
 30
0.0
  0
VERTEX
  5
C99
  8
___SYMBOL
  6
CONTINUOUS
 62
     7
 10
17.9580671378000005
 20
16.9250823116000007
 30
0.0
  0
VERTEX
  5
C9A
  8
___SYMBOL
  6
CONTINUOUS
 62
     7
 10
17.9520762006000005
 20
16.9314174954999999
 30
0.0
  0
VERTEX
  5
C9B
  8
___SYMBOL
  6
CONTINUOUS
 62
     7
 10
17.9459168891000012
 20
16.9375898384999992
 30
0.0
  0
VERTEX
  5
C9C
  8
___SYMBOL
  6
CONTINUOUS
 62
     7
 10
17.9396007462999982
 20
16.9436080726999982
 30
0.0
  0
VERTEX
  5
C9D
  8
___SYMBOL
  6
CONTINUOUS
 62
     7
 10
17.9331393149999982
 20
16.94948093
 30
0.0
  0
VERTEX
  5
C9E
  8
___SYMBOL
  6
CONTINUOUS
 62
     7
 10
17.9265441382000006
 20
16.9552171423999987
 30
0.0
  0
VERTEX
  5
C9F
  8
___SYMBOL
  6
CONTINUOUS
 62
     7
 10
17.9198267589000011
 20
16.9608254422000009
 30
0.0
  0
VERTEX
  5
CA0
  8
___SYMBOL
  6
CONTINUOUS
 62
     7
 10
17.9129987198999991
 20
16.9663145611999902
 30
0.0
  0
VERTEX
  5
CA1
  8
___SYMBOL
  6
CONTINUOUS
 62
     7
 10
17.9060715642999995
 20
16.9716932315000015
 30
0.0
  0
VERTEX
  5
CA2
  8
___SYMBOL
  6
CONTINUOUS
 62
     7
 10
17.8990568347999996
 20
16.976970185199999
 30
0.0
  0
VERTEX
  5
CA3
  8
___SYMBOL
  6
CONTINUOUS
 62
     7
 10
17.8919660745000009
 20
16.9821541543000016
 30
0.0
  0
VERTEX
  5
CA4
  8
___SYMBOL
  6
CONTINUOUS
 62
     7
 10
17.8848108263000007
 20
16.9872538708
 30
0.0
  0
VERTEX
  5
CA5
  8
___SYMBOL
  6
CONTINUOUS
 62
     7
 10
17.8776026329999986
 20
16.9922780668999991
 30
0.0
  0
VERTEX
  5
CA6
  8
___SYMBOL
  6
CONTINUOUS
 62
     7
 10
17.8675851228000013
 20
16.9991082011999985
 30
0.0
  0
VERTEX
  5
CA7
  8
___SYMBOL
  6
CONTINUOUS
 62
     7
 10
17.8575161856000015
 20
17.0058449455000016
 30
0.0
  0
VERTEX
  5
CA8
  8
___SYMBOL
  6
CONTINUOUS
 62
     7
 10
17.8474233055999996
 20
17.012522206099991
 30
0.0
  0
VERTEX
  5
CA9
  8
___SYMBOL
  6
CONTINUOUS
 62
     7
 10
17.8373339669000011
 20
17.0191738896999993
 30
0.0
  0
VERTEX
  5
CAA
  8
___SYMBOL
  6
CONTINUOUS
 62
     7
 10
17.8272756534999992
 20
17.0258339027000005
 30
0.0
  0
VERTEX
  5
CAB
  8
___SYMBOL
  6
CONTINUOUS
 62
     7
 10
17.8172758494999997
 20
17.0325361517000005
 30
0.0
  0
VERTEX
  5
CAC
  8
___SYMBOL
  6
CONTINUOUS
 62
     7
 10
17.8073620390999992
 20
17.0393145431999997
 30
0.0
  0
VERTEX
  5
CAD
  8
___SYMBOL
  6
CONTINUOUS
 62
     7
 10
17.7975617063999998
 20
17.0462029838999989
 30
0.0
  0
VERTEX
  5
CAE
  8
___SYMBOL
  6
CONTINUOUS
 62
     7
 10
17.7879023353000001
 20
17.0532353800999985
 30
0.0
  0
VERTEX
  5
CAF
  8
___SYMBOL
  6
CONTINUOUS
 62
     7
 10
17.7775189165
 20
17.0611167815999991
 30
0.0
  0
VERTEX
  5
CB0
  8
___SYMBOL
  6
CONTINUOUS
 62
     7
 10
17.7672717266999989
 20
17.0691852640000015
 30
0.0
  0
VERTEX
  5
CB1
  8
___SYMBOL
  6
CONTINUOUS
 62
     7
 10
17.7570956612999993
 20
17.0774153202999983
 30
0.0
  0
VERTEX
  5
CB2
  8
___SYMBOL
  6
CONTINUOUS
 62
     7
 10
17.7469256161000004
 20
17.0857814435999984
 30
0.0
  0
VERTEX
  5
CB3
  8
___SYMBOL
  6
CONTINUOUS
 62
     7
 10
17.7366964867000014
 20
17.0942581267000016
 30
0.0
  0
VERTEX
  5
CB4
  8
___SYMBOL
  6
CONTINUOUS
 62
     7
 10
17.7263431687999997
 20
17.1028198624999987
 30
0.0
  0
VERTEX
  5
CB5
  8
___SYMBOL
  6
CONTINUOUS
 62
     7
 10
17.7232049138999983
 20
17.1054045091999996
 30
0.0
  0
VERTEX
  5
CB6
  8
___SYMBOL
  6
CONTINUOUS
 62
     7
 10
17.7200688940000006
 20
17.1080050031999988
 30
0.0
  0
VERTEX
  5
CB7
  8
___SYMBOL
  6
CONTINUOUS
 62
     7
 10
17.7169544003000006
 20
17.1106318265999988
 30
0.0
  0
VERTEX
  5
CB8
  8
___SYMBOL
  6
CONTINUOUS
 62
     7
 10
17.7138807237999991
 20
17.1132954613000017
 30
0.0
  0
VERTEX
  5
CB9
  8
___SYMBOL
  6
CONTINUOUS
 62
     7
 10
17.7108671557000008
 20
17.1160063895000008
 30
0.0
  0
VERTEX
  5
CBA
  8
___SYMBOL
  6
CONTINUOUS
 62
     7
 10
17.7079329869999995
 20
17.1187750932
 30
0.0
  0
VERTEX
  5
CBB
  8
___SYMBOL
  6
CONTINUOUS
 62
     7
 10
17.7050975088000015
 20
17.1216120543999999
 30
0.0
  0
VERTEX
  5
CBC
  8
___SYMBOL
  6
CONTINUOUS
 62
     7
 10
17.7023800123000008
 20
17.1245277551000008
 30
0.0
  0
VERTEX
  5
CBD
  8
___SYMBOL
  6
CONTINUOUS
 62
     7
 10
17.6997997884
 20
17.1275326772999996
 30
0.0
  0
VERTEX
  5
CBE
  8
___SYMBOL
  6
CONTINUOUS
 62
     7
 10
17.6973761283999984
 20
17.1306373032000003
 30
0.0
  0
VERTEX
  5
CBF
  8
___SYMBOL
  6
CONTINUOUS
 62
     7
 10
17.6951283231999987
 20
17.1338521147000016
 30
0.0
  0
VERTEX
  5
CC0
  8
___SYMBOL
  6
CONTINUOUS
 62
     7
 10
17.6930756639999984
 20
17.1371875938000002
 30
0.0
  0
VERTEX
  5
CC1
  8
___SYMBOL
  6
CONTINUOUS
 62
     7
 10
17.6912374419000002
 20
17.1406542225999985
 30
0.0
  0
VERTEX
  5
CC2
  8
___SYMBOL
  6
CONTINUOUS
 62
     7
 10
17.6896329479999999
 20
17.1442624831000003
 30
0.0
  0
VERTEX
  5
CC3
  8
___SYMBOL
  6
CONTINUOUS
 62
     7
 10
17.6884079444000015
 20
17.1476198062999998
 30
0.0
  0
VERTEX
  5
CC4
  8
___SYMBOL
  6
CONTINUOUS
 62
     7
 10
17.687390087699999
 20
17.151077923199999
 30
0.0
  0
VERTEX
  5
CC5
  8
___SYMBOL
  6
CONTINUOUS
 62
     7
 10
17.6865833690000009
 20
17.1546154914999995
 30
0.0
  0
VERTEX
  5
CC6
  8
___SYMBOL
  6
CONTINUOUS
 62
     7
 10
17.6859917791999983
 20
17.1582111684999994
 30
0.0
  0
VERTEX
  5
CC7
  8
___SYMBOL
  6
CONTINUOUS
 62
     7
 10
17.6856193091000016
 20
17.1618436117000002
 30
0.0
  0
VERTEX
  5
CC8
  8
___SYMBOL
  6
CONTINUOUS
 62
     7
 10
17.6854699496000016
 20
17.1654914785999999
 30
0.0
  0
VERTEX
  5
CC9
  8
___SYMBOL
  6
CONTINUOUS
 62
     7
 10
17.6855476916000001
 20
17.1691334267999984
 30
0.0
  0
VERTEX
  5
CCA
  8
___SYMBOL
  6
CONTINUOUS
 62
     7
 10
17.6858565261999985
 20
17.1727481136000009
 30
0.0
  0
VERTEX
  5
CCB
  8
___SYMBOL
  6
CONTINUOUS
 62
     7
 10
17.6864004440000002
 20
17.1763141967000017
 30
0.0
  0
VERTEX
  5
CCC
  8
___SYMBOL
  6
CONTINUOUS
 62
     7
 10
17.6871834361999909
 20
17.179810333399999
 30
0.0
  0
VERTEX
  5
CCD
  8
___SYMBOL
  6
CONTINUOUS
 62
     7
 10
17.6882094935000005
 20
17.1832151811999907
 30
0.0
  0
SEQEND
  5
CCE
  8
___SYMBOL
  6
CONTINUOUS
 62
     7
  0
POLYLINE
  5
17F
  8
___SYMBOL
  6
CONTINUOUS
 62
     7
 66
     1
 10
0.0
 20
0.0
 30
0.0
  0
VERTEX
  5
CCF
  8
___SYMBOL
  6
CONTINUOUS
 62
     7
 10
17.7849374721000011
 20
16.9915275098000009
 30
0.0
  0
VERTEX
  5
CD0
  8
___SYMBOL
  6
CONTINUOUS
 62
     7
 10
17.7727054486
 20
17.0001408187999985
 30
0.0
  0
VERTEX
  5
CD1
  8
___SYMBOL
  6
CONTINUOUS
 62
     7
 10
17.7603746602000001
 20
17.0086333210000014
 30
0.0
  0
VERTEX
  5
CD2
  8
___SYMBOL
  6
CONTINUOUS
 62
     7
 10
17.7513911174000008
 20
17.0147580910999991
 30
0.0
  0
VERTEX
  5
CD3
  8
___SYMBOL
  6
CONTINUOUS
 62
     7
 10
17.7423887425000011
 20
17.0208826655999985
 30
0.0
  0
VERTEX
  5
CD4
  8
___SYMBOL
  6
CONTINUOUS
 62
     7
 10
17.7333902222999988
 20
17.0270254043999998
 30
0.0
  0
VERTEX
  5
CD5
  8
___SYMBOL
  6
CONTINUOUS
 62
     7
 10
17.7244182437999989
 20
17.0332046673000015
 30
0.0
  0
VERTEX
  5
CD6
  8
___SYMBOL
  6
CONTINUOUS
 62
     7
 10
17.7154954939000007
 20
17.0394388140000004
 30
0.0
  0
VERTEX
  5
CD7
  8
___SYMBOL
  6
CONTINUOUS
 62
     7
 10
17.7066446593999984
 20
17.0457462044999986
 30
0.0
  0
VERTEX
  5
CD8
  8
___SYMBOL
  6
CONTINUOUS
 62
     7
 10
17.6978884273000006
 20
17.0521451984999999
 30
0.0
  0
VERTEX
  5
CD9
  8
___SYMBOL
  6
CONTINUOUS
 62
     7
 10
17.6892494844000012
 20
17.0586541557999993
 30
0.0
  0
VERTEX
  5
CDA
  8
___SYMBOL
  6
CONTINUOUS
 62
     7
 10
17.6807505177000017
 20
17.065291436399999
 30
0.0
  0
VERTEX
  5
CDB
  8
___SYMBOL
  6
CONTINUOUS
 62
     7
 10
17.6724142141000016
 20
17.072075399900001
 30
0.0
  0
VERTEX
  5
CDC
  8
___SYMBOL
  6
CONTINUOUS
 62
     7
 10
17.6677537634999986
 20
17.0760083692000002
 30
0.0
  0
VERTEX
  5
CDD
  8
___SYMBOL
  6
CONTINUOUS
 62
     7
 10
17.6631597846000012
 20
17.0800068749000005
 30
0.0
  0
VERTEX
  5
CDE
  8
___SYMBOL
  6
CONTINUOUS
 62
     7
 10
17.6586387719999998
 20
17.0840830476000001
 30
0.0
  0
VERTEX
  5
CDF
  8
___SYMBOL
  6
CONTINUOUS
 62
     7
 10
17.6541972202000004
 20
17.0882490177000008
 30
0.0
  0
VERTEX
  5
CE0
  8
___SYMBOL
  6
CONTINUOUS
 62
     7
 10
17.6498416240000005
 20
17.092516915800001
 30
0.0
  0
VERTEX
  5
CE1
  8
___SYMBOL
  6
CONTINUOUS
 62
     7
 10
17.6455784778999991
 20
17.0968988724000006
 30
0.0
  0
VERTEX
  5
CE2
  8
___SYMBOL
  6
CONTINUOUS
 62
     7
 10
17.6414142765999991
 20
17.1014070181999998
 30
0.0
  0
VERTEX
  5
CE3
  8
___SYMBOL
  6
CONTINUOUS
 62
     7
 10
17.6373555147000012
 20
17.1060534834999984
 30
0.0
  0
VERTEX
  5
CE4
  8
___SYMBOL
  6
CONTINUOUS
 62
     7
 10
17.6334086869000011
 20
17.1108503990000003
 30
0.0
  0
VERTEX
  5
CE5
  8
___SYMBOL
  6
CONTINUOUS
 62
     7
 10
17.6295802877000014
 20
17.1158098953
 30
0.0
  0
VERTEX
  5
CE6
  8
___SYMBOL
  6
CONTINUOUS
 62
     7
 10
17.6258768118000013
 20
17.1209441027000011
 30
0.0
  0
VERTEX
  5
CE7
  8
___SYMBOL
  6
CONTINUOUS
 62
     7
 10
17.6223047538000017
 20
17.1262651519000002
 30
0.0
  0
VERTEX
  5
CE8
  8
___SYMBOL
  6
CONTINUOUS
 62
     7
 10
17.6188706084000017
 20
17.1317851734000008
 30
0.0
  0
VERTEX
  5
CE9
  8
___SYMBOL
  6
CONTINUOUS
 62
     7
 10
17.6171011455999995
 20
17.1348047160000014
 30
0.0
  0
VERTEX
  5
CEA
  8
___SYMBOL
  6
CONTINUOUS
 62
     7
 10
17.6153663191999996
 20
17.1378744288
 30
0.0
  0
VERTEX
  5
CEB
  8
___SYMBOL
  6
CONTINUOUS
 62
     7
 10
17.6136599077000007
 20
17.1409847532999997
 30
0.0
  0
VERTEX
  5
CEC
  8
___SYMBOL
  6
CONTINUOUS
 62
     7
 10
17.6119756894999995
 20
17.1441261306000001
 30
0.0
  0
VERTEX
  5
CED
  8
___SYMBOL
  6
CONTINUOUS
 62
     7
 10
17.6103074427999999
 20
17.1472890022000009
 30
0.0
  0
VERTEX
  5
CEE
  8
___SYMBOL
  6
CONTINUOUS
 62
     7
 10
17.6086489459999989
 20
17.1504638094000015
 30
0.0
  0
VERTEX
  5
CEF
  8
___SYMBOL
  6
CONTINUOUS
 62
     7
 10
17.6069939773999984
 20
17.1536409935999998
 30
0.0
  0
VERTEX
  5
CF0
  8
___SYMBOL
  6
CONTINUOUS
 62
     7
 10
17.6053363155000007
 20
17.156810996099999
 30
0.0
  0
VERTEX
  5
CF1
  8
___SYMBOL
  6
CONTINUOUS
 62
     7
 10
17.6036697384000007
 20
17.1599642583000005
 30
0.0
  0
VERTEX
  5
CF2
  8
___SYMBOL
  6
CONTINUOUS
 62
     7
 10
17.6019880246000007
 20
17.1630912215000002
 30
0.0
  0
VERTEX
  5
CF3
  8
___SYMBOL
  6
CONTINUOUS
 62
     7
 10
17.6002849525000009
 20
17.1661823270999996
 30
0.0
  0
VERTEX
  5
CF4
  8
___SYMBOL
  6
CONTINUOUS
 62
     7
 10
17.5985543002999982
 20
17.1692280164000017
 30
0.0
  0
VERTEX
  5
CF5
  8
___SYMBOL
  6
CONTINUOUS
 62
     7
 10
17.5967898464000001
 20
17.1722187306999992
 30
0.0
  0
VERTEX
  5
CF6
  8
___SYMBOL
  6
CONTINUOUS
 62
     7
 10
17.5949853691000015
 20
17.1751449114999986
 30
0.0
  0
VERTEX
  5
CF7
  8
___SYMBOL
  6
CONTINUOUS
 62
     7
 10
17.5931346467999994
 20
17.1779970000000013
 30
0.0
  0
VERTEX
  5
CF8
  8
___SYMBOL
  6
CONTINUOUS
 62
     7
 10
17.5912314579000011
 20
17.1807654376000016
 30
0.0
  0
VERTEX
  5
CF9
  8
___SYMBOL
  6
CONTINUOUS
 62
     7
 10
17.5892695805999999
 20
17.1834406657000009
 30
0.0
  0
VERTEX
  5
CFA
  8
___SYMBOL
  6
CONTINUOUS
 62
     7
 10
17.5872427932999997
 20
17.1860131255999988
 30
0.0
  0
VERTEX
  5
CFB
  8
___SYMBOL
  6
CONTINUOUS
 62
     7
 10
17.585144874400001
 20
17.1884732585999984
 30
0.0
  0
VERTEX
  5
CFC
  8
___SYMBOL
  6
CONTINUOUS
 62
     7
 10
17.5829696021000004
 20
17.1908115061999993
 30
0.0
  0
VERTEX
  5
CFD
  8
___SYMBOL
  6
CONTINUOUS
 62
     7
 10
17.5807107549000001
 20
17.1930183095999993
 30
0.0
  0
VERTEX
  5
CFE
  8
___SYMBOL
  6
CONTINUOUS
 62
     7
 10
17.5783621110999988
 20
17.1950841101000016
 30
0.0
  0
VERTEX
  5
CFF
  8
___SYMBOL
  6
CONTINUOUS
 62
     7
 10
17.5759174489999985
 20
17.1969993493000004
 30
0.0
  0
VERTEX
  5
D00
  8
___SYMBOL
  6
CONTINUOUS
 62
     7
 10
17.5733705469999997
 20
17.1987544682999989
 30
0.0
  0
VERTEX
  5
D01
  8
___SYMBOL
  6
CONTINUOUS
 62
     7
 10
17.5707151834000008
 20
17.2003399086000002
 30
0.0
  0
VERTEX
  5
D02
  8
___SYMBOL
  6
CONTINUOUS
 62
     7
 10
17.5679451365999988
 20
17.2017461115000003
 30
0.0
  0
VERTEX
  5
D03
  8
___SYMBOL
  6
CONTINUOUS
 62
     7
 10
17.565054184800001
 20
17.2029635182999989
 30
0.0
  0
VERTEX
  5
D04
  8
___SYMBOL
  6
CONTINUOUS
 62
     7
 10
17.562036106499999
 20
17.2039825704000009
 30
0.0
  0
VERTEX
  5
D05
  8
___SYMBOL
  6
CONTINUOUS
 62
     7
 10
17.5605350897999983
 20
17.2044077307000016
 30
0.0
  0
VERTEX
  5
D06
  8
___SYMBOL
  6
CONTINUOUS
 62
     7
 10
17.5590179631999987
 20
17.2048266990999998
 30
0.0
  0
VERTEX
  5
D07
  8
___SYMBOL
  6
CONTINUOUS
 62
     7
 10
17.5574996646000017
 20
17.2052816927000016
 30
0.0
  0
VERTEX
  5
D08
  8
___SYMBOL
  6
CONTINUOUS
 62
     7
 10
17.5559951319999996
 20
17.2058149289999989
 30
0.0
  0
VERTEX
  5
D09
  8
___SYMBOL
  6
CONTINUOUS
 62
     7
 10
17.5545193035999993
 20
17.2064686251999994
 30
0.0
  0
VERTEX
  5
D0A
  8
___SYMBOL
  6
CONTINUOUS
 62
     7
 10
17.5531686282999999
 20
17.2072252894000002
 30
0.0
  0
VERTEX
  5
D0B
  8
___SYMBOL
  6
CONTINUOUS
 62
     7
 10
17.5518765371000001
 20
17.2081139536000016
 30
0.0
  0
VERTEX
  5
D0C
  8
___SYMBOL
  6
CONTINUOUS
 62
     7
 10
17.5506628109999987
 20
17.209121979199999
 30
0.0
  0
VERTEX
  5
D0D
  8
___SYMBOL
  6
CONTINUOUS
 62
     7
 10
17.5495472311
 20
17.2102367274999999
 30
0.0
  0
VERTEX
  5
D0E
  8
___SYMBOL
  6
CONTINUOUS
 62
     7
 10
17.5485495785000012
 20
17.2114455596000013
 30
0.0
  0
VERTEX
  5
D0F
  8
___SYMBOL
  6
CONTINUOUS
 62
     7
 10
17.5476896344000011
 20
17.2127358368000003
 30
0.0
  0
VERTEX
  5
D10
  8
___SYMBOL
  6
CONTINUOUS
 62
     7
 10
17.5469871799000003
 20
17.2140949204000009
 30
0.0
  0
VERTEX
  5
D11
  8
___SYMBOL
  6
CONTINUOUS
 62
     7
 10
17.5464619960999997
 20
17.2155101717000001
 30
0.0
  0
VERTEX
  5
D12
  8
___SYMBOL
  6
CONTINUOUS
 62
     7
 10
17.5461338640999998
 20
17.2169689517999984
 30
0.0
  0
SEQEND
  5
D13
  8
___SYMBOL
  6
CONTINUOUS
 62
     7
  0
POLYLINE
  5
1C5
  8
___SYMBOL
  6
CONTINUOUS
 62
     7
 66
     1
 10
0.0
 20
0.0
 30
0.0
  0
VERTEX
  5
D14
  8
___SYMBOL
  6
CONTINUOUS
 62
     7
 10
18.2473593485000016
 20
17.1658207792999988
 30
0.0
  0
VERTEX
  5
D15
  8
___SYMBOL
  6
CONTINUOUS
 62
     7
 10
18.2560549730000012
 20
17.1853673347000004
 30
0.0
  0
VERTEX
  5
D16
  8
___SYMBOL
  6
CONTINUOUS
 62
     7
 10
18.2591538474999986
 20
17.2076493811000013
 30
0.0
  0
VERTEX
  5
D17
  8
___SYMBOL
  6
CONTINUOUS
 62
     7
 10
18.2563846331999997
 20
17.2307148113000004
 30
0.0
  0
VERTEX
  5
D18
  8
___SYMBOL
  6
CONTINUOUS
 62
     7
 10
18.2477807823999996
 20
17.2542817657000001
 30
0.0
  0
VERTEX
  5
D19
  8
___SYMBOL
  6
CONTINUOUS
 62
     7
 10
18.2340965863999998
 20
17.2762852787000014
 30
0.0
  0
VERTEX
  5
D1A
  8
___SYMBOL
  6
CONTINUOUS
 62
     7
 10
18.2154987872999996
 20
17.2964565248
 30
0.0
  0
VERTEX
  5
D1B
  8
___SYMBOL
  6
CONTINUOUS
 62
     7
 10
18.1936172963999994
 20
17.3130281430999986
 30
0.0
  0
VERTEX
  5
D1C
  8
___SYMBOL
  6
CONTINUOUS
 62
     7
 10
18.169214997200001
 20
17.3255958157999999
 30
0.0
  0
VERTEX
  5
D1D
  8
___SYMBOL
  6
CONTINUOUS
 62
     7
 10
18.1429863032000007
 20
17.3336462552000015
 30
0.0
  0
VERTEX
  5
D1E
  8
___SYMBOL
  6
CONTINUOUS
 62
     7
 10
18.1172293380999996
 20
17.3364741834999982
 30
0.0
  0
VERTEX
  5
D1F
  8
___SYMBOL
  6
CONTINUOUS
 62
     7
 10
18.0922589277000014
 20
17.3340448326999983
 30
0.0
  0
VERTEX
  5
D20
  8
___SYMBOL
  6
CONTINUOUS
 62
     7
 10
18.0702628824000016
 20
17.3265711168999985
 30
0.0
  0
VERTEX
  5
D21
  8
___SYMBOL
  6
CONTINUOUS
 62
     7
 10
18.0515098262000002
 20
17.3141444530999991
 30
0.0
  0
VERTEX
  5
D22
  8
___SYMBOL
  6
CONTINUOUS
 62
     7
 10
18.0376431114000013
 20
17.2978536486999985
 30
0.0
  0
VERTEX
  5
D23
  8
___SYMBOL
  6
CONTINUOUS
 62
     7
 10
18.0289474582999993
 20
17.2783072558000015
 30
0.0
  0
VERTEX
  5
D24
  8
___SYMBOL
  6
CONTINUOUS
 62
     7
 10
18.0258485168999982
 20
17.2560251139000016
 30
0.0
  0
VERTEX
  5
D25
  8
___SYMBOL
  6
CONTINUOUS
 62
     7
 10
18.0286178935999999
 20
17.2329597123000013
 30
0.0
  0
VERTEX
  5
D26
  8
___SYMBOL
  6
CONTINUOUS
 62
     7
 10
18.0372216774999998
 20
17.2093926623999991
 30
0.0
  0
VERTEX
  5
D27
  8
___SYMBOL
  6
CONTINUOUS
 62
     7
 10
18.0509059403999998
 20
17.1873892449000003
 30
0.0
  0
VERTEX
  5
D28
  8
___SYMBOL
  6
CONTINUOUS
 62
     7
 10
18.0695036725999998
 20
17.1672179032999992
 30
0.0
  0
VERTEX
  5
D29
  8
___SYMBOL
  6
CONTINUOUS
 62
     7
 10
18.0913851635
 20
17.1506462848999988
 30
0.0
  0
VERTEX
  5
D2A
  8
___SYMBOL
  6
CONTINUOUS
 62
     7
 10
18.1157874626999984
 20
17.1380786122999993
 30
0.0
  0
VERTEX
  5
D2B
  8
___SYMBOL
  6
CONTINUOUS
 62
     7
 10
18.1420161566999987
 20
17.1300281729000012
 30
0.0
  0
VERTEX
  5
D2C
  8
___SYMBOL
  6
CONTINUOUS
 62
     7
 10
18.1677731887
 20
17.1272003400999999
 30
0.0
  0
VERTEX
  5
D2D
  8
___SYMBOL
  6
CONTINUOUS
 62
     7
 10
18.1927435991000017
 20
17.1296296908999999
 30
0.0
  0
VERTEX
  5
D2E
  8
___SYMBOL
  6
CONTINUOUS
 62
     7
 10
18.2147396444000016
 20
17.1371034066999997
 30
0.0
  0
VERTEX
  5
D2F
  8
___SYMBOL
  6
CONTINUOUS
 62
     7
 10
18.2334925382000002
 20
17.1495300419000003
 30
0.0
  0
VERTEX
  5
D30
  8
___SYMBOL
  6
CONTINUOUS
 62
     7
 10
18.2473593485000016
 20
17.1658207792999988
 30
0.0
  0
SEQEND
  5
D31
  8
___SYMBOL
  6
CONTINUOUS
 62
     7
  0
POLYLINE
  5
1E4
  8
___SYMBOL
  6
CONTINUOUS
 62
     7
 66
     1
 10
0.0
 20
0.0
 30
0.0
  0
VERTEX
  5
D32
  8
___SYMBOL
  6
CONTINUOUS
 62
     7
 10
18.1328763273
 20
17.0925342572000005
 30
0.0
  0
VERTEX
  5
D33
  8
___SYMBOL
  6
CONTINUOUS
 62
     7
 10
18.1360987483000002
 20
17.0914584647000005
 30
0.0
  0
VERTEX
  5
D34
  8
___SYMBOL
  6
CONTINUOUS
 62
     7
 10
18.1393235441000016
 20
17.0904347419999993
 30
0.0
  0
VERTEX
  5
D35
  8
___SYMBOL
  6
CONTINUOUS
 62
     7
 10
18.1425495185999992
 20
17.0894634689
 30
0.0
  0
VERTEX
  5
D36
  8
___SYMBOL
  6
CONTINUOUS
 62
     7
 10
18.1457754752000007
 20
17.0885450056000003
 30
0.0
  0
VERTEX
  5
D37
  8
___SYMBOL
  6
CONTINUOUS
 62
     7
 10
18.1490002172999993
 20
17.0876796929000001
 30
0.0
  0
VERTEX
  5
D38
  8
___SYMBOL
  6
CONTINUOUS
 62
     7
 10
18.1522225486999993
 20
17.0868678516999992
 30
0.0
  0
VERTEX
  5
D39
  8
___SYMBOL
  6
CONTINUOUS
 62
     7
 10
18.1554412742999993
 20
17.0861097830999995
 30
0.0
  0
VERTEX
  5
D3A
  8
___SYMBOL
  6
CONTINUOUS
 62
     7
 10
18.1586552001000001
 20
17.0854057682000011
 30
0.0
  0
VERTEX
  5
D3B
  8
___SYMBOL
  6
CONTINUOUS
 62
     7
 10
18.161863134099999
 20
17.0847560684000008
 30
0.0
  0
VERTEX
  5
D3C
  8
___SYMBOL
  6
CONTINUOUS
 62
     7
 10
18.1650638861999987
 20
17.084160924399999
 30
0.0
  0
VERTEX
  5
D3D
  8
___SYMBOL
  6
CONTINUOUS
 62
     7
 10
18.1682562692999987
 20
17.0836205571999997
 30
0.0
  0
VERTEX
  5
D3E
  8
___SYMBOL
  6
CONTINUOUS
 62
     7
 10
18.1714390992999988
 20
17.0831351669999982
 30
0.0
  0
VERTEX
  5
D3F
  8
___SYMBOL
  6
CONTINUOUS
 62
     7
 10
18.1746111954999989
 20
17.0827049341000006
 30
0.0
  0
VERTEX
  5
D40
  8
___SYMBOL
  6
CONTINUOUS
 62
     7
 10
18.1777713813999995
 20
17.0823300178000004
 30
0.0
  0
VERTEX
  5
D41
  8
___SYMBOL
  6
CONTINUOUS
 62
     7
 10
18.1809184847000012
 20
17.0820105574000003
 30
0.0
  0
VERTEX
  5
D42
  8
___SYMBOL
  6
CONTINUOUS
 62
     7
 10
18.1840513381999997
 20
17.0817466712999995
 30
0.0
  0
VERTEX
  5
D43
  8
___SYMBOL
  6
CONTINUOUS
 62
     7
 10
18.1871687796999986
 20
17.0815384574000007
 30
0.0
  0
VERTEX
  5
D44
  8
___SYMBOL
  6
CONTINUOUS
 62
     7
 10
18.1902696528999996
 20
17.0813859928999996
 30
0.0
  0
VERTEX
  5
D45
  8
___SYMBOL
  6
CONTINUOUS
 62
     7
 10
18.1933528078000002
 20
17.0812893342999992
 30
0.0
  0
VERTEX
  5
D46
  8
___SYMBOL
  6
CONTINUOUS
 62
     7
 10
18.1964171004999997
 20
17.0812485175999988
 30
0.0
  0
VERTEX
  5
D47
  8
___SYMBOL
  6
CONTINUOUS
 62
     7
 10
18.1994613946000001
 20
17.0812635579000016
 30
0.0
  0
VERTEX
  5
D48
  8
___SYMBOL
  6
CONTINUOUS
 62
     7
 10
18.2024845607000003
 20
17.0813344495999999
 30
0.0
  0
VERTEX
  5
D49
  8
___SYMBOL
  6
CONTINUOUS
 62
     7
 10
18.2054854777000017
 20
17.0814611662999987
 30
0.0
  0
VERTEX
  5
D4A
  8
___SYMBOL
  6
CONTINUOUS
 62
     7
 10
18.208463032200001
 20
17.0816436610999993
 30
0.0
  0
VERTEX
  5
D4B
  8
___SYMBOL
  6
CONTINUOUS
 62
     7
 10
18.2114161199999991
 20
17.0818818663000016
 30
0.0
  0
VERTEX
  5
D4C
  8
___SYMBOL
  6
CONTINUOUS
 62
     7
 10
18.2143436455000014
 20
17.0821756936
 30
0.0
  0
VERTEX
  5
D4D
  8
___SYMBOL
  6
CONTINUOUS
 62
     7
 10
18.2172445229999909
 20
17.0825250339000014
 30
0.0
  0
VERTEX
  5
D4E
  8
___SYMBOL
  6
CONTINUOUS
 62
     7
 10
18.220117676400001
 20
17.0829297577000006
 30
0.0
  0
VERTEX
  5
D4F
  8
___SYMBOL
  6
CONTINUOUS
 62
     7
 10
18.2229620401000005
 20
17.0833897149000009
 30
0.0
  0
VERTEX
  5
D50
  8
___SYMBOL
  6
CONTINUOUS
 62
     7
 10
18.2257765589000016
 20
17.0839047348000008
 30
0.0
  0
VERTEX
  5
D51
  8
___SYMBOL
  6
CONTINUOUS
 62
     7
 10
18.2285601887999995
 20
17.0844746263999987
 30
0.0
  0
VERTEX
  5
D52
  8
___SYMBOL
  6
CONTINUOUS
 62
     7
 10
18.2313118974999995
 20
17.0850991782999984
 30
0.0
  0
VERTEX
  5
D53
  8
___SYMBOL
  6
CONTINUOUS
 62
     7
 10
18.2340306641000005
 20
17.0857781588999984
 30
0.0
  0
VERTEX
  5
D54
  8
___SYMBOL
  6
CONTINUOUS
 62
     7
 10
18.2367154802999991
 20
17.0865113163000011
 30
0.0
  0
VERTEX
  5
D55
  8
___SYMBOL
  6
CONTINUOUS
 62
     7
 10
18.2393653501999999
 20
17.0872983785999999
 30
0.0
  0
VERTEX
  5
D56
  8
___SYMBOL
  6
CONTINUOUS
 62
     7
 10
18.2419792907999998
 20
17.0881390537999991
 30
0.0
  0
VERTEX
  5
D57
  8
___SYMBOL
  6
CONTINUOUS
 62
     7
 10
18.2445563327000002
 20
17.0890330299999995
 30
0.0
  0
VERTEX
  5
D58
  8
___SYMBOL
  6
CONTINUOUS
 62
     7
 10
18.2470955197999984
 20
17.0899799757999986
 30
0.0
  0
VERTEX
  5
D59
  8
___SYMBOL
  6
CONTINUOUS
 62
     7
 10
18.2495959104999983
 20
17.0909795399000011
 30
0.0
  0
VERTEX
  5
D5A
  8
___SYMBOL
  6
CONTINUOUS
 62
     7
 10
18.2520565770999994
 20
17.0920313515000011
 30
0.0
  0
VERTEX
  5
D5B
  8
___SYMBOL
  6
CONTINUOUS
 62
     7
 10
18.2544766070999991
 20
17.0931350203999983
 30
0.0
  0
VERTEX
  5
D5C
  8
___SYMBOL
  6
CONTINUOUS
 62
     7
 10
18.2568551027000012
 20
17.0942901372999998
 30
0.0
  0
VERTEX
  5
D5D
  8
___SYMBOL
  6
CONTINUOUS
 62
     7
 10
18.2591911817000003
 20
17.0954962737000002
 30
0.0
  0
VERTEX
  5
D5E
  8
___SYMBOL
  6
CONTINUOUS
 62
     7
 10
18.2614839776000011
 20
17.0967529822000017
 30
0.0
  0
VERTEX
  5
D5F
  8
___SYMBOL
  6
CONTINUOUS
 62
     7
 10
18.2637326400000006
 20
17.0980597966999994
 30
0.0
  0
VERTEX
  5
D60
  8
___SYMBOL
  6
CONTINUOUS
 62
     7
 10
18.2659363347999992
 20
17.0994162325000012
 30
0.0
  0
VERTEX
  5
D61
  8
___SYMBOL
  6
CONTINUOUS
 62
     7
 10
18.2680942444999985
 20
17.1008217864000009
 30
0.0
  0
VERTEX
  5
D62
  8
___SYMBOL
  6
CONTINUOUS
 62
     7
 10
18.2702055686999998
 20
17.1022759370999999
 30
0.0
  0
VERTEX
  5
D63
  8
___SYMBOL
  6
CONTINUOUS
 62
     7
 10
18.2722695243999986
 20
17.1037781451000015
 30
0.0
  0
VERTEX
  5
D64
  8
___SYMBOL
  6
CONTINUOUS
 62
     7
 10
18.274285345900001
 20
17.1053278533999986
 30
0.0
  0
VERTEX
  5
D65
  8
___SYMBOL
  6
CONTINUOUS
 62
     7
 10
18.2762522855
 20
17.1069244870000006
 30
0.0
  0
VERTEX
  5
D66
  8
___SYMBOL
  6
CONTINUOUS
 62
     7
 10
18.2781696135999994
 20
17.1085674537999992
 30
0.0
  0
VERTEX
  5
D67
  8
___SYMBOL
  6
CONTINUOUS
 62
     7
 10
18.2800366190999988
 20
17.110256144200001
 30
0.0
  0
VERTEX
  5
D68
  8
___SYMBOL
  6
CONTINUOUS
 62
     7
 10
18.2818526094000013
 20
17.1119899320000002
 30
0.0
  0
VERTEX
  5
D69
  8
___SYMBOL
  6
CONTINUOUS
 62
     7
 10
18.2836169109000011
 20
17.1137681740999987
 30
0.0
  0
VERTEX
  5
D6A
  8
___SYMBOL
  6
CONTINUOUS
 62
     7
 10
18.2853288692999989
 20
17.1155902108000006
 30
0.0
  0
VERTEX
  5
D6B
  8
___SYMBOL
  6
CONTINUOUS
 62
     7
 10
18.2869878493999991
 20
17.1174553662999998
 30
0.0
  0
VERTEX
  5
D6C
  8
___SYMBOL
  6
CONTINUOUS
 62
     7
 10
18.2885932360999988
 20
17.119362948700001
 30
0.0
  0
VERTEX
  5
D6D
  8
___SYMBOL
  6
CONTINUOUS
 62
     7
 10
18.2901444337000001
 20
17.1213122505999991
 30
0.0
  0
VERTEX
  5
D6E
  8
___SYMBOL
  6
CONTINUOUS
 62
     7
 10
18.2916408668999999
 20
17.1233025488999999
 30
0.0
  0
VERTEX
  5
D6F
  8
___SYMBOL
  6
CONTINUOUS
 62
     7
 10
18.2930819806000002
 20
17.1253331051999993
 30
0.0
  0
VERTEX
  5
D70
  8
___SYMBOL
  6
CONTINUOUS
 62
     7
 10
18.2944672403000013
 20
17.1274031664999988
 30
0.0
  0
VERTEX
  5
D71
  8
___SYMBOL
  6
CONTINUOUS
 62
     7
 10
18.2957961321999996
 20
17.1295119649000007
 30
0.0
  0
VERTEX
  5
D72
  8
___SYMBOL
  6
CONTINUOUS
 62
     7
 10
18.2970681633000005
 20
17.1316587182000006
 30
0.0
  0
VERTEX
  5
D73
  8
___SYMBOL
  6
CONTINUOUS
 62
     7
 10
18.2982828618999989
 20
17.1338426300999984
 30
0.0
  0
VERTEX
  5
D74
  8
___SYMBOL
  6
CONTINUOUS
 62
     7
 10
18.2994397773000017
 20
17.1360628906000017
 30
0.0
  0
VERTEX
  5
D75
  8
___SYMBOL
  6
CONTINUOUS
 62
     7
 10
18.3005384804999984
 20
17.138318676099999
 30
0.0
  0
VERTEX
  5
D76
  8
___SYMBOL
  6
CONTINUOUS
 62
     7
 10
18.3015785637999997
 20
17.1406091497999995
 30
0.0
  0
VERTEX
  5
D77
  8
___SYMBOL
  6
CONTINUOUS
 62
     7
 10
18.3025596415999985
 20
17.1429334621999985
 30
0.0
  0
VERTEX
  5
D78
  8
___SYMBOL
  6
CONTINUOUS
 62
     7
 10
18.3034813497999984
 20
17.1452907511999904
 30
0.0
  0
VERTEX
  5
D79
  8
___SYMBOL
  6
CONTINUOUS
 62
     7
 10
18.3043433467000014
 20
17.1476801423000005
 30
0.0
  0
VERTEX
  5
D7A
  8
___SYMBOL
  6
CONTINUOUS
 62
     7
 10
18.3051453124999988
 20
17.1501007493000017
 30
0.0
  0
VERTEX
  5
D7B
  8
___SYMBOL
  6
CONTINUOUS
 62
     7
 10
18.3058869496999996
 20
17.1525516742999997
 30
0.0
  0
VERTEX
  5
D7C
  8
___SYMBOL
  6
CONTINUOUS
 62
     7
 10
18.3065679832000008
 20
17.155032008300001
 30
0.0
  0
VERTEX
  5
D7D
  8
___SYMBOL
  6
CONTINUOUS
 62
     7
 10
18.3071881603999991
 20
17.1575408311000004
 30
0.0
  0
VERTEX
  5
D7E
  8
___SYMBOL
  6
CONTINUOUS
 62
     7
 10
18.3077472511999986
 20
17.1600772122999992
 30
0.0
  0
VERTEX
  5
D7F
  8
___SYMBOL
  6
CONTINUOUS
 62
     7
 10
18.3082450483999999
 20
17.1626402108999905
 30
0.0
  0
VERTEX
  5
D80
  8
___SYMBOL
  6
CONTINUOUS
 62
     7
 10
18.3086813671999984
 20
17.1652288764000005
 30
0.0
  0
VERTEX
  5
D81
  8
___SYMBOL
  6
CONTINUOUS
 62
     7
 10
18.3090560459000002
 20
17.1678422485999995
 30
0.0
  0
VERTEX
  5
D82
  8
___SYMBOL
  6
CONTINUOUS
 62
     7
 10
18.309368945300001
 20
17.1704793580000015
 30
0.0
  0
VERTEX
  5
D83
  8
___SYMBOL
  6
CONTINUOUS
 62
     7
 10
18.3096199495
 20
17.1731392264999982
 30
0.0
  0
VERTEX
  5
D84
  8
___SYMBOL
  6
CONTINUOUS
 62
     7
 10
18.3098089653999985
 20
17.1758208675000006
 30
0.0
  0
VERTEX
  5
D85
  8
___SYMBOL
  6
CONTINUOUS
 62
     7
 10
18.3099359228999994
 20
17.1785232864000008
 30
0.0
  0
VERTEX
  5
D86
  8
___SYMBOL
  6
CONTINUOUS
 62
     7
 10
18.3100007747999989
 20
17.1812454806000012
 30
0.0
  0
VERTEX
  5
D87
  8
___SYMBOL
  6
CONTINUOUS
 62
     7
 10
18.3100034970999985
 20
17.1839864405999982
 30
0.0
  0
VERTEX
  5
D88
  8
___SYMBOL
  6
CONTINUOUS
 62
     7
 10
18.3099440887999982
 20
17.1867451494999983
 30
0.0
  0
VERTEX
  5
D89
  8
___SYMBOL
  6
CONTINUOUS
 62
     7
 10
18.3098225718999998
 20
17.1895205842000003
 30
0.0
  0
VERTEX
  5
D8A
  8
___SYMBOL
  6
CONTINUOUS
 62
     7
 10
18.3096389916
 20
17.1923117151999989
 30
0.0
  0
VERTEX
  5
D8B
  8
___SYMBOL
  6
CONTINUOUS
 62
     7
 10
18.3093934157999989
 20
17.1951175071000009
 30
0.0
  0
VERTEX
  5
D8C
  8
___SYMBOL
  6
CONTINUOUS
 62
     7
 10
18.3090859357000006
 20
17.1979369192
 30
0.0
  0
VERTEX
  5
D8D
  8
___SYMBOL
  6
CONTINUOUS
 62
     7
 10
18.3087166653999986
 20
17.2007689058000004
 30
0.0
  0
VERTEX
  5
D8E
  8
___SYMBOL
  6
CONTINUOUS
 62
     7
 10
18.3082857417999989
 20
17.2036124163000004
 30
0.0
  0
VERTEX
  5
D8F
  8
___SYMBOL
  6
CONTINUOUS
 62
     7
 10
18.3077933247000004
 20
17.2064663961999997
 30
0.0
  0
VERTEX
  5
D90
  8
___SYMBOL
  6
CONTINUOUS
 62
     7
 10
18.3072395969000006
 20
17.2093297866000015
 30
0.0
  0
VERTEX
  5
D91
  8
___SYMBOL
  6
CONTINUOUS
 62
     7
 10
18.3066247635999986
 20
17.2122015256999994
 30
0.0
  0
VERTEX
  5
D92
  8
___SYMBOL
  6
CONTINUOUS
 62
     7
 10
18.3059490529999991
 20
17.2150805481000013
 30
0.0
  0
VERTEX
  5
D93
  8
___SYMBOL
  6
CONTINUOUS
 62
     7
 10
18.3052127157000015
 20
17.2179657858999988
 30
0.0
  0
VERTEX
  5
D94
  8
___SYMBOL
  6
CONTINUOUS
 62
     7
 10
18.3044160247999983
 20
17.220856169000001
 30
0.0
  0
VERTEX
  5
D95
  8
___SYMBOL
  6
CONTINUOUS
 62
     7
 10
18.3035592758000014
 20
17.223750625200001
 30
0.0
  0
VERTEX
  5
D96
  8
___SYMBOL
  6
CONTINUOUS
 62
     7
 10
18.3026427865000016
 20
17.2266480810000004
 30
0.0
  0
VERTEX
  5
D97
  8
___SYMBOL
  6
CONTINUOUS
 62
     7
 10
18.3016668968999987
 20
17.229547461500001
 30
0.0
  0
VERTEX
  5
D98
  8
___SYMBOL
  6
CONTINUOUS
 62
     7
 10
18.3006319688999994
 20
17.2324476914000009
 30
0.0
  0
VERTEX
  5
D99
  8
___SYMBOL
  6
CONTINUOUS
 62
     7
 10
18.2995383865000001
 20
17.2353476948000015
 30
0.0
  0
VERTEX
  5
D9A
  8
___SYMBOL
  6
CONTINUOUS
 62
     7
 10
18.2983865552000005
 20
17.2382463960999992
 30
0.0
  0
VERTEX
  5
D9B
  8
___SYMBOL
  6
CONTINUOUS
 62
     7
 10
18.2971769022999986
 20
17.2411427201000009
 30
0.0
  0
VERTEX
  5
D9C
  8
___SYMBOL
  6
CONTINUOUS
 62
     7
 10
18.2959098765000014
 20
17.2440355925000013
 30
0.0
  0
VERTEX
  5
D9D
  8
___SYMBOL
  6
CONTINUOUS
 62
     7
 10
18.2945859476999999
 20
17.2469239401999985
 30
0.0
  0
VERTEX
  5
D9E
  8
___SYMBOL
  6
CONTINUOUS
 62
     7
 10
18.2932056070999991
 20
17.2498066919000017
 30
0.0
  0
VERTEX
  5
D9F
  8
___SYMBOL
  6
CONTINUOUS
 62
     7
 10
18.2917693666000005
 20
17.2526827782000005
 30
0.0
  0
VERTEX
  5
DA0
  8
___SYMBOL
  6
CONTINUOUS
 62
     7
 10
18.2902777589999985
 20
17.2555511324999991
 30
0.0
  0
VERTEX
  5
DA1
  8
___SYMBOL
  6
CONTINUOUS
 62
     7
 10
18.2887313376000016
 20
17.2584106906999999
 30
0.0
  0
VERTEX
  5
DA2
  8
___SYMBOL
  6
CONTINUOUS
 62
     7
 10
18.2871306758999985
 20
17.2612603922000005
 30
0.0
  0
VERTEX
  5
DA3
  8
___SYMBOL
  6
CONTINUOUS
 62
     7
 10
18.2854763676000012
 20
17.2640991799000005
 30
0.0
  0
VERTEX
  5
DA4
  8
___SYMBOL
  6
CONTINUOUS
 62
     7
 10
18.2837690264999999
 20
17.2669260008999998
 30
0.0
  0
VERTEX
  5
DA5
  8
___SYMBOL
  6
CONTINUOUS
 62
     7
 10
18.282009285800001
 20
17.2697398066000005
 30
0.0
  0
VERTEX
  5
DA6
  8
___SYMBOL
  6
CONTINUOUS
 62
     7
 10
18.2801977981000014
 20
17.2725395534000015
 30
0.0
  0
VERTEX
  5
DA7
  8
___SYMBOL
  6
CONTINUOUS
 62
     7
 10
18.2783352354999984
 20
17.2753242026999985
 30
0.0
  0
VERTEX
  5
DA8
  8
___SYMBOL
  6
CONTINUOUS
 62
     7
 10
18.276422288900001
 20
17.2780927216000002
 30
0.0
  0
VERTEX
  5
DA9
  8
___SYMBOL
  6
CONTINUOUS
 62
     7
 10
18.2744596677000004
 20
17.2808440832999999
 30
0.0
  0
VERTEX
  5
DAA
  8
___SYMBOL
  6
CONTINUOUS
 62
     7
 10
18.2724480999000001
 20
17.2835772671000001
 30
0.0
  0
VERTEX
  5
DAB
  8
___SYMBOL
  6
CONTINUOUS
 62
     7
 10
18.2703883317999995
 20
17.2862912593000004
 30
0.0
  0
VERTEX
  5
DAC
  8
___SYMBOL
  6
CONTINUOUS
 62
     7
 10
18.2682811272999999
 20
17.2889850532999994
 30
0.0
  0
VERTEX
  5
DAD
  8
___SYMBOL
  6
CONTINUOUS
 62
     7
 10
18.2661272680000017
 20
17.2916576496999994
 30
0.0
  0
VERTEX
  5
DAE
  8
___SYMBOL
  6
CONTINUOUS
 62
     7
 10
18.2639275527999985
 20
17.2943080573000003
 30
0.0
  0
VERTEX
  5
DAF
  8
___SYMBOL
  6
CONTINUOUS
 62
     7
 10
18.2616827977000007
 20
17.2969352928999989
 30
0.0
  0
VERTEX
  5
DB0
  8
___SYMBOL
  6
CONTINUOUS
 62
     7
 10
18.2593938352999992
 20
17.2995383822000015
 30
0.0
  0
VERTEX
  5
DB1
  8
___SYMBOL
  6
CONTINUOUS
 62
     7
 10
18.2570615146000002
 20
17.3021163593999994
 30
0.0
  0
VERTEX
  5
DB2
  8
___SYMBOL
  6
CONTINUOUS
 62
     7
 10
18.2546867008000007
 20
17.3046682684999986
 30
0.0
  0
VERTEX
  5
DB3
  8
___SYMBOL
  6
CONTINUOUS
 62
     7
 10
18.252270274699999
 20
17.3071931626999991
 30
0.0
  0
VERTEX
  5
DB4
  8
___SYMBOL
  6
CONTINUOUS
 62
     7
 10
18.2498131327000017
 20
17.3096901056999997
 30
0.0
  0
VERTEX
  5
DB5
  8
___SYMBOL
  6
CONTINUOUS
 62
     7
 10
18.2473161861000008
 20
17.3121581710999983
 30
0.0
  0
VERTEX
  5
DB6
  8
___SYMBOL
  6
CONTINUOUS
 62
     7
 10
18.2447803610999983
 20
17.3145964435999993
 30
0.0
  0
VERTEX
  5
DB7
  8
___SYMBOL
  6
CONTINUOUS
 62
     7
 10
18.242206598300001
 20
17.3170040187000005
 30
0.0
  0
VERTEX
  5
DB8
  8
___SYMBOL
  6
CONTINUOUS
 62
     7
 10
18.2395958524000008
 20
17.3193800033999992
 30
0.0
  0
VERTEX
  5
DB9
  8
___SYMBOL
  6
CONTINUOUS
 62
     7
 10
18.2369490919000015
 20
17.3217235163999987
 30
0.0
  0
VERTEX
  5
DBA
  8
___SYMBOL
  6
CONTINUOUS
 62
     7
 10
18.2342672983000007
 20
17.3240336884000001
 30
0.0
  0
VERTEX
  5
DBB
  8
___SYMBOL
  6
CONTINUOUS
 62
     7
 10
18.2315514665000009
 20
17.3263096625999999
 30
0.0
  0
VERTEX
  5
DBC
  8
___SYMBOL
  6
CONTINUOUS
 62
     7
 10
18.2288026037999984
 20
17.3285505945999994
 30
0.0
  0
VERTEX
  5
DBD
  8
___SYMBOL
  6
CONTINUOUS
 62
     7
 10
18.2260217299000011
 20
17.3307556532999989
 30
0.0
  0
VERTEX
  5
DBE
  8
___SYMBOL
  6
CONTINUOUS
 62
     7
 10
18.2232098763000003
 20
17.3329240208999984
 30
0.0
  0
VERTEX
  5
DBF
  8
___SYMBOL
  6
CONTINUOUS
 62
     7
 10
18.2203680858000006
 20
17.3350548929000006
 30
0.0
  0
VERTEX
  5
DC0
  8
___SYMBOL
  6
CONTINUOUS
 62
     7
 10
18.2174974126999984
 20
17.3371474789999986
 30
0.0
  0
VERTEX
  5
DC1
  8
___SYMBOL
  6
CONTINUOUS
 62
     7
 10
18.2145989218000004
 20
17.3392010029999994
 30
0.0
  0
VERTEX
  5
DC2
  8
___SYMBOL
  6
CONTINUOUS
 62
     7
 10
18.2116736880000012
 20
17.3412147031999986
 30
0.0
  0
VERTEX
  5
DC3
  8
___SYMBOL
  6
CONTINUOUS
 62
     7
 10
18.2087227964999983
 20
17.3431878327
 30
0.0
  0
VERTEX
  5
DC4
  8
___SYMBOL
  6
CONTINUOUS
 62
     7
 10
18.2057473419000004
 20
17.3451196596000017
 30
0.0
  0
VERTEX
  5
DC5
  8
___SYMBOL
  6
CONTINUOUS
 62
     7
 10
18.2027484277999996
 20
17.3470094673000013
 30
0.0
  0
VERTEX
  5
DC6
  8
___SYMBOL
  6
CONTINUOUS
 62
     7
 10
18.1997271665999989
 20
17.3488565548999993
 30
0.0
  0
VERTEX
  5
DC7
  8
___SYMBOL
  6
CONTINUOUS
 62
     7
 10
18.1966846788000005
 20
17.3506602371999996
 30
0.0
  0
VERTEX
  5
DC8
  8
___SYMBOL
  6
CONTINUOUS
 62
     7
 10
18.1936220931999983
 20
17.3524198450999982
 30
0.0
  0
VERTEX
  5
DC9
  8
___SYMBOL
  6
CONTINUOUS
 62
     7
 10
18.1905405456000011
 20
17.3541347262000016
 30
0.0
  0
VERTEX
  5
DCA
  8
___SYMBOL
  6
CONTINUOUS
 62
     7
 10
18.1874411790999986
 20
17.3558042440999998
 30
0.0
  0
VERTEX
  5
DCB
  8
___SYMBOL
  6
CONTINUOUS
 62
     7
 10
18.1843251431999988
 20
17.3574277797000001
 30
0.0
  0
VERTEX
  5
DCC
  8
___SYMBOL
  6
CONTINUOUS
 62
     7
 10
18.1811935939000016
 20
17.3590047307000006
 30
0.0
  0
VERTEX
  5
DCD
  8
___SYMBOL
  6
CONTINUOUS
 62
     7
 10
18.1780476927000016
 20
17.3605345122999992
 30
0.0
  0
VERTEX
  5
DCE
  8
___SYMBOL
  6
CONTINUOUS
 62
     7
 10
18.1748886063999997
 20
17.3620165570000005
 30
0.0
  0
VERTEX
  5
DCF
  8
___SYMBOL
  6
CONTINUOUS
 62
     7
 10
18.1717175068999985
 20
17.3634503150000015
 30
0.0
  0
VERTEX
  5
DD0
  8
___SYMBOL
  6
CONTINUOUS
 62
     7
 10
18.1685355703000013
 20
17.3648352545999991
 30
0.0
  0
VERTEX
  5
DD1
  8
___SYMBOL
  6
CONTINUOUS
 62
     7
 10
18.1653439771000009
 20
17.3661708620999988
 30
0.0
  0
VERTEX
  5
DD2
  8
___SYMBOL
  6
CONTINUOUS
 62
     7
 10
18.1621439108000011
 20
17.3674566418999987
 30
0.0
  0
VERTEX
  5
DD3
  8
___SYMBOL
  6
CONTINUOUS
 62
     7
 10
18.1589365586999989
 20
17.3686921173000002
 30
0.0
  0
VERTEX
  5
DD4
  8
___SYMBOL
  6
CONTINUOUS
 62
     7
 10
18.1557231102999985
 20
17.3698768299000008
 30
0.0
  0
VERTEX
  5
DD5
  8
___SYMBOL
  6
CONTINUOUS
 62
     7
 10
18.1525047575999992
 20
17.3710103402999998
 30
0.0
  0
VERTEX
  5
DD6
  8
___SYMBOL
  6
CONTINUOUS
 62
     7
 10
18.1492826942999983
 20
17.3720922280999908
 30
0.0
  0
VERTEX
  5
DD7
  8
___SYMBOL
  6
CONTINUOUS
 62
     7
 10
18.1460581157000007
 20
17.3731220919999991
 30
0.0
  0
VERTEX
  5
DD8
  8
___SYMBOL
  6
CONTINUOUS
 62
     7
 10
18.1428322177000005
 20
17.3740995498999986
 30
0.0
  0
VERTEX
  5
DD9
  8
___SYMBOL
  6
CONTINUOUS
 62
     7
 10
18.1396061969000009
 20
17.3750242391999983
 30
0.0
  0
VERTEX
  5
DDA
  8
___SYMBOL
  6
CONTINUOUS
 62
     7
 10
18.1363812499999995
 20
17.3758958171000018
 30
0.0
  0
VERTEX
  5
DDB
  8
___SYMBOL
  6
CONTINUOUS
 62
     7
 10
18.1331585731999994
 20
17.3767139602
 30
0.0
  0
VERTEX
  5
DDC
  8
___SYMBOL
  6
CONTINUOUS
 62
     7
 10
18.1299393617
 20
17.3774783651
 30
0.0
  0
VERTEX
  5
DDD
  8
___SYMBOL
  6
CONTINUOUS
 62
     7
 10
18.1267248097999989
 20
17.3781887481999995
 30
0.0
  0
VERTEX
  5
DDE
  8
___SYMBOL
  6
CONTINUOUS
 62
     7
 10
18.1235161096999988
 20
17.3788448459999998
 30
0.0
  0
VERTEX
  5
DDF
  8
___SYMBOL
  6
CONTINUOUS
 62
     7
 10
18.1203144517000005
 20
17.3794464150999985
 30
0.0
  0
VERTEX
  5
DE0
  8
___SYMBOL
  6
CONTINUOUS
 62
     7
 10
18.1171210231999993
 20
17.3799932324000004
 30
0.0
  0
VERTEX
  5
DE1
  8
___SYMBOL
  6
CONTINUOUS
 62
     7
 10
18.1139370088999989
 20
17.380485095200001
 30
0.0
  0
VERTEX
  5
DE2
  8
___SYMBOL
  6
CONTINUOUS
 62
     7
 10
18.1107635898000012
 20
17.3809218208999994
 30
0.0
  0
VERTEX
  5
DE3
  8
___SYMBOL
  6
CONTINUOUS
 62
     7
 10
18.1076019429000006
 20
17.3813032475
 30
0.0
  0
VERTEX
  5
DE4
  8
___SYMBOL
  6
CONTINUOUS
 62
     7
 10
18.104453240999991
 20
17.3816292335999982
 30
0.0
  0
VERTEX
  5
DE5
  8
___SYMBOL
  6
CONTINUOUS
 62
     7
 10
18.1013186519999998
 20
17.3818996583000001
 30
0.0
  0
VERTEX
  5
DE6
  8
___SYMBOL
  6
CONTINUOUS
 62
     7
 10
18.0981993386999989
 20
17.3821144212000007
 30
0.0
  0
VERTEX
  5
DE7
  8
___SYMBOL
  6
CONTINUOUS
 62
     7
 10
18.0950964578999987
 20
17.382273442599999
 30
0.0
  0
VERTEX
  5
DE8
  8
___SYMBOL
  6
CONTINUOUS
 62
     7
 10
18.0920111607999985
 20
17.3823766637000006
 30
0.0
  0
VERTEX
  5
DE9
  8
___SYMBOL
  6
CONTINUOUS
 62
     7
 10
18.0889445916000007
 20
17.3824240460999988
 30
0.0
  0
VERTEX
  5
DEA
  8
___SYMBOL
  6
CONTINUOUS
 62
     7
 10
18.0858978878999999
 20
17.3824155723000011
 30
0.0
  0
VERTEX
  5
DEB
  8
___SYMBOL
  6
CONTINUOUS
 62
     7
 10
18.0828721797000007
 20
17.3823512453000006
 30
0.0
  0
VERTEX
  5
DEC
  8
___SYMBOL
  6
CONTINUOUS
 62
     7
 10
18.0798685892999984
 20
17.3822310890999994
 30
0.0
  0
VERTEX
  5
DED
  8
___SYMBOL
  6
CONTINUOUS
 62
     7
 10
18.0768882308999999
 20
17.3820551481999992
 30
0.0
  0
VERTEX
  5
DEE
  8
___SYMBOL
  6
CONTINUOUS
 62
     7
 10
18.0739322099999988
 20
17.3818234877999984
 30
0.0
  0
VERTEX
  5
DEF
  8
___SYMBOL
  6
CONTINUOUS
 62
     7
 10
18.071001622899999
 20
17.3815361939999988
 30
0.0
  0
VERTEX
  5
DF0
  8
___SYMBOL
  6
CONTINUOUS
 62
     7
 10
18.0680975568000015
 20
17.3811933731999986
 30
0.0
  0
VERTEX
  5
DF1
  8
___SYMBOL
  6
CONTINUOUS
 62
     7
 10
18.0652210888000013
 20
17.3807951526999993
 30
0.0
  0
VERTEX
  5
DF2
  8
___SYMBOL
  6
CONTINUOUS
 62
     7
 10
18.0623732857999997
 20
17.380341680099999
 30
0.0
  0
VERTEX
  5
DF3
  8
___SYMBOL
  6
CONTINUOUS
 62
     7
 10
18.0595552043000005
 20
17.379833123600001
 30
0.0
  0
VERTEX
  5
DF4
  8
___SYMBOL
  6
CONTINUOUS
 62
     7
 10
18.0567678893999997
 20
17.3792696719000013
 30
0.0
  0
VERTEX
  5
DF5
  8
___SYMBOL
  6
CONTINUOUS
 62
     7
 10
18.0540123749999992
 20
17.3786515339999994
 30
0.0
  0
VERTEX
  5
DF6
  8
___SYMBOL
  6
CONTINUOUS
 62
     7
 10
18.0512896832999985
 20
17.3779789391000001
 30
0.0
  0
VERTEX
  5
DF7
  8
___SYMBOL
  6
CONTINUOUS
 62
     7
 10
18.0486008242000011
 20
17.377252136700001
 30
0.0
  0
VERTEX
  5
DF8
  8
___SYMBOL
  6
CONTINUOUS
 62
     7
 10
18.0459467949000008
 20
17.3764713965000013
 30
0.0
  0
VERTEX
  5
DF9
  8
___SYMBOL
  6
CONTINUOUS
 62
     7
 10
18.0433285800000007
 20
17.3756370080000018
 30
0.0
  0
SEQEND
  5
DFA
  8
___SYMBOL
  6
CONTINUOUS
 62
     7
  0
POLYLINE
  5
2AE
  8
___SYMBOL
  6
CONTINUOUS
 62
     7
 66
     1
 10
0.0
 20
0.0
 30
0.0
  0
VERTEX
  5
DFB
  8
___SYMBOL
  6
CONTINUOUS
 62
     7
 10
18.0433285800000007
 20
17.3756370080000018
 30
0.0
  0
VERTEX
  5
DFC
  8
___SYMBOL
  6
CONTINUOUS
 62
     7
 10
18.0407471506999997
 20
17.3747492807999997
 30
0.0
  0
VERTEX
  5
DFD
  8
___SYMBOL
  6
CONTINUOUS
 62
     7
 10
18.0382034643999987
 20
17.3738085439999992
 30
0.0
  0
VERTEX
  5
DFE
  8
___SYMBOL
  6
CONTINUOUS
 62
     7
 10
18.0356984645999994
 20
17.3728151466000007
 30
0.0
  0
VERTEX
  5
DFF
  8
___SYMBOL
  6
CONTINUOUS
 62
     7
 10
18.0332330805000005
 20
17.3717694571999992
 30
0.0
  0
VERTEX
  5
E00
  8
___SYMBOL
  6
CONTINUOUS
 62
     7
 10
18.0308082266000014
 20
17.3706718635999984
 30
0.0
  0
VERTEX
  5
E01
  8
___SYMBOL
  6
CONTINUOUS
 62
     7
 10
18.0284248024
 20
17.3695227727999999
 30
0.0
  0
VERTEX
  5
E02
  8
___SYMBOL
  6
CONTINUOUS
 62
     7
 10
18.0260836918000003
 20
17.3683226112
 30
0.0
  0
VERTEX
  5
E03
  8
___SYMBOL
  6
CONTINUOUS
 62
     7
 10
18.0237857632999905
 20
17.3670718239000017
 30
0.0
  0
VERTEX
  5
E04
  8
___SYMBOL
  6
CONTINUOUS
 62
     7
 10
18.0215318692000004
 20
17.365770874799999
 30
0.0
  0
VERTEX
  5
E05
  8
___SYMBOL
  6
CONTINUOUS
 62
     7
 10
18.0193228454999996
 20
17.3644202464999999
 30
0.0
  0
VERTEX
  5
E06
  8
___SYMBOL
  6
CONTINUOUS
 62
     7
 10
18.017159511700001
 20
17.3630204399999997
 30
0.0
  0
VERTEX
  5
E07
  8
___SYMBOL
  6
CONTINUOUS
 62
     7
 10
18.0150426701000015
 20
17.3615719746000003
 30
0.0
  0
VERTEX
  5
E08
  8
___SYMBOL
  6
CONTINUOUS
 62
     7
 10
18.0129731058999987
 20
17.3600753873999984
 30
0.0
  0
VERTEX
  5
E09
  8
___SYMBOL
  6
CONTINUOUS
 62
     7
 10
18.0109515868999992
 20
17.358531233499999
 30
0.0
  0
VERTEX
  5
E0A
  8
___SYMBOL
  6
CONTINUOUS
 62
     7
 10
18.0089788627999994
 20
17.3569400858999998
 30
0.0
  0
VERTEX
  5
E0B
  8
___SYMBOL
  6
CONTINUOUS
 62
     7
 10
18.0070556653000011
 20
17.3553025345999998
 30
0.0
  0
VERTEX
  5
E0C
  8
___SYMBOL
  6
CONTINUOUS
 62
     7
 10
18.0051827077999995
 20
17.3536191869999996
 30
0.0
  0
VERTEX
  5
E0D
  8
___SYMBOL
  6
CONTINUOUS
 62
     7
 10
18.0033606850999988
 20
17.3518906675999993
 30
0.0
  0
VERTEX
  5
E0E
  8
___SYMBOL
  6
CONTINUOUS
 62
     7
 10
18.0015902728999997
 20
17.3501176175000005
 30
0.0
  0
VERTEX
  5
E0F
  8
___SYMBOL
  6
CONTINUOUS
 62
     7
 10
17.9998721279999998
 20
17.3483006943999989
 30
0.0
  0
VERTEX
  5
E10
  8
___SYMBOL
  6
CONTINUOUS
 62
     7
 10
17.9982068877000003
 20
17.3464405721999988
 30
0.0
  0
VERTEX
  5
E11
  8
___SYMBOL
  6
CONTINUOUS
 62
     7
 10
17.9965951695999991
 20
17.3445379407999987
 30
0.0
  0
VERTEX
  5
E12
  8
___SYMBOL
  6
CONTINUOUS
 62
     7
 10
17.9950375714999993
 20
17.3425935060999983
 30
0.0
  0
VERTEX
  5
E13
  8
___SYMBOL
  6
CONTINUOUS
 62
     7
 10
17.9935346713000008
 20
17.3406079891999987
 30
0.0
  0
VERTEX
  5
E14
  8
___SYMBOL
  6
CONTINUOUS
 62
     7
 10
17.9920870262999983
 20
17.3385821265999986
 30
0.0
  0
VERTEX
  5
E15
  8
___SYMBOL
  6
CONTINUOUS
 62
     7
 10
17.9906951735999989
 20
17.3365166698000017
 30
0.0
  0
VERTEX
  5
E16
  8
___SYMBOL
  6
CONTINUOUS
 62
     7
 10
17.9893596293999991
 20
17.3344123848000002
 30
0.0
  0
VERTEX
  5
E17
  8
___SYMBOL
  6
CONTINUOUS
 62
     7
 10
17.9880808891000008
 20
17.3322700523000002
 30
0.0
  0
VERTEX
  5
E18
  8
___SYMBOL
  6
CONTINUOUS
 62
     7
 10
17.9868594269999988
 20
17.3300904668999998
 30
0.0
  0
VERTEX
  5
E19
  8
___SYMBOL
  6
CONTINUOUS
 62
     7
 10
17.9856956960999987
 20
17.3278744369000002
 30
0.0
  0
VERTEX
  5
E1A
  8
___SYMBOL
  6
CONTINUOUS
 62
     7
 10
17.9845901282000007
 20
17.3256227844999984
 30
0.0
  0
VERTEX
  5
E1B
  8
___SYMBOL
  6
CONTINUOUS
 62
     7
 10
17.9835431334000013
 20
17.3233363446999995
 30
0.0
  0
VERTEX
  5
E1C
  8
___SYMBOL
  6
CONTINUOUS
 62
     7
 10
17.9825550999000008
 20
17.3210159656999991
 30
0.0
  0
VERTEX
  5
E1D
  8
___SYMBOL
  6
CONTINUOUS
 62
     7
 10
17.9816263941999992
 20
17.3186625081999992
 30
0.0
  0
VERTEX
  5
E1E
  8
___SYMBOL
  6
CONTINUOUS
 62
     7
 10
17.9807573609000002
 20
17.3162768452000009
 30
0.0
  0
VERTEX
  5
E1F
  8
___SYMBOL
  6
CONTINUOUS
 62
     7
 10
17.9799483223000003
 20
17.313859861400001
 30
0.0
  0
VERTEX
  5
E20
  8
___SYMBOL
  6
CONTINUOUS
 62
     7
 10
17.9791995785000012
 20
17.3114124535000009
 30
0.0
  0
VERTEX
  5
E21
  8
___SYMBOL
  6
CONTINUOUS
 62
     7
 10
17.9785114071999992
 20
17.3089355291999993
 30
0.0
  0
VERTEX
  5
E22
  8
___SYMBOL
  6
CONTINUOUS
 62
     7
 10
17.9778840636000012
 20
17.3064300073999995
 30
0.0
  0
VERTEX
  5
E23
  8
___SYMBOL
  6
CONTINUOUS
 62
     7
 10
17.9773177805000017
 20
17.3038968171999983
 30
0.0
  0
VERTEX
  5
E24
  8
___SYMBOL
  6
CONTINUOUS
 62
     7
 10
17.9768127679000003
 20
17.3013368985000007
 30
0.0
  0
VERTEX
  5
E25
  8
___SYMBOL
  6
CONTINUOUS
 62
     7
 10
17.9763692130999999
 20
17.2987512006000017
 30
0.0
  0
VERTEX
  5
E26
  8
___SYMBOL
  6
CONTINUOUS
 62
     7
 10
17.9759872807000001
 20
17.2961406828000008
 30
0.0
  0
VERTEX
  5
E27
  8
___SYMBOL
  6
CONTINUOUS
 62
     7
 10
17.9756671122999983
 20
17.2935063132000018
 30
0.0
  0
VERTEX
  5
E28
  8
___SYMBOL
  6
CONTINUOUS
 62
     7
 10
17.9754088265999989
 20
17.2908490692000001
 30
0.0
  0
VERTEX
  5
E29
  8
___SYMBOL
  6
CONTINUOUS
 62
     7
 10
17.9752125195999994
 20
17.2881699361999992
 30
0.0
  0
VERTEX
  5
E2A
  8
___SYMBOL
  6
CONTINUOUS
 62
     7
 10
17.9750782640000004
 20
17.2854699079999996
 30
0.0
  0
VERTEX
  5
E2B
  8
___SYMBOL
  6
CONTINUOUS
 62
     7
 10
17.9750061095000007
 20
17.2827499863000007
 30
0.0
  0
VERTEX
  5
E2C
  8
___SYMBOL
  6
CONTINUOUS
 62
     7
 10
17.9749960830000006
 20
17.2800111797000007
 30
0.0
  0
VERTEX
  5
E2D
  8
___SYMBOL
  6
CONTINUOUS
 62
     7
 10
17.9750481881999988
 20
17.2772545043000001
 30
0.0
  0
VERTEX
  5
E2E
  8
___SYMBOL
  6
CONTINUOUS
 62
     7
 10
17.975162405799999
 20
17.2744809826000001
 30
0.0
  0
VERTEX
  5
E2F
  8
___SYMBOL
  6
CONTINUOUS
 62
     7
 10
17.9753386932999994
 20
17.2716916432000005
 30
0.0
  0
VERTEX
  5
E30
  8
___SYMBOL
  6
CONTINUOUS
 62
     7
 10
17.9755769854999983
 20
17.268887520899991
 30
0.0
  0
VERTEX
  5
E31
  8
___SYMBOL
  6
CONTINUOUS
 62
     7
 10
17.9758771937999988
 20
17.2660696557000009
 30
0.0
  0
VERTEX
  5
E32
  8
___SYMBOL
  6
CONTINUOUS
 62
     7
 10
17.976239206999999
 20
17.263239092900001
 30
0.0
  0
VERTEX
  5
E33
  8
___SYMBOL
  6
CONTINUOUS
 62
     7
 10
17.9766628908000001
 20
17.2603968825000003
 30
0.0
  0
SEQEND
  5
E34
  8
___SYMBOL
  6
CONTINUOUS
 62
     7
  0
POLYLINE
  5
2E9
  8
___SYMBOL
  6
CONTINUOUS
 62
     7
 66
     1
 10
0.0
 20
0.0
 30
0.0
  0
VERTEX
  5
E35
  8
___SYMBOL
  6
CONTINUOUS
 62
     7
 10
17.9593917227999995
 20
16.7785559997
 30
0.0
  0
VERTEX
  5
E36
  8
___SYMBOL
  6
CONTINUOUS
 62
     7
 10
17.9663044161999998
 20
16.7980869890999998
 30
0.0
  0
VERTEX
  5
E37
  8
___SYMBOL
  6
CONTINUOUS
 62
     7
 10
17.9674492956000016
 20
16.8199493296
 30
0.0
  0
VERTEX
  5
E38
  8
___SYMBOL
  6
CONTINUOUS
 62
     7
 10
17.9627262499000011
 20
16.8422272196000016
 30
0.0
  0
VERTEX
  5
E39
  8
___SYMBOL
  6
CONTINUOUS
 62
     7
 10
17.9521928696999993
 20
16.8646486664999991
 30
0.0
  0
VERTEX
  5
E3A
  8
___SYMBOL
  6
CONTINUOUS
 62
     7
 10
17.9367721270999994
 20
16.8852490895999985
 30
0.0
  0
VERTEX
  5
E3B
  8
___SYMBOL
  6
CONTINUOUS
 62
     7
 10
17.9166523188000006
 20
16.9037768216000011
 30
0.0
  0
VERTEX
  5
E3C
  8
___SYMBOL
  6
CONTINUOUS
 62
     7
 10
17.8935965303000017
 20
16.9186083298000014
 30
0.0
  0
VERTEX
  5
E3D
  8
___SYMBOL
  6
CONTINUOUS
 62
     7
 10
17.8683935861999998
 20
16.9293954593000002
 30
0.0
  0
VERTEX
  5
E3E
  8
___SYMBOL
  6
CONTINUOUS
 62
     7
 10
17.8417743567999985
 20
16.9356796315000011
 30
0.0
  0
VERTEX
  5
E3F
  8
___SYMBOL
  6
CONTINUOUS
 62
     7
 10
17.8160709564000008
 20
16.9369104660999987
 30
0.0
  0
VERTEX
  5
E40
  8
___SYMBOL
  6
CONTINUOUS
 62
     7
 10
17.7915975879999984
 20
16.9330726403999989
 30
0.0
  0
VERTEX
  5
E41
  8
___SYMBOL
  6
CONTINUOUS
 62
     7
 10
17.7704985829000002
 20
16.9245026349999996
 30
0.0
  0
VERTEX
  5
E42
  8
___SYMBOL
  6
CONTINUOUS
 62
     7
 10
17.7530316070000005
 20
16.9113050932999904
 30
0.0
  0
VERTEX
  5
E43
  8
___SYMBOL
  6
CONTINUOUS
 62
     7
 10
17.7407272350000014
 20
16.8946363280999989
 30
0.0
  0
VERTEX
  5
E44
  8
___SYMBOL
  6
CONTINUOUS
 62
     7
 10
17.7338146371000001
 20
16.8751052717000007
 30
0.0
  0
VERTEX
  5
E45
  8
___SYMBOL
  6
CONTINUOUS
 62
     7
 10
17.7326696621999993
 20
16.8532429981000007
 30
0.0
  0
VERTEX
  5
E46
  8
___SYMBOL
  6
CONTINUOUS
 62
     7
 10
17.7373927078999998
 20
16.8309651082000009
 30
0.0
  0
VERTEX
  5
E47
  8
___SYMBOL
  6
CONTINUOUS
 62
     7
 10
17.7479261500999996
 20
16.808543546500001
 30
0.0
  0
VERTEX
  5
E48
  8
___SYMBOL
  6
CONTINUOUS
 62
     7
 10
17.7633469262000006
 20
16.7879431711999985
 30
0.0
  0
VERTEX
  5
E49
  8
___SYMBOL
  6
CONTINUOUS
 62
     7
 10
17.7834666390000002
 20
16.7694155062000014
 30
0.0
  0
VERTEX
  5
E4A
  8
___SYMBOL
  6
CONTINUOUS
 62
     7
 10
17.8065224274999991
 20
16.7545839978999993
 30
0.0
  0
VERTEX
  5
E4B
  8
___SYMBOL
  6
CONTINUOUS
 62
     7
 10
17.8317253714999993
 20
16.7437968684999987
 30
0.0
  0
VERTEX
  5
E4C
  8
___SYMBOL
  6
CONTINUOUS
 62
     7
 10
17.8583446965999997
 20
16.7375126294000012
 30
0.0
  0
VERTEX
  5
E4D
  8
___SYMBOL
  6
CONTINUOUS
 62
     7
 10
17.8840480012999983
 20
16.7362818615999984
 30
0.0
  0
VERTEX
  5
E4E
  8
___SYMBOL
  6
CONTINUOUS
 62
     7
 10
17.908521369799999
 20
16.7401196874
 30
0.0
  0
VERTEX
  5
E4F
  8
___SYMBOL
  6
CONTINUOUS
 62
     7
 10
17.9296203749000007
 20
16.7486896927000011
 30
0.0
  0
VERTEX
  5
E50
  8
___SYMBOL
  6
CONTINUOUS
 62
     7
 10
17.9470873508000004
 20
16.7618872343999996
 30
0.0
  0
VERTEX
  5
E51
  8
___SYMBOL
  6
CONTINUOUS
 62
     7
 10
17.9593917227999995
 20
16.7785559997
 30
0.0
  0
SEQEND
  5
E52
  8
___SYMBOL
  6
CONTINUOUS
 62
     7
  0
POLYLINE
  5
308
  8
___SYMBOL
  6
CONTINUOUS
 62
     7
 66
     1
 10
0.0
 20
0.0
 30
0.0
  0
VERTEX
  5
E53
  8
___SYMBOL
  6
CONTINUOUS
 62
     7
 10
17.7810327589000003
 20
16.9657731739000006
 30
0.0
  0
VERTEX
  5
E54
  8
___SYMBOL
  6
CONTINUOUS
 62
     7
 10
17.7782988163999995
 20
16.9648340612999995
 30
0.0
  0
VERTEX
  5
E55
  8
___SYMBOL
  6
CONTINUOUS
 62
     7
 10
17.7756016571000011
 20
16.9638383973000018
 30
0.0
  0
VERTEX
  5
E56
  8
___SYMBOL
  6
CONTINUOUS
 62
     7
 10
17.7729423854999986
 20
16.9627865896000003
 30
0.0
  0
VERTEX
  5
E57
  8
___SYMBOL
  6
CONTINUOUS
 62
     7
 10
17.7703220902999988
 20
16.9616790689000005
 30
0.0
  0
VERTEX
  5
E58
  8
___SYMBOL
  6
CONTINUOUS
 62
     7
 10
17.7677418443999997
 20
16.9605162886000009
 30
0.0
  0
VERTEX
  5
E59
  8
___SYMBOL
  6
CONTINUOUS
 62
     7
 10
17.7652027042999983
 20
16.9592987247000018
 30
0.0
  0
VERTEX
  5
E5A
  8
___SYMBOL
  6
CONTINUOUS
 62
     7
 10
17.7627057095000005
 20
16.9580268758999999
 30
0.0
  0
VERTEX
  5
E5B
  8
___SYMBOL
  6
CONTINUOUS
 62
     7
 10
17.7602518825000004
 20
16.9567012629000011
 30
0.0
  0
VERTEX
  5
E5C
  8
___SYMBOL
  6
CONTINUOUS
 62
     7
 10
17.7578422280000012
 20
16.9553224283999988
 30
0.0
  0
VERTEX
  5
E5D
  8
___SYMBOL
  6
CONTINUOUS
 62
     7
 10
17.7554777325000011
 20
16.9538909370000006
 30
0.0
  0
VERTEX
  5
E5E
  8
___SYMBOL
  6
CONTINUOUS
 62
     7
 10
17.7531593643000001
 20
16.9524073747000017
 30
0.0
  0
VERTEX
  5
E5F
  8
___SYMBOL
  6
CONTINUOUS
 62
     7
 10
17.7508880723999987
 20
16.9508723490999991
 30
0.0
  0
VERTEX
  5
E60
  8
___SYMBOL
  6
CONTINUOUS
 62
     7
 10
17.7486647869999992
 20
16.9492864885999985
 30
0.0
  0
VERTEX
  5
E61
  8
___SYMBOL
  6
CONTINUOUS
 62
     7
 10
17.7464904182000005
 20
16.9476504426000005
 30
0.0
  0
VERTEX
  5
E62
  8
___SYMBOL
  6
CONTINUOUS
 62
     7
 10
17.7443658564000017
 20
16.9459648809000001
 30
0.0
  0
VERTEX
  5
E63
  8
___SYMBOL
  6
CONTINUOUS
 62
     7
 10
17.7422919714999985
 20
16.9442304935999992
 30
0.0
  0
VERTEX
  5
E64
  8
___SYMBOL
  6
CONTINUOUS
 62
     7
 10
17.7402696125000006
 20
16.9424479908999999
 30
0.0
  0
VERTEX
  5
E65
  8
___SYMBOL
  6
CONTINUOUS
 62
     7
 10
17.7382996075999984
 20
16.9406181025999985
 30
0.0
  0
VERTEX
  5
E66
  8
___SYMBOL
  6
CONTINUOUS
 62
     7
 10
17.7363827633
 20
16.9387415779999984
 30
0.0
  0
VERTEX
  5
E67
  8
___SYMBOL
  6
CONTINUOUS
 62
     7
 10
17.7345198645000011
 20
16.9368191852999992
 30
0.0
  0
VERTEX
  5
E68
  8
___SYMBOL
  6
CONTINUOUS
 62
     7
 10
17.732711673899999
 20
16.9348517118000004
 30
0.0
  0
VERTEX
  5
E69
  8
___SYMBOL
  6
CONTINUOUS
 62
     7
 10
17.7309589318
 20
16.9328399627999993
 30
0.0
  0
VERTEX
  5
E6A
  8
___SYMBOL
  6
CONTINUOUS
 62
     7
 10
17.7292623559000013
 20
16.9307847621999983
 30
0.0
  0
VERTEX
  5
E6B
  8
___SYMBOL
  6
CONTINUOUS
 62
     7
 10
17.727622641
 20
16.9286869513999996
 30
0.0
  0
VERTEX
  5
E6C
  8
___SYMBOL
  6
CONTINUOUS
 62
     7
 10
17.7260404582
 20
16.9265473893999996
 30
0.0
  0
VERTEX
  5
E6D
  8
___SYMBOL
  6
CONTINUOUS
 62
     7
 10
17.7245164553999999
 20
16.9243669521000015
 30
0.0
  0
VERTEX
  5
E6E
  8
___SYMBOL
  6
CONTINUOUS
 62
     7
 10
17.7230512566999998
 20
16.9221465323999993
 30
0.0
  0
VERTEX
  5
E6F
  8
___SYMBOL
  6
CONTINUOUS
 62
     7
 10
17.7216454618999997
 20
16.9198870393000007
 30
0.0
  0
VERTEX
  5
E70
  8
___SYMBOL
  6
CONTINUOUS
 62
     7
 10
17.7202996466999991
 20
16.9175893980999987
 30
0.0
  0
VERTEX
  5
E71
  8
___SYMBOL
  6
CONTINUOUS
 62
     7
 10
17.7190143619999994
 20
16.9152545494000002
 30
0.0
  0
VERTEX
  5
E72
  8
___SYMBOL
  6
CONTINUOUS
 62
     7
 10
17.7177901340999995
 20
16.9128834491999989
 30
0.0
  0
VERTEX
  5
E73
  8
___SYMBOL
  6
CONTINUOUS
 62
     7
 10
17.7166274643000001
 20
16.9104770683999988
 30
0.0
  0
VERTEX
  5
E74
  8
___SYMBOL
  6
CONTINUOUS
 62
     7
 10
17.7155268286000016
 20
16.9080363921999997
 30
0.0
  0
VERTEX
  5
E75
  8
___SYMBOL
  6
CONTINUOUS
 62
     7
 10
17.7144886775999986
 20
16.905562419999999
 30
0.0
  0
VERTEX
  5
E76
  8
___SYMBOL
  6
CONTINUOUS
 62
     7
 10
17.7135134363999995
 20
16.9030561645999988
 30
0.0
  0
VERTEX
  5
E77
  8
___SYMBOL
  6
CONTINUOUS
 62
     7
 10
17.7126015043999985
 20
16.9005186523000006
 30
0.0
  0
VERTEX
  5
E78
  8
___SYMBOL
  6
CONTINUOUS
 62
     7
 10
17.7117532548000014
 20
16.8979509221000015
 30
0.0
  0
VERTEX
  5
E79
  8
___SYMBOL
  6
CONTINUOUS
 62
     7
 10
17.7109690350999998
 20
16.8953540251999996
 30
0.0
  0
VERTEX
  5
E7A
  8
___SYMBOL
  6
CONTINUOUS
 62
     7
 10
17.7102491662000006
 20
16.8927290248999995
 30
0.0
  0
VERTEX
  5
E7B
  8
___SYMBOL
  6
CONTINUOUS
 62
     7
 10
17.7095939430000016
 20
16.8900769960999995
 30
0.0
  0
VERTEX
  5
E7C
  8
___SYMBOL
  6
CONTINUOUS
 62
     7
 10
17.7090036337999983
 20
16.8873990244999987
 30
0.0
  0
VERTEX
  5
E7D
  8
___SYMBOL
  6
CONTINUOUS
 62
     7
 10
17.7084784800999984
 20
16.884696206600001
 30
0.0
  0
VERTEX
  5
E7E
  8
___SYMBOL
  6
CONTINUOUS
 62
     7
 10
17.7080186971000018
 20
16.8819696491999984
 30
0.0
  0
VERTEX
  5
E7F
  8
___SYMBOL
  6
CONTINUOUS
 62
     7
 10
17.707624472900001
 20
16.8792204684999909
 30
0.0
  0
VERTEX
  5
E80
  8
___SYMBOL
  6
CONTINUOUS
 62
     7
 10
17.7072959690999987
 20
16.8764497901999988
 30
0.0
  0
VERTEX
  5
E81
  8
___SYMBOL
  6
CONTINUOUS
 62
     7
 10
17.707033320099999
 20
16.8736587486999987
 30
0.0
  0
VERTEX
  5
E82
  8
___SYMBOL
  6
CONTINUOUS
 62
     7
 10
17.7068366333999982
 20
16.8708484867000017
 30
0.0
  0
VERTEX
  5
E83
  8
___SYMBOL
  6
CONTINUOUS
 62
     7
 10
17.7067059895999996
 20
16.868020155
 30
0.0
  0
VERTEX
  5
E84
  8
___SYMBOL
  6
CONTINUOUS
 62
     7
 10
17.7066414421000005
 20
16.8651749116000005
 30
0.0
  0
VERTEX
  5
E85
  8
___SYMBOL
  6
CONTINUOUS
 62
     7
 10
17.7066430174999994
 20
16.8623139213000002
 30
0.0
  0
VERTEX
  5
E86
  8
___SYMBOL
  6
CONTINUOUS
 62
     7
 10
17.7067107149999998
 20
16.8594383557
 30
0.0
  0
VERTEX
  5
E87
  8
___SYMBOL
  6
CONTINUOUS
 62
     7
 10
17.7068445069000013
 20
16.8565493920999998
 30
0.0
  0
VERTEX
  5
E88
  8
___SYMBOL
  6
CONTINUOUS
 62
     7
 10
17.7070443384999905
 20
16.8536482133999996
 30
0.0
  0
VERTEX
  5
E89
  8
___SYMBOL
  6
CONTINUOUS
 62
     7
 10
17.7073101279000014
 20
16.8507360073000001
 30
0.0
  0
VERTEX
  5
E8A
  8
___SYMBOL
  6
CONTINUOUS
 62
     7
 10
17.7076417663000001
 20
16.8478139664000004
 30
0.0
  0
VERTEX
  5
E8B
  8
___SYMBOL
  6
CONTINUOUS
 62
     7
 10
17.7080391179000003
 20
16.8448832869999983
 30
0.0
  0
VERTEX
  5
E8C
  8
___SYMBOL
  6
CONTINUOUS
 62
     7
 10
17.7085020200999992
 20
16.8419451689999988
 30
0.0
  0
VERTEX
  5
E8D
  8
___SYMBOL
  6
CONTINUOUS
 62
     7
 10
17.7090302832999988
 20
16.8390008155000004
 30
0.0
  0
VERTEX
  5
E8E
  8
___SYMBOL
  6
CONTINUOUS
 62
     7
 10
17.7096236912000009
 20
16.8360514318999996
 30
0.0
  0
VERTEX
  5
E8F
  8
___SYMBOL
  6
CONTINUOUS
 62
     7
 10
17.7102820007999995
 20
16.8330982258999988
 30
0.0
  0
VERTEX
  5
E90
  8
___SYMBOL
  6
CONTINUOUS
 62
     7
 10
17.7110049425999989
 20
16.8301424066999985
 30
0.0
  0
VERTEX
  5
E91
  8
___SYMBOL
  6
CONTINUOUS
 62
     7
 10
17.7117922205999996
 20
16.8271851844000011
 30
0.0
  0
VERTEX
  5
E92
  8
___SYMBOL
  6
CONTINUOUS
 62
     7
 10
17.7126435125000015
 20
16.8242277698999985
 30
0.0
  0
VERTEX
  5
E93
  8
___SYMBOL
  6
CONTINUOUS
 62
     7
 10
17.7135584695999988
 20
16.8212713741000002
 30
0.0
  0
VERTEX
  5
E94
  8
___SYMBOL
  6
CONTINUOUS
 62
     7
 10
17.7145367174999997
 20
16.8183172073999998
 30
0.0
  0
VERTEX
  5
E95
  8
___SYMBOL
  6
CONTINUOUS
 62
     7
 10
17.7155778553999994
 20
16.8153664794999997
 30
0.0
  0
VERTEX
  5
E96
  8
___SYMBOL
  6
CONTINUOUS
 62
     7
 10
17.7166814573000018
 20
16.8124203984000005
 30
0.0
  0
VERTEX
  5
E97
  8
___SYMBOL
  6
CONTINUOUS
 62
     7
 10
17.7178470710999996
 20
16.8094801704000005
 30
0.0
  0
VERTEX
  5
E98
  8
___SYMBOL
  6
CONTINUOUS
 62
     7
 10
17.7190742197000013
 20
16.8065469993000001
 30
0.0
  0
VERTEX
  5
E99
  8
___SYMBOL
  6
CONTINUOUS
 62
     7
 10
17.7203624005999991
 20
16.8036220862000008
 30
0.0
  0
VERTEX
  5
E9A
  8
___SYMBOL
  6
CONTINUOUS
 62
     7
 10
17.7217110863000009
 20
16.8007066284999986
 30
0.0
  0
VERTEX
  5
E9B
  8
___SYMBOL
  6
CONTINUOUS
 62
     7
 10
17.7231197246999983
 20
16.7978018200999983
 30
0.0
  0
VERTEX
  5
E9C
  8
___SYMBOL
  6
CONTINUOUS
 62
     7
 10
17.7245877390000004
 20
16.7949088501999988
 30
0.0
  0
VERTEX
  5
E9D
  8
___SYMBOL
  6
CONTINUOUS
 62
     7
 10
17.7261145282000001
 20
16.7920289033999985
 30
0.0
  0
VERTEX
  5
E9E
  8
___SYMBOL
  6
CONTINUOUS
 62
     7
 10
17.7276994670000008
 20
16.789163158800001
 30
0.0
  0
VERTEX
  5
E9F
  8
___SYMBOL
  6
CONTINUOUS
 62
     7
 10
17.7293419065999984
 20
16.7863127898000002
 30
0.0
  0
VERTEX
  5
EA0
  8
___SYMBOL
  6
CONTINUOUS
 62
     7
 10
17.7310411744999996
 20
16.7834789634000003
 30
0.0
  0
VERTEX
  5
EA1
  8
___SYMBOL
  6
CONTINUOUS
 62
     7
 10
17.7327965749000001
 20
16.7806628398999997
 30
0.0
  0
VERTEX
  5
EA2
  8
___SYMBOL
  6
CONTINUOUS
 62
     7
 10
17.7346073892000007
 20
16.7778655725000014
 30
0.0
  0
VERTEX
  5
EA3
  8
___SYMBOL
  6
CONTINUOUS
 62
     7
 10
17.7364728758000005
 20
16.7750883062000007
 30
0.0
  0
VERTEX
  5
EA4
  8
___SYMBOL
  6
CONTINUOUS
 62
     7
 10
17.7383922709999986
 20
16.7723321783999992
 30
0.0
  0
VERTEX
  5
EA5
  8
___SYMBOL
  6
CONTINUOUS
 62
     7
 10
17.7403647888000009
 20
16.7695983175000016
 30
0.0
  0
VERTEX
  5
EA6
  8
___SYMBOL
  6
CONTINUOUS
 62
     7
 10
17.7423896216999992
 20
16.7668878427999992
 30
0.0
  0
VERTEX
  5
EA7
  8
___SYMBOL
  6
CONTINUOUS
 62
     7
 10
17.7444659406999996
 20
16.7642018642000004
 30
0.0
  0
VERTEX
  5
EA8
  8
___SYMBOL
  6
CONTINUOUS
 62
     7
 10
17.746592895500001
 20
16.7615414813000001
 30
0.0
  0
VERTEX
  5
EA9
  8
___SYMBOL
  6
CONTINUOUS
 62
     7
 10
17.7487696152999987
 20
16.7589077834000015
 30
0.0
  0
VERTEX
  5
EAA
  8
___SYMBOL
  6
CONTINUOUS
 62
     7
 10
17.7509952089000009
 20
16.7563018489999997
 30
0.0
  0
VERTEX
  5
EAB
  8
___SYMBOL
  6
CONTINUOUS
 62
     7
 10
17.7532687650000014
 20
16.7537247449000013
 30
0.0
  0
VERTEX
  5
EAC
  8
___SYMBOL
  6
CONTINUOUS
 62
     7
 10
17.7555893526999995
 20
16.7511775263000011
 30
0.0
  0
VERTEX
  5
EAD
  8
___SYMBOL
  6
CONTINUOUS
 62
     7
 10
17.7579560219999983
 20
16.7486612362000002
 30
0.0
  0
VERTEX
  5
EAE
  8
___SYMBOL
  6
CONTINUOUS
 62
     7
 10
17.7603678036999995
 20
16.7461769049000004
 30
0.0
  0
VERTEX
  5
EAF
  8
___SYMBOL
  6
CONTINUOUS
 62
     7
 10
17.7628237103999993
 20
16.7437255494999988
 30
0.0
  0
VERTEX
  5
EB0
  8
___SYMBOL
  6
CONTINUOUS
 62
     7
 10
17.7653227364999999
 20
16.7413081736999985
 30
0.0
  0
VERTEX
  5
EB1
  8
___SYMBOL
  6
CONTINUOUS
 62
     7
 10
17.7678638589000002
 20
16.7389257672999996
 30
0.0
  0
VERTEX
  5
EB2
  8
___SYMBOL
  6
CONTINUOUS
 62
     7
 10
17.770446037100001
 20
16.7365793057999994
 30
0.0
  0
VERTEX
  5
EB3
  8
___SYMBOL
  6
CONTINUOUS
 62
     7
 10
17.7730682137999985
 20
16.734269749900001
 30
0.0
  0
VERTEX
  5
EB4
  8
___SYMBOL
  6
CONTINUOUS
 62
     7
 10
17.7757293155000013
 20
16.731998045200001
 30
0.0
  0
VERTEX
  5
EB5
  8
___SYMBOL
  6
CONTINUOUS
 62
     7
 10
17.7784282524999995
 20
16.7297651217999999
 30
0.0
  0
VERTEX
  5
EB6
  8
___SYMBOL
  6
CONTINUOUS
 62
     7
 10
17.7811639198000009
 20
16.7275718940000004
 30
0.0
  0
VERTEX
  5
EB7
  8
___SYMBOL
  6
CONTINUOUS
 62
     7
 10
17.7839351972999999
 20
16.7254192597999989
 30
0.0
  0
VERTEX
  5
EB8
  8
___SYMBOL
  6
CONTINUOUS
 62
     7
 10
17.7867409503000005
 20
16.7233081006999988
 30
0.0
  0
VERTEX
  5
EB9
  8
___SYMBOL
  6
CONTINUOUS
 62
     7
 10
17.7895800301000016
 20
16.721239280799999
 30
0.0
  0
VERTEX
  5
EBA
  8
___SYMBOL
  6
CONTINUOUS
 62
     7
 10
17.7924512740999994
 20
16.7192136474999984
 30
0.0
  0
VERTEX
  5
EBB
  8
___SYMBOL
  6
CONTINUOUS
 62
     7
 10
17.7953535068999997
 20
16.7172320298999999
 30
0.0
  0
VERTEX
  5
EBC
  8
___SYMBOL
  6
CONTINUOUS
 62
     7
 10
17.7982855399999984
 20
16.7152952395000014
 30
0.0
  0
VERTEX
  5
EBD
  8
___SYMBOL
  6
CONTINUOUS
 62
     7
 10
17.8012461731000009
 20
16.713404069300001
 30
0.0
  0
VERTEX
  5
EBE
  8
___SYMBOL
  6
CONTINUOUS
 62
     7
 10
17.8042341937999993
 20
16.7115592934999988
 30
0.0
  0
VERTEX
  5
EBF
  8
___SYMBOL
  6
CONTINUOUS
 62
     7
 10
17.8072483788000007
 20
16.7097616675999987
 30
0.0
  0
VERTEX
  5
EC0
  8
___SYMBOL
  6
CONTINUOUS
 62
     7
 10
17.8102874940000007
 20
16.7080119276000012
 30
0.0
  0
VERTEX
  5
EC1
  8
___SYMBOL
  6
CONTINUOUS
 62
     7
 10
17.8133502949000011
 20
16.7063107897000016
 30
0.0
  0
VERTEX
  5
EC2
  8
___SYMBOL
  6
CONTINUOUS
 62
     7
 10
17.8164355275999995
 20
16.7046589507000007
 30
0.0
  0
VERTEX
  5
EC3
  8
___SYMBOL
  6
CONTINUOUS
 62
     7
 10
17.8195419289000014
 20
16.7030570868000012
 30
0.0
  0
VERTEX
  5
EC4
  8
___SYMBOL
  6
CONTINUOUS
 62
     7
 10
17.8226682268000012
 20
16.7015058538999988
 30
0.0
  0
VERTEX
  5
EC5
  8
___SYMBOL
  6
CONTINUOUS
 62
     7
 10
17.8258131412999994
 20
16.7000058869999997
 30
0.0
  0
VERTEX
  5
EC6
  8
___SYMBOL
  6
CONTINUOUS
 62
     7
 10
17.8289753847999997
 20
16.6985578004999908
 30
0.0
  0
VERTEX
  5
EC7
  8
___SYMBOL
  6
CONTINUOUS
 62
     7
 10
17.8321536625000014
 20
16.6971621871000018
 30
0.0
  0
VERTEX
  5
EC8
  8
___SYMBOL
  6
CONTINUOUS
 62
     7
 10
17.8353466730000001
 20
16.6958196182999998
 30
0.0
  0
VERTEX
  5
EC9
  8
___SYMBOL
  6
CONTINUOUS
 62
     7
 10
17.8385531091000011
 20
16.6945306438000003
 30
0.0
  0
VERTEX
  5
ECA
  8
___SYMBOL
  6
CONTINUOUS
 62
     7
 10
17.8417716579000007
 20
16.6932957914000006
 30
0.0
  0
VERTEX
  5
ECB
  8
___SYMBOL
  6
CONTINUOUS
 62
     7
 10
17.8450010016
 20
16.6921155665999983
 30
0.0
  0
VERTEX
  5
ECC
  8
___SYMBOL
  6
CONTINUOUS
 62
     7
 10
17.8482398178999908
 20
16.6909904528000013
 30
0.0
  0
VERTEX
  5
ECD
  8
___SYMBOL
  6
CONTINUOUS
 62
     7
 10
17.8514867807999984
 20
16.6899209104999997
 30
0.0
  0
VERTEX
  5
ECE
  8
___SYMBOL
  6
CONTINUOUS
 62
     7
 10
17.8547405607000016
 20
16.6889073775999996
 30
0.0
  0
VERTEX
  5
ECF
  8
___SYMBOL
  6
CONTINUOUS
 62
     7
 10
17.8579998256000003
 20
16.6879502692000017
 30
0.0
  0
VERTEX
  5
ED0
  8
___SYMBOL
  6
CONTINUOUS
 62
     7
 10
17.8612632407999996
 20
16.6870499772000009
 30
0.0
  0
VERTEX
  5
ED1
  8
___SYMBOL
  6
CONTINUOUS
 62
     7
 10
17.864529470299999
 20
16.6862068701000013
 30
0.0
  0
VERTEX
  5
ED2
  8
___SYMBOL
  6
CONTINUOUS
 62
     7
 10
17.8677971765999999
 20
16.6854212930999992
 30
0.0
  0
VERTEX
  5
ED3
  8
___SYMBOL
  6
CONTINUOUS
 62
     7
 10
17.8710650219000016
 20
16.6846935680000001
 30
0.0
  0
VERTEX
  5
ED4
  8
___SYMBOL
  6
CONTINUOUS
 62
     7
 10
17.8743316681000017
 20
16.6840239926000002
 30
0.0
  0
VERTEX
  5
ED5
  8
___SYMBOL
  6
CONTINUOUS
 62
     7
 10
17.8775957777999999
 20
16.6834128411999991
 30
0.0
  0
VERTEX
  5
ED6
  8
___SYMBOL
  6
CONTINUOUS
 62
     7
 10
17.8808560145000008
 20
16.6828603639000015
 30
0.0
  0
VERTEX
  5
ED7
  8
___SYMBOL
  6
CONTINUOUS
 62
     7
 10
17.884111043299999
 20
16.6823667869000012
 30
0.0
  0
VERTEX
  5
ED8
  8
___SYMBOL
  6
CONTINUOUS
 62
     7
 10
17.8873595314999996
 20
16.6819323124000007
 30
0.0
  0
VERTEX
  5
ED9
  8
___SYMBOL
  6
CONTINUOUS
 62
     7
 10
17.8906001490000008
 20
16.6815571182999989
 30
0.0
  0
VERTEX
  5
EDA
  8
___SYMBOL
  6
CONTINUOUS
 62
     7
 10
17.8938315689999996
 20
16.6812413580000012
 30
0.0
  0
VERTEX
  5
EDB
  8
___SYMBOL
  6
CONTINUOUS
 62
     7
 10
17.8970524683999983
 20
16.6809851611000006
 30
0.0
  0
VERTEX
  5
EDC
  8
___SYMBOL
  6
CONTINUOUS
 62
     7
 10
17.9002615284000015
 20
16.6807886323000005
 30
0.0
  0
VERTEX
  5
EDD
  8
___SYMBOL
  6
CONTINUOUS
 62
     7
 10
17.9034574351000018
 20
16.6806518520000004
 30
0.0
  0
VERTEX
  5
EDE
  8
___SYMBOL
  6
CONTINUOUS
 62
     7
 10
17.9066388799000009
 20
16.6805748764000015
 30
0.0
  0
VERTEX
  5
EDF
  8
___SYMBOL
  6
CONTINUOUS
 62
     7
 10
17.9098045602999996
 20
16.6805577370000009
 30
0.0
  0
VERTEX
  5
EE0
  8
___SYMBOL
  6
CONTINUOUS
 62
     7
 10
17.9129531801000006
 20
16.6806004405999992
 30
0.0
  0
VERTEX
  5
EE1
  8
___SYMBOL
  6
CONTINUOUS
 62
     7
 10
17.9160834501000004
 20
16.6807029699999987
 30
0.0
  0
VERTEX
  5
EE2
  8
___SYMBOL
  6
CONTINUOUS
 62
     7
 10
17.9191940886000012
 20
16.6808652829999993
 30
0.0
  0
VERTEX
  5
EE3
  8
___SYMBOL
  6
CONTINUOUS
 62
     7
 10
17.9222838220999989
 20
16.681087313199999
 30
0.0
  0
VERTEX
  5
EE4
  8
___SYMBOL
  6
CONTINUOUS
 62
     7
 10
17.9253513853999991
 20
16.6813689698000012
 30
0.0
  0
VERTEX
  5
EE5
  8
___SYMBOL
  6
CONTINUOUS
 62
     7
 10
17.9283955225999989
 20
16.6817101373000014
 30
0.0
  0
VERTEX
  5
EE6
  8
___SYMBOL
  6
CONTINUOUS
 62
     7
 10
17.9314149872999984
 20
16.68211067619999
 30
0.0
  0
VERTEX
  5
EE7
  8
___SYMBOL
  6
CONTINUOUS
 62
     7
 10
17.9344085431000018
 20
16.6825704224000013
 30
0.0
  0
VERTEX
  5
EE8
  8
___SYMBOL
  6
CONTINUOUS
 62
     7
 10
17.9373749644
 20
16.6830891876000003
 30
0.0
  0
VERTEX
  5
EE9
  8
___SYMBOL
  6
CONTINUOUS
 62
     7
 10
17.940313036700001
 20
16.6836667594999994
 30
0.0
  0
VERTEX
  5
EEA
  8
___SYMBOL
  6
CONTINUOUS
 62
     7
 10
17.9432215568999993
 20
16.6843029015999988
 30
0.0
  0
VERTEX
  5
EEB
  8
___SYMBOL
  6
CONTINUOUS
 62
     7
 10
17.9460993341999995
 20
16.6849973534
 30
0.0
  0
VERTEX
  5
EEC
  8
___SYMBOL
  6
CONTINUOUS
 62
     7
 10
17.9489451903000017
 20
16.6857498305999989
 30
0.0
  0
VERTEX
  5
EED
  8
___SYMBOL
  6
CONTINUOUS
 62
     7
 10
17.9517579599999983
 20
16.6865600249999986
 30
0.0
  0
VERTEX
  5
EEE
  8
___SYMBOL
  6
CONTINUOUS
 62
     7
 10
17.954536491599999
 20
16.6874276051000017
 30
0.0
  0
VERTEX
  5
EEF
  8
___SYMBOL
  6
CONTINUOUS
 62
     7
 10
17.9572796474
 20
16.6883522153999984
 30
0.0
  0
VERTEX
  5
EF0
  8
___SYMBOL
  6
CONTINUOUS
 62
     7
 10
17.959986304400001
 20
16.6893334776000017
 30
0.0
  0
VERTEX
  5
EF1
  8
___SYMBOL
  6
CONTINUOUS
 62
     7
 10
17.9626553543000007
 20
16.6903709896999999
 30
0.0
  0
VERTEX
  5
EF2
  8
___SYMBOL
  6
CONTINUOUS
 62
     7
 10
17.9652857043000012
 20
16.6914643269999985
 30
0.0
  0
VERTEX
  5
EF3
  8
___SYMBOL
  6
CONTINUOUS
 62
     7
 10
17.9678762773000003
 20
16.6926130418999996
 30
0.0
  0
VERTEX
  5
EF4
  8
___SYMBOL
  6
CONTINUOUS
 62
     7
 10
17.9704260128000008
 20
16.6938166639000016
 30
0.0
  0
VERTEX
  5
EF5
  8
___SYMBOL
  6
CONTINUOUS
 62
     7
 10
17.9729338667
 20
16.6950747003999993
 30
0.0
  0
VERTEX
  5
EF6
  8
___SYMBOL
  6
CONTINUOUS
 62
     7
 10
17.9753988122999999
 20
16.6963866360999909
 30
0.0
  0
VERTEX
  5
EF7
  8
___SYMBOL
  6
CONTINUOUS
 62
     7
 10
17.9778198401999987
 20
16.6977519339999994
 30
0.0
  0
VERTEX
  5
EF8
  8
___SYMBOL
  6
CONTINUOUS
 62
     7
 10
17.9801959593000014
 20
16.6991700350000016
 30
0.0
  0
VERTEX
  5
EF9
  8
___SYMBOL
  6
CONTINUOUS
 62
     7
 10
17.9825261965000003
 20
16.7006403584999994
 30
0.0
  0
VERTEX
  5
EFA
  8
___SYMBOL
  6
CONTINUOUS
 62
     7
 10
17.9848095979
 20
16.7021623026000015
 30
0.0
  0
VERTEX
  5
EFB
  8
___SYMBOL
  6
CONTINUOUS
 62
     7
 10
17.9870452285999995
 20
16.7037352438999989
 30
0.0
  0
VERTEX
  5
EFC
  8
___SYMBOL
  6
CONTINUOUS
 62
     7
 10
17.9892321730000013
 20
16.7053585385999988
 30
0.0
  0
VERTEX
  5
EFD
  8
___SYMBOL
  6
CONTINUOUS
 62
     7
 10
17.9913695358999988
 20
16.7070315218999994
 30
0.0
  0
VERTEX
  5
EFE
  8
___SYMBOL
  6
CONTINUOUS
 62
     7
 10
17.9934564421000012
 20
16.7087535088999992
 30
0.0
  0
VERTEX
  5
EFF
  8
___SYMBOL
  6
CONTINUOUS
 62
     7
 10
17.9954920371
 20
16.7105237944999985
 30
0.0
  0
VERTEX
  5
F00
  8
___SYMBOL
  6
CONTINUOUS
 62
     7
 10
17.9974754875000009
 20
16.7123416539999994
 30
0.0
  0
VERTEX
  5
F01
  8
___SYMBOL
  6
CONTINUOUS
 62
     7
 10
17.9994059811999989
 20
16.714206342899999
 30
0.0
  0
VERTEX
  5
F02
  8
___SYMBOL
  6
CONTINUOUS
 62
     7
 10
18.0012827277000014
 20
16.7161170978000015
 30
0.0
  0
VERTEX
  5
F03
  8
___SYMBOL
  6
CONTINUOUS
 62
     7
 10
18.0031049585999909
 20
16.718073136400001
 30
0.0
  0
VERTEX
  5
F04
  8
___SYMBOL
  6
CONTINUOUS
 62
     7
 10
18.0048719278999982
 20
16.7200736578000004
 30
0.0
  0
VERTEX
  5
F05
  8
___SYMBOL
  6
CONTINUOUS
 62
     7
 10
18.0065829121000007
 20
16.7221178429000012
 30
0.0
  0
VERTEX
  5
F06
  8
___SYMBOL
  6
CONTINUOUS
 62
     7
 10
18.008237210499999
 20
16.7242048547000017
 30
0.0
  0
VERTEX
  5
F07
  8
___SYMBOL
  6
CONTINUOUS
 62
     7
 10
18.0098341459000011
 20
16.7263338387000005
 30
0.0
  0
VERTEX
  5
F08
  8
___SYMBOL
  6
CONTINUOUS
 62
     7
 10
18.011373064499999
 20
16.7285039232000017
 30
0.0
  0
VERTEX
  5
F09
  8
___SYMBOL
  6
CONTINUOUS
 62
     7
 10
18.0128533361000009
 20
16.7307142197000012
 30
0.0
  0
VERTEX
  5
F0A
  8
___SYMBOL
  6
CONTINUOUS
 62
     7
 10
18.0142743546000013
 20
16.7329638231999986
 30
0.0
  0
VERTEX
  5
F0B
  8
___SYMBOL
  6
CONTINUOUS
 62
     7
 10
18.0156355382000015
 20
16.7352518126000014
 30
0.0
  0
VERTEX
  5
F0C
  8
___SYMBOL
  6
CONTINUOUS
 62
     7
 10
18.0169363296
 20
16.7375772511999905
 30
0.0
  0
VERTEX
  5
F0D
  8
___SYMBOL
  6
CONTINUOUS
 62
     7
 10
18.0181761961999989
 20
16.7399391866999991
 30
0.0
  0
VERTEX
  5
F0E
  8
___SYMBOL
  6
CONTINUOUS
 62
     7
 10
18.0193546303999987
 20
16.7423366521000005
 30
0.0
  0
VERTEX
  5
F0F
  8
___SYMBOL
  6
CONTINUOUS
 62
     7
 10
18.0204711495999987
 20
16.7447686659000006
 30
0.0
  0
VERTEX
  5
F10
  8
___SYMBOL
  6
CONTINUOUS
 62
     7
 10
18.0215252966999984
 20
16.7472342322000003
 30
0.0
  0
VERTEX
  5
F11
  8
___SYMBOL
  6
CONTINUOUS
 62
     7
 10
18.022516640100001
 20
16.7497323414999997
 30
0.0
  0
VERTEX
  5
F12
  8
___SYMBOL
  6
CONTINUOUS
 62
     7
 10
18.0234447738000014
 20
16.7522619709999994
 30
0.0
  0
VERTEX
  5
F13
  8
___SYMBOL
  6
CONTINUOUS
 62
     7
 10
18.0243093178999985
 20
16.7548220848999989
 30
0.0
  0
VERTEX
  5
F14
  8
___SYMBOL
  6
CONTINUOUS
 62
     7
 10
18.0251099185000001
 20
16.7574116350999986
 30
0.0
  0
VERTEX
  5
F15
  8
___SYMBOL
  6
CONTINUOUS
 62
     7
 10
18.0258462476000005
 20
16.7600295613000014
 30
0.0
  0
VERTEX
  5
F16
  8
___SYMBOL
  6
CONTINUOUS
 62
     7
 10
18.0265180037999997
 20
16.7626747915000003
 30
0.0
  0
VERTEX
  5
F17
  8
___SYMBOL
  6
CONTINUOUS
 62
     7
 10
18.0271249120000014
 20
16.7653462427999997
 30
0.0
  0
VERTEX
  5
F18
  8
___SYMBOL
  6
CONTINUOUS
 62
     7
 10
18.0276667239000012
 20
16.7680428212000017
 30
0.0
  0
VERTEX
  5
F19
  8
___SYMBOL
  6
CONTINUOUS
 62
     7
 10
18.0281432174000003
 20
16.7707634228000018
 30
0.0
  0
VERTEX
  5
F1A
  8
___SYMBOL
  6
CONTINUOUS
 62
     7
 10
18.0285541975999983
 20
16.7735069336000002
 30
0.0
  0
SEQEND
  5
F1B
  8
___SYMBOL
  6
CONTINUOUS
 62
     7
  0
POLYLINE
  5
3D2
  8
___SYMBOL
  6
CONTINUOUS
 62
     7
 66
     1
 10
0.0
 20
0.0
 30
0.0
  0
VERTEX
  5
F1C
  8
___SYMBOL
  6
CONTINUOUS
 62
     7
 10
18.0285541975999983
 20
16.7735069336000002
 30
0.0
  0
VERTEX
  5
F1D
  8
___SYMBOL
  6
CONTINUOUS
 62
     7
 10
18.0288994960999993
 20
16.7762722302999983
 30
0.0
  0
VERTEX
  5
F1E
  8
___SYMBOL
  6
CONTINUOUS
 62
     7
 10
18.0291789716999986
 20
16.7790581807000017
 30
0.0
  0
VERTEX
  5
F1F
  8
___SYMBOL
  6
CONTINUOUS
 62
     7
 10
18.0293925096999992
 20
16.7818636440000013
 30
0.0
  0
VERTEX
  5
F20
  8
___SYMBOL
  6
CONTINUOUS
 62
     7
 10
18.0295400229000009
 20
16.7846874716000016
 30
0.0
  0
VERTEX
  5
F21
  8
___SYMBOL
  6
CONTINUOUS
 62
     7
 10
18.0296214508000006
 20
16.7875285072999993
 30
0.0
  0
VERTEX
  5
F22
  8
___SYMBOL
  6
CONTINUOUS
 62
     7
 10
18.0296367601000007
 20
16.7903855879999995
 30
0.0
  0
VERTEX
  5
F23
  8
___SYMBOL
  6
CONTINUOUS
 62
     7
 10
18.0295859444999991
 20
16.7932575435999993
 30
0.0
  0
VERTEX
  5
F24
  8
___SYMBOL
  6
CONTINUOUS
 62
     7
 10
18.0294690248000009
 20
16.7961431984999905
 30
0.0
  0
VERTEX
  5
F25
  8
___SYMBOL
  6
CONTINUOUS
 62
     7
 10
18.0292860489000013
 20
16.7990413710000013
 30
0.0
  0
VERTEX
  5
F26
  8
___SYMBOL
  6
CONTINUOUS
 62
     7
 10
18.0290370917000011
 20
16.801950874500001
 30
0.0
  0
VERTEX
  5
F27
  8
___SYMBOL
  6
CONTINUOUS
 62
     7
 10
18.0287222551999911
 20
16.8048705178000013
 30
0.0
  0
VERTEX
  5
F28
  8
___SYMBOL
  6
CONTINUOUS
 62
     7
 10
18.0283416681000013
 20
16.8077991054999991
 30
0.0
  0
VERTEX
  5
F29
  8
___SYMBOL
  6
CONTINUOUS
 62
     7
 10
18.0278954865000003
 20
16.8107354383999983
 30
0.0
  0
VERTEX
  5
F2A
  8
___SYMBOL
  6
CONTINUOUS
 62
     7
 10
18.0273838929000014
 20
16.8136783142999988
 30
0.0
  0
VERTEX
  5
F2B
  8
___SYMBOL
  6
CONTINUOUS
 62
     7
 10
18.0268070969000007
 20
16.8166265282000005
 30
0.0
  0
VERTEX
  5
F2C
  8
___SYMBOL
  6
CONTINUOUS
 62
     7
 10
18.0261653346000017
 20
16.8195788730999993
 30
0.0
  0
VERTEX
  5
F2D
  8
___SYMBOL
  6
CONTINUOUS
 62
     7
 10
18.0254588686999995
 20
16.8225341401000001
 30
0.0
  0
VERTEX
  5
F2E
  8
___SYMBOL
  6
CONTINUOUS
 62
     7
 10
18.0246879884999984
 20
16.8254911191999987
 30
0.0
  0
VERTEX
  5
F2F
  8
___SYMBOL
  6
CONTINUOUS
 62
     7
 10
18.0238530097000016
 20
16.8284485996999997
 30
0.0
  0
VERTEX
  5
F30
  8
___SYMBOL
  6
CONTINUOUS
 62
     7
 10
18.0229542739999999
 20
16.8314053707999989
 30
0.0
  0
VERTEX
  5
F31
  8
___SYMBOL
  6
CONTINUOUS
 62
     7
 10
18.0219921495999991
 20
16.8343602216000008
 30
0.0
  0
VERTEX
  5
F32
  8
___SYMBOL
  6
CONTINUOUS
 62
     7
 10
18.0209670302999996
 20
16.8373119425999995
 30
0.0
  0
VERTEX
  5
F33
  8
___SYMBOL
  6
CONTINUOUS
 62
     7
 10
18.0198793359000007
 20
16.8402593248999999
 30
0.0
  0
VERTEX
  5
F34
  8
___SYMBOL
  6
CONTINUOUS
 62
     7
 10
18.0187295116999984
 20
16.8432011619999997
 30
0.0
  0
VERTEX
  5
F35
  8
___SYMBOL
  6
CONTINUOUS
 62
     7
 10
18.0175180284000014
 20
16.8461362492999989
 30
0.0
  0
VERTEX
  5
F36
  8
___SYMBOL
  6
CONTINUOUS
 62
     7
 10
18.016245382200001
 20
16.8490633850000009
 30
0.0
  0
VERTEX
  5
F37
  8
___SYMBOL
  6
CONTINUOUS
 62
     7
 10
18.0149120941000014
 20
16.8519813706000008
 30
0.0
  0
VERTEX
  5
F38
  8
___SYMBOL
  6
CONTINUOUS
 62
     7
 10
18.0135187099999996
 20
16.854889011400001
 30
0.0
  0
VERTEX
  5
F39
  8
___SYMBOL
  6
CONTINUOUS
 62
     7
 10
18.0120658003999985
 20
16.8577851169000006
 30
0.0
  0
VERTEX
  5
F3A
  8
___SYMBOL
  6
CONTINUOUS
 62
     7
 10
18.0105539601999993
 20
16.8606685013999993
 30
0.0
  0
VERTEX
  5
F3B
  8
___SYMBOL
  6
CONTINUOUS
 62
     7
 10
18.0089838084
 20
16.8635379840999988
 30
0.0
  0
VERTEX
  5
F3C
  8
___SYMBOL
  6
CONTINUOUS
 62
     7
 10
18.0073559878999987
 20
16.8663923902999997
 30
0.0
  0
VERTEX
  5
F3D
  8
___SYMBOL
  6
CONTINUOUS
 62
     7
 10
18.0056711651000008
 20
16.8692305512000011
 30
0.0
  0
VERTEX
  5
F3E
  8
___SYMBOL
  6
CONTINUOUS
 62
     7
 10
18.0039300299999994
 20
16.8720513047999994
 30
0.0
  0
VERTEX
  5
F3F
  8
___SYMBOL
  6
CONTINUOUS
 62
     7
 10
18.0021332954000002
 20
16.8748534960999983
 30
0.0
  0
VERTEX
  5
F40
  8
___SYMBOL
  6
CONTINUOUS
 62
     7
 10
18.0002816969999984
 20
16.8776359778999989
 30
0.0
  0
VERTEX
  5
F41
  8
___SYMBOL
  6
CONTINUOUS
 62
     7
 10
17.9983759927999998
 20
16.8803976106999905
 30
0.0
  0
VERTEX
  5
F42
  8
___SYMBOL
  6
CONTINUOUS
 62
     7
 10
17.9964169632000015
 20
16.8831372639999984
 30
0.0
  0
VERTEX
  5
F43
  8
___SYMBOL
  6
CONTINUOUS
 62
     7
 10
17.9944054103000006
 20
16.8858538158999991
 30
0.0
  0
VERTEX
  5
F44
  8
___SYMBOL
  6
CONTINUOUS
 62
     7
 10
17.9923421577000013
 20
16.8885461542999984
 30
0.0
  0
VERTEX
  5
F45
  8
___SYMBOL
  6
CONTINUOUS
 62
     7
 10
17.9902280501999989
 20
16.8912131766999991
 30
0.0
  0
VERTEX
  5
F46
  8
___SYMBOL
  6
CONTINUOUS
 62
     7
 10
17.9880639532999993
 20
16.8938537912000015
 30
0.0
  0
VERTEX
  5
F47
  8
___SYMBOL
  6
CONTINUOUS
 62
     7
 10
17.9858507530999994
 20
16.8964669166000014
 30
0.0
  0
VERTEX
  5
F48
  8
___SYMBOL
  6
CONTINUOUS
 62
     7
 10
17.9835893559000013
 20
16.8990514830000009
 30
0.0
  0
VERTEX
  5
F49
  8
___SYMBOL
  6
CONTINUOUS
 62
     7
 10
17.9812806875
 20
16.9016064320999995
 30
0.0
  0
VERTEX
  5
F4A
  8
___SYMBOL
  6
CONTINUOUS
 62
     7
 10
17.978925693299999
 20
16.9041307178000011
 30
0.0
  0
VERTEX
  5
F4B
  8
___SYMBOL
  6
CONTINUOUS
 62
     7
 10
17.9765253373
 20
16.9066233066000002
 30
0.0
  0
VERTEX
  5
F4C
  8
___SYMBOL
  6
CONTINUOUS
 62
     7
 10
17.9740806024999991
 20
16.9090831779999995
 30
0.0
  0
VERTEX
  5
F4D
  8
___SYMBOL
  6
CONTINUOUS
 62
     7
 10
17.9715924897000008
 20
16.911509324699999
 30
0.0
  0
VERTEX
  5
F4E
  8
___SYMBOL
  6
CONTINUOUS
 62
     7
 10
17.9690620177999989
 20
16.9139007534000001
 30
0.0
  0
VERTEX
  5
F4F
  8
___SYMBOL
  6
CONTINUOUS
 62
     7
 10
17.9664902228999992
 20
16.9162564848999999
 30
0.0
  0
VERTEX
  5
F50
  8
___SYMBOL
  6
CONTINUOUS
 62
     7
 10
17.9638781578
 20
16.9185755546999985
 30
0.0
  0
SEQEND
  5
F51
  8
___SYMBOL
  6
CONTINUOUS
 62
     7
  0
LINE
  5
409
  8
___SYMBOL
  6
CONTINUOUS
 62
     7
 10
17.5611495955000017
 20
17.3339439888000015
 30
0.0
 11
17.5656412268000004
 21
17.3407989475000015
 31
0.0
  0
ENDBLK
  5
40A
  8
0
  6
ByBlock
 62
     0
  0
BLOCK
  8
___SYMBOL
  6
CONTINUOUS
 62
     2
  2
X_BL5
 70
     0
 10
28.2013625151000014
 20
2.5262118265999991
 30
0.0
  3
X_BL5
  1

  0
LINE
  5
40D
  8
___SYMBOL
  6
CONTINUOUS
 62
     7
 10
27.5163625150999991
 20
1.6162118266000001
 30
0.0
 11
28.8863625151000001
 21
3.4362118266000001
 31
0.0
  0
LINE
  5
40E
  8
___SYMBOL
  6
CONTINUOUS
 62
     7
 10
28.8863625151000001
 20
1.6162118266000001
 30
0.0
 11
27.5163625150999991
 21
3.4362118266000001
 31
0.0
  0
ENDBLK
  5
40F
  8
0
  6
ByBlock
 62
     0
  0
BLOCK
  8
0
  6
CONTINUOUS
 62
     2
  2
C_ARROW_BL4
 70
     0
 10
33.6875
 20
11.0
 30
0.0
  3
C_ARROW_BL4
  1

  0
LINE
  5
412
  8
0
  6
CONTINUOUS
 62
     7
 10
33.5
 20
11.0
 30
0.0
 11
33.6875
 21
10.90625
 31
0.0
  0
LINE
  5
413
  8
0
  6
CONTINUOUS
 62
     7
 10
33.5
 20
11.0
 30
0.0
 11
33.6875
 21
11.09375
 31
0.0
  0
LINE
  5
414
  8
0
  6
CONTINUOUS
 62
     7
 10
33.6875
 20
11.0234375
 30
0.0
 11
33.6875
 21
11.09375
 31
0.0
  0
LINE
  5
415
  8
0
  6
CONTINUOUS
 62
     7
 10
33.875
 20
11.0234375
 30
0.0
 11
33.6875
 21
11.0234375
 31
0.0
  0
LINE
  5
416
  8
0
  6
CONTINUOUS
 62
     7
 10
33.875
 20
11.0234375
 30
0.0
 11
33.875
 21
10.9765625
 31
0.0
  0
LINE
  5
417
  8
0
  6
CONTINUOUS
 62
     7
 10
33.6875
 20
10.9765625
 30
0.0
 11
33.875
 21
10.9765625
 31
0.0
  0
LINE
  5
418
  8
0
  6
CONTINUOUS
 62
     7
 10
33.6875
 20
10.90625
 30
0.0
 11
33.6875
 21
10.9765625
 31
0.0
  0
SOLID
  5
419
  8
0
  6
CONTINUOUS
 62
     7
 10
33.875
 20
11.0234375624999998
 30
0.0
 11
33.5
 21
11.0
 31
0.0
 12
33.6875
 22
11.0234375624999998
 32
0.0
 13
33.6875
 23
11.0234375624999998
 33
0.0
  0
SOLID
  5
41A
  8
0
  6
CONTINUOUS
 62
     7
 10
33.5
 20
11.0
 30
0.0
 11
33.6875
 21
11.09375
 31
0.0
 12
33.6875
 22
11.0234375624999998
 32
0.0
 13
33.6875
 23
11.0234375624999998
 33
0.0
  0
SOLID
  5
41B
  8
0
  6
CONTINUOUS
 62
     7
 10
33.5
 20
11.0
 30
0.0
 11
33.875
 21
11.0234375624999998
 31
0.0
 12
33.6875
 22
10.9765625624999998
 32
0.0
 13
33.6875
 23
10.9765625624999998
 33
0.0
  0
SOLID
  5
41C
  8
0
  6
CONTINUOUS
 62
     7
 10
33.875
 20
11.0234375624999998
 30
0.0
 11
33.875
 21
10.9765625624999998
 31
0.0
 12
33.6875
 22
10.9765625624999998
 32
0.0
 13
33.6875
 23
10.9765625624999998
 33
0.0
  0
SOLID
  5
41D
  8
0
  6
CONTINUOUS
 62
     7
 10
33.6875
 20
10.90625
 30
0.0
 11
33.5
 21
11.0
 31
0.0
 12
33.6875
 22
10.9765625624999998
 32
0.0
 13
33.6875
 23
10.9765625624999998
 33
0.0
  0
ENDBLK
  5
41E
  8
0
  6
ByBlock
 62
     0
  0
BLOCK
  8
0
  6
CONTINUOUS
 62
     2
  2
C_ARROW_BL3
 70
     0
 10
0.3125
 20
11.0
 30
0.0
  3
C_ARROW_BL3
  1

  0
LINE
  5
421
  8
0
  6
CONTINUOUS
 62
     7
 10
0.5
 20
11.0
 30
0.0
 11
0.3125
 21
11.09375
 31
0.0
  0
LINE
  5
422
  8
0
  6
CONTINUOUS
 62
     7
 10
0.5
 20
11.0
 30
0.0
 11
0.3125
 21
10.90625
 31
0.0
  0
LINE
  5
423
  8
0
  6
CONTINUOUS
 62
     7
 10
0.3125
 20
10.9765625
 30
0.0
 11
0.3125
 21
10.90625
 31
0.0
  0
LINE
  5
424
  8
0
  6
CONTINUOUS
 62
     7
 10
0.125
 20
10.9765625
 30
0.0
 11
0.3125
 21
10.9765625
 31
0.0
  0
LINE
  5
425
  8
0
  6
CONTINUOUS
 62
     7
 10
0.125
 20
10.9765625
 30
0.0
 11
0.125
 21
11.0234375
 31
0.0
  0
LINE
  5
426
  8
0
  6
CONTINUOUS
 62
     7
 10
0.3125
 20
11.0234375
 30
0.0
 11
0.125
 21
11.0234375
 31
0.0
  0
LINE
  5
427
  8
0
  6
CONTINUOUS
 62
     7
 10
0.3125
 20
11.09375
 30
0.0
 11
0.3125
 21
11.0234375
 31
0.0
  0
SOLID
  5
428
  8
0
  6
CONTINUOUS
 62
     7
 10
0.3125
 20
11.09375
 30
0.0
 11
0.5
 21
11.0
 31
0.0
 12
0.3125
 22
11.0234375624999998
 32
0.0
 13
0.3125
 23
11.0234375624999998
 33
0.0
  0
SOLID
  5
429
  8
0
  6
CONTINUOUS
 62
     7
 10
0.5
 20
11.0
 30
0.0
 11
0.125
 21
10.9765625624999998
 31
0.0
 12
0.3125
 22
11.0234375624999998
 32
0.0
 13
0.3125
 23
11.0234375624999998
 33
0.0
  0
SOLID
  5
42A
  8
0
  6
CONTINUOUS
 62
     7
 10
0.125
 20
10.9765625624999998
 30
0.0
 11
0.125
 21
11.0234375624999998
 31
0.0
 12
0.3125
 22
11.0234375624999998
 32
0.0
 13
0.3125
 23
11.0234375624999998
 33
0.0
  0
SOLID
  5
42B
  8
0
  6
CONTINUOUS
 62
     7
 10
0.125
 20
10.9765625624999998
 30
0.0
 11
0.5
 21
11.0
 31
0.0
 12
0.3125
 22
10.9765625624999998
 32
0.0
 13
0.3125
 23
10.9765625624999998
 33
0.0
  0
SOLID
  5
42C
  8
0
  6
CONTINUOUS
 62
     7
 10
0.5
 20
11.0
 30
0.0
 11
0.3125
 21
10.90625
 31
0.0
 12
0.3125
 22
10.9765625624999998
 32
0.0
 13
0.3125
 23
10.9765625624999998
 33
0.0
  0
ENDBLK
  5
42D
  8
0
  6
ByBlock
 62
     0
  0
BLOCK
  8
0
  6
CONTINUOUS
 62
     2
  2
C_ARROW_BL2
 70
     0
 10
17.0
 20
21.6875
 30
0.0
  3
C_ARROW_BL2
  1

  0
LINE
  5
430
  8
0
  6
CONTINUOUS
 62
     7
 10
17.0
 20
21.5
 30
0.0
 11
17.09375
 21
21.6875
 31
0.0
  0
LINE
  5
431
  8
0
  6
CONTINUOUS
 62
     7
 10
17.0
 20
21.5
 30
0.0
 11
16.90625
 21
21.6875
 31
0.0
  0
LINE
  5
432
  8
0
  6
CONTINUOUS
 62
     7
 10
16.9765625
 20
21.6875
 30
0.0
 11
16.90625
 21
21.6875
 31
0.0
  0
LINE
  5
433
  8
0
  6
CONTINUOUS
 62
     7
 10
16.9765625
 20
21.875
 30
0.0
 11
16.9765625
 21
21.6875
 31
0.0
  0
LINE
  5
434
  8
0
  6
CONTINUOUS
 62
     7
 10
16.9765625
 20
21.875
 30
0.0
 11
17.0234375
 21
21.875
 31
0.0
  0
LINE
  5
435
  8
0
  6
CONTINUOUS
 62
     7
 10
17.0234375
 20
21.6875
 30
0.0
 11
17.0234375
 21
21.875
 31
0.0
  0
LINE
  5
436
  8
0
  6
CONTINUOUS
 62
     7
 10
17.09375
 20
21.6875
 30
0.0
 11
17.0234375
 21
21.6875
 31
0.0
  0
SOLID
  5
437
  8
0
  6
CONTINUOUS
 62
     7
 10
16.9765625
 20
21.6874998750000003
 30
0.0
 11
16.9765625
 21
21.8749998750000003
 31
0.0
 12
17.0234375
 22
21.8749998750000003
 32
0.0
 13
17.0234375
 23
21.8749998750000003
 33
0.0
  0
SOLID
  5
438
  8
0
  6
CONTINUOUS
 62
     7
 10
17.0234375
 20
21.8749998750000003
 30
0.0
 11
17.0234375
 21
21.6874998750000003
 31
0.0
 12
16.9765625
 22
21.6874998750000003
 32
0.0
 13
16.9765625
 23
21.6874998750000003
 33
0.0
  0
SOLID
  5
439
  8
0
  6
CONTINUOUS
 62
     7
 10
17.09375
 20
21.6874998750000003
 30
0.0
 11
17.0
 21
21.5
 31
0.0
 12
17.0234375
 22
21.6874998750000003
 32
0.0
 13
17.0234375
 23
21.6874998750000003
 33
0.0
  0
SOLID
  5
43A
  8
0
  6
CONTINUOUS
 62
     7
 10
17.0234375
 20
21.6874998750000003
 30
0.0
 11
17.0
 21
21.5
 31
0.0
 12
16.9765625
 22
21.6874998750000003
 32
0.0
 13
16.9765625
 23
21.6874998750000003
 33
0.0
  0
SOLID
  5
43B
  8
0
  6
CONTINUOUS
 62
     7
 10
17.0
 20
21.5
 30
0.0
 11
16.90625
 21
21.6874998750000003
 31
0.0
 12
16.9765625
 22
21.6874998750000003
 32
0.0
 13
16.9765625
 23
21.6874998750000003
 33
0.0
  0
ENDBLK
  5
43C
  8
0
  6
ByBlock
 62
     0
  0
BLOCK
  8
0
  6
CONTINUOUS
 62
     2
  2
C_ARROW_BL1
 70
     0
 10
17.0
 20
0.3125
 30
0.0
  3
C_ARROW_BL1
  1

  0
LINE
  5
43F
  8
0
  6
CONTINUOUS
 62
     7
 10
17.0
 20
0.5
 30
0.0
 11
16.90625
 21
0.3125
 31
0.0
  0
LINE
  5
440
  8
0
  6
CONTINUOUS
 62
     7
 10
17.0
 20
0.5
 30
0.0
 11
17.09375
 21
0.3125
 31
0.0
  0
LINE
  5
441
  8
0
  6
CONTINUOUS
 62
     7
 10
17.0234375
 20
0.3125
 30
0.0
 11
17.09375
 21
0.3125
 31
0.0
  0
LINE
  5
442
  8
0
  6
CONTINUOUS
 62
     7
 10
17.0234375
 20
0.125
 30
0.0
 11
17.0234375
 21
0.3125
 31
0.0
  0
LINE
  5
443
  8
0
  6
CONTINUOUS
 62
     7
 10
17.0234375
 20
0.125
 30
0.0
 11
16.9765625
 21
0.125
 31
0.0
  0
LINE
  5
444
  8
0
  6
CONTINUOUS
 62
     7
 10
16.9765625
 20
0.3125
 30
0.0
 11
16.9765625
 21
0.125
 31
0.0
  0
LINE
  5
445
  8
0
  6
CONTINUOUS
 62
     7
 10
16.90625
 20
0.3125
 30
0.0
 11
16.9765625
 21
0.3125
 31
0.0
  0
SOLID
  5
446
  8
0
  6
CONTINUOUS
 62
     7
 10
16.90625
 20
0.312499875
 30
0.0
 11
17.0
 21
0.5
 31
0.0
 12
16.9765625
 22
0.312499875
 32
0.0
 13
16.9765625
 23
0.312499875
 33
0.0
  0
SOLID
  5
447
  8
0
  6
CONTINUOUS
 62
     7
 10
16.9765625
 20
0.312499875
 30
0.0
 11
17.0
 21
0.5
 31
0.0
 12
17.0234375
 22
0.312499875
 32
0.0
 13
17.0234375
 23
0.312499875
 33
0.0
  0
SOLID
  5
448
  8
0
  6
CONTINUOUS
 62
     7
 10
17.0
 20
0.5
 30
0.0
 11
17.09375
 21
0.312499875
 31
0.0
 12
17.0234375
 22
0.312499875
 32
0.0
 13
17.0234375
 23
0.312499875
 33
0.0
  0
SOLID
  5
449
  8
0
  6
CONTINUOUS
 62
     7
 10
16.9765625
 20
0.124999875
 30
0.0
 11
16.9765625
 21
0.312499875
 31
0.0
 12
17.0234375
 22
0.312499875
 32
0.0
 13
17.0234375
 23
0.312499875
 33
0.0
  0
SOLID
  5
44A
  8
0
  6
CONTINUOUS
 62
     7
 10
17.0234375
 20
0.312499875
 30
0.0
 11
17.0234375
 21
0.124999875
 31
0.0
 12
16.9765625
 22
0.124999875
 32
0.0
 13
16.9765625
 23
0.124999875
 33
0.0
  0
ENDBLK
  5
44B
  8
0
  6
ByBlock
 62
     0
  0
BLOCK
  8
0
  6
CONTINUOUS
 62
     2
  2
KOHLER_BL0
 70
     0
 10
30.1873715000000011
 20
2.174145999999999
 30
0.0
  3
KOHLER_BL0
  1

  0
ARC
  5
44E
  8
0
  6
CONTINUOUS
 62
     2
 10
30.753184000000001
 20
2.2296147500000001
 30
0.0
 40
0.03065625
 50
270.0
 51
90.0
  0
LINE
  5
44F
  8
0
  6
CONTINUOUS
 62
     2
 10
29.503184000000001
 20
2.033520999999999
 30
0.0
 11
29.503184000000001
 21
2.314770999999999
 31
0.0
  0
LINE
  5
450
  8
0
  6
CONTINUOUS
 62
     2
 10
29.503184000000001
 20
2.314770999999999
 30
0.0
 11
29.5701840000000011
 21
2.314770999999999
 31
0.0
  0
LINE
  5
451
  8
0
  6
CONTINUOUS
 62
     2
 10
29.503184000000001
 20
2.033520999999999
 30
0.0
 11
29.5701840000000011
 21
2.033520999999999
 31
0.0
  0
LINE
  5
452
  8
0
  6
CONTINUOUS
 62
     2
 10
29.753184000000001
 20
2.314770999999999
 30
0.0
 11
29.628184000000001
 21
2.189770999999999
 31
0.0
  0
LINE
  5
453
  8
0
  6
CONTINUOUS
 62
     2
 10
29.628184000000001
 20
2.189770999999999
 30
0.0
 11
29.753184000000001
 21
2.033520999999999
 31
0.0
  0
CIRCLE
  5
454
  8
0
  6
CONTINUOUS
 62
     2
 10
29.862559000000001
 20
2.174145999999999
 30
0.0
 40
0.073625
  0
LINE
  5
455
  8
0
  6
CONTINUOUS
 62
     2
 10
29.6673821352000004
 20
2.033520999999999
 30
0.0
 11
29.753184000000001
 21
2.033520999999999
 31
0.0
  0
CIRCLE
  5
456
  8
0
  6
CONTINUOUS
 62
     2
 10
29.862559000000001
 20
2.174145999999999
 30
0.0
 40
0.140625
  0
LINE
  5
457
  8
0
  6
CONTINUOUS
 62
     2
 10
29.5701840000000011
 20
2.033520999999999
 30
0.0
 11
29.5701840000000011
 21
2.1550186689999991
 31
0.0
  0
LINE
  5
458
  8
0
  6
CONTINUOUS
 62
     2
 10
29.6584316912999988
 20
2.314770999999999
 30
0.0
 11
29.5701840000000011
 21
2.2265233087
 31
0.0
  0
LINE
  5
459
  8
0
  6
CONTINUOUS
 62
     2
 10
29.5701840000000011
 20
2.1550186689999991
 30
0.0
 11
29.6673821352000004
 21
2.033520999999999
 31
0.0
  0
LINE
  5
45A
  8
0
  6
CONTINUOUS
 62
     2
 10
29.6584316912999988
 20
2.314770999999999
 30
0.0
 11
29.753184000000001
 21
2.314770999999999
 31
0.0
  0
LINE
  5
45B
  8
0
  6
CONTINUOUS
 62
     2
 10
29.5701840000000011
 20
2.314770999999999
 30
0.0
 11
29.5701840000000011
 21
2.2265233087
 31
0.0
  0
LINE
  5
45C
  8
0
  6
CONTINUOUS
 62
     2
 10
30.034434000000001
 20
2.314770999999999
 30
0.0
 11
30.034434000000001
 21
2.033520999999999
 31
0.0
  0
LINE
  5
45D
  8
0
  6
CONTINUOUS
 62
     2
 10
30.1014340000000011
 20
2.033520999999999
 30
0.0
 11
30.1014340000000011
 21
2.1562709999999989
 31
0.0
  0
LINE
  5
45E
  8
0
  6
CONTINUOUS
 62
     2
 10
30.1014340000000011
 20
2.2232709999999991
 30
0.0
 11
30.1014340000000011
 21
2.314770999999999
 31
0.0
  0
LINE
  5
45F
  8
0
  6
CONTINUOUS
 62
     2
 10
30.1795590000000011
 20
2.033520999999999
 30
0.0
 11
30.1795590000000011
 21
2.1562709999999989
 31
0.0
  0
LINE
  5
460
  8
0
  6
CONTINUOUS
 62
     2
 10
30.1795590000000011
 20
2.2232709999999991
 30
0.0
 11
30.1795590000000011
 21
2.314770999999999
 31
0.0
  0
LINE
  5
461
  8
0
  6
CONTINUOUS
 62
     2
 10
30.2465590000000013
 20
2.314770999999999
 30
0.0
 11
30.2465590000000013
 21
2.033520999999999
 31
0.0
  0
LINE
  5
462
  8
0
  6
CONTINUOUS
 62
     2
 10
30.1014340000000011
 20
2.2232709999999991
 30
0.0
 11
30.1795590000000011
 21
2.2232709999999991
 31
0.0
  0
LINE
  5
463
  8
0
  6
CONTINUOUS
 62
     2
 10
30.1014340000000011
 20
2.1562709999999989
 30
0.0
 11
30.1795590000000011
 21
2.1562709999999989
 31
0.0
  0
LINE
  5
464
  8
0
  6
CONTINUOUS
 62
     2
 10
30.1795590000000011
 20
2.033520999999999
 30
0.0
 11
30.2465590000000013
 21
2.033520999999999
 31
0.0
  0
LINE
  5
465
  8
0
  6
CONTINUOUS
 62
     2
 10
30.034434000000001
 20
2.033520999999999
 30
0.0
 11
30.1014340000000011
 21
2.033520999999999
 31
0.0
  0
LINE
  5
466
  8
0
  6
CONTINUOUS
 62
     2
 10
30.1795590000000011
 20
2.314770999999999
 30
0.0
 11
30.2465590000000013
 21
2.314770999999999
 31
0.0
  0
LINE
  5
467
  8
0
  6
CONTINUOUS
 62
     2
 10
30.034434000000001
 20
2.314770999999999
 30
0.0
 11
30.1014340000000011
 21
2.314770999999999
 31
0.0
  0
LINE
  5
468
  8
0
  6
CONTINUOUS
 62
     2
 10
30.2778090000000013
 20
2.314770999999999
 30
0.0
 11
30.2778090000000013
 21
2.033520999999999
 31
0.0
  0
LINE
  5
469
  8
0
  6
CONTINUOUS
 62
     2
 10
30.4340590000000013
 20
2.1005210000000001
 30
0.0
 11
30.4340590000000013
 21
2.033520999999999
 31
0.0
  0
LINE
  5
46A
  8
0
  6
CONTINUOUS
 62
     2
 10
30.2778090000000013
 20
2.033520999999999
 30
0.0
 11
30.4340590000000013
 21
2.033520999999999
 31
0.0
  0
LINE
  5
46B
  8
0
  6
CONTINUOUS
 62
     2
 10
30.3448090000000015
 20
2.1005210000000001
 30
0.0
 11
30.3448090000000015
 21
2.314770999999999
 31
0.0
  0
LINE
  5
46C
  8
0
  6
CONTINUOUS
 62
     2
 10
30.3448090000000015
 20
2.1005210000000001
 30
0.0
 11
30.4340590000000013
 21
2.1005210000000001
 31
0.0
  0
LINE
  5
46D
  8
0
  6
CONTINUOUS
 62
     2
 10
30.2778090000000013
 20
2.314770999999999
 30
0.0
 11
30.3448090000000015
 21
2.314770999999999
 31
0.0
  0
LINE
  5
46E
  8
0
  6
CONTINUOUS
 62
     2
 10
30.4653090000000013
 20
2.033520999999999
 30
0.0
 11
30.6215590000000013
 21
2.033520999999999
 31
0.0
  0
LINE
  5
46F
  8
0
  6
CONTINUOUS
 62
     2
 10
30.6215590000000013
 20
2.1005210000000001
 30
0.0
 11
30.6215590000000013
 21
2.033520999999999
 31
0.0
  0
LINE
  5
470
  8
0
  6
CONTINUOUS
 62
     2
 10
30.5323090000000015
 20
2.1005210000000001
 30
0.0
 11
30.6215590000000013
 21
2.1005210000000001
 31
0.0
  0
LINE
  5
471
  8
0
  6
CONTINUOUS
 62
     2
 10
30.5323090000000015
 20
2.1484584999999989
 30
0.0
 11
30.5323090000000015
 21
2.1005210000000001
 31
0.0
  0
LINE
  5
472
  8
0
  6
CONTINUOUS
 62
     2
 10
30.5323090000000015
 20
2.2477709999999989
 30
0.0
 11
30.6215590000000013
 21
2.2477709999999989
 31
0.0
  0
LINE
  5
473
  8
0
  6
CONTINUOUS
 62
     2
 10
30.4653090000000013
 20
2.314770999999999
 30
0.0
 11
30.4653090000000013
 21
2.033520999999999
 31
0.0
  0
LINE
  5
474
  8
0
  6
CONTINUOUS
 62
     2
 10
30.6215590000000013
 20
2.2477709999999989
 30
0.0
 11
30.6215590000000013
 21
2.314770999999999
 31
0.0
  0
LINE
  5
475
  8
0
  6
CONTINUOUS
 62
     2
 10
30.4653090000000013
 20
2.314770999999999
 30
0.0
 11
30.6215590000000013
 21
2.314770999999999
 31
0.0
  0
LINE
  5
476
  8
0
  6
CONTINUOUS
 62
     2
 10
30.5323090000000015
 20
2.1998334999999991
 30
0.0
 11
30.6215590000000013
 21
2.1998334999999991
 31
0.0
  0
LINE
  5
477
  8
0
  6
CONTINUOUS
 62
     2
 10
30.6215590000000013
 20
2.1998334999999991
 30
0.0
 11
30.6215590000000013
 21
2.1484584999999989
 31
0.0
  0
LINE
  5
478
  8
0
  6
CONTINUOUS
 62
     2
 10
30.5323090000000015
 20
2.1484584999999989
 30
0.0
 11
30.6215590000000013
 21
2.1484584999999989
 31
0.0
  0
LINE
  5
479
  8
0
  6
CONTINUOUS
 62
     2
 10
30.5323090000000015
 20
2.1998334999999991
 30
0.0
 11
30.5323090000000015
 21
2.2477709999999989
 31
0.0
  0
LINE
  5
47A
  8
0
  6
CONTINUOUS
 62
     2
 10
30.6528090000000013
 20
2.033520999999999
 30
0.0
 11
30.6528090000000013
 21
2.314770999999999
 31
0.0
  0
LINE
  5
47B
  8
0
  6
CONTINUOUS
 62
     2
 10
30.7198090000000015
 20
2.142895999999999
 30
0.0
 11
30.7198090000000015
 21
2.033520999999999
 31
0.0
  0
ARC
  5
47C
  8
0
  6
CONTINUOUS
 62
     2
 10
30.7543715000000013
 20
2.228833499999999
 30
0.0
 40
0.0859375
 50
304.1679402531000278
 51
90.0
  0
LINE
  5
47D
  8
0
  6
CONTINUOUS
 62
     2
 10
30.7543715000000013
 20
2.314770999999999
 30
0.0
 11
30.6528090000000013
 21
2.314770999999999
 31
0.0
  0
LINE
  5
47E
  8
0
  6
CONTINUOUS
 62
     2
 10
30.753184000000001
 20
2.260270999999999
 30
0.0
 11
30.7198090000000015
 21
2.260270999999999
 31
0.0
  0
LINE
  5
47F
  8
0
  6
CONTINUOUS
 62
     2
 10
30.8026357616000013
 20
2.1577292458000001
 30
0.0
 11
30.8715590000000013
 21
2.033520999999999
 31
0.0
  0
LINE
  5
480
  8
0
  6
CONTINUOUS
 62
     2
 10
30.7949350525999996
 20
2.033520999999999
 30
0.0
 11
30.7342427921999999
 21
2.142895999999999
 31
0.0
  0
LINE
  5
481
  8
0
  6
CONTINUOUS
 62
     2
 10
30.6528090000000013
 20
2.033520999999999
 30
0.0
 11
30.7198090000000015
 21
2.033520999999999
 31
0.0
  0
LINE
  5
482
  8
0
  6
CONTINUOUS
 62
     2
 10
30.7949350525999996
 20
2.033520999999999
 30
0.0
 11
30.8715590000000013
 21
2.033520999999999
 31
0.0
  0
LINE
  5
483
  8
0
  6
CONTINUOUS
 62
     2
 10
30.753184000000001
 20
2.1989584999999989
 30
0.0
 11
30.7198090000000015
 21
2.1989584999999989
 31
0.0
  0
LINE
  5
484
  8
0
  6
CONTINUOUS
 62
     2
 10
30.7198090000000015
 20
2.260270999999999
 30
0.0
 11
30.7198090000000015
 21
2.1989584999999989
 31
0.0
  0
LINE
  5
485
  8
0
  6
CONTINUOUS
 62
     2
 10
30.7198090000000015
 20
2.142895999999999
 30
0.0
 11
30.7342427921999999
 21
2.142895999999999
 31
0.0
  0
SOLID
  5
486
  8
0
  6
CONTINUOUS
 62
     2
 10
30.8026357616000013
 20
2.1577292458000001
 30
0.0
 11
30.7198090000000015
 21
2.1428961132999991
 31
0.0
 12
30.8247683178999985
 22
2.1795431162000001
 32
0.0
 13
30.8247683178999985
 23
2.1795431162000001
 33
0.0
  0
SOLID
  5
487
  8
0
  6
CONTINUOUS
 62
     2
 10
30.8247683178999985
 20
2.1795431162000001
 30
0.0
 11
30.7198090000000015
 21
2.1428961132999991
 31
0.0
 12
30.8336501339999991
 22
2.198958463499999
 32
0.0
 13
30.8336501339999991
 23
2.198958463499999
 33
0.0
  0
SOLID
  5
488
  8
0
  6
CONTINUOUS
 62
     2
 10
30.8336501339999991
 20
2.198958463499999
 30
0.0
 11
30.7198090000000015
 21
2.1428961132999991
 31
0.0
 12
30.753184000000001
 22
2.198958463499999
 32
0.0
 13
30.753184000000001
 23
2.198958463499999
 33
0.0
  0
SOLID
  5
489
  8
0
  6
CONTINUOUS
 62
     2
 10
30.7198090000000015
 20
2.1428961132999991
 30
0.0
 11
30.6528090000000013
 21
2.0335209832999999
 31
0.0
 12
30.753184000000001
 22
2.198958463499999
 32
0.0
 13
30.753184000000001
 23
2.198958463499999
 33
0.0
  0
SOLID
  5
48A
  8
0
  6
CONTINUOUS
 62
     2
 10
30.753184000000001
 20
2.198958463499999
 30
0.0
 11
30.6528090000000013
 21
2.0335209832999999
 31
0.0
 12
30.7198090000000015
 22
2.198958463499999
 32
0.0
 13
30.7198090000000015
 23
2.198958463499999
 33
0.0
  0
SOLID
  5
48B
  8
0
  6
CONTINUOUS
 62
     2
 10
30.7198090000000015
 20
2.198958463499999
 30
0.0
 11
30.6528090000000013
 21
2.0335209832999999
 31
0.0
 12
30.7198090000000015
 22
2.2602709832999999
 32
0.0
 13
30.7198090000000015
 23
2.2602709832999999
 33
0.0
  0
SOLID
  5
48C
  8
0
  6
CONTINUOUS
 62
     2
 10
30.6528090000000013
 20
2.0335209832999999
 30
0.0
 11
30.6528090000000013
 21
2.2602709832999999
 31
0.0
 12
30.7198090000000015
 22
2.2602709832999999
 32
0.0
 13
30.7198090000000015
 23
2.2602709832999999
 33
0.0
  0
SOLID
  5
48D
  8
0
  6
CONTINUOUS
 62
     2
 10
30.7198090000000015
 20
2.1428961132999991
 30
0.0
 11
30.7198090000000015
 21
2.0335209832999999
 31
0.0
 12
30.6528090000000013
 22
2.0335209832999999
 32
0.0
 13
30.6528090000000013
 23
2.0335209832999999
 33
0.0
  0
SOLID
  5
48E
  8
0
  6
CONTINUOUS
 62
     2
 10
30.7198090000000015
 20
2.1428961132999991
 30
0.0
 11
30.8026357616000013
 21
2.1577292458000001
 31
0.0
 12
30.7342427921999999
 22
2.1428961132999991
 32
0.0
 13
30.7342427921999999
 23
2.1428961132999991
 33
0.0
  0
SOLID
  5
48F
  8
0
  6
CONTINUOUS
 62
     2
 10
30.7342427921999999
 20
2.1428961132999991
 30
0.0
 11
30.8026357616000013
 21
2.1577292458000001
 31
0.0
 12
30.7949350525999996
 22
2.0335209832999999
 32
0.0
 13
30.7949350525999996
 23
2.0335209832999999
 33
0.0
  0
SOLID
  5
490
  8
0
  6
CONTINUOUS
 62
     2
 10
30.8026357616000013
 20
2.1577292458000001
 30
0.0
 11
30.8715590000000013
 21
2.0335209832999999
 31
0.0
 12
30.7949350525999996
 22
2.0335209832999999
 32
0.0
 13
30.7949350525999996
 23
2.0335209832999999
 33
0.0
  0
SOLID
  5
491
  8
0
  6
CONTINUOUS
 62
     2
 10
30.8305986155000014
 20
2.2685157475999991
 30
0.0
 11
30.6528090000000013
 21
2.2602709858000001
 31
0.0
 12
30.8115019869999998
 22
2.2930313298999998
 32
0.0
 13
30.8115019869999998
 23
2.2930313298999998
 33
0.0
  0
SOLID
  5
492
  8
0
  6
CONTINUOUS
 62
     2
 10
30.8115019869999998
 20
2.2930313298999998
 30
0.0
 11
30.6528090000000013
 21
2.2602709858000001
 31
0.0
 12
30.7849349823000011
 22
2.309152410999999
 32
0.0
 13
30.7849349823000011
 23
2.309152410999999
 33
0.0
  0
SOLID
  5
493
  8
0
  6
CONTINUOUS
 62
     2
 10
30.7849349823000011
 20
2.309152410999999
 30
0.0
 11
30.6528090000000013
 21
2.2602709858000001
 31
0.0
 12
30.7543715000000013
 22
2.3147709586
 32
0.0
 13
30.7543715000000013
 23
2.3147709586
 33
0.0
  0
SOLID
  5
494
  8
0
  6
CONTINUOUS
 62
     2
 10
30.6528090000000013
 20
2.2602709858000001
 30
0.0
 11
30.6528090000000013
 21
2.3147709586
 31
0.0
 12
30.7543715000000013
 22
2.3147709586
 32
0.0
 13
30.7543715000000013
 23
2.3147709586
 33
0.0
  0
SOLID
  5
495
  8
0
  6
CONTINUOUS
 62
     2
 10
30.6528090000000013
 20
2.2602709858000001
 30
0.0
 11
30.8305986155000014
 21
2.2685157475999991
 31
0.0
 12
30.7198090000000015
 22
2.2602709858000001
 32
0.0
 13
30.7198090000000015
 23
2.2602709858000001
 33
0.0
  0
SOLID
  5
496
  8
0
  6
CONTINUOUS
 62
     2
 10
30.7198090000000015
 20
2.2602709858000001
 30
0.0
 11
30.8305986155000014
 21
2.2685157475999991
 31
0.0
 12
30.753184000000001
 22
2.2602709858000001
 32
0.0
 13
30.753184000000001
 23
2.2602709858000001
 33
0.0
  0
SOLID
  5
497
  8
0
  6
CONTINUOUS
 62
     2
 10
30.753184000000001
 20
2.2602709858000001
 30
0.0
 11
30.8305986155000014
 21
2.2685157475999991
 31
0.0
 12
30.7685121250000009
 22
2.2561638412999989
 32
0.0
 13
30.7685121250000009
 23
2.2561638412999989
 33
0.0
  0
SOLID
  5
498
  8
0
  6
CONTINUOUS
 62
     2
 10
30.7685121250000009
 20
2.2561638412999989
 30
0.0
 11
30.8305986155000014
 21
2.2685157475999991
 31
0.0
 12
30.7797330912999989
 22
2.244942875
 32
0.0
 13
30.7797330912999989
 23
2.244942875
 33
0.0
  0
SOLID
  5
499
  8
0
  6
CONTINUOUS
 62
     2
 10
30.8305986155000014
 20
2.2685157475999991
 30
0.0
 11
30.8397277946000017
 21
2.238811318999999
 31
0.0
 12
30.7797330912999989
 22
2.244942875
 32
0.0
 13
30.7797330912999989
 23
2.244942875
 33
0.0
  0
SOLID
  5
49A
  8
0
  6
CONTINUOUS
 62
     2
 10
30.7838402500000008
 20
2.2296147500000001
 30
0.0
 11
30.7797330912999989
 21
2.244942875
 31
0.0
 12
30.8397277946000017
 22
2.238811318999999
 32
0.0
 13
30.8397277946000017
 23
2.238811318999999
 33
0.0
  0
SOLID
  5
49B
  8
0
  6
CONTINUOUS
 62
     2
 10
30.7838402500000008
 20
2.2296147500000001
 30
0.0
 11
30.8397277946000017
 21
2.238811318999999
 31
0.0
 12
30.7797330912999989
 22
2.2142866250000002
 32
0.0
 13
30.7797330912999989
 23
2.2142866250000002
 33
0.0
  0
SOLID
  5
49C
  8
0
  6
CONTINUOUS
 62
     2
 10
30.8397277946000017
 20
2.238811318999999
 30
0.0
 11
30.8376957941000001
 21
2.207802191799999
 31
0.0
 12
30.7797330912999989
 22
2.2142866250000002
 32
0.0
 13
30.7797330912999989
 23
2.2142866250000002
 33
0.0
  0
SOLID
  5
49D
  8
0
  6
CONTINUOUS
 62
     2
 10
30.7685121250000009
 20
2.203065658699999
 30
0.0
 11
30.7797330912999989
 21
2.2142866250000002
 31
0.0
 12
30.8376957941000001
 22
2.207802191799999
 32
0.0
 13
30.8376957941000001
 23
2.207802191799999
 33
0.0
  0
SOLID
  5
49E
  8
0
  6
CONTINUOUS
 62
     2
 10
30.7685121250000009
 20
2.203065658699999
 30
0.0
 11
30.8376957941000001
 21
2.207802191799999
 31
0.0
 12
30.753184000000001
 22
2.1989584585999991
 32
0.0
 13
30.753184000000001
 23
2.1989584585999991
 33
0.0
  0
SOLID
  5
49F
  8
0
  6
CONTINUOUS
 62
     2
 10
30.8376957941000001
 20
2.207802191799999
 30
0.0
 11
30.8336501339999991
 21
2.1989584585999991
 31
0.0
 12
30.753184000000001
 22
2.1989584585999991
 32
0.0
 13
30.753184000000001
 23
2.1989584585999991
 33
0.0
  0
SOLID
  5
4A0
  8
0
  6
CONTINUOUS
 62
     2
 10
29.5701840000000011
 20
2.2265233087
 30
0.0
 11
29.6584316912999988
 21
2.3147710311999989
 31
0.0
 12
29.753184000000001
 22
2.3147710311999989
 32
0.0
 13
29.753184000000001
 23
2.3147710311999989
 33
0.0
  0
SOLID
  5
4A1
  8
0
  6
CONTINUOUS
 62
     2
 10
29.753184000000001
 20
2.3147710311999989
 30
0.0
 11
29.628184000000001
 21
2.189770999999999
 31
0.0
 12
29.5701840000000011
 22
2.2265233087
 32
0.0
 13
29.5701840000000011
 23
2.2265233087
 33
0.0
  0
SOLID
  5
4A2
  8
0
  6
CONTINUOUS
 62
     2
 10
29.628184000000001
 20
2.189770999999999
 30
0.0
 11
29.5701840000000011
 21
2.1550186689999991
 31
0.0
 12
29.5701840000000011
 22
2.2265233087
 32
0.0
 13
29.5701840000000011
 23
2.2265233087
 33
0.0
  0
SOLID
  5
4A3
  8
0
  6
CONTINUOUS
 62
     2
 10
29.5701840000000011
 20
2.1550186689999991
 30
0.0
 11
29.503184000000001
 21
2.0335210311999989
 31
0.0
 12
29.5701840000000011
 22
2.2265233087
 32
0.0
 13
29.5701840000000011
 23
2.2265233087
 33
0.0
  0
SOLID
  5
4A4
  8
0
  6
CONTINUOUS
 62
     2
 10
29.5701840000000011
 20
2.2265233087
 30
0.0
 11
29.503184000000001
 21
2.0335210311999989
 31
0.0
 12
29.5701840000000011
 22
2.3147710311999989
 32
0.0
 13
29.5701840000000011
 23
2.3147710311999989
 33
0.0
  0
SOLID
  5
4A5
  8
0
  6
CONTINUOUS
 62
     2
 10
29.503184000000001
 20
2.0335210311999989
 30
0.0
 11
29.503184000000001
 21
2.3147710311999989
 31
0.0
 12
29.5701840000000011
 22
2.3147710311999989
 32
0.0
 13
29.5701840000000011
 23
2.3147710311999989
 33
0.0
  0
SOLID
  5
4A6
  8
0
  6
CONTINUOUS
 62
     2
 10
29.5701840000000011
 20
2.1550186689999991
 30
0.0
 11
29.5701840000000011
 21
2.0335210311999989
 31
0.0
 12
29.503184000000001
 22
2.0335210311999989
 32
0.0
 13
29.503184000000001
 23
2.0335210311999989
 33
0.0
  0
SOLID
  5
4A7
  8
0
  6
CONTINUOUS
 62
     2
 10
29.5701840000000011
 20
2.1550186689999991
 30
0.0
 11
29.628184000000001
 21
2.189770999999999
 31
0.0
 12
29.6673821352000004
 22
2.0335210311999989
 32
0.0
 13
29.6673821352000004
 23
2.0335210311999989
 33
0.0
  0
SOLID
  5
4A8
  8
0
  6
CONTINUOUS
 62
     2
 10
29.628184000000001
 20
2.189770999999999
 30
0.0
 11
29.753184000000001
 21
2.0335210311999989
 31
0.0
 12
29.6673821352000004
 22
2.0335210311999989
 32
0.0
 13
29.6673821352000004
 23
2.0335210311999989
 33
0.0
  0
SOLID
  5
4A9
  8
0
  6
CONTINUOUS
 62
     2
 10
29.8181900249000016
 20
2.2329000184000001
 30
0.0
 11
29.7288166774000011
 21
2.2176015147999988
 31
0.0
 12
29.8424105624000013
 22
2.2449604129999998
 32
0.0
 13
29.8424105624000013
 23
2.2449604129999998
 33
0.0
  0
SOLID
  5
4AA
  8
0
  6
CONTINUOUS
 62
     2
 10
29.8693522579999993
 20
2.2474568333999998
 30
0.0
 11
29.8424105624000013
 21
2.2449604129999998
 31
0.0
 12
29.7440287705999999
 22
2.2474568333999998
 32
0.0
 13
29.7440287705999999
 23
2.2474568333999998
 33
0.0
  0
SOLID
  5
4AB
  8
0
  6
CONTINUOUS
 62
     2
 10
29.7288166774000011
 20
2.2176015147999988
 30
0.0
 11
29.7440287705999999
 21
2.2474568333999998
 31
0.0
 12
29.8424105624000013
 22
2.2449604129999998
 32
0.0
 13
29.8424105624000013
 23
2.2449604129999998
 33
0.0
  0
SOLID
  5
4AC
  8
0
  6
CONTINUOUS
 62
     2
 10
29.8181900249000016
 20
2.2329000184000001
 30
0.0
 11
29.7999617633999989
 21
2.212904567999999
 31
0.0
 12
29.7288166774000011
 22
2.2176015147999988
 32
0.0
 13
29.7288166774000011
 23
2.2176015147999988
 33
0.0
  0
SOLID
  5
4AD
  8
0
  6
CONTINUOUS
 62
     2
 10
29.7901876055000017
 20
2.187674558199999
 30
0.0
 11
29.721934000000001
 21
2.174145999999999
 31
0.0
 12
29.7999617633999989
 22
2.212904567999999
 32
0.0
 13
29.7999617633999989
 23
2.212904567999999
 33
0.0
  0
SOLID
  5
4AE
  8
0
  6
CONTINUOUS
 62
     2
 10
29.721934000000001
 20
2.174145999999999
 30
0.0
 11
29.7288166774000011
 21
2.2176015147999988
 31
0.0
 12
29.7999617633999989
 22
2.212904567999999
 32
0.0
 13
29.7999617633999989
 23
2.212904567999999
 33
0.0
  0
SOLID
  5
4AF
  8
0
  6
CONTINUOUS
 62
     2
 10
29.7901876055000017
 20
2.187674558199999
 30
0.0
 11
29.7901876055000017
 21
2.160617441799999
 31
0.0
 12
29.721934000000001
 22
2.174145999999999
 32
0.0
 13
29.721934000000001
 23
2.174145999999999
 33
0.0
  0
SOLID
  5
4B0
  8
0
  6
CONTINUOUS
 62
     2
 10
29.7999617633999989
 20
2.135387431999999
 30
0.0
 11
29.7288166774000011
 21
2.1306904852000002
 31
0.0
 12
29.7901876055000017
 22
2.160617441799999
 32
0.0
 13
29.7901876055000017
 23
2.160617441799999
 33
0.0
  0
SOLID
  5
4B1
  8
0
  6
CONTINUOUS
 62
     2
 10
29.7288166774000011
 20
2.1306904852000002
 30
0.0
 11
29.721934000000001
 21
2.174145999999999
 31
0.0
 12
29.7901876055000017
 22
2.160617441799999
 32
0.0
 13
29.7901876055000017
 23
2.160617441799999
 33
0.0
  0
SOLID
  5
4B2
  8
0
  6
CONTINUOUS
 62
     2
 10
29.7999617633999989
 20
2.135387431999999
 30
0.0
 11
29.8181900249000016
 21
2.1153919815999989
 31
0.0
 12
29.7288166774000011
 22
2.1306904852000002
 32
0.0
 13
29.7288166774000011
 23
2.1306904852000002
 33
0.0
  0
SOLID
  5
4B3
  8
0
  6
CONTINUOUS
 62
     2
 10
29.9810892293999984
 20
2.1008349888999991
 30
0.0
 11
29.7487909851999994
 21
2.0914887699000002
 31
0.0
 12
29.8693522579999993
 22
2.1008349888999991
 32
0.0
 13
29.8693522579999993
 23
2.1008349888999991
 33
0.0
  0
SOLID
  5
4B4
  8
0
  6
CONTINUOUS
 62
     2
 10
29.8693522579999993
 20
2.1008349888999991
 30
0.0
 11
29.7487909851999994
 21
2.0914887699000002
 31
0.0
 12
29.8424105624000013
 22
2.103331587
 32
0.0
 13
29.8424105624000013
 23
2.103331587
 33
0.0
  0
SOLID
  5
4B5
  8
0
  6
CONTINUOUS
 62
     2
 10
29.8424105624000013
 20
2.103331587
 30
0.0
 11
29.7487909851999994
 21
2.0914887699000002
 31
0.0
 12
29.8181900249000016
 22
2.1153919815999989
 32
0.0
 13
29.8181900249000016
 23
2.1153919815999989
 33
0.0
  0
SOLID
  5
4B6
  8
0
  6
CONTINUOUS
 62
     2
 10
29.7487909851999994
 20
2.0914887699000002
 30
0.0
 11
29.7288166774000011
 21
2.1306904852000002
 31
0.0
 12
29.8181900249000016
 22
2.1153919815999989
 32
0.0
 13
29.8181900249000016
 23
2.1153919815999989
 33
0.0
  0
SOLID
  5
4B7
  8
0
  6
CONTINUOUS
 62
     2
 10
29.9810892293999984
 20
2.1008349888999991
 30
0.0
 11
29.9763270147999989
 21
2.0914887699000002
 31
0.0
 12
29.7487909851999994
 22
2.0914887699000002
 32
0.0
 13
29.7487909851999994
 23
2.0914887699000002
 33
0.0
  0
SOLID
  5
4B8
  8
0
  6
CONTINUOUS
 62
     2
 10
29.7799016989000016
 20
2.060377993299999
 30
0.0
 11
29.7487909851999994
 21
2.0914887699000002
 31
0.0
 12
29.9763270147999989
 22
2.0914887699000002
 32
0.0
 13
29.9763270147999989
 23
2.0914887699000002
 33
0.0
  0
SOLID
  5
4B9
  8
0
  6
CONTINUOUS
 62
     2
 10
29.9763270147999989
 20
2.0914887699000002
 30
0.0
 11
29.9452163011000003
 21
2.060377993299999
 31
0.0
 12
29.7799016989000016
 22
2.060377993299999
 32
0.0
 13
29.7799016989000016
 23
2.060377993299999
 33
0.0
  0
SOLID
  5
4BA
  8
0
  6
CONTINUOUS
 62
     2
 10
29.8191034851999994
 20
2.0404036513000001
 30
0.0
 11
29.7799016989000016
 21
2.060377993299999
 31
0.0
 12
29.9452163011000003
 22
2.060377993299999
 32
0.0
 13
29.9452163011000003
 23
2.060377993299999
 33
0.0
  0
SOLID
  5
4BB
  8
0
  6
CONTINUOUS
 62
     2
 10
29.9452163011000003
 20
2.060377993299999
 30
0.0
 11
29.9060145147999989
 21
2.0404036513000001
 31
0.0
 12
29.8191034851999994
 22
2.0404036513000001
 32
0.0
 13
29.8191034851999994
 23
2.0404036513000001
 33
0.0
  0
SOLID
  5
4BC
  8
0
  6
CONTINUOUS
 62
     2
 10
29.862559000000001
 20
2.033520999999999
 30
0.0
 11
29.8191034851999994
 21
2.0404036513000001
 31
0.0
 12
29.9060145147999989
 22
2.0404036513000001
 32
0.0
 13
29.9060145147999989
 23
2.0404036513000001
 33
0.0
  0
SOLID
  5
4BD
  8
0
  6
CONTINUOUS
 62
     2
 10
29.862559000000001
 20
2.314770999999999
 30
0.0
 11
29.9060145147999989
 21
2.3078883848
 31
0.0
 12
29.8191034851999994
 22
2.3078883848
 32
0.0
 13
29.8191034851999994
 23
2.3078883848
 33
0.0
  0
SOLID
  5
4BE
  8
0
  6
CONTINUOUS
 62
     2
 10
29.7799016989000016
 20
2.2879140428999989
 30
0.0
 11
29.8191034851999994
 21
2.3078883848
 31
0.0
 12
29.9060145147999989
 22
2.3078883848
 32
0.0
 13
29.9060145147999989
 23
2.3078883848
 33
0.0
  0
SOLID
  5
4BF
  8
0
  6
CONTINUOUS
 62
     2
 10
29.9060145147999989
 20
2.3078883848
 30
0.0
 11
29.9452163011000003
 21
2.2879140428999989
 31
0.0
 12
29.7799016989000016
 22
2.2879140428999989
 32
0.0
 13
29.7799016989000016
 23
2.2879140428999989
 33
0.0
  0
SOLID
  5
4C0
  8
0
  6
CONTINUOUS
 62
     2
 10
29.7487909851999994
 20
2.256803266199999
 30
0.0
 11
29.7799016989000016
 21
2.2879140428999989
 31
0.0
 12
29.9452163011000003
 22
2.2879140428999989
 32
0.0
 13
29.9452163011000003
 23
2.2879140428999989
 33
0.0
  0
SOLID
  5
4C1
  8
0
  6
CONTINUOUS
 62
     2
 10
29.9452163011000003
 20
2.2879140428999989
 30
0.0
 11
29.9763270147999989
 21
2.256803266199999
 31
0.0
 12
29.7487909851999994
 22
2.256803266199999
 32
0.0
 13
29.7487909851999994
 23
2.256803266199999
 33
0.0
  0
SOLID
  5
4C2
  8
0
  6
CONTINUOUS
 62
     2
 10
29.7440287705999999
 20
2.2474568333999998
 30
0.0
 11
29.7487909851999994
 21
2.256803266199999
 31
0.0
 12
29.9763270147999989
 22
2.256803266199999
 32
0.0
 13
29.9763270147999989
 23
2.256803266199999
 33
0.0
  0
SOLID
  5
4C3
  8
0
  6
CONTINUOUS
 62
     2
 10
29.7440287705999999
 20
2.2474568333999998
 30
0.0
 11
29.9763270147999989
 21
2.256803266199999
 31
0.0
 12
29.8693522579999993
 22
2.2474568333999998
 32
0.0
 13
29.8693522579999993
 23
2.2474568333999998
 33
0.0
  0
SOLID
  5
4C4
  8
0
  6
CONTINUOUS
 62
     2
 10
29.8693522579999993
 20
2.2474568333999998
 30
0.0
 11
29.9763270147999989
 21
2.256803266199999
 31
0.0
 12
29.8953764864
 22
2.2400523972999991
 32
0.0
 13
29.8953764864
 23
2.2400523972999991
 33
0.0
  0
SOLID
  5
4C5
  8
0
  6
CONTINUOUS
 62
     2
 10
29.8953764864
 20
2.2400523972999991
 30
0.0
 11
29.9763270147999989
 21
2.256803266199999
 31
0.0
 12
29.9169685315000002
 22
2.2237468418000002
 32
0.0
 13
29.9169685315000002
 23
2.2237468418000002
 33
0.0
  0
SOLID
  5
4C6
  8
0
  6
CONTINUOUS
 62
     2
 10
29.9763270147999989
 20
2.256803266199999
 30
0.0
 11
29.9963013226000008
 21
2.2176015147999988
 31
0.0
 12
29.9169685315000002
 22
2.2237468418000002
 32
0.0
 13
29.9169685315000002
 23
2.2237468418000002
 33
0.0
  0
SOLID
  5
4C7
  8
0
  6
CONTINUOUS
 62
     2
 10
29.9312122679000012
 20
2.200742417699999
 30
0.0
 11
29.9169685315000002
 21
2.2237468418000002
 31
0.0
 12
29.9963013226000008
 22
2.2176015147999988
 32
0.0
 13
29.9963013226000008
 23
2.2176015147999988
 33
0.0
  0
SOLID
  5
4C8
  8
0
  6
CONTINUOUS
 62
     2
 10
29.9312122679000012
 20
2.200742417699999
 30
0.0
 11
29.9963013226000008
 21
2.2176015147999988
 31
0.0
 12
29.9361840000000008
 22
2.1741459111000001
 32
0.0
 13
29.9361840000000008
 23
2.1741459111000001
 33
0.0
  0
SOLID
  5
4C9
  8
0
  6
CONTINUOUS
 62
     2
 10
29.9963013226000008
 20
2.2176015147999988
 30
0.0
 11
30.003184000000001
 21
2.1741459111000001
 31
0.0
 12
29.9361840000000008
 22
2.1741459111000001
 32
0.0
 13
29.9361840000000008
 23
2.1741459111000001
 33
0.0
  0
SOLID
  5
4CA
  8
0
  6
CONTINUOUS
 62
     2
 10
29.9312122679000012
 20
2.147549582299999
 30
0.0
 11
29.9361840000000008
 21
2.1741459111000001
 31
0.0
 12
30.003184000000001
 22
2.1741459111000001
 32
0.0
 13
30.003184000000001
 23
2.1741459111000001
 33
0.0
  0
SOLID
  5
4CB
  8
0
  6
CONTINUOUS
 62
     2
 10
30.003184000000001
 20
2.1741459111000001
 30
0.0
 11
29.9963013226000008
 21
2.1306904852000002
 31
0.0
 12
29.9312122679000012
 22
2.147549582299999
 32
0.0
 13
29.9312122679000012
 23
2.147549582299999
 33
0.0
  0
SOLID
  5
4CC
  8
0
  6
CONTINUOUS
 62
     2
 10
29.9169685315000002
 20
2.1245451582000001
 30
0.0
 11
29.9312122679000012
 21
2.147549582299999
 31
0.0
 12
29.9963013226000008
 22
2.1306904852000002
 32
0.0
 13
29.9963013226000008
 23
2.1306904852000002
 33
0.0
  0
SOLID
  5
4CD
  8
0
  6
CONTINUOUS
 62
     2
 10
29.9169685315000002
 20
2.1245451582000001
 30
0.0
 11
29.9963013226000008
 21
2.1306904852000002
 31
0.0
 12
29.8953764864
 22
2.1082396026999999
 32
0.0
 13
29.8953764864
 23
2.1082396026999999
 33
0.0
  0
SOLID
  5
4CE
  8
0
  6
CONTINUOUS
 62
     2
 10
29.8953764864
 20
2.1082396026999999
 30
0.0
 11
29.9963013226000008
 21
2.1306904852000002
 31
0.0
 12
29.8693522579999993
 22
2.1008349888999991
 32
0.0
 13
29.8693522579999993
 23
2.1008349888999991
 33
0.0
  0
SOLID
  5
4CF
  8
0
  6
CONTINUOUS
 62
     2
 10
29.9963013226000008
 20
2.1306904852000002
 30
0.0
 11
29.9810892293999984
 21
2.1008349888999991
 31
0.0
 12
29.8693522579999993
 22
2.1008349888999991
 32
0.0
 13
29.8693522579999993
 23
2.1008349888999991
 33
0.0
  0
SOLID
  5
4D0
  8
0
  6
CONTINUOUS
 62
     2
 10
30.1795590000000011
 20
2.2232711250000001
 30
0.0
 11
30.1795590000000011
 21
2.3147710311999989
 31
0.0
 12
30.2465590000000013
 22
2.3147710311999989
 32
0.0
 13
30.2465590000000013
 23
2.3147710311999989
 33
0.0
  0
SOLID
  5
4D1
  8
0
  6
CONTINUOUS
 62
     2
 10
30.1795590000000011
 20
2.2232711250000001
 30
0.0
 11
30.1014340000000011
 21
2.1562709062000001
 31
0.0
 12
30.1014340000000011
 22
2.2232711250000001
 32
0.0
 13
30.1014340000000011
 23
2.2232711250000001
 33
0.0
  0
SOLID
  5
4D2
  8
0
  6
CONTINUOUS
 62
     2
 10
30.1014340000000011
 20
2.1562709062000001
 30
0.0
 11
30.034434000000001
 21
2.0335210311999989
 31
0.0
 12
30.1014340000000011
 22
2.2232711250000001
 32
0.0
 13
30.1014340000000011
 23
2.2232711250000001
 33
0.0
  0
SOLID
  5
4D3
  8
0
  6
CONTINUOUS
 62
     2
 10
30.1014340000000011
 20
2.2232711250000001
 30
0.0
 11
30.034434000000001
 21
2.0335210311999989
 31
0.0
 12
30.1014340000000011
 22
2.3147710311999989
 32
0.0
 13
30.1014340000000011
 23
2.3147710311999989
 33
0.0
  0
SOLID
  5
4D4
  8
0
  6
CONTINUOUS
 62
     2
 10
30.034434000000001
 20
2.0335210311999989
 30
0.0
 11
30.034434000000001
 21
2.3147710311999989
 31
0.0
 12
30.1014340000000011
 22
2.3147710311999989
 32
0.0
 13
30.1014340000000011
 23
2.3147710311999989
 33
0.0
  0
SOLID
  5
4D5
  8
0
  6
CONTINUOUS
 62
     2
 10
30.1014340000000011
 20
2.1562709062000001
 30
0.0
 11
30.1014340000000011
 21
2.0335210311999989
 31
0.0
 12
30.034434000000001
 22
2.0335210311999989
 32
0.0
 13
30.034434000000001
 23
2.0335210311999989
 33
0.0
  0
SOLID
  5
4D6
  8
0
  6
CONTINUOUS
 62
     2
 10
30.1014340000000011
 20
2.1562709062000001
 30
0.0
 11
30.1795590000000011
 21
2.2232711250000001
 31
0.0
 12
30.1795590000000011
 22
2.1562709062000001
 32
0.0
 13
30.1795590000000011
 23
2.1562709062000001
 33
0.0
  0
SOLID
  5
4D7
  8
0
  6
CONTINUOUS
 62
     2
 10
30.1795590000000011
 20
2.2232711250000001
 30
0.0
 11
30.2465590000000013
 21
2.3147710311999989
 31
0.0
 12
30.1795590000000011
 22
2.1562709062000001
 32
0.0
 13
30.1795590000000011
 23
2.1562709062000001
 33
0.0
  0
SOLID
  5
4D8
  8
0
  6
CONTINUOUS
 62
     2
 10
30.1795590000000011
 20
2.1562709062000001
 30
0.0
 11
30.2465590000000013
 21
2.3147710311999989
 31
0.0
 12
30.1795590000000011
 22
2.0335210311999989
 32
0.0
 13
30.1795590000000011
 23
2.0335210311999989
 33
0.0
  0
SOLID
  5
4D9
  8
0
  6
CONTINUOUS
 62
     2
 10
30.2465590000000013
 20
2.3147710311999989
 30
0.0
 11
30.2465590000000013
 21
2.0335210311999989
 31
0.0
 12
30.1795590000000011
 22
2.0335210311999989
 32
0.0
 13
30.1795590000000011
 23
2.0335210311999989
 33
0.0
  0
SOLID
  5
4DA
  8
0
  6
CONTINUOUS
 62
     2
 10
30.4340590000000013
 20
2.1005209687000002
 30
0.0
 11
30.2778090000000013
 21
2.0335210311999989
 31
0.0
 12
30.3448090000000015
 22
2.1005209687000002
 32
0.0
 13
30.3448090000000015
 23
2.1005209687000002
 33
0.0
  0
SOLID
  5
4DB
  8
0
  6
CONTINUOUS
 62
     2
 10
30.3448090000000015
 20
2.1005209687000002
 30
0.0
 11
30.2778090000000013
 21
2.0335210311999989
 31
0.0
 12
30.3448090000000015
 22
2.3147710311999989
 32
0.0
 13
30.3448090000000015
 23
2.3147710311999989
 33
0.0
  0
SOLID
  5
4DC
  8
0
  6
CONTINUOUS
 62
     2
 10
30.2778090000000013
 20
2.0335210311999989
 30
0.0
 11
30.2778090000000013
 21
2.3147710311999989
 31
0.0
 12
30.3448090000000015
 22
2.3147710311999989
 32
0.0
 13
30.3448090000000015
 23
2.3147710311999989
 33
0.0
  0
SOLID
  5
4DD
  8
0
  6
CONTINUOUS
 62
     2
 10
30.4340590000000013
 20
2.1005209687000002
 30
0.0
 11
30.4340590000000013
 21
2.0335210311999989
 31
0.0
 12
30.2778090000000013
 22
2.0335210311999989
 32
0.0
 13
30.2778090000000013
 23
2.0335210311999989
 33
0.0
  0
SOLID
  5
4DE
  8
0
  6
CONTINUOUS
 62
     2
 10
30.6215590000000013
 20
2.3147710311999989
 30
0.0
 11
30.6215590000000013
 21
2.2477710936999991
 31
0.0
 12
30.5323090000000015
 22
2.2477710936999991
 32
0.0
 13
30.5323090000000015
 23
2.2477710936999991
 33
0.0
  0
SOLID
  5
4DF
  8
0
  6
CONTINUOUS
 62
     2
 10
30.6215590000000013
 20
2.1998334375000002
 30
0.0
 11
30.6215590000000013
 21
2.1484586249999991
 31
0.0
 12
30.5323090000000015
 22
2.1484586249999991
 32
0.0
 13
30.5323090000000015
 23
2.1484586249999991
 33
0.0
  0
SOLID
  5
4E0
  8
0
  6
CONTINUOUS
 62
     2
 10
30.6215590000000013
 20
2.1005209687000002
 30
0.0
 11
30.4653090000000013
 21
2.0335210311999989
 31
0.0
 12
30.5323090000000015
 22
2.1005209687000002
 32
0.0
 13
30.5323090000000015
 23
2.1005209687000002
 33
0.0
  0
SOLID
  5
4E1
  8
0
  6
CONTINUOUS
 62
     2
 10
30.5323090000000015
 20
2.1005209687000002
 30
0.0
 11
30.4653090000000013
 21
2.0335210311999989
 31
0.0
 12
30.5323090000000015
 22
2.1484586249999991
 32
0.0
 13
30.5323090000000015
 23
2.1484586249999991
 33
0.0
  0
SOLID
  5
4E2
  8
0
  6
CONTINUOUS
 62
     2
 10
30.6215590000000013
 20
2.1998334375000002
 30
0.0
 11
30.5323090000000015
 21
2.1484586249999991
 31
0.0
 12
30.5323090000000015
 22
2.1998334375000002
 32
0.0
 13
30.5323090000000015
 23
2.1998334375000002
 33
0.0
  0
SOLID
  5
4E3
  8
0
  6
CONTINUOUS
 62
     2
 10
30.5323090000000015
 20
2.1484586249999991
 30
0.0
 11
30.4653090000000013
 21
2.0335210311999989
 31
0.0
 12
30.5323090000000015
 22
2.1998334375000002
 32
0.0
 13
30.5323090000000015
 23
2.1998334375000002
 33
0.0
  0
SOLID
  5
4E4
  8
0
  6
CONTINUOUS
 62
     2
 10
30.5323090000000015
 20
2.1998334375000002
 30
0.0
 11
30.4653090000000013
 21
2.0335210311999989
 31
0.0
 12
30.5323090000000015
 22
2.2477710936999991
 32
0.0
 13
30.5323090000000015
 23
2.2477710936999991
 33
0.0
  0
SOLID
  5
4E5
  8
0
  6
CONTINUOUS
 62
     2
 10
30.6215590000000013
 20
2.3147710311999989
 30
0.0
 11
30.5323090000000015
 21
2.2477710936999991
 31
0.0
 12
30.4653090000000013
 22
2.3147710311999989
 32
0.0
 13
30.4653090000000013
 23
2.3147710311999989
 33
0.0
  0
SOLID
  5
4E6
  8
0
  6
CONTINUOUS
 62
     2
 10
30.4653090000000013
 20
2.0335210311999989
 30
0.0
 11
30.4653090000000013
 21
2.3147710311999989
 31
0.0
 12
30.5323090000000015
 22
2.2477710936999991
 32
0.0
 13
30.5323090000000015
 23
2.2477710936999991
 33
0.0
  0
SOLID
  5
4E7
  8
0
  6
CONTINUOUS
 62
     2
 10
30.6215590000000013
 20
2.1005209687000002
 30
0.0
 11
30.6215590000000013
 21
2.0335210311999989
 31
0.0
 12
30.4653090000000013
 22
2.0335210311999989
 32
0.0
 13
30.4653090000000013
 23
2.0335210311999989
 33
0.0
  0
ENDBLK
  5
4E8
  8
0
  6
ByBlock
 62
     0
  0
BLOCK
  8
0
  2
_FILLED
 70
     0
 10
0.0
 20
0.0
 30
0.0
  3
_FILLED
  1

  0
SOLID
  5
4EB
  8
0
  6
ByBlock
 62
     0
 10
0.0
 20
0.0
 30
0.0
 11
-1.0
 21
0.1666666667
 31
0.0
 12
-1.0
 22
-0.1666666667
 32
0.0
 13
-1.0
 23
-0.1666666667
 33
0.0
  0
ENDBLK
  5
4EC
  8
0
  6
ByBlock
 62
     0
  0
BLOCK
  8
0
  6
CONTINUOUS
 62
     2
  2
*D12
 70
     1
 10
0.0
 20
0.0
 30
0.0
  3
*D12
  1

  0
TEXT
  5
4EF
  8
0
  6
CONTINUOUS
 62
     2
 10
12.3624577570999996
 20
2.5339291241000002
 30
0.0
 40
0.15625
  1
14-1/4
 41
0.8
 72
     1
 11
12.6749577570999996
 21
2.5339291241000002
 31
0.0
  0
TEXT
  5
4F0
  8
0
  6
CONTINUOUS
 62
     2
 10
12.3416244237666604
 20
2.2995541241000002
 30
0.0
 40
0.15625
  1
[
 41
0.8
 72
     1
 11
12.3624577570999996
 21
2.2995541241000002
 31
0.0
  0
TEXT
  5
4F1
  8
0
  6
CONTINUOUS
 62
     2
 10
12.44579109043333
 20
2.2995541241000002
 30
0.0
 40
0.15625
  1
36
 41
0.8
 72
     1
 11
12.5499577570999996
 21
2.2995541241000002
 31
0.0
  0
TEXT
  5
4F2
  8
0
  6
CONTINUOUS
 62
     2
 10
12.7166244237666604
 20
2.2995541241000002
 30
0.0
 40
0.15625
  1
]
 41
0.8
 72
     1
 11
12.7374577570999996
 21
2.2995541241000002
 31
0.0
  0
LINE
  5
4F3
  8
0
  6
CONTINUOUS
 62
     2
 10
5.5465524546999996
 20
11.2706489652999995
 30
0.0
 11
5.5465524546999996
 21
2.4870541241000002
 31
0.0
  0
LINE
  5
4F4
  8
0
  6
CONTINUOUS
 62
     2
 10
19.8033630595999988
 20
11.2706137605999999
 30
0.0
 11
19.8033630595999988
 21
2.4870541241000002
 31
0.0
  0
LINE
  5
4F5
  8
0
  6
CONTINUOUS
 62
     2
 10
5.5465524546999996
 20
2.6120541241000002
 30
0.0
 11
12.2218327570999996
 21
2.6120541241000002
 31
0.0
  0
LINE
  5
4F6
  8
0
  6
CONTINUOUS
 62
     2
 10
19.8033630595999988
 20
2.6120541241000002
 30
0.0
 11
13.1280827570999996
 21
2.6120541241000002
 31
0.0
  0
INSERT
  5
4F7
  8
0
  6
CONTINUOUS
 62
     2
  2
_FILLED
 10
5.5465524546999996
 20
2.6120541241000002
 30
0.0
 41
0.1875
 42
0.1875
 43
0.1875
 50
180.0
  0
INSERT
  5
4F8
  8
0
  6
CONTINUOUS
 62
     2
  2
_FILLED
 10
19.8033630595999988
 20
2.6120541241000002
 30
0.0
 41
0.1875
 42
0.1875
 43
0.1875
  0
ENDBLK
  5
4F9
  8
0
  6
ByBlock
 62
     0
  0
BLOCK
  8
0
  6
CONTINUOUS
 62
     2
  2
*D13
 70
     1
 10
0.0
 20
0.0
 30
0.0
  3
*D13
  1

  0
TEXT
  5
4FC
  8
0
  6
CONTINUOUS
 62
     2
 10
22.5795211545000001
 20
11.6859404515000005
 30
0.0
 40
0.15625
  1
15-1/8
 41
0.8
 72
     1
 11
22.8920211545000001
 21
11.6859404515000005
 31
0.0
  0
TEXT
  5
4FD
  8
0
  6
CONTINUOUS
 62
     2
 10
22.5586878211666608
 20
11.4515654515000005
 30
0.0
 40
0.15625
  1
[
 41
0.8
 72
     1
 11
22.5795211545000001
 21
11.4515654515000005
 31
0.0
  0
TEXT
  5
4FE
  8
0
  6
CONTINUOUS
 62
     2
 10
22.6628544878333287
 20
11.4515654515000005
 30
0.0
 40
0.15625
  1
38
 41
0.8
 72
     1
 11
22.7670211545000001
 21
11.4515654515000005
 31
0.0
  0
TEXT
  5
4FF
  8
0
  6
CONTINUOUS
 62
     2
 10
22.9336878211666715
 20
11.4515654515000005
 30
0.0
 40
0.15625
  1
]
 41
0.8
 72
     1
 11
22.9545211545000001
 21
11.4515654515000005
 31
0.0
  0
LINE
  5
500
  8
0
  6
CONTINUOUS
 62
     2
 10
12.7378270448999995
 20
4.2052180333999987
 30
0.0
 11
23.0170211545000001
 21
4.2052180333999987
 31
0.0
  0
LINE
  5
501
  8
0
  6
CONTINUOUS
 62
     2
 10
12.7366463231000004
 20
19.3229128695999997
 30
0.0
 11
23.0170211545000001
 21
19.3229128695999997
 31
0.0
  0
LINE
  5
502
  8
0
  6
CONTINUOUS
 62
     2
 10
22.8920211545000001
 20
4.2052180333999987
 30
0.0
 11
22.8920211545000001
 21
11.3734404515000005
 31
0.0
  0
LINE
  5
503
  8
0
  6
CONTINUOUS
 62
     2
 10
22.8920211545000001
 20
19.3229128695999997
 30
0.0
 11
22.8920211545000001
 21
11.9203154515000005
 31
0.0
  0
INSERT
  5
504
  8
0
  6
CONTINUOUS
 62
     2
  2
_FILLED
 10
22.8920211545000001
 20
4.2052180333999987
 30
0.0
 41
0.1875
 42
0.1875
 43
0.1875
 50
270.0
  0
INSERT
  5
505
  8
0
  6
CONTINUOUS
 62
     2
  2
_FILLED
 10
22.8920211545000001
 20
19.3229128695999997
 30
0.0
 41
0.1875
 42
0.1875
 43
0.1875
 50
90.0
  0
ENDBLK
  5
506
  8
0
  6
ByBlock
 62
     0
  0
ENDSEC
  0
SECTION
  2
ENTITIES
  0
SOLID
  5
5A3
  8
0
  6
CONTINUOUS
 62
     2
 10
7.6211676086000004
 20
15.1079638357999997
 30
0.0
 11
7.7589317753999989
 21
15.2717850254999998
 31
0.0
 12
7.9509935874000002
 22
15.2717850254999998
 32
0.0
 13
7.9509935874000002
 23
15.2717850254999998
 33
0.0
  0
SOLID
  5
5A4
  8
0
  6
CONTINUOUS
 62
     2
 10
7.9509935874000002
 20
15.2717850254999998
 30
0.0
 11
7.7376901354999994
 21
15.0181367526000002
 31
0.0
 12
7.6211676086000004
 22
15.1079638357999997
 32
0.0
 13
7.6211676086000004
 23
15.1079638357999997
 33
0.0
  0
SOLID
  5
5A5
  8
0
  6
CONTINUOUS
 62
     2
 10
7.6211676086000004
 20
14.8873712100999995
 30
0.0
 11
7.7376901354999994
 21
15.0181367526000002
 31
0.0
 12
7.7749055486999987
 22
14.6858713760999997
 32
0.0
 13
7.7749055486999987
 23
14.6858713760999997
 33
0.0
  0
SOLID
  5
5A6
  8
0
  6
CONTINUOUS
 62
     2
 10
7.7376901354999994
 20
15.0181367526000002
 30
0.0
 11
7.9911979702
 21
14.6858713760999997
 31
0.0
 12
7.7749055486999987
 22
14.6858713760999997
 32
0.0
 13
7.7749055486999987
 23
14.6858713760999997
 33
0.0
  0
SOLID
  5
5A7
  8
0
  6
CONTINUOUS
 62
     2
 10
7.6211676086000004
 20
14.6858713760999997
 30
0.0
 11
7.4466673816999993
 21
14.6858473726999996
 31
0.0
 12
7.6211676086000004
 22
14.8873712100999995
 32
0.0
 13
7.6211676086000004
 23
14.8873712100999995
 33
0.0
  0
SOLID
  5
5A8
  8
0
  6
CONTINUOUS
 62
     2
 10
7.7376901354999994
 20
15.0181367526000002
 30
0.0
 11
7.6211676086000004
 21
14.8873712100999995
 31
0.0
 12
7.6211676086000004
 22
15.1079638357999997
 32
0.0
 13
7.6211676086000004
 23
15.1079638357999997
 33
0.0
  0
SOLID
  5
5A9
  8
0
  6
CONTINUOUS
 62
     2
 10
7.6211676086000004
 20
14.8873712100999995
 30
0.0
 11
7.4466673816999993
 21
14.6858473726999996
 31
0.0
 12
7.6211676086000004
 22
15.1079638357999997
 32
0.0
 13
7.6211676086000004
 23
15.1079638357999997
 33
0.0
  0
SOLID
  5
5AA
  8
0
  6
CONTINUOUS
 62
     2
 10
7.6211676086000004
 20
15.1079638357999997
 30
0.0
 11
7.4466673816999993
 21
14.6858473726999996
 31
0.0
 12
7.6211676086000004
 22
15.2717850254999998
 32
0.0
 13
7.6211676086000004
 23
15.2717850254999998
 33
0.0
  0
SOLID
  5
5AB
  8
0
  6
CONTINUOUS
 62
     2
 10
7.4466673816999993
 20
14.6858473726999996
 30
0.0
 11
7.4466673816999993
 21
15.2717850254999998
 31
0.0
 12
7.6211676086000004
 22
15.2717850254999998
 32
0.0
 13
7.6211676086000004
 23
15.2717850254999998
 33
0.0
  0
SOLID
  5
5AC
  8
0
  6
CONTINUOUS
 62
     2
 10
8.0756022549999997
 20
15.2611756120000006
 30
0.0
 11
8.1365514095000009
 21
15.2741307547999998
 31
0.0
 12
8.1988622042999992
 22
15.2741307547999998
 32
0.0
 13
8.1988622042999992
 23
15.2741307547999998
 33
0.0
  0
SOLID
  5
5AD
  8
0
  6
CONTINUOUS
 62
     2
 10
8.1988622042999992
 20
15.2741307547999998
 30
0.0
 11
8.2598113588000004
 21
15.2611756120000006
 31
0.0
 12
8.0756022549999997
 22
15.2611756120000006
 32
0.0
 13
8.0756022549999997
 23
15.2611756120000006
 33
0.0
  0
SOLID
  5
5AE
  8
0
  6
CONTINUOUS
 62
     2
 10
8.0186785113999992
 20
15.2358315285000003
 30
0.0
 11
8.0756022549999997
 21
15.2611756120000006
 31
0.0
 12
8.2598113588000004
 22
15.2611756120000006
 32
0.0
 13
8.2598113588000004
 23
15.2611756120000006
 33
0.0
  0
SOLID
  5
5AF
  8
0
  6
CONTINUOUS
 62
     2
 10
8.2598113588000004
 20
15.2611756120000006
 30
0.0
 11
8.3167351023999991
 21
15.2358315285000003
 31
0.0
 12
8.0186785113999992
 22
15.2358315285000003
 32
0.0
 13
8.0186785113999992
 23
15.2358315285000003
 33
0.0
  0
SOLID
  5
5B0
  8
0
  6
CONTINUOUS
 62
     2
 10
7.9682680194
 20
15.1992061621999994
 30
0.0
 11
8.0186785113999992
 21
15.2358315285000003
 31
0.0
 12
8.3167351023999991
 22
15.2358315285000003
 32
0.0
 13
8.3167351023999991
 23
15.2358315285000003
 33
0.0
  0
SOLID
  5
5B1
  8
0
  6
CONTINUOUS
 62
     2
 10
8.3167351023999991
 20
15.2358315285000003
 30
0.0
 11
8.3671455944000002
 21
15.1992061621999994
 31
0.0
 12
7.9682680194
 22
15.1992061621999994
 32
0.0
 13
7.9682680194
 23
15.1992061621999994
 33
0.0
  0
SOLID
  5
5B2
  8
0
  6
CONTINUOUS
 62
     2
 10
7.9265739594999998
 20
15.1529002174999992
 30
0.0
 11
7.9682680194
 21
15.1992061621999994
 31
0.0
 12
8.3671455944000002
 22
15.1992061621999994
 32
0.0
 13
8.3671455944000002
 23
15.1992061621999994
 33
0.0
  0
SOLID
  5
5B3
  8
0
  6
CONTINUOUS
 62
     2
 10
8.3671455944000002
 20
15.1992061621999994
 30
0.0
 11
8.4088396542999995
 21
15.1529002174999992
 31
0.0
 12
7.9265739594999998
 22
15.1529002174999992
 32
0.0
 13
7.9265739594999998
 23
15.1529002174999992
 33
0.0
  0
SOLID
  5
5B4
  8
0
  6
CONTINUOUS
 62
     2
 10
8.1677068069000001
 20
15.1024763639999993
 30
0.0
 11
7.8954185620999997
 21
15.0989374862000005
 31
0.0
 12
8.4088396542999995
 22
15.1529002174999992
 32
0.0
 13
8.4088396542999995
 23
15.1529002174999992
 33
0.0
  0
SOLID
  5
5B5
  8
0
  6
CONTINUOUS
 62
     2
 10
7.8954185620999997
 20
15.0989374862000005
 30
0.0
 11
7.9265739594999998
 21
15.1529002174999992
 31
0.0
 12
8.4088396542999995
 22
15.1529002174999992
 32
0.0
 13
8.4088396542999995
 23
15.1529002174999992
 33
0.0
  0
SOLID
  5
5B6
  8
0
  6
CONTINUOUS
 62
     2
 10
8.4088396542999995
 20
15.1529002174999992
 30
0.0
 11
8.4399950517000004
 21
15.0989374862000005
 31
0.0
 12
8.1677068069000001
 22
15.1024763639999993
 32
0.0
 13
8.1677068069000001
 23
15.1024763639999993
 33
0.0
  0
SOLID
  5
5B7
  8
0
  6
CONTINUOUS
 62
     2
 10
8.1677068069000001
 20
15.1024763639999993
 30
0.0
 11
8.1291509373000004
 21
15.0963697141999997
 31
0.0
 12
7.8954185620999997
 22
15.0989374862000005
 32
0.0
 13
7.8954185620999997
 23
15.0989374862000005
 33
0.0
  0
SOLID
  5
5B8
  8
0
  6
CONTINUOUS
 62
     2
 10
8.2062626764999997
 20
15.0963697141999997
 30
0.0
 11
8.1677068069000001
 21
15.1024763639999993
 31
0.0
 12
8.4399950517000004
 22
15.0989374862000005
 32
0.0
 13
8.4399950517000004
 23
15.0989374862000005
 33
0.0
  0
SOLID
  5
5B9
  8
0
  6
CONTINUOUS
 62
     2
 10
8.0667662297000007
 20
15.0510445711000003
 30
0.0
 11
7.8761634674999987
 21
15.0396763986999993
 31
0.0
 12
8.0943691847999997
 22
15.0786475260999993
 32
0.0
 13
8.0943691847999997
 23
15.0786475260999993
 33
0.0
  0
SOLID
  5
5BA
  8
0
  6
CONTINUOUS
 62
     2
 10
8.0943691847999997
 20
15.0786475260999993
 30
0.0
 11
7.8761634674999987
 21
15.0396763986999993
 31
0.0
 12
8.1291509373000004
 22
15.0963697141999997
 32
0.0
 13
8.1291509373000004
 23
15.0963697141999997
 33
0.0
  0
SOLID
  5
5BB
  8
0
  6
CONTINUOUS
 62
     2
 10
7.8761634674999987
 20
15.0396763986999993
 30
0.0
 11
7.8954185620999997
 21
15.0989374862000005
 31
0.0
 12
8.1291509373000004
 22
15.0963697141999997
 32
0.0
 13
8.1291509373000004
 23
15.0963697141999997
 33
0.0
  0
SOLID
  5
5BC
  8
0
  6
CONTINUOUS
 62
     2
 10
8.2062626764999997
 20
15.0963697141999997
 30
0.0
 11
8.4399950517000004
 21
15.0989374862000005
 31
0.0
 12
8.2410444290000004
 22
15.0786475260999993
 32
0.0
 13
8.2410444290000004
 23
15.0786475260999993
 33
0.0
  0
SOLID
  5
5BD
  8
0
  6
CONTINUOUS
 62
     2
 10
8.2410444290000004
 20
15.0786475260999993
 30
0.0
 11
8.4399950517000004
 21
15.0989374862000005
 31
0.0
 12
8.2686473840999994
 22
15.0510445711000003
 32
0.0
 13
8.2686473840999994
 23
15.0510445711000003
 33
0.0
  0
SOLID
  5
5BE
  8
0
  6
CONTINUOUS
 62
     2
 10
8.4399950517000004
 20
15.0989374862000005
 30
0.0
 11
8.4592501463000005
 21
15.0396763986999993
 31
0.0
 12
8.2686473840999994
 22
15.0510445711000003
 32
0.0
 13
8.2686473840999994
 23
15.0510445711000003
 33
0.0
  0
SOLID
  5
5BF
  8
0
  6
CONTINUOUS
 62
     2
 10
8.0667662297000007
 20
15.0510445711000003
 30
0.0
 11
8.0490440417000002
 21
15.0162628185999996
 31
0.0
 12
7.8761634674999987
 22
15.0396763986999993
 32
0.0
 13
7.8761634674999987
 23
15.0396763986999993
 33
0.0
  0
SOLID
  5
5C0
  8
0
  6
CONTINUOUS
 62
     2
 10
8.2863695720999981
 20
15.0162628185999996
 30
0.0
 11
8.2686473840999994
 21
15.0510445711000003
 31
0.0
 12
8.4592501463000005
 22
15.0396763986999993
 32
0.0
 13
8.4592501463000005
 23
15.0396763986999993
 33
0.0
  0
SOLID
  5
5C1
  8
0
  6
CONTINUOUS
 62
     2
 10
7.8696502159000001
 20
14.9777069489999999
 30
0.0
 11
7.8761634674999987
 21
15.0396763986999993
 31
0.0
 12
8.0490440417000002
 22
15.0162628185999996
 32
0.0
 13
8.0490440417000002
 23
15.0162628185999996
 33
0.0
  0
SOLID
  5
5C2
  8
0
  6
CONTINUOUS
 62
     2
 10
8.0490440417000002
 20
15.0162628185999996
 30
0.0
 11
8.0429373917999971
 21
14.9777069489999999
 31
0.0
 12
7.8696502159000001
 22
14.9777069489999999
 32
0.0
 13
7.8696502159000001
 23
14.9777069489999999
 33
0.0
  0
SOLID
  5
5C3
  8
0
  6
CONTINUOUS
 62
     2
 10
8.2863695720999981
 20
15.0162628185999996
 30
0.0
 11
8.4592501463000005
 21
15.0396763986999993
 31
0.0
 12
8.2924762220000012
 22
14.9777069489999999
 32
0.0
 13
8.2924762220000012
 23
14.9777069489999999
 33
0.0
  0
SOLID
  5
5C4
  8
0
  6
CONTINUOUS
 62
     2
 10
8.4592501463000005
 20
15.0396763986999993
 30
0.0
 11
8.4657633978999982
 21
14.9777069489999999
 31
0.0
 12
8.2924762220000012
 22
14.9777069489999999
 32
0.0
 13
8.2924762220000012
 23
14.9777069489999999
 33
0.0
  0
SOLID
  5
5C5
  8
0
  6
CONTINUOUS
 62
     2
 10
8.2863695720999981
 20
14.9391510793000002
 30
0.0
 11
8.2924762220000012
 21
14.9777069489999999
 31
0.0
 12
8.4657633978999982
 22
14.9777069489999999
 32
0.0
 13
8.4657633978999982
 23
14.9777069489999999
 33
0.0
  0
SOLID
  5
5C6
  8
0
  6
CONTINUOUS
 62
     2
 10
8.0490440417000002
 20
14.9391510793000002
 30
0.0
 11
7.8761634674999987
 21
14.9157374992000005
 31
0.0
 12
8.0429373917999971
 22
14.9777069489999999
 32
0.0
 13
8.0429373917999971
 23
14.9777069489999999
 33
0.0
  0
SOLID
  5
5C7
  8
0
  6
CONTINUOUS
 62
     2
 10
7.8761634674999987
 20
14.9157374992000005
 30
0.0
 11
7.8696502159000001
 21
14.9777069489999999
 31
0.0
 12
8.0429373917999971
 22
14.9777069489999999
 32
0.0
 13
8.0429373917999971
 23
14.9777069489999999
 33
0.0
  0
SOLID
  5
5C8
  8
0
  6
CONTINUOUS
 62
     2
 10
8.4657633978999982
 20
14.9777069489999999
 30
0.0
 11
8.4592501463000005
 21
14.9157374992000005
 31
0.0
 12
8.2863695720999981
 22
14.9391510793000002
 32
0.0
 13
8.2863695720999981
 23
14.9391510793000002
 33
0.0
  0
SOLID
  5
5C9
  8
0
  6
CONTINUOUS
 62
     2
 10
8.0490440417000002
 20
14.9391510793000002
 30
0.0
 11
8.0667662297000007
 21
14.9043693267999995
 31
0.0
 12
7.8761634674999987
 22
14.9157374992000005
 32
0.0
 13
7.8761634674999987
 23
14.9157374992000005
 33
0.0
  0
SOLID
  5
5CA
  8
0
  6
CONTINUOUS
 62
     2
 10
8.2686473840999994
 20
14.9043693267999995
 30
0.0
 11
8.2863695720999981
 21
14.9391510793000002
 31
0.0
 12
8.4592501463000005
 22
14.9157374992000005
 32
0.0
 13
8.4592501463000005
 23
14.9157374992000005
 33
0.0
  0
SOLID
  5
5CB
  8
0
  6
CONTINUOUS
 62
     2
 10
8.1291509373000004
 20
14.8590441837
 30
0.0
 11
7.8954185620999997
 21
14.8564764116999992
 31
0.0
 12
8.0943691847999997
 22
14.8767663718000005
 32
0.0
 13
8.0943691847999997
 23
14.8767663718000005
 33
0.0
  0
SOLID
  5
5CC
  8
0
  6
CONTINUOUS
 62
     2
 10
8.0943691847999997
 20
14.8767663718000005
 30
0.0
 11
7.8954185620999997
 21
14.8564764116999992
 31
0.0
 12
8.0667662297000007
 22
14.9043693267999995
 32
0.0
 13
8.0667662297000007
 23
14.9043693267999995
 33
0.0
  0
SOLID
  5
5CD
  8
0
  6
CONTINUOUS
 62
     2
 10
7.8954185620999997
 20
14.8564764116999992
 30
0.0
 11
7.8761634674999987
 21
14.9157374992000005
 31
0.0
 12
8.0667662297000007
 22
14.9043693267999995
 32
0.0
 13
8.0667662297000007
 23
14.9043693267999995
 33
0.0
  0
SOLID
  5
5CE
  8
0
  6
CONTINUOUS
 62
     2
 10
8.2686473840999994
 20
14.9043693267999995
 30
0.0
 11
8.4592501463000005
 21
14.9157374992000005
 31
0.0
 12
8.2410444290000004
 22
14.8767663718000005
 32
0.0
 13
8.2410444290000004
 23
14.8767663718000005
 33
0.0
  0
SOLID
  5
5CF
  8
0
  6
CONTINUOUS
 62
     2
 10
8.2410444290000004
 20
14.8767663718000005
 30
0.0
 11
8.4592501463000005
 21
14.9157374992000005
 31
0.0
 12
8.2062626764999997
 22
14.8590441837
 32
0.0
 13
8.2062626764999997
 23
14.8590441837
 33
0.0
  0
SOLID
  5
5D0
  8
0
  6
CONTINUOUS
 62
     2
 10
8.4592501463000005
 20
14.9157374992000005
 30
0.0
 11
8.4399950517000004
 21
14.8564764116999992
 31
0.0
 12
8.2062626764999997
 22
14.8590441837
 32
0.0
 13
8.2062626764999997
 23
14.8590441837
 33
0.0
  0
SOLID
  5
5D1
  8
0
  6
CONTINUOUS
 62
     2
 10
8.1291509373000004
 20
14.8590441837
 30
0.0
 11
8.1677068069000001
 21
14.8529375339000005
 31
0.0
 12
7.8954185620999997
 22
14.8564764116999992
 32
0.0
 13
7.8954185620999997
 23
14.8564764116999992
 33
0.0
  0
SOLID
  5
5D2
  8
0
  6
CONTINUOUS
 62
     2
 10
8.1677068069000001
 20
14.8529375339000005
 30
0.0
 11
8.2062626764999997
 21
14.8590441837
 31
0.0
 12
8.4399950517000004
 22
14.8564764116999992
 32
0.0
 13
8.4399950517000004
 23
14.8564764116999992
 33
0.0
  0
SOLID
  5
5D3
  8
0
  6
CONTINUOUS
 62
     2
 10
7.9265739594999998
 20
14.8025136804000006
 30
0.0
 11
7.8954185620999997
 21
14.8564764116999992
 31
0.0
 12
8.1677068069000001
 22
14.8529375339000005
 32
0.0
 13
8.1677068069000001
 23
14.8529375339000005
 33
0.0
  0
SOLID
  5
5D4
  8
0
  6
CONTINUOUS
 62
     2
 10
8.1677068069000001
 20
14.8529375339000005
 30
0.0
 11
8.4399950517000004
 21
14.8564764116999992
 31
0.0
 12
7.9265739594999998
 22
14.8025136804000006
 32
0.0
 13
7.9265739594999998
 23
14.8025136804000006
 33
0.0
  0
SOLID
  5
5D5
  8
0
  6
CONTINUOUS
 62
     2
 10
8.4399950517000004
 20
14.8564764116999992
 30
0.0
 11
8.4088396542999995
 21
14.8025136804000006
 31
0.0
 12
7.9265739594999998
 22
14.8025136804000006
 32
0.0
 13
7.9265739594999998
 23
14.8025136804000006
 33
0.0
  0
SOLID
  5
5D6
  8
0
  6
CONTINUOUS
 62
     2
 10
7.9682680194
 20
14.7562077357000003
 30
0.0
 11
7.9265739594999998
 21
14.8025136804000006
 31
0.0
 12
8.4088396542999995
 22
14.8025136804000006
 32
0.0
 13
8.4088396542999995
 23
14.8025136804000006
 33
0.0
  0
SOLID
  5
5D7
  8
0
  6
CONTINUOUS
 62
     2
 10
8.4088396542999995
 20
14.8025136804000006
 30
0.0
 11
8.3671455944000002
 21
14.7562077357000003
 31
0.0
 12
7.9682680194
 22
14.7562077357000003
 32
0.0
 13
7.9682680194
 23
14.7562077357000003
 33
0.0
  0
SOLID
  5
5D8
  8
0
  6
CONTINUOUS
 62
     2
 10
8.0186785113999992
 20
14.7195823693999994
 30
0.0
 11
7.9682680194
 21
14.7562077357000003
 31
0.0
 12
8.3671455944000002
 22
14.7562077357000003
 32
0.0
 13
8.3671455944000002
 23
14.7562077357000003
 33
0.0
  0
SOLID
  5
5D9
  8
0
  6
CONTINUOUS
 62
     2
 10
8.3671455944000002
 20
14.7562077357000003
 30
0.0
 11
8.3167351023999991
 21
14.7195823693999994
 31
0.0
 12
8.0186785113999992
 22
14.7195823693999994
 32
0.0
 13
8.0186785113999992
 23
14.7195823693999994
 33
0.0
  0
SOLID
  5
5DA
  8
0
  6
CONTINUOUS
 62
     2
 10
8.0756022549999997
 20
14.6942382858999991
 30
0.0
 11
8.0186785113999992
 21
14.7195823693999994
 31
0.0
 12
8.3167351023999991
 22
14.7195823693999994
 32
0.0
 13
8.3167351023999991
 23
14.7195823693999994
 33
0.0
  0
SOLID
  5
5DB
  8
0
  6
CONTINUOUS
 62
     2
 10
8.3167351023999991
 20
14.7195823693999994
 30
0.0
 11
8.2598113588000004
 21
14.6942382858999991
 31
0.0
 12
8.0756022549999997
 22
14.6942382858999991
 32
0.0
 13
8.0756022549999997
 23
14.6942382858999991
 33
0.0
  0
SOLID
  5
5DC
  8
0
  6
CONTINUOUS
 62
     2
 10
8.1365514095000009
 20
14.6812831431999999
 30
0.0
 11
8.0756022549999997
 21
14.6942382858999991
 31
0.0
 12
8.2598113588000004
 22
14.6942382858999991
 32
0.0
 13
8.2598113588000004
 23
14.6942382858999991
 33
0.0
  0
SOLID
  5
5DD
  8
0
  6
CONTINUOUS
 62
     2
 10
8.2598113588000004
 20
14.6942382858999991
 30
0.0
 11
8.1988622042999992
 21
14.6812831431999999
 31
0.0
 12
8.1365514095000009
 22
14.6812831431999999
 32
0.0
 13
8.1365514095000009
 23
14.6812831431999999
 33
0.0
  0
SOLID
  5
5DE
  8
0
  6
CONTINUOUS
 62
     2
 10
8.7956091361999995
 20
15.0514012657999992
 30
0.0
 11
8.7956091361999995
 21
15.2717850254999998
 31
0.0
 12
8.9603428161000007
 22
15.2717850254999998
 32
0.0
 13
8.9603428161000007
 23
15.2717850254999998
 33
0.0
  0
SOLID
  5
5DF
  8
0
  6
CONTINUOUS
 62
     2
 10
8.7956091361999995
 20
15.0514012657999992
 30
0.0
 11
8.647612325199999
 21
14.9141959858999993
 31
0.0
 12
8.647612325199999
 22
15.0514012657999992
 32
0.0
 13
8.647612325199999
 23
15.0514012657999992
 33
0.0
  0
SOLID
  5
5E0
  8
0
  6
CONTINUOUS
 62
     2
 10
8.647612325199999
 20
14.9141959858999993
 30
0.0
 11
8.4828786452999996
 21
14.6858713760999997
 31
0.0
 12
8.647612325199999
 22
15.0514012657999992
 32
0.0
 13
8.647612325199999
 23
15.0514012657999992
 33
0.0
  0
SOLID
  5
5E1
  8
0
  6
CONTINUOUS
 62
     2
 10
8.647612325199999
 20
15.0514012657999992
 30
0.0
 11
8.4828786452999996
 21
14.6858713760999997
 31
0.0
 12
8.647612325199999
 22
15.2717850254999998
 32
0.0
 13
8.647612325199999
 23
15.2717850254999998
 33
0.0
  0
SOLID
  5
5E2
  8
0
  6
CONTINUOUS
 62
     2
 10
8.4828786452999996
 20
14.6858713760999997
 30
0.0
 11
8.4828786452999996
 21
15.2717850254999998
 31
0.0
 12
8.647612325199999
 22
15.2717850254999998
 32
0.0
 13
8.647612325199999
 23
15.2717850254999998
 33
0.0
  0
SOLID
  5
5E3
  8
0
  6
CONTINUOUS
 62
     2
 10
8.647612325199999
 20
14.9141959858999993
 30
0.0
 11
8.647612325199999
 21
14.6858713760999997
 31
0.0
 12
8.4828786452999996
 22
14.6858713760999997
 32
0.0
 13
8.4828786452999996
 23
14.6858713760999997
 33
0.0
  0
SOLID
  5
5E4
  8
0
  6
CONTINUOUS
 62
     2
 10
8.647612325199999
 20
14.9141959858999993
 30
0.0
 11
8.7956091361999995
 21
15.0514012657999992
 31
0.0
 12
8.7956091361999995
 22
14.9141959858999993
 32
0.0
 13
8.7956091361999995
 23
14.9141959858999993
 33
0.0
  0
SOLID
  5
5E5
  8
0
  6
CONTINUOUS
 62
     2
 10
8.7956091361999995
 20
15.0514012657999992
 30
0.0
 11
8.9603428161000007
 21
15.2717850254999998
 31
0.0
 12
8.7956091361999995
 22
14.9141959858999993
 32
0.0
 13
8.7956091361999995
 23
14.9141959858999993
 33
0.0
  0
SOLID
  5
5E6
  8
0
  6
CONTINUOUS
 62
     2
 10
8.7956091361999995
 20
14.9141959858999993
 30
0.0
 11
8.9603428161000007
 21
15.2717850254999998
 31
0.0
 12
8.7956091361999995
 22
14.6858713760999997
 32
0.0
 13
8.7956091361999995
 23
14.6858713760999997
 33
0.0
  0
SOLID
  5
5E7
  8
0
  6
CONTINUOUS
 62
     2
 10
8.9603428161000007
 20
15.2717850254999998
 30
0.0
 11
8.9603428161000007
 21
14.6858713760999997
 31
0.0
 12
8.7956091361999995
 22
14.6858713760999997
 32
0.0
 13
8.7956091361999995
 23
14.6858713760999997
 33
0.0
  0
SOLID
  5
5E8
  8
0
  6
CONTINUOUS
 62
     2
 10
9.3181177929999972
 20
14.8270981332999998
 30
0.0
 11
9.0053876603000003
 21
14.6858713760999997
 31
0.0
 12
9.1554337229999998
 22
14.8270981332999998
 32
0.0
 13
9.1554337229999998
 23
14.8270981332999998
 33
0.0
  0
SOLID
  5
5E9
  8
0
  6
CONTINUOUS
 62
     2
 10
9.1554337229999998
 20
14.8270981332999998
 30
0.0
 11
9.0053876603000003
 21
14.6858713760999997
 31
0.0
 12
9.1554337229999998
 22
15.2717850254999998
 32
0.0
 13
9.1554337229999998
 23
15.2717850254999998
 33
0.0
  0
SOLID
  5
5EA
  8
0
  6
CONTINUOUS
 62
     2
 10
9.0053876603000003
 20
14.6858713760999997
 30
0.0
 11
9.0053876603000003
 21
15.2717850254999998
 31
0.0
 12
9.1554337229999998
 22
15.2717850254999998
 32
0.0
 13
9.1554337229999998
 23
15.2717850254999998
 33
0.0
  0
SOLID
  5
5EB
  8
0
  6
CONTINUOUS
 62
     2
 10
9.0053876603000003
 20
14.6858713760999997
 30
0.0
 11
9.3181177929999972
 21
14.8270981332999998
 31
0.0
 12
9.1554337229999998
 22
14.6858713760999997
 32
0.0
 13
9.1554337229999998
 23
14.6858713760999997
 33
0.0
  0
SOLID
  5
5EC
  8
0
  6
CONTINUOUS
 62
     2
 10
9.3181177929999972
 20
14.8270981332999998
 30
0.0
 11
9.3181177929999972
 21
14.6858713760999997
 31
0.0
 12
9.1554337229999998
 22
14.6858713760999997
 32
0.0
 13
9.1554337229999998
 23
14.6858713760999997
 33
0.0
  0
SOLID
  5
5ED
  8
0
  6
CONTINUOUS
 62
     2
 10
9.6563697069999996
 20
15.2717850254999998
 30
0.0
 11
9.6563697069999996
 21
15.1290256286999991
 31
0.0
 12
9.5055121836000005
 22
15.1290256286999991
 32
0.0
 13
9.5055121836000005
 23
15.1290256286999991
 33
0.0
  0
SOLID
  5
5EE
  8
0
  6
CONTINUOUS
 62
     2
 10
9.6563697069999996
 20
15.0514012657999992
 30
0.0
 11
9.6563697069999996
 21
14.9070196642999999
 31
0.0
 12
9.5055121836000005
 22
14.9070196642999999
 32
0.0
 13
9.5055121836000005
 23
14.9070196642999999
 33
0.0
  0
SOLID
  5
5EF
  8
0
  6
CONTINUOUS
 62
     2
 10
9.6563697069999996
 20
14.8270981332999998
 30
0.0
 11
9.3472655316999997
 21
14.6858713760999997
 31
0.0
 12
9.5055121836000005
 22
14.8270981332999998
 32
0.0
 13
9.5055121836000005
 23
14.8270981332999998
 33
0.0
  0
SOLID
  5
5F0
  8
0
  6
CONTINUOUS
 62
     2
 10
9.5055121836000005
 20
14.8270981332999998
 30
0.0
 11
9.3472655316999997
 21
14.6858713760999997
 31
0.0
 12
9.5055121836000005
 22
14.9070196642999999
 32
0.0
 13
9.5055121836000005
 23
14.9070196642999999
 33
0.0
  0
SOLID
  5
5F1
  8
0
  6
CONTINUOUS
 62
     2
 10
9.6563697069999996
 20
15.0514012657999992
 30
0.0
 11
9.5055121836000005
 21
14.9070196642999999
 31
0.0
 12
9.5055121836000005
 22
15.0514012657999992
 32
0.0
 13
9.5055121836000005
 23
15.0514012657999992
 33
0.0
  0
SOLID
  5
5F2
  8
0
  6
CONTINUOUS
 62
     2
 10
9.5055121836000005
 20
14.9070196642999999
 30
0.0
 11
9.3472655316999997
 21
14.6858713760999997
 31
0.0
 12
9.5055121836000005
 22
15.0514012657999992
 32
0.0
 13
9.5055121836000005
 23
15.0514012657999992
 33
0.0
  0
SOLID
  5
5F3
  8
0
  6
CONTINUOUS
 62
     2
 10
9.5055121836000005
 20
15.0514012657999992
 30
0.0
 11
9.3472655316999997
 21
14.6858713760999997
 31
0.0
 12
9.5055121836000005
 22
15.1290256286999991
 32
0.0
 13
9.5055121836000005
 23
15.1290256286999991
 33
0.0
  0
SOLID
  5
5F4
  8
0
  6
CONTINUOUS
 62
     2
 10
9.6563697069999996
 20
15.2717850254999998
 30
0.0
 11
9.5055121836000005
 21
15.1290256286999991
 31
0.0
 12
9.519716507
 22
15.2717850254999998
 32
0.0
 13
9.519716507
 23
15.2717850254999998
 33
0.0
  0
SOLID
  5
5F5
  8
0
  6
CONTINUOUS
 62
     2
 10
9.5055121836000005
 20
15.1290256286999991
 30
0.0
 11
9.3472655316999997
 21
14.6858713760999997
 31
0.0
 12
9.519716507
 22
15.2717850254999998
 32
0.0
 13
9.519716507
 23
15.2717850254999998
 33
0.0
  0
SOLID
  5
5F6
  8
0
  6
CONTINUOUS
 62
     2
 10
9.3472655316999997
 20
14.6858713760999997
 30
0.0
 11
9.3472655316999997
 21
15.2717850254999998
 31
0.0
 12
9.519716507
 22
15.2717850254999998
 32
0.0
 13
9.519716507
 23
15.2717850254999998
 33
0.0
  0
SOLID
  5
5F7
  8
0
  6
CONTINUOUS
 62
     2
 10
9.6563697069999996
 20
14.8270981332999998
 30
0.0
 11
9.6563697069999996
 21
14.6858713760999997
 31
0.0
 12
9.3472655316999997
 22
14.6858713760999997
 32
0.0
 13
9.3472655316999997
 23
14.6858713760999997
 33
0.0
  0
SOLID
  5
5F8
  8
0
  6
CONTINUOUS
 62
     2
 10
9.9347376224000001
 20
15.2717921310999998
 30
0.0
 11
9.9816706458999995
 21
15.2653818826999998
 31
0.0
 12
9.7011899216999993
 22
15.2717850254999998
 32
0.0
 13
9.7011899216999993
 23
15.2717850254999998
 33
0.0
  0
SOLID
  5
5F9
  8
0
  6
CONTINUOUS
 62
     2
 10
9.8518457443000003
 20
15.1292061921999998
 30
0.0
 11
10.1057854854000002
 21
15.1338355277000005
 31
0.0
 12
9.9077756257000011
 22
15.1292061921999998
 32
0.0
 13
9.9077756257000011
 23
15.1292061921999998
 33
0.0
  0
SOLID
  5
5FA
  8
0
  6
CONTINUOUS
 62
     2
 10
9.9077756257000011
 20
15.1292061921999998
 30
0.0
 11
10.1057854854000002
 21
15.1338355277000005
 31
0.0
 12
9.9314982073000007
 22
15.1236720237999993
 32
0.0
 13
9.9314982073000007
 23
15.1236720237999993
 33
0.0
  0
SOLID
  5
5FB
  8
0
  6
CONTINUOUS
 62
     2
 10
9.9314982073000007
 20
15.1236720237999993
 30
0.0
 11
10.1057854854000002
 21
15.1338355277000005
 31
0.0
 12
9.9503231949999993
 22
15.1082121487999999
 32
0.0
 13
9.9503231949999993
 23
15.1082121487999999
 33
0.0
  0
SOLID
  5
5FC
  8
0
  6
CONTINUOUS
 62
     2
 10
10.1057854854000002
 20
15.1338355277000005
 30
0.0
 11
10.1094587318000002
 21
15.0866093989000003
 31
0.0
 12
9.9503231949999993
 22
15.1082121487999999
 32
0.0
 13
9.9503231949999993
 23
15.1082121487999999
 33
0.0
  0
SOLID
  5
5FD
  8
0
  6
CONTINUOUS
 62
     2
 10
9.9603641336000006
 20
15.0860182882
 30
0.0
 11
9.9503231949999993
 21
15.1082121487999999
 31
0.0
 12
10.1094587318000002
 22
15.0866093989000003
 32
0.0
 13
10.1094587318000002
 23
15.0866093989000003
 33
0.0
  0
SOLID
  5
5FE
  8
0
  6
CONTINUOUS
 62
     2
 10
9.9603641336000006
 20
15.0860182882
 30
0.0
 11
10.1094587318000002
 21
15.0866093989000003
 31
0.0
 12
9.9595480519000006
 22
15.0616724074999997
 32
0.0
 13
9.9595480519000006
 23
15.0616724074999997
 33
0.0
  0
SOLID
  5
5FF
  8
0
  6
CONTINUOUS
 62
     2
 10
9.9595480519000006
 20
15.0616724074999997
 30
0.0
 11
10.1094587318000002
 21
15.0866093989000003
 31
0.0
 12
9.9480434316000004
 22
15.0402007608999995
 32
0.0
 13
9.9480434316000004
 23
15.0402007608999995
 33
0.0
  0
SOLID
  5
600
  8
0
  6
CONTINUOUS
 62
     2
 10
10.1094587318000002
 20
15.0866093989000003
 30
0.0
 11
10.1003331281000008
 21
15.0401279688000002
 31
0.0
 12
9.9480434316000004
 22
15.0402007608999995
 32
0.0
 13
9.9480434316000004
 23
15.0402007608999995
 33
0.0
  0
SOLID
  5
601
  8
0
  6
CONTINUOUS
 62
     2
 10
9.9282254237000007
 20
15.0260362113999992
 30
0.0
 11
9.9480434316000004
 21
15.0402007608999995
 31
0.0
 12
10.1003331281000008
 22
15.0401279688000002
 32
0.0
 13
10.1003331281000008
 23
15.0401279688000002
 33
0.0
  0
SOLID
  5
602
  8
0
  6
CONTINUOUS
 62
     2
 10
9.9282254237000007
 20
15.0260362113999992
 30
0.0
 11
10.1003331281000008
 21
15.0401279688000002
 31
0.0
 12
9.9041854945000001
 22
15.0221030576000008
 32
0.0
 13
9.9041854945000001
 23
15.0221030576000008
 33
0.0
  0
SOLID
  5
603
  8
0
  6
CONTINUOUS
 62
     2
 10
10.1003331281000008
 20
15.0401279688000002
 30
0.0
 11
10.0790771525
 21
14.9977961429000004
 31
0.0
 12
9.9041854945000001
 22
15.0221030576000008
 32
0.0
 13
9.9041854945000001
 23
15.0221030576000008
 33
0.0
  0
SOLID
  5
604
  8
0
  6
CONTINUOUS
 62
     2
 10
10.0071768700000003
 20
14.9374539173999992
 30
0.0
 11
9.8518457443000003
 21
14.8828277470000003
 31
0.0
 12
10.0472478692999996
 22
14.9627148556999998
 32
0.0
 13
10.0472478692999996
 23
14.9627148556999998
 33
0.0
  0
SOLID
  5
605
  8
0
  6
CONTINUOUS
 62
     2
 10
10.0472478692999996
 20
14.9627148556999998
 30
0.0
 11
9.8518457443000003
 21
14.8828277470000003
 31
0.0
 12
10.0790771525
 22
14.9977961429000004
 32
0.0
 13
10.0790771525
 23
14.9977961429000004
 33
0.0
  0
SOLID
  5
606
  8
0
  6
CONTINUOUS
 62
     2
 10
10.0790771525
 20
14.9977961429000004
 30
0.0
 11
9.8518457443000003
 21
14.8828277470000003
 31
0.0
 12
9.9041854945000001
 22
15.0221030576000008
 32
0.0
 13
9.9041854945000001
 23
15.0221030576000008
 33
0.0
  0
SOLID
  5
607
  8
0
  6
CONTINUOUS
 62
     2
 10
9.8518457443000003
 20
14.8828277470000003
 30
0.0
 11
9.7011899216999993
 21
14.6858713760999997
 31
0.0
 12
9.9041854945000001
 22
15.0221030576000008
 32
0.0
 13
9.9041854945000001
 23
15.0221030576000008
 33
0.0
  0
SOLID
  5
608
  8
0
  6
CONTINUOUS
 62
     2
 10
9.9041854945000001
 20
15.0221030576000008
 30
0.0
 11
9.7011899216999993
 21
14.6858713760999997
 31
0.0
 12
9.8518457443000003
 22
15.0221030576000008
 32
0.0
 13
9.8518457443000003
 23
15.0221030576000008
 33
0.0
  0
SOLID
  5
609
  8
0
  6
CONTINUOUS
 62
     2
 10
9.8518457443000003
 20
15.0221030576000008
 30
0.0
 11
9.7011899216999993
 21
14.6858713760999997
 31
0.0
 12
9.8518457443000003
 22
15.1292061921999998
 32
0.0
 13
9.8518457443000003
 23
15.1292061921999998
 33
0.0
  0
SOLID
  5
60A
  8
0
  6
CONTINUOUS
 62
     2
 10
10.1057854854000002
 20
15.1338355277000005
 30
0.0
 11
9.8518457443000003
 21
15.1292061921999998
 31
0.0
 12
10.0895824652999995
 22
15.1783468983999992
 32
0.0
 13
10.0895824652999995
 23
15.1783468983999992
 33
0.0
  0
SOLID
  5
60B
  8
0
  6
CONTINUOUS
 62
     2
 10
10.0895824652999995
 20
15.1783468983999992
 30
0.0
 11
9.8518457443000003
 21
15.1292061921999998
 31
0.0
 12
10.0620365917000001
 22
15.2168829182999996
 32
0.0
 13
10.0620365917000001
 23
15.2168829182999996
 33
0.0
  0
SOLID
  5
60C
  8
0
  6
CONTINUOUS
 62
     2
 10
10.0620365917000001
 20
15.2168829182999996
 30
0.0
 11
9.8518457443000003
 21
15.1292061921999998
 31
0.0
 12
10.0251656833999991
 22
15.2466207075
 32
0.0
 13
10.0251656833999991
 23
15.2466207075
 33
0.0
  0
SOLID
  5
60D
  8
0
  6
CONTINUOUS
 62
     2
 10
10.0251656833999991
 20
15.2466207075
 30
0.0
 11
9.8518457443000003
 21
15.1292061921999998
 31
0.0
 12
9.9816706458999995
 22
15.2653818826999998
 32
0.0
 13
9.9816706458999995
 23
15.2653818826999998
 33
0.0
  0
SOLID
  5
60E
  8
0
  6
CONTINUOUS
 62
     2
 10
9.9816706458999995
 20
15.2653818826999998
 30
0.0
 11
9.8518457443000003
 21
15.1292061921999998
 31
0.0
 12
9.7011899216999993
 22
15.2717850254999998
 32
0.0
 13
9.7011899216999993
 23
15.2717850254999998
 33
0.0
  0
SOLID
  5
60F
  8
0
  6
CONTINUOUS
 62
     2
 10
9.7011899216999993
 20
14.6858713760999997
 30
0.0
 11
9.7011899216999993
 21
15.2717850254999998
 31
0.0
 12
9.8518457443000003
 22
15.1292061921999998
 32
0.0
 13
9.8518457443000003
 23
15.1292061921999998
 33
0.0
  0
SOLID
  5
610
  8
0
  6
CONTINUOUS
 62
     2
 10
9.8518457443000003
 20
14.8828277470000003
 30
0.0
 11
9.8518457443000003
 21
14.6858713760999997
 31
0.0
 12
9.7011899216999993
 22
14.6858713760999997
 32
0.0
 13
9.7011899216999993
 23
14.6858713760999997
 33
0.0
  0
SOLID
  5
611
  8
0
  6
CONTINUOUS
 62
     2
 10
9.8518457443000003
 20
14.8828277470000003
 30
0.0
 11
10.0071768700000003
 21
14.9374539173999992
 31
0.0
 12
9.9766691734999995
 22
14.6858713760999997
 32
0.0
 13
9.9766691734999995
 23
14.6858713760999997
 33
0.0
  0
SOLID
  5
612
  8
0
  6
CONTINUOUS
 62
     2
 10
10.0071768700000003
 20
14.9374539173999992
 30
0.0
 11
10.1666201130000005
 21
14.6858713760999997
 31
0.0
 12
9.9766691734999995
 22
14.6858713760999997
 32
0.0
 13
9.9766691734999995
 23
14.6858713760999997
 33
0.0
  0
DIMENSION
  5
613
  8
0
  6
CONTINUOUS
 62
     2
  2
*D12
 10
19.8033630595999988
 20
2.6120541241000002
 30
0.0
 11
12.6749577570999996
 21
2.4948666241000002
 31
0.0
 70
   128
 13
5.5465524546999996
 23
11.3331489652999995
 33
0.0
 14
19.8033630595999988
 24
11.3331137605999999
 34
0.0
  0
DIMENSION
  5
614
  8
0
  6
CONTINUOUS
 62
     2
  2
*D13
 10
22.8920211545000001
 20
19.3229128695999997
 30
0.0
 11
22.8920211545000001
 21
11.6468779515000005
 31
0.0
 70
   128
 13
12.6753270448999995
 23
4.2052180333999987
 33
0.0
 14
12.6741463231000004
 24
19.3229128695999997
 34
0.0
 50
90.0
  0
TEXT
  5
630
  8
___NOTE
  6
CONTINUOUS
 62
     2
 10
38.2966666666999984
 20
1.8300000000000001
 30
0.0
 40
0.1
  1
 
 41
0.8
  0
TEXT
  5
634
  8
___NOTE
  6
CONTINUOUS
 62
     2
 10
38.2966666666999984
 20
2.0499999999999989
 30
0.0
 40
0.1
  1
 
 41
0.8
  0
TEXT
  5
638
  8
___NOTE
  6
CONTINUOUS
 62
     2
 10
38.2966666666999984
 20
2.27
 30
0.0
 40
0.1
  1
 
 41
0.8
  0
TEXT
  5
63C
  8
___NOTE
  6
CONTINUOUS
 62
     2
 10
38.2966666666999984
 20
2.4900000000000002
 30
0.0
 40
0.1
  1
 
 41
0.8
  0
TEXT
  5
681
  8
___NOTE
  6
CONTINUOUS
 62
     2
 10
28.2966666666999984
 20
1.8300000000000001
 30
0.0
 40
0.1
  1
 
 41
0.8
  0
TEXT
  5
685
  8
___NOTE
  6
CONTINUOUS
 62
     2
 10
28.2966666666999984
 20
2.0499999999999989
 30
0.0
 40
0.1
  1
 
 41
0.8
  0
TEXT
  5
689
  8
___NOTE
  6
CONTINUOUS
 62
     2
 10
28.2966666666999984
 20
2.27
 30
0.0
 40
0.1
  1
 
 41
0.8
  0
TEXT
  5
68D
  8
___NOTE
  6
CONTINUOUS
 62
     2
 10
28.2966666666999984
 20
2.4900000000000002
 30
0.0
 40
0.1
  1
 
 41
0.8
  0
TEXT
  5
698
  8
___NOTE
  6
CONTINUOUS
 62
     2
 10
25.6775314426000101
 20
5.8518425731999999
 30
0.0
 40
0.15625
  1
 
 41
0.8
  0
TEXT
  5
69A
  8
___NOTE
  6
CONTINUOUS
 62
     2
 10
25.6775314426000101
 20
5.3830925731999999
 30
0.0
 40
0.15625
  1
 
 41
0.8
  0
TEXT
  5
69C
  8
___NOTE
  6
CONTINUOUS
 62
     2
 10
25.6775314426000101
 20
4.914342573199999
 30
0.0
 40
0.15625
  1
 
 41
0.8
  0
TEXT
  5
69E
  8
___NOTE
  6
CONTINUOUS
 62
     2
 10
14.7546936585333306
 20
11.7283454549999995
 30
0.0
 40
0.15625
  1
FOR SELF-RIMMING INSTALLATION
 41
0.8
 72
     2
 11
18.1713603251999984
 21
11.7283454549999995
 31
0.0
  0
TEXT
  5
69F
  8
___NOTE
  6
CONTINUOUS
 62
     2
 10
15.8796936585333306
 20
11.4939704549999995
 30
0.0
 40
0.15625
  1
CUT ALONG THIS LINE.
 41
0.8
 72
     2
 11
18.1713603251999984
 21
11.4939704549999995
 31
0.0
  0
TEXT
  5
6A0
  8
___NOTE
  6
CONTINUOUS
 62
     2
 10
13.4630269918666592
 20
11.2595954549999995
 30
0.0
 40
0.15625
  1
POUR DES INSTALLATIONS À REBORD INTÉGRÉ
 41
0.8
 72
     2
 11
18.1713603251999984
 21
11.2595954549999995
 31
0.0
  0
TEXT
  5
6A1
  8
___NOTE
  6
CONTINUOUS
 62
     2
 10
14.3380269918666592
 20
11.0252204549999995
 30
0.0
 40
0.15625
  1
DÉCOUPER AU LONG DE CETTE LIGNE.
 41
0.8
 72
     2
 11
18.1713603251999984
 21
11.0252204549999995
 31
0.0
  0
TEXT
  5
6A2
  8
___NOTE
  6
CONTINUOUS
 62
     2
 10
13.7130269918666592
 20
10.7908454549999995
 30
0.0
 40
0.15625
  1
PARA INSTALACIONES DE BORDE TERMINADO
 41
0.8
 72
     2
 11
18.1713603251999984
 21
10.7908454549999995
 31
0.0
  0
TEXT
  5
6A3
  8
___NOTE
  6
CONTINUOUS
 62
     2
 10
14.4630269918666592
 20
10.5564704549999995
 30
0.0
 40
0.15625
  1
CORTE A LO LARGO DE ESTA LÍNEA.
 41
0.8
 72
     2
 11
18.1713603251999984
 21
10.5564704549999995
 31
0.0
  0
TEXT
  5
6A4
  8
___NOTE
  6
CONTINUOUS
 62
     2
 10
18.0463603251999984
 20
10.3220954549999995
 30
0.0
 40
0.15625
  1
 
 41
0.8
 72
     2
 11
18.1713603251999984
 21
10.3220954549999995
 31
0.0
  0
LINE
  5
6A5
  8
___NOTE
  6
CONTINUOUS
 62
     2
 10
19.7484282443999994
 20
12.8879577141000006
 30
0.0
 11
18.4213603251999984
 21
11.8064704549999995
 31
0.0
  0
LINE
  5
6A6
  8
___NOTE
  6
CONTINUOUS
 62
     2
 10
18.4213603251999984
 20
11.8064704549999995
 30
0.0
 11
18.1713603251999984
 21
11.8064704549999995
 31
0.0
  0
SOLID
  5
6A7
  8
___NOTE
  6
CONTINUOUS
 62
     2
 10
19.622822619299999
 20
12.7452831213
 30
0.0
 11
19.7484282443999994
 21
12.8879577141000006
 31
0.0
 12
19.5833392715999999
 22
12.7937322210000008
 32
0.0
 13
19.5833392715999999
 23
12.7937322210000008
 33
0.0
  0
TEXT
  5
6A8
  8
___NOTE
  6
CONTINUOUS
 62
     2
 10
14.2630426002666599
 20
14.4127318797000008
 30
0.0
 40
0.15625
  1
RIM OF LAVATORY
 41
0.8
 72
     2
 11
16.096375933600001
 21
14.4127318797000008
 31
0.0
  0
TEXT
  5
6A9
  8
___NOTE
  6
CONTINUOUS
 62
     2
 10
14.0963759335999992
 20
14.1783568797000008
 30
0.0
 40
0.15625
  1
REBORD DE LAVABO
 41
0.8
 72
     2
 11
16.096375933600001
 21
14.1783568797000008
 31
0.0
  0
TEXT
  5
6AA
  8
___NOTE
  6
CONTINUOUS
 62
     2
 10
14.0963759335999992
 20
13.9439818797000008
 30
0.0
 40
0.15625
  1
BORDE DEL LAVABO
 41
0.8
 72
     2
 11
16.096375933600001
 21
13.9439818797000008
 31
0.0
  0
TEXT
  5
6AB
  8
___NOTE
  6
CONTINUOUS
 62
     2
 10
15.9713759335999992
 20
13.7096068797000008
 30
0.0
 40
0.15625
  1
 
 41
0.8
 72
     2
 11
16.096375933600001
 21
13.7096068797000008
 31
0.0
  0
LINE
  5
6AC
  8
___NOTE
  6
CONTINUOUS
 62
     2
 10
20.2674037857000009
 20
16.365410035
 30
0.0
 11
16.346375933600001
 21
14.4908568797000008
 31
0.0
  0
LINE
  5
6AD
  8
___NOTE
  6
CONTINUOUS
 62
     2
 10
16.346375933600001
 20
14.4908568797000008
 30
0.0
 11
16.096375933600001
 21
14.4908568797000008
 31
0.0
  0
SOLID
  5
6AE
  8
___NOTE
  6
CONTINUOUS
 62
     2
 10
20.1117202779000017
 20
16.2563437344999997
 30
0.0
 11
20.2674037857000009
 21
16.365410035
 31
0.0
 12
20.0847627483999993
 22
16.3127311587000001
 32
0.0
 13
20.0847627483999993
 23
16.3127311587000001
 33
0.0
  0
TEXT
  5
6AF
  8
___NOTE
  6
CONTINUOUS
 62
     2
 10
7.4231862837999989
 20
14.2112353304999992
 30
0.0
 40
0.25
  1
CUT-OUT TEMPLATE
 41
0.8
  0
TEXT
  5
6B0
  8
___NOTE
  6
CONTINUOUS
 62
     2
 10
7.4231862837999989
 20
13.8362353304999992
 30
0.0
 40
0.25
  1
PLAN DE DÉCOUPE
 41
0.8
  0
TEXT
  5
6B1
  8
___NOTE
  6
CONTINUOUS
 62
     2
 10
7.4231862837999989
 20
13.4612353304999992
 30
0.0
 40
0.25
  1
PLANTILLA DE CORTE
 41
0.8
  0
TEXT
  5
6B2
  8
___NOTE
  6
CONTINUOUS
 62
     2
 10
7.4231862837999989
 20
13.0862353304999992
 30
0.0
 40
0.25
  1
28038
 41
0.8
  0
INSERT
  5
6B4
  8
___SYMBOL
  6
CONTINUOUS
 62
     2
  2
SCISSORS_BL6
 10
17.6402988582000013
 20
17.2727265024999994
 30
0.0
  0
INSERT
  5
6B5
  8
___SYMBOL
  6
CONTINUOUS
 62
     2
  2
COPYRIGHT_YEAR_BL7
 10
12.6404951945999997
 20
5.0907708499000002
 30
0.0
  0
INSERT
  5
6B6
  8
___SYMBOL
  6
CONTINUOUS
 62
     2
  2
TEMPLATE_NUMBER_BL8
 10
12.5227107546000003
 20
5.5053119830999986
 30
0.0
  0
INSERT
  5
6B7
  8
___SYMBOL
  6
CONTINUOUS
 62
     2
  2
TEMPLATE_NUMBER_BL9
 10
6.9359367686000004
 20
3.1492549664
 30
0.0
  0
INSERT
  5
6B8
  8
___SYMBOL
  6
CONTINUOUS
 62
     2
  2
WHEN_PLOTTING_TEMPLATE__BL
 10
13.4878079810999996
 20
7.7969418385999996
 30
0.0
  0
LINE
  5
6C3
  8
0
  6
CONTINUOUS
 62
     2
 10
7.4466673816999993
 20
15.2717850254999998
 30
0.0
 11
7.4466673816999993
 21
14.6858473726999996
 31
0.0
  0
LINE
  5
6C4
  8
0
  6
CONTINUOUS
 62
     2
 10
7.6211676086000004
 20
15.2717850254999998
 30
0.0
 11
7.6211676086000004
 21
15.1079638357999997
 31
0.0
  0
LINE
  5
6C5
  8
0
  6
CONTINUOUS
 62
     2
 10
7.6211676086000004
 20
14.8873712100999995
 30
0.0
 11
7.6211676086000004
 21
14.6858713760999997
 31
0.0
  0
LINE
  5
6C6
  8
0
  6
CONTINUOUS
 62
     2
 10
7.7589317753999989
 20
15.2717850254999998
 30
0.0
 11
7.6211676086000004
 21
15.1079638357999997
 31
0.0
  0
LINE
  5
6C7
  8
0
  6
CONTINUOUS
 62
     2
 10
7.9509935874000002
 20
15.2717850254999998
 30
0.0
 11
7.7376901354999994
 21
15.0181367526000002
 31
0.0
  0
LINE
  5
6CD
  8
0
  6
CONTINUOUS
 62
     2
 10
8.4828786452999996
 20
15.2717850254999998
 30
0.0
 11
8.4828786452999996
 21
14.6858713760999997
 31
0.0
  0
LINE
  5
6CE
  8
0
  6
CONTINUOUS
 62
     2
 10
8.647612325199999
 20
15.2717850254999998
 30
0.0
 11
8.647612325199999
 21
15.0514012657999992
 31
0.0
  0
LINE
  5
6CF
  8
0
  6
CONTINUOUS
 62
     2
 10
8.647612325199999
 20
14.9141959858999993
 30
0.0
 11
8.647612325199999
 21
14.6858713760999997
 31
0.0
  0
LINE
  5
6D0
  8
0
  6
CONTINUOUS
 62
     2
 10
8.7956091361999995
 20
15.2717850254999998
 30
0.0
 11
8.7956091361999995
 21
15.0514012657999992
 31
0.0
  0
LINE
  5
6D1
  8
0
  6
CONTINUOUS
 62
     2
 10
8.7956091361999995
 20
14.9141959858999993
 30
0.0
 11
8.7956091361999995
 21
14.6858713760999997
 31
0.0
  0
LINE
  5
6F2
  8
0
  6
CONTINUOUS
 62
     2
 10
8.9603428161000007
 20
15.2717850254999998
 30
0.0
 11
8.9603428161000007
 21
14.6858713760999997
 31
0.0
  0
LINE
  5
6F3
  8
0
  6
CONTINUOUS
 62
     2
 10
9.0053876603000003
 20
14.6858713760999997
 30
0.0
 11
9.0053876603000003
 21
15.2717850254999998
 31
0.0
  0
LINE
  5
6F4
  8
0
  6
CONTINUOUS
 62
     2
 10
9.1554337229999998
 20
15.2717850254999998
 30
0.0
 11
9.1554337229999998
 21
14.8270981332999998
 31
0.0
  0
LINE
  5
6F5
  8
0
  6
CONTINUOUS
 62
     2
 10
9.3181177929999972
 20
14.8270981332999998
 30
0.0
 11
9.3181177929999972
 21
14.6858713760999997
 31
0.0
  0
LINE
  5
6F6
  8
0
  6
CONTINUOUS
 62
     2
 10
9.3472655316999997
 20
14.6858713760999997
 30
0.0
 11
9.3472655316999997
 21
15.2717850254999998
 31
0.0
  0
LINE
  5
6F7
  8
0
  6
CONTINUOUS
 62
     2
 10
9.5055121836000005
 20
15.1290256286999991
 30
0.0
 11
9.5055121836000005
 21
15.0514012657999992
 31
0.0
  0
LINE
  5
6F8
  8
0
  6
CONTINUOUS
 62
     2
 10
9.5055121836000005
 20
14.9070196642999999
 30
0.0
 11
9.5055121836000005
 21
14.8270981332999998
 31
0.0
  0
LINE
  5
6F9
  8
0
  6
CONTINUOUS
 62
     2
 10
9.6563697069999996
 20
14.6858713760999997
 30
0.0
 11
9.6563697069999996
 21
14.8270981332999998
 31
0.0
  0
LINE
  5
6FA
  8
0
  6
CONTINUOUS
 62
     2
 10
9.6563697069999996
 20
14.9070196642999999
 30
0.0
 11
9.6563697069999996
 21
15.0514012657999992
 31
0.0
  0
LINE
  5
6FB
  8
0
  6
CONTINUOUS
 62
     2
 10
9.6563697069999996
 20
15.1290256286999991
 30
0.0
 11
9.6563697069999996
 21
15.2717850254999998
 31
0.0
  0
LINE
  5
6FE
  8
0
  6
CONTINUOUS
 62
     2
 10
9.7011899216999993
 20
14.6858713760999997
 30
0.0
 11
9.7011899216999993
 21
15.2717850254999998
 31
0.0
  0
LINE
  5
6FF
  8
0
  6
CONTINUOUS
 62
     2
 10
9.8518457443000003
 20
15.1292061921999998
 30
0.0
 11
9.8518457443000003
 21
15.0221030576000008
 31
0.0
  0
LINE
  5
700
  8
0
  6
CONTINUOUS
 62
     2
 10
9.8518457443000003
 20
14.8828277470000003
 30
0.0
 11
9.8518457443000003
 21
14.6858713760999997
 31
0.0
  0
LINE
  5
706
  8
0
  6
CONTINUOUS
 62
     2
 10
10.2915040882
 20
14.6530306853999992
 30
0.0
 11
10.2915040882
 21
14.7189968841999992
 31
0.0
  0
LINE
  5
70F
  8
0
  6
CONTINUOUS
 62
     2
 10
7.7749055486999987
 20
14.6858713760999997
 30
0.0
 11
7.6211676086000004
 21
14.8873712100999995
 31
0.0
  0
LINE
  5
710
  8
0
  6
CONTINUOUS
 62
     2
 10
7.9911979702
 20
14.6858713760999997
 30
0.0
 11
7.7376901354999994
 21
15.0181367526000002
 31
0.0
  0
LINE
  5
715
  8
0
  6
CONTINUOUS
 62
     2
 10
9.9766691734999995
 20
14.6858713760999997
 30
0.0
 11
9.8518457443000003
 21
14.8828277470000003
 31
0.0
  0
LINE
  5
716
  8
0
  6
CONTINUOUS
 62
     2
 10
10.1666201130000005
 20
14.6858713760999997
 30
0.0
 11
10.0071768700000003
 21
14.9374539173999992
 31
0.0
  0
LINE
  5
71D
  8
0
  6
CONTINUOUS
 62
     2
 10
10.3031020644000009
 20
14.6853336267000003
 30
0.0
 11
10.3349700771999995
 21
14.6530306853999992
 31
0.0
  0
LINE
  5
728
  8
0
  6
CONTINUOUS
 62
     2
 10
7.6211676086000004
 20
14.6858713760999997
 30
0.0
 11
7.4466673816999993
 21
14.6858473726999996
 31
0.0
  0
LINE
  5
72B
  8
0
  6
CONTINUOUS
 62
     2
 10
10.3157834212000008
 20
14.6853336267000003
 30
0.0
 11
10.2915040882
 21
14.6853336267000003
 31
0.0
  0
LINE
  5
72C
  8
0
  6
CONTINUOUS
 62
     2
 10
8.9603428161000007
 20
14.6858713760999997
 30
0.0
 11
8.7956091361999995
 21
14.6858713760999997
 31
0.0
  0
LINE
  5
72D
  8
0
  6
CONTINUOUS
 62
     2
 10
8.647612325199999
 20
14.6858713760999997
 30
0.0
 11
8.4828786452999996
 21
14.6858713760999997
 31
0.0
  0
LINE
  5
72E
  8
0
  6
CONTINUOUS
 62
     2
 10
7.7749055486999987
 20
14.6858713760999997
 30
0.0
 11
7.9911979702
 21
14.6858713760999997
 31
0.0
  0
LINE
  5
72F
  8
0
  6
CONTINUOUS
 62
     2
 10
9.0053876603000003
 20
14.6858713760999997
 30
0.0
 11
9.3181177929999972
 21
14.6858713760999997
 31
0.0
  0
LINE
  5
730
  8
0
  6
CONTINUOUS
 62
     2
 10
9.3472655316999997
 20
14.6858713760999997
 30
0.0
 11
9.6563697069999996
 21
14.6858713760999997
 31
0.0
  0
LINE
  5
731
  8
0
  6
CONTINUOUS
 62
     2
 10
9.7011899216999993
 20
14.6858713760999997
 30
0.0
 11
9.8518457443000003
 21
14.6858713760999997
 31
0.0
  0
LINE
  5
732
  8
0
  6
CONTINUOUS
 62
     2
 10
9.9766691734999995
 20
14.6858713760999997
 30
0.0
 11
10.1666201130000005
 21
14.6858713760999997
 31
0.0
  0
LINE
  5
733
  8
0
  6
CONTINUOUS
 62
     2
 10
10.2915040882
 20
14.7189968841999992
 30
0.0
 11
10.3157834212000008
 21
14.7189968841999992
 31
0.0
  0
LINE
  5
734
  8
0
  6
CONTINUOUS
 62
     2
 10
9.1554337229999998
 20
14.8270981332999998
 30
0.0
 11
9.3181177929999972
 21
14.8270981332999998
 31
0.0
  0
LINE
  5
735
  8
0
  6
CONTINUOUS
 62
     2
 10
9.5055121836000005
 20
14.8270981332999998
 30
0.0
 11
9.6563697069999996
 21
14.8270981332999998
 31
0.0
  0
LINE
  5
736
  8
0
  6
CONTINUOUS
 62
     2
 10
9.5055121836000005
 20
14.9070196642999999
 30
0.0
 11
9.6563697069999996
 21
14.9070196642999999
 31
0.0
  0
LINE
  5
737
  8
0
  6
CONTINUOUS
 62
     2
 10
8.647612325199999
 20
14.9141959858999993
 30
0.0
 11
8.7956091361999995
 21
14.9141959858999993
 31
0.0
  0
LINE
  5
738
  8
0
  6
CONTINUOUS
 62
     2
 10
9.8518457443000003
 20
15.0221030576000008
 30
0.0
 11
9.9041854945000001
 21
15.0221030576000008
 31
0.0
  0
LINE
  5
739
  8
0
  6
CONTINUOUS
 62
     2
 10
8.647612325199999
 20
15.0514012657999992
 30
0.0
 11
8.7956091361999995
 21
15.0514012657999992
 31
0.0
  0
LINE
  5
73A
  8
0
  6
CONTINUOUS
 62
     2
 10
9.5055121836000005
 20
15.0514012657999992
 30
0.0
 11
9.6563697069999996
 21
15.0514012657999992
 31
0.0
  0
LINE
  5
73B
  8
0
  6
CONTINUOUS
 62
     2
 10
9.5055121836000005
 20
15.1290256286999991
 30
0.0
 11
9.6563697069999996
 21
15.1290256286999991
 31
0.0
  0
LINE
  5
73C
  8
0
  6
CONTINUOUS
 62
     2
 10
9.9077756257000011
 20
15.1292061921999998
 30
0.0
 11
9.8518457443000003
 21
15.1292061921999998
 31
0.0
  0
LINE
  5
73D
  8
0
  6
CONTINUOUS
 62
     2
 10
7.4466673816999993
 20
15.2717850254999998
 30
0.0
 11
7.6211676086000004
 21
15.2717850254999998
 31
0.0
  0
LINE
  5
73E
  8
0
  6
CONTINUOUS
 62
     2
 10
7.7589317753999989
 20
15.2717850254999998
 30
0.0
 11
7.9509935874000002
 21
15.2717850254999998
 31
0.0
  0
LINE
  5
73F
  8
0
  6
CONTINUOUS
 62
     2
 10
8.4828786452999996
 20
15.2717850254999998
 30
0.0
 11
8.647612325199999
 21
15.2717850254999998
 31
0.0
  0
LINE
  5
740
  8
0
  6
CONTINUOUS
 62
     2
 10
8.7956091361999995
 20
15.2717850254999998
 30
0.0
 11
8.9603428161000007
 21
15.2717850254999998
 31
0.0
  0
LINE
  5
741
  8
0
  6
CONTINUOUS
 62
     2
 10
9.0053876603000003
 20
15.2717850254999998
 30
0.0
 11
9.1554337229999998
 21
15.2717850254999998
 31
0.0
  0
LINE
  5
742
  8
0
  6
CONTINUOUS
 62
     2
 10
9.3472655316999997
 20
15.2717850254999998
 30
0.0
 11
9.6563697069999996
 21
15.2717850254999998
 31
0.0
  0
LINE
  5
743
  8
0
  6
CONTINUOUS
 62
     2
 10
9.7011899216999993
 20
15.2717850254999998
 30
0.0
 11
9.9347376224000001
 21
15.2717850254999998
 31
0.0
  0
POLYLINE
  5
780
  8
_CURVE
  6
PHANTOM
 62
     8
 66
     1
 10
0.0
 20
0.0
 30
0.0
  0
VERTEX
  5
F52
  8
_CURVE
  6
PHANTOM
 62
     8
 10
5.5207248575000003
 20
17.1373428558999983
 30
0.0
  0
VERTEX
  5
F53
  8
_CURVE
  6
PHANTOM
 62
     8
 10
5.5535528238999987
 20
17.1848588569
 30
0.0
  0
VERTEX
  5
F54
  8
_CURVE
  6
PHANTOM
 62
     8
 10
5.5868963322000003
 20
17.2320197214999986
 30
0.0
  0
VERTEX
  5
F55
  8
_CURVE
  6
PHANTOM
 62
     8
 10
5.6207530116999989
 20
17.2788182811000013
 30
0.0
  0
VERTEX
  5
F56
  8
_CURVE
  6
PHANTOM
 62
     8
 10
5.6551204916999991
 20
17.3252473675000012
 30
0.0
  0
VERTEX
  5
F57
  8
_CURVE
  6
PHANTOM
 62
     8
 10
5.688541666599999
 20
17.3693987681000017
 30
0.0
  0
VERTEX
  5
F58
  8
_CURVE
  6
PHANTOM
 62
     8
 10
5.7224311106999997
 20
17.4131960982000003
 30
0.0
  0
VERTEX
  5
F59
  8
_CURVE
  6
PHANTOM
 62
     8
 10
5.756789927399999
 20
17.4566313605999994
 30
0.0
  0
VERTEX
  5
F5A
  8
_CURVE
  6
PHANTOM
 62
     8
 10
5.7916192199000003
 20
17.4996965584999984
 30
0.0
  0
VERTEX
  5
F5B
  8
_CURVE
  6
PHANTOM
 62
     8
 10
5.8207541236999996
 20
17.5349961774999983
 30
0.0
  0
VERTEX
  5
F5C
  8
_CURVE
  6
PHANTOM
 62
     8
 10
5.850209895499999
 20
17.5700318937999995
 30
0.0
  0
VERTEX
  5
F5D
  8
_CURVE
  6
PHANTOM
 62
     8
 10
5.879985422999999
 20
17.6047979336999987
 30
0.0
  0
VERTEX
  5
F5E
  8
_CURVE
  6
PHANTOM
 62
     8
 10
5.923314015499999
 20
17.6542595167000016
 30
0.0
  0
VERTEX
  5
F5F
  8
_CURVE
  6
PHANTOM
 62
     8
 10
5.967278952
 20
17.7031461941000003
 30
0.0
  0
VERTEX
  5
F60
  8
_CURVE
  6
PHANTOM
 62
     8
 10
6.0092521155999989
 20
17.7486605719999986
 30
0.0
  0
VERTEX
  5
F61
  8
_CURVE
  6
PHANTOM
 62
     8
 10
6.0517654767999991
 20
17.7936665968999996
 30
0.0
  0
VERTEX
  5
F62
  8
_CURVE
  6
PHANTOM
 62
     8
 10
6.0910351662000002
 20
17.8343019405000014
 30
0.0
  0
VERTEX
  5
F63
  8
_CURVE
  6
PHANTOM
 62
     8
 10
6.1307552051999989
 20
17.8745045894000008
 30
0.0
  0
VERTEX
  5
F64
  8
_CURVE
  6
PHANTOM
 62
     8
 10
6.1549949752999993
 20
17.8986006937000006
 30
0.0
  0
VERTEX
  5
F65
  8
_CURVE
  6
PHANTOM
 62
     8
 10
6.1793955384999997
 20
17.9225317532999995
 30
0.0
  0
VERTEX
  5
F66
  8
_CURVE
  6
PHANTOM
 62
     8
 10
6.225932714899999
 20
17.9673035170999995
 30
0.0
  0
VERTEX
  5
F67
  8
_CURVE
  6
PHANTOM
 62
     8
 10
6.2394894020000002
 20
17.9801365882000006
 30
0.0
  0
SEQEND
  5
F68
  8
_CURVE
  6
PHANTOM
 62
     8
  0
POLYLINE
  5
798
  8
_CURVE
  6
PHANTOM
 62
     8
 66
     1
 10
0.0
 20
0.0
 30
0.0
  0
VERTEX
  5
F69
  8
_CURVE
  6
PHANTOM
 62
     8
 10
6.2394894020000002
 20
17.9801365882000006
 30
0.0
  0
VERTEX
  5
F6A
  8
_CURVE
  6
PHANTOM
 62
     8
 10
6.2806835882999996
 20
18.0185553429000009
 30
0.0
  0
VERTEX
  5
F6B
  8
_CURVE
  6
PHANTOM
 62
     8
 10
6.3222990648000001
 20
18.056522771600001
 30
0.0
  0
VERTEX
  5
F6C
  8
_CURVE
  6
PHANTOM
 62
     8
 10
6.364329925099999
 20
18.0940318908000002
 30
0.0
  0
VERTEX
  5
F6D
  8
_CURVE
  6
PHANTOM
 62
     8
 10
6.4067702627999994
 20
18.1310757170000016
 30
0.0
  0
VERTEX
  5
F6E
  8
_CURVE
  6
PHANTOM
 62
     8
 10
6.4527408805999986
 20
18.170285312299999
 30
0.0
  0
VERTEX
  5
F6F
  8
_CURVE
  6
PHANTOM
 62
     8
 10
6.4991693265999988
 20
18.2089493078999993
 30
0.0
  0
VERTEX
  5
F70
  8
_CURVE
  6
PHANTOM
 62
     8
 10
6.5460491214000003
 20
18.2470654574999998
 30
0.0
  0
VERTEX
  5
F71
  8
_CURVE
  6
PHANTOM
 62
     8
 10
6.593373785299999
 20
18.2846315146999991
 30
0.0
  0
VERTEX
  5
F72
  8
_CURVE
  6
PHANTOM
 62
     8
 10
6.6402598924999987
 20
18.3209740212999996
 30
0.0
  0
VERTEX
  5
F73
  8
_CURVE
  6
PHANTOM
 62
     8
 10
6.6875585499000003
 20
18.3567814268000014
 30
0.0
  0
VERTEX
  5
F74
  8
_CURVE
  6
PHANTOM
 62
     8
 10
6.7352597866999986
 20
18.3920509756000001
 30
0.0
  0
VERTEX
  5
F75
  8
_CURVE
  6
PHANTOM
 62
     8
 10
6.7833536318999998
 20
18.4267799124000007
 30
0.0
  0
VERTEX
  5
F76
  8
_CURVE
  6
PHANTOM
 62
     8
 10
6.8318301145999998
 20
18.4609654813999988
 30
0.0
  0
VERTEX
  5
F77
  8
_CURVE
  6
PHANTOM
 62
     8
 10
6.8806792639000003
 20
18.494604927200001
 30
0.0
  0
VERTEX
  5
F78
  8
_CURVE
  6
PHANTOM
 62
     8
 10
6.9298911089999988
 20
18.5276954941999996
 30
0.0
  0
VERTEX
  5
F79
  8
_CURVE
  6
PHANTOM
 62
     8
 10
6.9794556789999991
 20
18.5602344268999992
 30
0.0
  0
VERTEX
  5
F7A
  8
_CURVE
  6
PHANTOM
 62
     8
 10
7.0026157295000004
 20
18.5751733566999988
 30
0.0
  0
SEQEND
  5
F7B
  8
_CURVE
  6
PHANTOM
 62
     8
  0
POLYLINE
  5
7AC
  8
_CURVE
  6
PHANTOM
 62
     8
 66
     1
 10
0.0
 20
0.0
 30
0.0
  0
VERTEX
  5
F7C
  8
_CURVE
  6
PHANTOM
 62
     8
 10
7.0026157295000004
 20
18.5751733566999988
 30
0.0
  0
VERTEX
  5
F7D
  8
_CURVE
  6
PHANTOM
 62
     8
 10
7.0789836917999986
 20
18.6232873288
 30
0.0
  0
VERTEX
  5
F7E
  8
_CURVE
  6
PHANTOM
 62
     8
 10
7.1556359395999998
 20
18.6698343493999985
 30
0.0
  0
VERTEX
  5
F7F
  8
_CURVE
  6
PHANTOM
 62
     8
 10
7.2325473032999996
 20
18.7148496273000013
 30
0.0
  0
VERTEX
  5
F80
  8
_CURVE
  6
PHANTOM
 62
     8
 10
7.3096926130999993
 20
18.7583683711999996
 30
0.0
  0
VERTEX
  5
F81
  8
_CURVE
  6
PHANTOM
 62
     8
 10
7.387046699199999
 20
18.8004257895000002
 30
0.0
  0
VERTEX
  5
F82
  8
_CURVE
  6
PHANTOM
 62
     8
 10
7.4645890753999993
 20
18.8410590233999997
 30
0.0
  0
VERTEX
  5
F83
  8
_CURVE
  6
PHANTOM
 62
     8
 10
7.5423179755999987
 20
18.8803129359999993
 30
0.0
  0
VERTEX
  5
F84
  8
_CURVE
  6
PHANTOM
 62
     8
 10
7.6202363170999998
 20
18.9182343230000001
 30
0.0
  0
VERTEX
  5
F85
  8
_CURVE
  6
PHANTOM
 62
     8
 10
7.6983470171999997
 20
18.9548699798999998
 30
0.0
  0
VERTEX
  5
F86
  8
_CURVE
  6
PHANTOM
 62
     8
 10
7.7766529931999999
 20
18.9902667023999996
 30
0.0
  0
VERTEX
  5
F87
  8
_CURVE
  6
PHANTOM
 62
     8
 10
7.8778051522999997
 20
19.0341027270000005
 30
0.0
  0
VERTEX
  5
F88
  8
_CURVE
  6
PHANTOM
 62
     8
 10
7.9792999357000003
 20
19.0760302041000003
 30
0.0
  0
VERTEX
  5
F89
  8
_CURVE
  6
PHANTOM
 62
     8
 10
8.0811511738000004
 20
19.1161182913000012
 30
0.0
  0
VERTEX
  5
F8A
  8
_CURVE
  6
PHANTOM
 62
     8
 10
8.1833726972999994
 20
19.1544361461999983
 30
0.0
  0
VERTEX
  5
F8B
  8
_CURVE
  6
PHANTOM
 62
     8
 10
8.2859803814999982
 20
19.1910514148999987
 30
0.0
  0
VERTEX
  5
F8C
  8
_CURVE
  6
PHANTOM
 62
     8
 10
8.3889982827999994
 20
19.2260256962999989
 30
0.0
  0
VERTEX
  5
F8D
  8
_CURVE
  6
PHANTOM
 62
     8
 10
8.4924525024000008
 20
19.2594190776000005
 30
0.0
  0
VERTEX
  5
F8E
  8
_CURVE
  6
PHANTOM
 62
     8
 10
8.5963691416000003
 20
19.2912916460000012
 30
0.0
  0
VERTEX
  5
F8F
  8
_CURVE
  6
PHANTOM
 62
     8
 10
8.7007707285000002
 20
19.3217002266000009
 30
0.0
  0
VERTEX
  5
F90
  8
_CURVE
  6
PHANTOM
 62
     8
 10
8.8056654261999991
 20
19.3506885749999995
 30
0.0
  0
VERTEX
  5
F91
  8
_CURVE
  6
PHANTOM
 62
     8
 10
8.9110546747000008
 20
19.3782964446999983
 30
0.0
  0
VERTEX
  5
F92
  8
_CURVE
  6
PHANTOM
 62
     8
 10
9.0169274623999982
 20
19.4045606669000001
 30
0.0
  0
VERTEX
  5
F93
  8
_CURVE
  6
PHANTOM
 62
     8
 10
9.1232645191999993
 20
19.429516038900001
 30
0.0
  0
VERTEX
  5
F94
  8
_CURVE
  6
PHANTOM
 62
     8
 10
9.2300259917999998
 20
19.4531921517999997
 30
0.0
  0
VERTEX
  5
F95
  8
_CURVE
  6
PHANTOM
 62
     8
 10
9.3371617479999998
 20
19.4756166559000015
 30
0.0
  0
VERTEX
  5
F96
  8
_CURVE
  6
PHANTOM
 62
     8
 10
9.4445985476000001
 20
19.4968144597000013
 30
0.0
  0
VERTEX
  5
F97
  8
_CURVE
  6
PHANTOM
 62
     8
 10
9.5107293508000001
 20
19.5092421479999985
 30
0.0
  0
SEQEND
  5
F98
  8
_CURVE
  6
PHANTOM
 62
     8
  0
POLYLINE
  5
7CA
  8
_CURVE
  6
PHANTOM
 62
     8
 66
     1
 10
0.0
 20
0.0
 30
0.0
  0
VERTEX
  5
F99
  8
_CURVE
  6
PHANTOM
 62
     8
 10
7.2577821631999999
 20
3.9368792651999991
 30
0.0
  0
VERTEX
  5
F9A
  8
_CURVE
  6
PHANTOM
 62
     8
 10
7.1783919872000004
 20
3.9828053401999992
 30
0.0
  0
VERTEX
  5
F9B
  8
_CURVE
  6
PHANTOM
 62
     8
 10
7.0858383054999994
 20
4.0386000907000001
 30
0.0
  0
VERTEX
  5
F9C
  8
_CURVE
  6
PHANTOM
 62
     8
 10
6.9943884077999989
 20
4.0962205777999987
 30
0.0
  0
VERTEX
  5
F9D
  8
_CURVE
  6
PHANTOM
 62
     8
 10
6.9040959624999987
 20
4.1556607560999996
 30
0.0
  0
VERTEX
  5
F9E
  8
_CURVE
  6
PHANTOM
 62
     8
 10
6.8149627090999987
 20
4.2169500789000001
 30
0.0
  0
VERTEX
  5
F9F
  8
_CURVE
  6
PHANTOM
 62
     8
 10
6.7270891188000004
 20
4.2800477701999986
 30
0.0
  0
VERTEX
  5
FA0
  8
_CURVE
  6
PHANTOM
 62
     8
 10
6.6405223415999988
 20
4.3449464676999989
 30
0.0
  0
VERTEX
  5
FA1
  8
_CURVE
  6
PHANTOM
 62
     8
 10
6.5749765697000004
 20
4.3959898045000001
 30
0.0
  0
VERTEX
  5
FA2
  8
_CURVE
  6
PHANTOM
 62
     8
 10
6.5102534102999989
 20
4.4480813686999996
 30
0.0
  0
VERTEX
  5
FA3
  8
_CURVE
  6
PHANTOM
 62
     8
 10
6.4463773719999997
 20
4.5012121105
 30
0.0
  0
VERTEX
  5
FA4
  8
_CURVE
  6
PHANTOM
 62
     8
 10
6.3833729634000003
 20
4.5553729802999987
 30
0.0
  0
VERTEX
  5
FA5
  8
_CURVE
  6
PHANTOM
 62
     8
 10
6.319431354999999
 20
4.6122086937000004
 30
0.0
  0
VERTEX
  5
FA6
  8
_CURVE
  6
PHANTOM
 62
     8
 10
6.2564554365999987
 20
4.6701088771999997
 30
0.0
  0
VERTEX
  5
FA7
  8
_CURVE
  6
PHANTOM
 62
     8
 10
6.1930853916999986
 20
4.7303850164999988
 30
0.0
  0
VERTEX
  5
FA8
  8
_CURVE
  6
PHANTOM
 62
     8
 10
6.1307558879999986
 20
4.7917330983999991
 30
0.0
  0
VERTEX
  5
FA9
  8
_CURVE
  6
PHANTOM
 62
     8
 10
6.0680692650000001
 20
4.8555960584999998
 30
0.0
  0
VERTEX
  5
FAA
  8
_CURVE
  6
PHANTOM
 62
     8
 10
6.0065037623000004
 20
4.9205404537000001
 30
0.0
  0
VERTEX
  5
FAB
  8
_CURVE
  6
PHANTOM
 62
     8
 10
5.9450995463999989
 20
4.9876353251999994
 30
0.0
  0
VERTEX
  5
FAC
  8
_CURVE
  6
PHANTOM
 62
     8
 10
5.8848949611999988
 20
5.0558140183999987
 30
0.0
  0
VERTEX
  5
FAD
  8
_CURVE
  6
PHANTOM
 62
     8
 10
5.8251354432999998
 20
5.1259923747
 30
0.0
  0
VERTEX
  5
FAE
  8
_CURVE
  6
PHANTOM
 62
     8
 10
5.7666580408000003
 20
5.1972422571000001
 30
0.0
  0
VERTEX
  5
FAF
  8
_CURVE
  6
PHANTOM
 62
     8
 10
5.7086569793999997
 20
5.2706019057999987
 30
0.0
  0
VERTEX
  5
FB0
  8
_CURVE
  6
PHANTOM
 62
     8
 10
5.6520071942999994
 20
5.3450043338999986
 30
0.0
  0
VERTEX
  5
FB1
  8
_CURVE
  6
PHANTOM
 62
     8
 10
5.5951937780999987
 20
5.4225304343999996
 30
0.0
  0
VERTEX
  5
FB2
  8
_CURVE
  6
PHANTOM
 62
     8
 10
5.5398171275000001
 20
5.5010836616999992
 30
0.0
  0
VERTEX
  5
FB3
  8
_CURVE
  6
PHANTOM
 62
     8
 10
5.4858798360999996
 20
5.5806241602000002
 30
0.0
  0
VERTEX
  5
FB4
  8
_CURVE
  6
PHANTOM
 62
     8
 10
5.4333844973999996
 20
5.661112074
 30
0.0
  0
VERTEX
  5
FB5
  8
_CURVE
  6
PHANTOM
 62
     8
 10
5.3802685736000004
 20
5.7458679510000001
 30
0.0
  0
VERTEX
  5
FB6
  8
_CURVE
  6
PHANTOM
 62
     8
 10
5.3287161077
 20
5.831568547799999
 30
0.0
  0
VERTEX
  5
FB7
  8
_CURVE
  6
PHANTOM
 62
     8
 10
5.2787250062000002
 20
5.9181750008999998
 30
0.0
  0
VERTEX
  5
FB8
  8
_CURVE
  6
PHANTOM
 62
     8
 10
5.2302931755999991
 20
6.0056484466999986
 30
0.0
  0
VERTEX
  5
FB9
  8
_CURVE
  6
PHANTOM
 62
     8
 10
5.1815801002999988
 20
6.0974859374000001
 30
0.0
  0
VERTEX
  5
FBA
  8
_CURVE
  6
PHANTOM
 62
     8
 10
5.1345351143000002
 20
6.1901726089999993
 30
0.0
  0
VERTEX
  5
FBB
  8
_CURVE
  6
PHANTOM
 62
     8
 10
5.089142516099999
 20
6.2836621784000002
 30
0.0
  0
VERTEX
  5
FBC
  8
_CURVE
  6
PHANTOM
 62
     8
 10
5.0453866041999991
 20
6.3779083623000004
 30
0.0
  0
VERTEX
  5
FBD
  8
_CURVE
  6
PHANTOM
 62
     8
 10
5.0016733508999991
 20
6.4765024808999998
 30
0.0
  0
VERTEX
  5
FBE
  8
_CURVE
  6
PHANTOM
 62
     8
 10
4.9596749370999991
 20
6.5758152677999986
 30
0.0
  0
VERTEX
  5
FBF
  8
_CURVE
  6
PHANTOM
 62
     8
 10
4.9193591506000001
 20
6.6757998164999988
 30
0.0
  0
VERTEX
  5
FC0
  8
_CURVE
  6
PHANTOM
 62
     8
 10
4.8806937789999987
 20
6.7764092202999988
 30
0.0
  0
VERTEX
  5
FC1
  8
_CURVE
  6
PHANTOM
 62
     8
 10
4.8423597096000002
 20
6.8812018033999998
 30
0.0
  0
VERTEX
  5
FC2
  8
_CURVE
  6
PHANTOM
 62
     8
 10
4.8057210563000003
 20
6.9865735159999991
 30
0.0
  0
VERTEX
  5
FC3
  8
_CURVE
  6
PHANTOM
 62
     8
 10
4.7707380636999988
 20
7.0924837631999997
 30
0.0
  0
VERTEX
  5
FC4
  8
_CURVE
  6
PHANTOM
 62
     8
 10
4.7373709766000003
 20
7.1988919502000002
 30
0.0
  0
VERTEX
  5
FC5
  8
_CURVE
  6
PHANTOM
 62
     8
 10
4.704639672399999
 20
7.3090077424000004
 30
0.0
  0
VERTEX
  5
FC6
  8
_CURVE
  6
PHANTOM
 62
     8
 10
4.6735386419999987
 20
7.4195694224000004
 30
0.0
  0
VERTEX
  5
FC7
  8
_CURVE
  6
PHANTOM
 62
     8
 10
4.6440249038000001
 20
7.5305373562999991
 30
0.0
  0
VERTEX
  5
FC8
  8
_CURVE
  6
PHANTOM
 62
     8
 10
4.6160554762999988
 20
7.641871910599999
 30
0.0
  0
VERTEX
  5
FC9
  8
_CURVE
  6
PHANTOM
 62
     8
 10
4.6153791870000003
 20
7.6446451360000003
 30
0.0
  0
SEQEND
  5
FCA
  8
_CURVE
  6
PHANTOM
 62
     8
  0
POLYLINE
  5
7FD
  8
_CURVE
  6
PHANTOM
 62
     8
 66
     1
 10
0.0
 20
0.0
 30
0.0
  0
VERTEX
  5
FCB
  8
_CURVE
  6
PHANTOM
 62
     8
 10
4.6153791870000003
 20
7.6446451360000003
 30
0.0
  0
VERTEX
  5
FCC
  8
_CURVE
  6
PHANTOM
 62
     8
 10
4.5884212481000004
 20
7.7586019948000002
 30
0.0
  0
VERTEX
  5
FCD
  8
_CURVE
  6
PHANTOM
 62
     8
 10
4.5629712618999987
 20
7.8728884533999999
 30
0.0
  0
VERTEX
  5
FCE
  8
_CURVE
  6
PHANTOM
 62
     8
 10
4.5389810854999988
 20
7.9874710906999997
 30
0.0
  0
VERTEX
  5
FCF
  8
_CURVE
  6
PHANTOM
 62
     8
 10
4.5164025759999991
 20
8.1023164857000012
 30
0.0
  0
VERTEX
  5
FD0
  8
_CURVE
  6
PHANTOM
 62
     8
 10
4.4948750143999989
 20
8.2191462877999992
 30
0.0
  0
VERTEX
  5
FD1
  8
_CURVE
  6
PHANTOM
 62
     8
 10
4.4747023925000002
 20
8.3361909042999986
 30
0.0
  0
VERTEX
  5
FD2
  8
_CURVE
  6
PHANTOM
 62
     8
 10
4.4558343096000002
 20
8.4534287797000012
 30
0.0
  0
VERTEX
  5
FD3
  8
_CURVE
  6
PHANTOM
 62
     8
 10
4.4382203647000003
 20
8.5708383585999997
 30
0.0
  0
VERTEX
  5
FD4
  8
_CURVE
  6
PHANTOM
 62
     8
 10
4.4216554684
 20
8.6895546360000004
 30
0.0
  0
VERTEX
  5
FD5
  8
_CURVE
  6
PHANTOM
 62
     8
 10
4.4062705129999991
 20
8.8084076148000001
 30
0.0
  0
VERTEX
  5
FD6
  8
_CURVE
  6
PHANTOM
 62
     8
 10
4.3920179348000001
 20
8.9273808834999997
 30
0.0
  0
VERTEX
  5
FD7
  8
_CURVE
  6
PHANTOM
 62
     8
 10
4.3788501701999989
 20
9.0464580310000002
 30
0.0
  0
VERTEX
  5
FD8
  8
_CURVE
  6
PHANTOM
 62
     8
 10
4.3629390633999989
 20
9.2049426685000011
 30
0.0
  0
VERTEX
  5
FD9
  8
_CURVE
  6
PHANTOM
 62
     8
 10
4.3487552986000004
 20
9.3635545703999998
 30
0.0
  0
VERTEX
  5
FDA
  8
_CURVE
  6
PHANTOM
 62
     8
 10
4.3361919481999989
 20
9.5222663239000003
 30
0.0
  0
VERTEX
  5
FDB
  8
_CURVE
  6
PHANTOM
 62
     8
 10
4.3278318053999989
 20
9.6404142718999992
 30
0.0
  0
VERTEX
  5
FDC
  8
_CURVE
  6
PHANTOM
 62
     8
 10
4.3202675071999996
 20
9.7585962214999995
 30
0.0
  0
VERTEX
  5
FDD
  8
_CURVE
  6
PHANTOM
 62
     8
 10
4.314541865899999
 20
9.8570957124999996
 30
0.0
  0
VERTEX
  5
FDE
  8
_CURVE
  6
PHANTOM
 62
     8
 10
4.3093154026000002
 20
9.9556100187999998
 30
0.0
  0
SEQEND
  5
FDF
  8
_CURVE
  6
PHANTOM
 62
     8
  0
POLYLINE
  5
813
  8
_CURVE
  6
PHANTOM
 62
     8
 66
     1
 10
0.0
 20
0.0
 30
0.0
  0
VERTEX
  5
FE0
  8
_CURVE
  6
PHANTOM
 62
     8
 10
4.3093154026000002
 20
9.9556100187999998
 30
0.0
  0
VERTEX
  5
FE1
  8
_CURVE
  6
PHANTOM
 62
     8
 10
4.3074547345999994
 20
9.9930564325999995
 30
0.0
  0
VERTEX
  5
FE2
  8
_CURVE
  6
PHANTOM
 62
     8
 10
4.3021444414000003
 20
10.1083215676999991
 30
0.0
  0
VERTEX
  5
FE3
  8
_CURVE
  6
PHANTOM
 62
     8
 10
4.2974336439999989
 20
10.2235967970000008
 30
0.0
  0
VERTEX
  5
FE4
  8
_CURVE
  6
PHANTOM
 62
     8
 10
4.2932843962999989
 20
10.3388771311000003
 30
0.0
  0
VERTEX
  5
FE5
  8
_CURVE
  6
PHANTOM
 62
     8
 10
4.2896587522000003
 20
10.4541575804000004
 30
0.0
  0
VERTEX
  5
FE6
  8
_CURVE
  6
PHANTOM
 62
     8
 10
4.2865804466000004
 20
10.5669938021000007
 30
0.0
  0
VERTEX
  5
FE7
  8
_CURVE
  6
PHANTOM
 62
     8
 10
4.2839318126999988
 20
10.6798238846999993
 30
0.0
  0
VERTEX
  5
FE8
  8
_CURVE
  6
PHANTOM
 62
     8
 10
4.2817117987999991
 20
10.7907595044000004
 30
0.0
  0
VERTEX
  5
FE9
  8
_CURVE
  6
PHANTOM
 62
     8
 10
4.2798384579000004
 20
10.9016856288999993
 30
0.0
  0
VERTEX
  5
FEA
  8
_CURVE
  6
PHANTOM
 62
     8
 10
4.2783035233999991
 20
11.0105566708999998
 30
0.0
  0
VERTEX
  5
FEB
  8
_CURVE
  6
PHANTOM
 62
     8
 10
4.2770364076999989
 20
11.1194152990999999
 30
0.0
  0
VERTEX
  5
FEC
  8
_CURVE
  6
PHANTOM
 62
     8
 10
4.2760175591999996
 20
11.2266479765000007
 30
0.0
  0
VERTEX
  5
FED
  8
_CURVE
  6
PHANTOM
 62
     8
 10
4.2751990579000001
 20
11.3331147205999994
 30
0.0
  0
SEQEND
  5
FEE
  8
_CURVE
  6
PHANTOM
 62
     8
  0
POLYLINE
  5
823
  8
_CURVE
  6
PHANTOM
 62
     8
 66
     1
 10
0.0
 20
0.0
 30
0.0
  0
VERTEX
  5
FEF
  8
_CURVE
  6
PHANTOM
 62
     8
 10
4.2751990579000001
 20
11.3331147205999994
 30
0.0
  0
VERTEX
  5
FF0
  8
_CURVE
  6
PHANTOM
 62
     8
 10
4.2761390794
 20
11.4537054354999999
 30
0.0
  0
VERTEX
  5
FF1
  8
_CURVE
  6
PHANTOM
 62
     8
 10
4.2771238803999996
 20
11.5552214893999992
 30
0.0
  0
VERTEX
  5
FF2
  8
_CURVE
  6
PHANTOM
 62
     8
 10
4.2782959407999988
 20
11.6552777397000007
 30
0.0
  0
VERTEX
  5
FF3
  8
_CURVE
  6
PHANTOM
 62
     8
 10
4.2796945407999987
 20
11.7553444384999999
 30
0.0
  0
VERTEX
  5
FF4
  8
_CURVE
  6
PHANTOM
 62
     8
 10
4.2812993541999989
 20
11.8528212549000003
 30
0.0
  0
VERTEX
  5
FF5
  8
_CURVE
  6
PHANTOM
 62
     8
 10
4.2831661725999988
 20
11.9503056355999995
 30
0.0
  0
VERTEX
  5
FF6
  8
_CURVE
  6
PHANTOM
 62
     8
 10
4.2852392058999991
 20
12.0444745425999997
 30
0.0
  0
VERTEX
  5
FF7
  8
_CURVE
  6
PHANTOM
 62
     8
 10
4.2875992293999987
 20
12.1386483747000007
 30
0.0
  0
VERTEX
  5
FF8
  8
_CURVE
  6
PHANTOM
 62
     8
 10
4.2901556818999991
 20
12.2290828287999993
 30
0.0
  0
SEQEND
  5
FF9
  8
_CURVE
  6
PHANTOM
 62
     8
  0
LINE
  5
82F
  8
_CURVE
  6
PHANTOM
 62
     8
 10
4.2901556818999991
 20
12.2290828287999993
 30
0.0
 11
4.2940288431999987
 21
12.3493917725000006
 31
0.0
  0
POLYLINE
  5
830
  8
_CURVE
  6
PHANTOM
 62
     8
 66
     1
 10
0.0
 20
0.0
 30
0.0
  0
VERTEX
  5
FFA
  8
_CURVE
  6
PHANTOM
 62
     8
 10
4.2940288431999987
 20
12.3493917725000006
 30
0.0
  0
VERTEX
  5
FFB
  8
_CURVE
  6
PHANTOM
 62
     8
 10
4.2994029269
 20
12.4927665602999998
 30
0.0
  0
VERTEX
  5
FFC
  8
_CURVE
  6
PHANTOM
 62
     8
 10
4.3065986463999986
 20
12.6556694477999994
 30
0.0
  0
VERTEX
  5
FFD
  8
_CURVE
  6
PHANTOM
 62
     8
 10
4.3150567767999988
 20
12.8185464664000008
 30
0.0
  0
VERTEX
  5
FFE
  8
_CURVE
  6
PHANTOM
 62
     8
 10
4.3242615702
 20
12.9717127832999992
 30
0.0
  0
VERTEX
  5
FFF
  8
_CURVE
  6
PHANTOM
 62
     8
 10
4.3347702089999993
 20
13.1248264409999997
 30
0.0
  0
VERTEX
  5
1000
  8
_CURVE
  6
PHANTOM
 62
     8
 10
4.3464719892000003
 20
13.2754100425000008
 30
0.0
  0
VERTEX
  5
1001
  8
_CURVE
  6
PHANTOM
 62
     8
 10
4.359616192899999
 20
13.4259060573000006
 30
0.0
  0
VERTEX
  5
1002
  8
_CURVE
  6
PHANTOM
 62
     8
 10
4.3749312592000003
 20
13.5824719814999995
 30
0.0
  0
VERTEX
  5
1003
  8
_CURVE
  6
PHANTOM
 62
     8
 10
4.3920080059000002
 20
13.7388897023999998
 30
0.0
  0
VERTEX
  5
1004
  8
_CURVE
  6
PHANTOM
 62
     8
 10
4.4122516229000004
 20
13.9052905852999995
 30
0.0
  0
VERTEX
  5
1005
  8
_CURVE
  6
PHANTOM
 62
     8
 10
4.4238628208000002
 20
13.9931802870999995
 30
0.0
  0
VERTEX
  5
1006
  8
_CURVE
  6
PHANTOM
 62
     8
 10
4.4361297744999986
 20
14.0809938847999998
 30
0.0
  0
VERTEX
  5
1007
  8
_CURVE
  6
PHANTOM
 62
     8
 10
4.4499349970999988
 20
14.1744037407000008
 30
0.0
  0
VERTEX
  5
1008
  8
_CURVE
  6
PHANTOM
 62
     8
 10
4.4645278996000002
 20
14.2677062396000007
 30
0.0
  0
VERTEX
  5
1009
  8
_CURVE
  6
PHANTOM
 62
     8
 10
4.4810203707999987
 20
14.3673050202999999
 30
0.0
  0
VERTEX
  5
100A
  8
_CURVE
  6
PHANTOM
 62
     8
 10
4.498461644799999
 20
14.4667562859000007
 30
0.0
  0
VERTEX
  5
100B
  8
_CURVE
  6
PHANTOM
 62
     8
 10
4.5182037867
 20
14.5729908912999999
 30
0.0
  0
VERTEX
  5
100C
  8
_CURVE
  6
PHANTOM
 62
     8
 10
4.539096055299999
 20
14.6790239427000007
 30
0.0
  0
VERTEX
  5
100D
  8
_CURVE
  6
PHANTOM
 62
     8
 10
4.5627343714999986
 20
14.7920897502000006
 30
0.0
  0
VERTEX
  5
100E
  8
_CURVE
  6
PHANTOM
 62
     8
 10
4.5877776929999996
 20
14.9048785414000005
 30
0.0
  0
VERTEX
  5
100F
  8
_CURVE
  6
PHANTOM
 62
     8
 10
4.6160595414000003
 20
15.0246890808
 30
0.0
  0
VERTEX
  5
1010
  8
_CURVE
  6
PHANTOM
 62
     8
 10
4.6460645648999996
 20
15.1441128015000004
 30
0.0
  0
VERTEX
  5
1011
  8
_CURVE
  6
PHANTOM
 62
     8
 10
4.6798346134999997
 20
15.2702551150999994
 30
0.0
  0
VERTEX
  5
1012
  8
_CURVE
  6
PHANTOM
 62
     8
 10
4.7156942825000003
 20
15.3958550659999993
 30
0.0
  0
VERTEX
  5
1013
  8
_CURVE
  6
PHANTOM
 62
     8
 10
4.742170559099999
 20
15.4837208319999995
 30
0.0
  0
VERTEX
  5
1014
  8
_CURVE
  6
PHANTOM
 62
     8
 10
4.7697342417000002
 20
15.5712673659000007
 30
0.0
  0
VERTEX
  5
1015
  8
_CURVE
  6
PHANTOM
 62
     8
 10
4.798405429899999
 20
15.6584725649000003
 30
0.0
  0
VERTEX
  5
1016
  8
_CURVE
  6
PHANTOM
 62
     8
 10
4.8295823026999987
 20
15.7492445594999992
 30
0.0
  0
VERTEX
  5
1017
  8
_CURVE
  6
PHANTOM
 62
     8
 10
4.8620098439000001
 20
15.8395928174999998
 30
0.0
  0
VERTEX
  5
1018
  8
_CURVE
  6
PHANTOM
 62
     8
 10
4.8957064922000004
 20
15.9294907613000003
 30
0.0
  0
VERTEX
  5
1019
  8
_CURVE
  6
PHANTOM
 62
     8
 10
4.9319474931
 20
16.0220544439999983
 30
0.0
  0
VERTEX
  5
101A
  8
_CURVE
  6
PHANTOM
 62
     8
 10
4.9695882313000004
 20
16.1140749610999983
 30
0.0
  0
VERTEX
  5
101B
  8
_CURVE
  6
PHANTOM
 62
     8
 10
5.0086485265
 20
16.2055202521999995
 30
0.0
  0
VERTEX
  5
101C
  8
_CURVE
  6
PHANTOM
 62
     8
 10
5.0501208471999997
 20
16.2984901507000011
 30
0.0
  0
VERTEX
  5
101D
  8
_CURVE
  6
PHANTOM
 62
     8
 10
5.0931268073
 20
16.3907823736000005
 30
0.0
  0
VERTEX
  5
101E
  8
_CURVE
  6
PHANTOM
 62
     8
 10
5.1376920302999993
 20
16.4823554915000017
 30
0.0
  0
VERTEX
  5
101F
  8
_CURVE
  6
PHANTOM
 62
     8
 10
5.1843997691999997
 20
16.5742413245999991
 30
0.0
  0
VERTEX
  5
1020
  8
_CURVE
  6
PHANTOM
 62
     8
 10
5.2327532353999997
 20
16.6652964097000016
 30
0.0
  0
VERTEX
  5
1021
  8
_CURVE
  6
PHANTOM
 62
     8
 10
5.2827753657000001
 20
16.7554687223000016
 30
0.0
  0
VERTEX
  5
1022
  8
_CURVE
  6
PHANTOM
 62
     8
 10
5.334476433299999
 20
16.8446934155999983
 30
0.0
  0
VERTEX
  5
1023
  8
_CURVE
  6
PHANTOM
 62
     8
 10
5.3878627079999992
 20
16.932934294199999
 30
0.0
  0
VERTEX
  5
1024
  8
_CURVE
  6
PHANTOM
 62
     8
 10
5.4429283019000003
 20
17.0201420606000013
 30
0.0
  0
VERTEX
  5
1025
  8
_CURVE
  6
PHANTOM
 62
     8
 10
5.4814413378999989
 20
17.0789994490999995
 30
0.0
  0
VERTEX
  5
1026
  8
_CURVE
  6
PHANTOM
 62
     8
 10
5.5207248575000003
 20
17.1373428558999983
 30
0.0
  0
SEQEND
  5
1027
  8
_CURVE
  6
PHANTOM
 62
     8
  0
POLYLINE
  5
85F
  8
_CURVE
  6
PHANTOM
 62
     8
 66
     1
 10
0.0
 20
0.0
 30
0.0
  0
VERTEX
  5
1028
  8
_CURVE
  6
PHANTOM
 62
     8
 10
12.8138244783000008
 20
2.9342402332999988
 30
0.0
  0
VERTEX
  5
1029
  8
_CURVE
  6
PHANTOM
 62
     8
 10
12.6721454087000005
 20
2.9338998822
 30
0.0
  0
VERTEX
  5
102A
  8
_CURVE
  6
PHANTOM
 62
     8
 10
12.4802860702
 20
2.9344741869999988
 30
0.0
  0
VERTEX
  5
102B
  8
_CURVE
  6
PHANTOM
 62
     8
 10
12.2883832759999994
 20
2.9358808442000002
 30
0.0
  0
VERTEX
  5
102C
  8
_CURVE
  6
PHANTOM
 62
     8
 10
12.0964433501999995
 20
2.9382931258999991
 30
0.0
  0
VERTEX
  5
102D
  8
_CURVE
  6
PHANTOM
 62
     8
 10
11.9007517039999993
 20
2.941965984399999
 30
0.0
  0
VERTEX
  5
102E
  8
_CURVE
  6
PHANTOM
 62
     8
 10
11.7050438611000001
 20
2.9470429262999991
 30
0.0
  0
VERTEX
  5
102F
  8
_CURVE
  6
PHANTOM
 62
     8
 10
11.5093356381999996
 20
2.9537029797000001
 30
0.0
  0
VERTEX
  5
1030
  8
_CURVE
  6
PHANTOM
 62
     8
 10
11.3158322867999992
 20
2.9620210436000001
 30
0.0
  0
VERTEX
  5
1031
  8
_CURVE
  6
PHANTOM
 62
     8
 10
11.1223725937999998
 20
2.9722375941000001
 30
0.0
  0
VERTEX
  5
1032
  8
_CURVE
  6
PHANTOM
 62
     8
 10
10.9289851242000005
 20
2.9845281513000002
 30
0.0
  0
VERTEX
  5
1033
  8
_CURVE
  6
PHANTOM
 62
     8
 10
10.7890627169000002
 20
2.9948190198999991
 30
0.0
  0
VERTEX
  5
1034
  8
_CURVE
  6
PHANTOM
 62
     8
 10
10.6492112629999998
 20
3.0063601475000001
 30
0.0
  0
VERTEX
  5
1035
  8
_CURVE
  6
PHANTOM
 62
     8
 10
10.5094489058999994
 20
3.0192231111000001
 30
0.0
  0
VERTEX
  5
1036
  8
_CURVE
  6
PHANTOM
 62
     8
 10
10.3697937891999992
 20
3.0334794874000002
 30
0.0
  0
VERTEX
  5
1037
  8
_CURVE
  6
PHANTOM
 62
     8
 10
10.2376371290999995
 20
3.0483326519
 30
0.0
  0
VERTEX
  5
1038
  8
_CURVE
  6
PHANTOM
 62
     8
 10
10.1056166768000004
 20
3.064564542699999
 30
0.0
  0
VERTEX
  5
1039
  8
_CURVE
  6
PHANTOM
 62
     8
 10
9.9737561608000007
 20
3.0822396730000001
 30
0.0
  0
VERTEX
  5
103A
  8
_CURVE
  6
PHANTOM
 62
     8
 10
9.8420793096000008
 20
3.1014225562999989
 30
0.0
  0
VERTEX
  5
103B
  8
_CURVE
  6
PHANTOM
 62
     8
 10
9.7192434432999981
 20
3.1207648247000002
 30
0.0
  0
VERTEX
  5
103C
  8
_CURVE
  6
PHANTOM
 62
     8
 10
9.5966162671999982
 20
3.141535183799999
 30
0.0
  0
VERTEX
  5
103D
  8
_CURVE
  6
PHANTOM
 62
     8
 10
9.4742254387999996
 20
3.1637893007999991
 30
0.0
  0
VERTEX
  5
103E
  8
_CURVE
  6
PHANTOM
 62
     8
 10
9.3520986154999992
 20
3.187582842799999
 30
0.0
  0
VERTEX
  5
103F
  8
_CURVE
  6
PHANTOM
 62
     8
 10
9.2392435819000003
 20
3.211042761499999
 30
0.0
  0
VERTEX
  5
1040
  8
_CURVE
  6
PHANTOM
 62
     8
 10
9.1266686844000002
 20
3.2359168744999991
 30
0.0
  0
VERTEX
  5
1041
  8
_CURVE
  6
PHANTOM
 62
     8
 10
9.0144038482000006
 20
3.262250982099999
 30
0.0
  0
VERTEX
  5
1042
  8
_CURVE
  6
PHANTOM
 62
     8
 10
8.9024789983999995
 20
3.2900908844000001
 30
0.0
  0
VERTEX
  5
1043
  8
_CURVE
  6
PHANTOM
 62
     8
 10
8.7995200061999999
 20
3.3171578077999988
 30
0.0
  0
VERTEX
  5
1044
  8
_CURVE
  6
PHANTOM
 62
     8
 10
8.6969062746999999
 20
3.3455812339999991
 30
0.0
  0
VERTEX
  5
1045
  8
_CURVE
  6
PHANTOM
 62
     8
 10
8.5946680422000004
 20
3.3753963032000001
 30
0.0
  0
VERTEX
  5
1046
  8
_CURVE
  6
PHANTOM
 62
     8
 10
8.4928355470000003
 20
3.4066381558999992
 30
0.0
  0
VERTEX
  5
1047
  8
_CURVE
  6
PHANTOM
 62
     8
 10
8.3991031622999994
 20
3.4368128391999999
 30
0.0
  0
VERTEX
  5
1048
  8
_CURVE
  6
PHANTOM
 62
     8
 10
8.3057721801999982
 20
3.468262157099999
 30
0.0
  0
VERTEX
  5
1049
  8
_CURVE
  6
PHANTOM
 62
     8
 10
8.2128715639000003
 20
3.5010118716999998
 30
0.0
  0
VERTEX
  5
104A
  8
_CURVE
  6
PHANTOM
 62
     8
 10
8.1204302766999987
 20
3.5350877449999989
 30
0.0
  0
VERTEX
  5
104B
  8
_CURVE
  6
PHANTOM
 62
     8
 10
8.0064001126999997
 20
3.5792549943999989
 30
0.0
  0
VERTEX
  5
104C
  8
_CURVE
  6
PHANTOM
 62
     8
 10
7.8931875629999988
 20
3.6255444094999989
 30
0.0
  0
VERTEX
  5
104D
  8
_CURVE
  6
PHANTOM
 62
     8
 10
7.7808583051999989
 20
3.673996291199999
 30
0.0
  0
VERTEX
  5
104E
  8
_CURVE
  6
PHANTOM
 62
     8
 10
7.6917104027000001
 20
3.7143252307999992
 30
0.0
  0
VERTEX
  5
104F
  8
_CURVE
  6
PHANTOM
 62
     8
 10
7.6032044888000003
 20
3.7560811044999989
 30
0.0
  0
VERTEX
  5
1050
  8
_CURVE
  6
PHANTOM
 62
     8
 10
7.5153756917999992
 20
3.79928219
 30
0.0
  0
VERTEX
  5
1051
  8
_CURVE
  6
PHANTOM
 62
     8
 10
7.4315668139999991
 20
3.8422162266000002
 30
0.0
  0
VERTEX
  5
1052
  8
_CURVE
  6
PHANTOM
 62
     8
 10
7.3484556026999988
 20
3.8865123285999998
 30
0.0
  0
VERTEX
  5
1053
  8
_CURVE
  6
PHANTOM
 62
     8
 10
7.2660807304999988
 20
3.9321784901999992
 30
0.0
  0
VERTEX
  5
1054
  8
_CURVE
  6
PHANTOM
 62
     8
 10
7.2577821631999999
 20
3.9368792651999991
 30
0.0
  0
SEQEND
  5
1055
  8
_CURVE
  6
PHANTOM
 62
     8
  0
POLYLINE
  5
88E
  8
_CURVE
  6
CONTINUOUS
 62
     4
 66
     1
 10
0.0
 20
0.0
 30
0.0
  0
VERTEX
  5
1056
  8
_CURVE
  6
CONTINUOUS
 62
     4
 10
5.5465524547999996
 20
11.3331934694999994
 30
0.0
  0
VERTEX
  5
1057
  8
_CURVE
  6
CONTINUOUS
 62
     4
 10
5.5469498766999994
 20
11.1597907548999995
 30
0.0
  0
VERTEX
  5
1058
  8
_CURVE
  6
CONTINUOUS
 62
     4
 10
5.5483660007999998
 20
10.9863087590999999
 30
0.0
  0
VERTEX
  5
1059
  8
_CURVE
  6
CONTINUOUS
 62
     4
 10
5.5509875303999987
 20
10.8127581083000006
 30
0.0
  0
VERTEX
  5
105A
  8
_CURVE
  6
CONTINUOUS
 62
     4
 10
5.555073759099999
 20
10.6364476920000008
 30
0.0
  0
VERTEX
  5
105B
  8
_CURVE
  6
CONTINUOUS
 62
     4
 10
5.5607799239999993
 20
10.4600998644000001
 30
0.0
  0
VERTEX
  5
105C
  8
_CURVE
  6
CONTINUOUS
 62
     4
 10
5.5682901624000003
 20
10.2837370643000003
 30
0.0
  0
VERTEX
  5
105D
  8
_CURVE
  6
CONTINUOUS
 62
     4
 10
5.5756192368999997
 20
10.1444329449000001
 30
0.0
  0
VERTEX
  5
105E
  8
_CURVE
  6
CONTINUOUS
 62
     4
 10
5.5842814134000003
 20
10.0051533409999998
 30
0.0
  0
VERTEX
  5
105F
  8
_CURVE
  6
CONTINUOUS
 62
     4
 10
5.594369251799999
 20
9.8659181094000008
 30
0.0
  0
VERTEX
  5
1060
  8
_CURVE
  6
CONTINUOUS
 62
     4
 10
5.605975312
 20
9.7267471069000013
 30
0.0
  0
VERTEX
  5
1061
  8
_CURVE
  6
CONTINUOUS
 62
     4
 10
5.6187334813999987
 20
9.5922176741000005
 30
0.0
  0
VERTEX
  5
1062
  8
_CURVE
  6
CONTINUOUS
 62
     4
 10
5.6330874139999993
 20
9.4577972444
 30
0.0
  0
VERTEX
  5
1063
  8
_CURVE
  6
CONTINUOUS
 62
     4
 10
5.6491259114999988
 20
9.3235161545
 30
0.0
  0
VERTEX
  5
1064
  8
_CURVE
  6
CONTINUOUS
 62
     4
 10
5.6669377757000001
 20
9.1894047411000006
 30
0.0
  0
VERTEX
  5
1065
  8
_CURVE
  6
CONTINUOUS
 62
     4
 10
5.684804087499999
 20
9.0672699438999995
 30
0.0
  0
VERTEX
  5
1066
  8
_CURVE
  6
CONTINUOUS
 62
     4
 10
5.7042894505999993
 20
8.9453364390000001
 30
0.0
  0
VERTEX
  5
1067
  8
_CURVE
  6
CONTINUOUS
 62
     4
 10
5.7254640488000001
 20
8.8236391569000006
 30
0.0
  0
VERTEX
  5
1068
  8
_CURVE
  6
CONTINUOUS
 62
     4
 10
5.7483980661
 20
8.7022130277999992
 30
0.0
  0
VERTEX
  5
1069
  8
_CURVE
  6
CONTINUOUS
 62
     4
 10
5.7705336942999992
 20
8.5935114526999996
 30
0.0
  0
VERTEX
  5
106A
  8
_CURVE
  6
CONTINUOUS
 62
     4
 10
5.7941938591999991
 20
8.4850913747999996
 30
0.0
  0
VERTEX
  5
106B
  8
_CURVE
  6
CONTINUOUS
 62
     4
 10
5.8194298058999996
 20
8.3769878170999998
 30
0.0
  0
VERTEX
  5
106C
  8
_CURVE
  6
CONTINUOUS
 62
     4
 10
5.8462927794999997
 20
8.2692358023000008
 30
0.0
  0
VERTEX
  5
106D
  8
_CURVE
  6
CONTINUOUS
 62
     4
 10
5.8719188127999988
 20
8.1725305991999981
 30
0.0
  0
VERTEX
  5
106E
  8
_CURVE
  6
CONTINUOUS
 62
     4
 10
5.8989419109999996
 20
8.0761721222999991
 30
0.0
  0
VERTEX
  5
106F
  8
_CURVE
  6
CONTINUOUS
 62
     4
 10
5.9273980708999998
 20
7.9801935952999994
 30
0.0
  0
VERTEX
  5
1070
  8
_CURVE
  6
CONTINUOUS
 62
     4
 10
5.9573232887999987
 20
7.8846282417999989
 30
0.0
  0
VERTEX
  5
1071
  8
_CURVE
  6
CONTINUOUS
 62
     4
 10
5.9858471688000003
 20
7.7980948924999991
 30
0.0
  0
VERTEX
  5
1072
  8
_CURVE
  6
CONTINUOUS
 62
     4
 10
6.0156400561999988
 20
7.7119612459000004
 30
0.0
  0
VERTEX
  5
1073
  8
_CURVE
  6
CONTINUOUS
 62
     4
 10
6.0467258676000002
 20
7.6262577121000001
 30
0.0
  0
VERTEX
  5
1074
  8
_CURVE
  6
CONTINUOUS
 62
     4
 10
6.0791285190999993
 20
7.5410147015999991
 30
0.0
  0
VERTEX
  5
1075
  8
_CURVE
  6
CONTINUOUS
 62
     4
 10
6.1204415020000003
 20
7.4377723264000002
 30
0.0
  0
VERTEX
  5
1076
  8
_CURVE
  6
CONTINUOUS
 62
     4
 10
6.1637820296000001
 20
7.3353226748000004
 30
0.0
  0
VERTEX
  5
1077
  8
_CURVE
  6
CONTINUOUS
 62
     4
 10
6.2091853548999989
 20
7.2337289695999996
 30
0.0
  0
VERTEX
  5
1078
  8
_CURVE
  6
CONTINUOUS
 62
     4
 10
6.2545860484000002
 20
7.1373908762999987
 30
0.0
  0
VERTEX
  5
1079
  8
_CURVE
  6
CONTINUOUS
 62
     4
 10
6.3019273614999989
 20
7.0419551389999988
 30
0.0
  0
VERTEX
  5
107A
  8
_CURVE
  6
CONTINUOUS
 62
     4
 10
6.3512294681999997
 20
6.9474827540000001
 30
0.0
  0
VERTEX
  5
107B
  8
_CURVE
  6
CONTINUOUS
 62
     4
 10
6.3995212071000003
 20
6.8593559366000001
 30
0.0
  0
VERTEX
  5
107C
  8
_CURVE
  6
CONTINUOUS
 62
     4
 10
6.4495800855999992
 20
6.772192616299999
 30
0.0
  0
VERTEX
  5
107D
  8
_CURVE
  6
CONTINUOUS
 62
     4
 10
6.5014125919000003
 20
6.6860458656999997
 30
0.0
  0
VERTEX
  5
107E
  8
_CURVE
  6
CONTINUOUS
 62
     4
 10
6.5490799548999989
 20
6.6102097628999994
 30
0.0
  0
VERTEX
  5
107F
  8
_CURVE
  6
CONTINUOUS
 62
     4
 10
6.5981565542999991
 20
6.5352601462999989
 30
0.0
  0
VERTEX
  5
1080
  8
_CURVE
  6
CONTINUOUS
 62
     4
 10
6.6486392175999987
 20
6.4612348088999987
 30
0.0
  0
VERTEX
  5
1081
  8
_CURVE
  6
CONTINUOUS
 62
     4
 10
6.6940203965
 20
6.3971685107000003
 30
0.0
  0
VERTEX
  5
1082
  8
_CURVE
  6
CONTINUOUS
 62
     4
 10
6.7404708272000002
 20
6.3338635540999988
 30
0.0
  0
VERTEX
  5
1083
  8
_CURVE
  6
CONTINUOUS
 62
     4
 10
6.7879829145999997
 20
6.2713428026999987
 30
0.0
  0
VERTEX
  5
1084
  8
_CURVE
  6
CONTINUOUS
 62
     4
 10
6.8312176180999993
 20
6.216299006599999
 30
0.0
  0
VERTEX
  5
1085
  8
_CURVE
  6
CONTINUOUS
 62
     4
 10
6.8752823119000004
 20
6.1619122787
 30
0.0
  0
VERTEX
  5
1086
  8
_CURVE
  6
CONTINUOUS
 62
     4
 10
6.9201696672999997
 20
6.1081985726000001
 30
0.0
  0
VERTEX
  5
1087
  8
_CURVE
  6
CONTINUOUS
 62
     4
 10
6.9818183503999993
 20
6.0370505521000002
 30
0.0
  0
VERTEX
  5
1088
  8
_CURVE
  6
CONTINUOUS
 62
     4
 10
7.0449139747
 20
5.9671806286000004
 30
0.0
  0
VERTEX
  5
1089
  8
_CURVE
  6
CONTINUOUS
 62
     4
 10
7.1051548186999991
 20
5.903076102
 30
0.0
  0
VERTEX
  5
108A
  8
_CURVE
  6
CONTINUOUS
 62
     4
 10
7.1666133756999999
 20
5.8401383880999989
 30
0.0
  0
VERTEX
  5
108B
  8
_CURVE
  6
CONTINUOUS
 62
     4
 10
7.2298539358999996
 20
5.7778240265999994
 30
0.0
  0
VERTEX
  5
108C
  8
_CURVE
  6
CONTINUOUS
 62
     4
 10
7.294290254899999
 20
5.7167449210000001
 30
0.0
  0
VERTEX
  5
108D
  8
_CURVE
  6
CONTINUOUS
 62
     4
 10
7.3658156088000002
 20
5.6516431610999991
 30
0.0
  0
VERTEX
  5
108E
  8
_CURVE
  6
CONTINUOUS
 62
     4
 10
7.4386984058000003
 20
5.5880659156999997
 30
0.0
  0
VERTEX
  5
108F
  8
_CURVE
  6
CONTINUOUS
 62
     4
 10
7.4952924762000004
 20
5.5405229251000003
 30
0.0
  0
VERTEX
  5
1090
  8
_CURVE
  6
CONTINUOUS
 62
     4
 10
7.5526403808999998
 20
5.4938971308999998
 30
0.0
  0
VERTEX
  5
1091
  8
_CURVE
  6
CONTINUOUS
 62
     4
 10
7.6107232611000004
 20
5.4481972002000001
 30
0.0
  0
VERTEX
  5
1092
  8
_CURVE
  6
CONTINUOUS
 62
     4
 10
7.6778232713999994
 20
5.3972292762
 30
0.0
  0
VERTEX
  5
1093
  8
_CURVE
  6
CONTINUOUS
 62
     4
 10
7.7458257469999996
 20
5.3474855237999988
 30
0.0
  0
VERTEX
  5
1094
  8
_CURVE
  6
CONTINUOUS
 62
     4
 10
7.8147021247000001
 20
5.2989751246000001
 30
0.0
  0
VERTEX
  5
1095
  8
_CURVE
  6
CONTINUOUS
 62
     4
 10
7.892970448899999
 20
5.2460344149999987
 30
0.0
  0
VERTEX
  5
1096
  8
_CURVE
  6
CONTINUOUS
 62
     4
 10
7.9722578841999994
 20
5.1946600246000001
 30
0.0
  0
VERTEX
  5
1097
  8
_CURVE
  6
CONTINUOUS
 62
     4
 10
8.0525197682999998
 20
5.144854669099999
 30
0.0
  0
VERTEX
  5
1098
  8
_CURVE
  6
CONTINUOUS
 62
     4
 10
8.1416449918999998
 20
5.0920182989000002
 30
0.0
  0
VERTEX
  5
1099
  8
_CURVE
  6
CONTINUOUS
 62
     4
 10
8.2318314248999993
 20
5.0410650675999991
 30
0.0
  0
VERTEX
  5
109A
  8
_CURVE
  6
CONTINUOUS
 62
     4
 10
8.3230211139999994
 20
4.9919862342999988
 30
0.0
  0
VERTEX
  5
109B
  8
_CURVE
  6
CONTINUOUS
 62
     4
 10
8.3975827478999996
 20
4.9535983144999989
 30
0.0
  0
VERTEX
  5
109C
  8
_CURVE
  6
CONTINUOUS
 62
     4
 10
8.4727351894999998
 20
4.9164237330000002
 30
0.0
  0
VERTEX
  5
109D
  8
_CURVE
  6
CONTINUOUS
 62
     4
 10
8.5484489984999996
 20
4.8804517014000002
 30
0.0
  0
VERTEX
  5
109E
  8
_CURVE
  6
CONTINUOUS
 62
     4
 10
8.6246947348000003
 20
4.8456714311000004
 30
0.0
  0
VERTEX
  5
109F
  8
_CURVE
  6
CONTINUOUS
 62
     4
 10
8.7092744198999998
 20
4.808720308499999
 30
0.0
  0
VERTEX
  5
10A0
  8
_CURVE
  6
CONTINUOUS
 62
     4
 10
8.7944286221999999
 20
4.7731811969999987
 30
0.0
  0
VERTEX
  5
10A1
  8
_CURVE
  6
CONTINUOUS
 62
     4
 10
8.8801219903999993
 20
4.7390327607999989
 30
0.0
  0
VERTEX
  5
10A2
  8
_CURVE
  6
CONTINUOUS
 62
     4
 10
8.9663191732000005
 20
4.7062536641000001
 30
0.0
  0
VERTEX
  5
10A3
  8
_CURVE
  6
CONTINUOUS
 62
     4
 10
9.0620302973999998
 20
4.6716272733999986
 30
0.0
  0
VERTEX
  5
10A4
  8
_CURVE
  6
CONTINUOUS
 62
     4
 10
9.1582723253000005
 20
4.6386090907000002
 30
0.0
  0
VERTEX
  5
10A5
  8
_CURVE
  6
CONTINUOUS
 62
     4
 10
9.2550051240000002
 20
4.6071641656999986
 30
0.0
  0
VERTEX
  5
10A6
  8
_CURVE
  6
CONTINUOUS
 62
     4
 10
9.3521885605000001
 20
4.5772575482999986
 30
0.0
  0
VERTEX
  5
10A7
  8
_CURVE
  6
CONTINUOUS
 62
     4
 10
9.4600401145999982
 20
4.5459607704999989
 30
0.0
  0
VERTEX
  5
10A8
  8
_CURVE
  6
CONTINUOUS
 62
     4
 10
9.5683499822999991
 20
4.5164469057999987
 30
0.0
  0
VERTEX
  5
10A9
  8
_CURVE
  6
CONTINUOUS
 62
     4
 10
9.6770753687000006
 20
4.4886637
 30
0.0
  0
VERTEX
  5
10AA
  8
_CURVE
  6
CONTINUOUS
 62
     4
 10
9.7861734785000003
 20
4.4625588988000002
 30
0.0
  0
VERTEX
  5
10AB
  8
_CURVE
  6
CONTINUOUS
 62
     4
 10
9.9074810003999971
 20
4.4355227893000002
 30
0.0
  0
VERTEX
  5
10AC
  8
_CURVE
  6
CONTINUOUS
 62
     4
 10
10.0291512586000007
 20
4.4104124378999989
 30
0.0
  0
VERTEX
  5
10AD
  8
_CURVE
  6
CONTINUOUS
 62
     4
 10
10.1511416767
 20
4.3871558982999987
 30
0.0
  0
VERTEX
  5
10AE
  8
_CURVE
  6
CONTINUOUS
 62
     4
 10
10.2734096781000002
 20
4.3656812243000003
 30
0.0
  0
VERTEX
  5
10AF
  8
_CURVE
  6
CONTINUOUS
 62
     4
 10
10.4081178567000006
 20
4.344040828899999
 30
0.0
  0
VERTEX
  5
10B0
  8
_CURVE
  6
CONTINUOUS
 62
     4
 10
10.5430716063999999
 20
4.3243747542999991
 30
0.0
  0
VERTEX
  5
10B1
  8
_CURVE
  6
CONTINUOUS
 62
     4
 10
10.6782323901999998
 20
4.3065901414000001
 30
0.0
  0
VERTEX
  5
10B2
  8
_CURVE
  6
CONTINUOUS
 62
     4
 10
10.8135616713000005
 20
4.2905941311999989
 30
0.0
  0
VERTEX
  5
10B3
  8
_CURVE
  6
CONTINUOUS
 62
     4
 10
10.9503420924999997
 20
4.2761635475999986
 30
0.0
  0
VERTEX
  5
10B4
  8
_CURVE
  6
CONTINUOUS
 62
     4
 10
11.0872308036000007
 20
4.2633711156
 30
0.0
  0
VERTEX
  5
10B5
  8
_CURVE
  6
CONTINUOUS
 62
     4
 10
11.2242035927000003
 20
4.2521260816000002
 30
0.0
  0
VERTEX
  5
10B6
  8
_CURVE
  6
CONTINUOUS
 62
     4
 10
11.3612362478000009
 20
4.2423376920999987
 30
0.0
  0
VERTEX
  5
10B7
  8
_CURVE
  6
CONTINUOUS
 62
     4
 10
11.5269752010000008
 20
4.2323193559999996
 30
0.0
  0
VERTEX
  5
10B8
  8
_CURVE
  6
CONTINUOUS
 62
     4
 10
11.6927414437999992
 20
4.2241455181000003
 30
0.0
  0
VERTEX
  5
10B9
  8
_CURVE
  6
CONTINUOUS
 62
     4
 10
11.8585101397999999
 20
4.2176637436000002
 30
0.0
  0
VERTEX
  5
10BA
  8
_CURVE
  6
CONTINUOUS
 62
     4
 10
12.0048334937999996
 20
4.2132257938000004
 30
0.0
  0
VERTEX
  5
10BB
  8
_CURVE
  6
CONTINUOUS
 62
     4
 10
12.1511289986000008
 20
4.209880813399999
 30
0.0
  0
VERTEX
  5
10BC
  8
_CURVE
  6
CONTINUOUS
 62
     4
 10
12.2973862490000005
 20
4.2075218935000001
 30
0.0
  0
VERTEX
  5
10BD
  8
_CURVE
  6
CONTINUOUS
 62
     4
 10
12.4864031480000008
 20
4.2057574870999987
 30
0.0
  0
VERTEX
  5
10BE
  8
_CURVE
  6
CONTINUOUS
 62
     4
 10
12.6753270448999995
 20
4.2052180333999987
 30
0.0
  0
SEQEND
  5
10BF
  8
_CURVE
  6
CONTINUOUS
 62
     4
  0
POLYLINE
  5
8F9
  8
_CURVE
  6
CONTINUOUS
 62
     4
 66
     1
 10
0.0
 20
0.0
 30
0.0
  0
VERTEX
  5
10C0
  8
_CURVE
  6
CONTINUOUS
 62
     4
 10
12.6753270448999995
 20
4.2052180333999987
 30
0.0
  0
VERTEX
  5
10C1
  8
_CURVE
  6
CONTINUOUS
 62
     4
 10
12.8398027595999995
 20
4.205610341899999
 30
0.0
  0
VERTEX
  5
10C2
  8
_CURVE
  6
CONTINUOUS
 62
     4
 10
13.0043500015000006
 20
4.206908649699999
 30
0.0
  0
VERTEX
  5
10C3
  8
_CURVE
  6
CONTINUOUS
 62
     4
 10
13.1689599015999992
 20
4.2092725324999991
 30
0.0
  0
VERTEX
  5
10C4
  8
_CURVE
  6
CONTINUOUS
 62
     4
 10
13.3374467204999991
 20
4.2129590826000003
 30
0.0
  0
VERTEX
  5
10C5
  8
_CURVE
  6
CONTINUOUS
 62
     4
 10
13.5059710862000006
 20
4.2180892833999986
 30
0.0
  0
VERTEX
  5
10C6
  8
_CURVE
  6
CONTINUOUS
 62
     4
 10
13.6745142291999997
 20
4.2248240685000003
 30
0.0
  0
VERTEX
  5
10C7
  8
_CURVE
  6
CONTINUOUS
 62
     4
 10
13.8095034887000008
 20
4.2314838258999989
 30
0.0
  0
VERTEX
  5
10C8
  8
_CURVE
  6
CONTINUOUS
 62
     4
 10
13.9444758154000006
 20
4.2393596981000004
 30
0.0
  0
VERTEX
  5
10C9
  8
_CURVE
  6
CONTINUOUS
 62
     4
 10
14.0794142714999992
 20
4.2485352685000004
 30
0.0
  0
VERTEX
  5
10CA
  8
_CURVE
  6
CONTINUOUS
 62
     4
 10
14.2143019193000004
 20
4.2590941201000003
 30
0.0
  0
VERTEX
  5
10CB
  8
_CURVE
  6
CONTINUOUS
 62
     4
 10
14.3471967991000007
 20
4.2709383384999997
 30
0.0
  0
VERTEX
  5
10CC
  8
_CURVE
  6
CONTINUOUS
 62
     4
 10
14.4799985132
 20
4.2842927184999997
 30
0.0
  0
VERTEX
  5
10CD
  8
_CURVE
  6
CONTINUOUS
 62
     4
 10
14.6126797220999993
 20
4.2992421196999997
 30
0.0
  0
VERTEX
  5
10CE
  8
_CURVE
  6
CONTINUOUS
 62
     4
 10
14.7452130866999997
 20
4.315871401599999
 30
0.0
  0
VERTEX
  5
10CF
  8
_CURVE
  6
CONTINUOUS
 62
     4
 10
14.8672533659999999
 20
4.3327659227000002
 30
0.0
  0
VERTEX
  5
10D0
  8
_CURVE
  6
CONTINUOUS
 62
     4
 10
14.9891119129000003
 20
4.3512301506000002
 30
0.0
  0
VERTEX
  5
10D1
  8
_CURVE
  6
CONTINUOUS
 62
     4
 10
15.1107559185000007
 20
4.371333590099999
 30
0.0
  0
VERTEX
  5
10D2
  8
_CURVE
  6
CONTINUOUS
 62
     4
 10
15.2321525737000005
 20
4.3931457457
 30
0.0
  0
VERTEX
  5
10D3
  8
_CURVE
  6
CONTINUOUS
 62
     4
 10
15.3409995607000003
 20
4.4142610831999987
 30
0.0
  0
VERTEX
  5
10D4
  8
_CURVE
  6
CONTINUOUS
 62
     4
 10
15.4495871381000001
 20
4.4368635153999989
 30
0.0
  0
VERTEX
  5
10D5
  8
_CURVE
  6
CONTINUOUS
 62
     4
 10
15.5578821181000002
 20
4.461004267399999
 30
0.0
  0
VERTEX
  5
10D6
  8
_CURVE
  6
CONTINUOUS
 62
     4
 10
15.6658513130999992
 20
4.486734564299999
 30
0.0
  0
VERTEX
  5
10D7
  8
_CURVE
  6
CONTINUOUS
 62
     4
 10
15.7626940441999999
 20
4.5112872675000002
 30
0.0
  0
VERTEX
  5
10D8
  8
_CURVE
  6
CONTINUOUS
 62
     4
 10
15.8592144892999993
 20
4.5372048716000002
 30
0.0
  0
VERTEX
  5
10D9
  8
_CURVE
  6
CONTINUOUS
 62
     4
 10
15.9553809965000006
 20
4.5645238674000002
 30
0.0
  0
VERTEX
  5
10DA
  8
_CURVE
  6
CONTINUOUS
 62
     4
 10
16.0511619134999997
 20
4.5932807454000004
 30
0.0
  0
VERTEX
  5
10DB
  8
_CURVE
  6
CONTINUOUS
 62
     4
 10
16.1379658717000005
 20
4.6207313376999988
 30
0.0
  0
VERTEX
  5
10DC
  8
_CURVE
  6
CONTINUOUS
 62
     4
 10
16.2243949502999989
 20
4.6494277274999991
 30
0.0
  0
VERTEX
  5
10DD
  8
_CURVE
  6
CONTINUOUS
 62
     4
 10
16.3104198356000012
 20
4.6793946144999987
 30
0.0
  0
VERTEX
  5
10DE
  8
_CURVE
  6
CONTINUOUS
 62
     4
 10
16.3960112144999997
 20
4.7106566983999993
 30
0.0
  0
VERTEX
  5
10DF
  8
_CURVE
  6
CONTINUOUS
 62
     4
 10
16.4991034883999994
 20
4.7503089127999987
 30
0.0
  0
VERTEX
  5
10E0
  8
_CURVE
  6
CONTINUOUS
 62
     4
 10
16.601455958999999
 20
4.7919362178
 30
0.0
  0
VERTEX
  5
10E1
  8
_CURVE
  6
CONTINUOUS
 62
     4
 10
16.7030084155999994
 20
4.8355756032999988
 30
0.0
  0
VERTEX
  5
10E2
  8
_CURVE
  6
CONTINUOUS
 62
     4
 10
16.8001363013000002
 20
4.8796030872999996
 30
0.0
  0
VERTEX
  5
10E3
  8
_CURVE
  6
CONTINUOUS
 62
     4
 10
16.8964038131999992
 20
4.9255601008999994
 30
0.0
  0
VERTEX
  5
10E4
  8
_CURVE
  6
CONTINUOUS
 62
     4
 10
16.9917507416000007
 20
4.9734701682999987
 30
0.0
  0
VERTEX
  5
10E5
  8
_CURVE
  6
CONTINUOUS
 62
     4
 10
17.0834161382000005
 20
5.0218920726
 30
0.0
  0
VERTEX
  5
10E6
  8
_CURVE
  6
CONTINUOUS
 62
     4
 10
17.1740980802000003
 20
5.0721885763999994
 30
0.0
  0
VERTEX
  5
10E7
  8
_CURVE
  6
CONTINUOUS
 62
     4
 10
17.2637382917000011
 20
5.1243697791000002
 30
0.0
  0
VERTEX
  5
10E8
  8
_CURVE
  6
CONTINUOUS
 62
     4
 10
17.343550111399999
 20
5.1729976093000003
 30
0.0
  0
VERTEX
  5
10E9
  8
_CURVE
  6
CONTINUOUS
 62
     4
 10
17.4224260931000003
 20
5.2231618719999986
 30
0.0
  0
VERTEX
  5
10EA
  8
_CURVE
  6
CONTINUOUS
 62
     4
 10
17.5003230809999906
 20
5.2748613244999989
 30
0.0
  0
VERTEX
  5
10EB
  8
_CURVE
  6
CONTINUOUS
 62
     4
 10
17.5676798992000016
 20
5.3213792841999989
 30
0.0
  0
VERTEX
  5
10EC
  8
_CURVE
  6
CONTINUOUS
 62
     4
 10
17.6342263240000001
 20
5.3690655026999989
 30
0.0
  0
VERTEX
  5
10ED
  8
_CURVE
  6
CONTINUOUS
 62
     4
 10
17.6999353323000008
 20
5.4179126294
 30
0.0
  0
VERTEX
  5
10EE
  8
_CURVE
  6
CONTINUOUS
 62
     4
 10
17.7577926427000001
 20
5.462436521699999
 30
0.0
  0
VERTEX
  5
10EF
  8
_CURVE
  6
CONTINUOUS
 62
     4
 10
17.8149450310999988
 20
5.5078694116999989
 30
0.0
  0
VERTEX
  5
10F0
  8
_CURVE
  6
CONTINUOUS
 62
     4
 10
17.8713747398000002
 20
5.5542033054999989
 30
0.0
  0
VERTEX
  5
10F1
  8
_CURVE
  6
CONTINUOUS
 62
     4
 10
17.9443049572
 20
5.6163625165999989
 30
0.0
  0
VERTEX
  5
10F2
  8
_CURVE
  6
CONTINUOUS
 62
     4
 10
18.0159223936999986
 20
5.6800342178999994
 30
0.0
  0
VERTEX
  5
10F3
  8
_CURVE
  6
CONTINUOUS
 62
     4
 10
18.0791332728
 20
5.7385228544000002
 30
0.0
  0
VERTEX
  5
10F4
  8
_CURVE
  6
CONTINUOUS
 62
     4
 10
18.1412319340999986
 20
5.7981882142999988
 30
0.0
  0
VERTEX
  5
10F5
  8
_CURVE
  6
CONTINUOUS
 62
     4
 10
18.2001515745000013
 20
5.8569285570999998
 30
0.0
  0
VERTEX
  5
10F6
  8
_CURVE
  6
CONTINUOUS
 62
     4
 10
18.2579969672000004
 20
5.9167263844000004
 30
0.0
  0
VERTEX
  5
10F7
  8
_CURVE
  6
CONTINUOUS
 62
     4
 10
18.3170276357999988
 20
5.9800499492999988
 30
0.0
  0
VERTEX
  5
10F8
  8
_CURVE
  6
CONTINUOUS
 62
     4
 10
18.3748533209000016
 20
6.0444768338000001
 30
0.0
  0
VERTEX
  5
10F9
  8
_CURVE
  6
CONTINUOUS
 62
     4
 10
18.4372502159000007
 20
6.1168391979999992
 30
0.0
  0
VERTEX
  5
10FA
  8
_CURVE
  6
CONTINUOUS
 62
     4
 10
18.4981276339999994
 20
6.1904784065999987
 30
0.0
  0
VERTEX
  5
10FB
  8
_CURVE
  6
CONTINUOUS
 62
     4
 10
18.5425596299000013
 20
6.2462454516000001
 30
0.0
  0
VERTEX
  5
10FC
  8
_CURVE
  6
CONTINUOUS
 62
     4
 10
18.5861264328999987
 20
6.3026848557999999
 30
0.0
  0
VERTEX
  5
10FD
  8
_CURVE
  6
CONTINUOUS
 62
     4
 10
18.6288211319000006
 20
6.3597804475000004
 30
0.0
  0
VERTEX
  5
10FE
  8
_CURVE
  6
CONTINUOUS
 62
     4
 10
18.6757902260000002
 20
6.4247596062000003
 30
0.0
  0
VERTEX
  5
10FF
  8
_CURVE
  6
CONTINUOUS
 62
     4
 10
18.7216418004999987
 20
6.4905221076999986
 30
0.0
  0
VERTEX
  5
1100
  8
_CURVE
  6
CONTINUOUS
 62
     4
 10
18.7663702597000004
 20
6.5570416970999998
 30
0.0
  0
VERTEX
  5
1101
  8
_CURVE
  6
CONTINUOUS
 62
     4
 10
18.8158222715000001
 20
6.633506850199999
 30
0.0
  0
VERTEX
  5
1102
  8
_CURVE
  6
CONTINUOUS
 62
     4
 10
18.8638175834999906
 20
6.7108759640999986
 30
0.0
  0
VERTEX
  5
1103
  8
_CURVE
  6
CONTINUOUS
 62
     4
 10
18.9103566174999997
 20
6.7891095230999987
 30
0.0
  0
VERTEX
  5
1104
  8
_CURVE
  6
CONTINUOUS
 62
     4
 10
18.9613482333000007
 20
6.8787793967999988
 30
0.0
  0
VERTEX
  5
1105
  8
_CURVE
  6
CONTINUOUS
 62
     4
 10
19.0104809786000004
 20
6.9694522948999991
 30
0.0
  0
VERTEX
  5
1106
  8
_CURVE
  6
CONTINUOUS
 62
     4
 10
19.0577663615000006
 20
7.0610714322000003
 30
0.0
  0
VERTEX
  5
1107
  8
_CURVE
  6
CONTINUOUS
 62
     4
 10
19.0956885647000014
 20
7.1379363396000004
 30
0.0
  0
VERTEX
  5
1108
  8
_CURVE
  6
CONTINUOUS
 62
     4
 10
19.1323544183999985
 20
7.215385509799999
 30
0.0
  0
VERTEX
  5
1109
  8
_CURVE
  6
CONTINUOUS
 62
     4
 10
19.1677769863000016
 20
7.2933881869999997
 30
0.0
  0
VERTEX
  5
110A
  8
_CURVE
  6
CONTINUOUS
 62
     4
 10
19.2019693324999992
 20
7.3719136150999987
 30
0.0
  0
VERTEX
  5
110B
  8
_CURVE
  6
CONTINUOUS
 62
     4
 10
19.2381342858000011
 20
7.4587551417999993
 30
0.0
  0
VERTEX
  5
110C
  8
_CURVE
  6
CONTINUOUS
 62
     4
 10
19.2728540144999982
 20
7.5461546073000001
 30
0.0
  0
VERTEX
  5
110D
  8
_CURVE
  6
CONTINUOUS
 62
     4
 10
19.3061525341999989
 20
7.634076059299999
 30
0.0
  0
VERTEX
  5
110E
  8
_CURVE
  6
CONTINUOUS
 62
     4
 10
19.3380538609000006
 20
7.7224835457000003
 30
0.0
  0
VERTEX
  5
110F
  8
_CURVE
  6
CONTINUOUS
 62
     4
 10
19.3717002090999983
 20
7.8206684641999988
 30
0.0
  0
VERTEX
  5
1110
  8
_CURVE
  6
CONTINUOUS
 62
     4
 10
19.4037091707000009
 20
7.9193622367999987
 30
0.0
  0
VERTEX
  5
1111
  8
_CURVE
  6
CONTINUOUS
 62
     4
 10
19.4341190658999992
 20
8.0185244761999996
 30
0.0
  0
VERTEX
  5
1112
  8
_CURVE
  6
CONTINUOUS
 62
     4
 10
19.4629682150000001
 20
8.1181147951000003
 30
0.0
  0
VERTEX
  5
1113
  8
_CURVE
  6
CONTINUOUS
 62
     4
 10
19.4930161230999985
 20
8.2283780432000011
 30
0.0
  0
VERTEX
  5
1114
  8
_CURVE
  6
CONTINUOUS
 62
     4
 10
19.5212685820000011
 20
8.3390706394999992
 30
0.0
  0
VERTEX
  5
1115
  8
_CURVE
  6
CONTINUOUS
 62
     4
 10
19.5477811684999985
 20
8.4501505607999992
 30
0.0
  0
VERTEX
  5
1116
  8
_CURVE
  6
CONTINUOUS
 62
     4
 10
19.5726094597000007
 20
8.5615757840000004
 30
0.0
  0
VERTEX
  5
1117
  8
_CURVE
  6
CONTINUOUS
 62
     4
 10
19.5982807056999988
 20
8.6856982731999999
 30
0.0
  0
VERTEX
  5
1118
  8
_CURVE
  6
CONTINUOUS
 62
     4
 10
19.6220185554999986
 20
8.8101533906
 30
0.0
  0
VERTEX
  5
1119
  8
_CURVE
  6
CONTINUOUS
 62
     4
 10
19.6438990872000012
 20
8.9348995869000003
 30
0.0
  0
VERTEX
  5
111A
  8
_CURVE
  6
CONTINUOUS
 62
     4
 10
19.6639983789999988
 20
9.0598953122000001
 30
0.0
  0
VERTEX
  5
111B
  8
_CURVE
  6
CONTINUOUS
 62
     4
 10
19.6836357994000011
 20
9.1940030910000008
 30
0.0
  0
VERTEX
  5
111C
  8
_CURVE
  6
CONTINUOUS
 62
     4
 10
19.7014073560000007
 20
9.3283153873999982
 30
0.0
  0
VERTEX
  5
111D
  8
_CURVE
  6
CONTINUOUS
 62
     4
 10
19.7174032200000013
 20
9.4627981403000003
 30
0.0
  0
VERTEX
  5
111E
  8
_CURVE
  6
CONTINUOUS
 62
     4
 10
19.7317135625000013
 20
9.5974172887999991
 30
0.0
  0
VERTEX
  5
111F
  8
_CURVE
  6
CONTINUOUS
 62
     4
 10
19.7438986503000002
 20
9.7261878206999999
 30
0.0
  0
VERTEX
  5
1120
  8
_CURVE
  6
CONTINUOUS
 62
     4
 10
19.7547009498999984
 20
9.8550338418999992
 30
0.0
  0
VERTEX
  5
1121
  8
_CURVE
  6
CONTINUOUS
 62
     4
 10
19.7641951895999988
 20
9.9839373489999996
 30
0.0
  0
VERTEX
  5
1122
  8
_CURVE
  6
CONTINUOUS
 62
     4
 10
19.7724560979999993
 20
10.1128803381000001
 30
0.0
  0
VERTEX
  5
1123
  8
_CURVE
  6
CONTINUOUS
 62
     4
 10
19.7807695497999987
 20
10.2660939083000002
 30
0.0
  0
VERTEX
  5
1124
  8
_CURVE
  6
CONTINUOUS
 62
     4
 10
19.7875680992999996
 20
10.4193195385999999
 30
0.0
  0
VERTEX
  5
1125
  8
_CURVE
  6
CONTINUOUS
 62
     4
 10
19.7929720503000013
 20
10.5725389752000005
 30
0.0
  0
VERTEX
  5
1126
  8
_CURVE
  6
CONTINUOUS
 62
     4
 10
19.7981894772999993
 20
10.7754564038999998
 30
0.0
  0
VERTEX
  5
1127
  8
_CURVE
  6
CONTINUOUS
 62
     4
 10
19.8014577000999985
 20
10.9783044239999992
 30
0.0
  0
VERTEX
  5
1128
  8
_CURVE
  6
CONTINUOUS
 62
     4
 10
19.8029458174999995
 20
11.1557727958000008
 30
0.0
  0
VERTEX
  5
1129
  8
_CURVE
  6
CONTINUOUS
 62
     4
 10
19.8033630595999988
 20
11.3331581983999996
 30
0.0
  0
SEQEND
  5
112A
  8
_CURVE
  6
CONTINUOUS
 62
     4
  0
POLYLINE
  5
965
  8
_CURVE
  6
CONTINUOUS
 62
     4
 66
     1
 10
0.0
 20
0.0
 30
0.0
  0
VERTEX
  5
112B
  8
_CURVE
  6
CONTINUOUS
 62
     4
 10
19.8033630595999988
 20
11.3331137605999999
 30
0.0
  0
VERTEX
  5
112C
  8
_CURVE
  6
CONTINUOUS
 62
     4
 10
19.8028629709000015
 20
11.5254646991000005
 30
0.0
  0
VERTEX
  5
112D
  8
_CURVE
  6
CONTINUOUS
 62
     4
 10
19.8010843769000004
 20
11.7179117645000002
 30
0.0
  0
VERTEX
  5
112E
  8
_CURVE
  6
CONTINUOUS
 62
     4
 10
19.7977738334999991
 20
11.9104397493
 30
0.0
  0
VERTEX
  5
112F
  8
_CURVE
  6
CONTINUOUS
 62
     4
 10
19.7929301007999996
 20
12.0950428619999997
 30
0.0
  0
VERTEX
  5
1130
  8
_CURVE
  6
CONTINUOUS
 62
     4
 10
19.7862353752000004
 20
12.2796779347000005
 30
0.0
  0
VERTEX
  5
1131
  8
_CURVE
  6
CONTINUOUS
 62
     4
 10
19.7774790449999998
 20
12.4643165525999997
 30
0.0
  0
VERTEX
  5
1132
  8
_CURVE
  6
CONTINUOUS
 62
     4
 10
19.7698102157000015
 20
12.5967468751999991
 30
0.0
  0
VERTEX
  5
1133
  8
_CURVE
  6
CONTINUOUS
 62
     4
 10
19.7608920481000006
 20
12.7291459703999994
 30
0.0
  0
VERTEX
  5
1134
  8
_CURVE
  6
CONTINUOUS
 62
     4
 10
19.7506443746000002
 20
12.8614954075999997
 30
0.0
  0
VERTEX
  5
1135
  8
_CURVE
  6
CONTINUOUS
 62
     4
 10
19.7389870272999985
 20
12.9937767559000008
 30
0.0
  0
VERTEX
  5
1136
  8
_CURVE
  6
CONTINUOUS
 62
     4
 10
19.7270216528999995
 20
13.1146902141999995
 30
0.0
  0
VERTEX
  5
1137
  8
_CURVE
  6
CONTINUOUS
 62
     4
 10
19.7137452852000017
 20
13.2355087356999999
 30
0.0
  0
VERTEX
  5
1138
  8
_CURVE
  6
CONTINUOUS
 62
     4
 10
19.6990932896000004
 20
13.3562097632000008
 30
0.0
  0
VERTEX
  5
1139
  8
_CURVE
  6
CONTINUOUS
 62
     4
 10
19.6830010313999999
 20
13.4767707396999992
 30
0.0
  0
VERTEX
  5
113A
  8
_CURVE
  6
CONTINUOUS
 62
     4
 10
19.6672041984999986
 20
13.5853251952999994
 30
0.0
  0
VERTEX
  5
113B
  8
_CURVE
  6
CONTINUOUS
 62
     4
 10
19.6501349040000015
 20
13.6937234225999998
 30
0.0
  0
VERTEX
  5
113C
  8
_CURVE
  6
CONTINUOUS
 62
     4
 10
19.6317439164000014
 20
13.8019413665999995
 30
0.0
  0
VERTEX
  5
113D
  8
_CURVE
  6
CONTINUOUS
 62
     4
 10
19.6119820042000015
 20
13.9099549722999996
 30
0.0
  0
VERTEX
  5
113E
  8
_CURVE
  6
CONTINUOUS
 62
     4
 10
19.5865491795000004
 20
14.0384871734000001
 30
0.0
  0
VERTEX
  5
113F
  8
_CURVE
  6
CONTINUOUS
 62
     4
 10
19.5590116185000014
 20
14.1666398585
 30
0.0
  0
VERTEX
  5
1140
  8
_CURVE
  6
CONTINUOUS
 62
     4
 10
19.5292850350000009
 20
14.2943584458000004
 30
0.0
  0
VERTEX
  5
1141
  8
_CURVE
  6
CONTINUOUS
 62
     4
 10
19.5005253188000012
 20
14.4091364456999997
 30
0.0
  0
VERTEX
  5
1142
  8
_CURVE
  6
CONTINUOUS
 62
     4
 10
19.4698551558999995
 20
14.5234658397
 30
0.0
  0
VERTEX
  5
1143
  8
_CURVE
  6
CONTINUOUS
 62
     4
 10
19.4372135218999986
 20
14.6372955807
 30
0.0
  0
VERTEX
  5
1144
  8
_CURVE
  6
CONTINUOUS
 62
     4
 10
19.4057168964000013
 20
14.7404931159999997
 30
0.0
  0
VERTEX
  5
1145
  8
_CURVE
  6
CONTINUOUS
 62
     4
 10
19.3724918146
 20
14.8431872948999999
 30
0.0
  0
VERTEX
  5
1146
  8
_CURVE
  6
CONTINUOUS
 62
     4
 10
19.3374959105999906
 20
14.9453316027999996
 30
0.0
  0
VERTEX
  5
1147
  8
_CURVE
  6
CONTINUOUS
 62
     4
 10
19.3038845823000003
 20
15.0382800751999994
 30
0.0
  0
VERTEX
  5
1148
  8
_CURVE
  6
CONTINUOUS
 62
     4
 10
19.2687263573000003
 20
15.1306880632999992
 30
0.0
  0
VERTEX
  5
1149
  8
_CURVE
  6
CONTINUOUS
 62
     4
 10
19.2319926700000003
 20
15.2225144853999996
 30
0.0
  0
VERTEX
  5
114A
  8
_CURVE
  6
CONTINUOUS
 62
     4
 10
19.1969637384999992
 20
15.3060225512999999
 30
0.0
  0
VERTEX
  5
114B
  8
_CURVE
  6
CONTINUOUS
 62
     4
 10
19.1605732133000011
 20
15.3889737913999998
 30
0.0
  0
VERTEX
  5
114C
  8
_CURVE
  6
CONTINUOUS
 62
     4
 10
19.1228034658999988
 20
15.4713330773000006
 30
0.0
  0
VERTEX
  5
114D
  8
_CURVE
  6
CONTINUOUS
 62
     4
 10
19.0871171562000015
 20
15.5459468945000001
 30
0.0
  0
VERTEX
  5
114E
  8
_CURVE
  6
CONTINUOUS
 62
     4
 10
19.0502582244999985
 20
15.6200099372000007
 30
0.0
  0
VERTEX
  5
114F
  8
_CURVE
  6
CONTINUOUS
 62
     4
 10
19.0122173819999993
 20
15.6934936814999997
 30
0.0
  0
VERTEX
  5
1150
  8
_CURVE
  6
CONTINUOUS
 62
     4
 10
18.9764790687000016
 20
15.7599948296000001
 30
0.0
  0
VERTEX
  5
1151
  8
_CURVE
  6
CONTINUOUS
 62
     4
 10
18.9397458249999993
 20
15.8259678750999999
 30
0.0
  0
VERTEX
  5
1152
  8
_CURVE
  6
CONTINUOUS
 62
     4
 10
18.9020138919000011
 20
15.8913904711999994
 30
0.0
  0
VERTEX
  5
1153
  8
_CURVE
  6
CONTINUOUS
 62
     4
 10
18.8485198750000009
 20
15.9803683736999993
 30
0.0
  0
VERTEX
  5
1154
  8
_CURVE
  6
CONTINUOUS
 62
     4
 10
18.7931309205000012
 20
16.0682058171999991
 30
0.0
  0
VERTEX
  5
1155
  8
_CURVE
  6
CONTINUOUS
 62
     4
 10
18.7402944247999983
 20
16.1482628892999998
 30
0.0
  0
VERTEX
  5
1156
  8
_CURVE
  6
CONTINUOUS
 62
     4
 10
18.6858465625000001
 20
16.2272517926999988
 30
0.0
  0
VERTEX
  5
1157
  8
_CURVE
  6
CONTINUOUS
 62
     4
 10
18.6338658574
 20
16.2995828411999995
 30
0.0
  0
VERTEX
  5
1158
  8
_CURVE
  6
CONTINUOUS
 62
     4
 10
18.5805133160999993
 20
16.3709192944999984
 30
0.0
  0
VERTEX
  5
1159
  8
_CURVE
  6
CONTINUOUS
 62
     4
 10
18.5300171642999985
 20
16.4359071489000002
 30
0.0
  0
VERTEX
  5
115A
  8
_CURVE
  6
CONTINUOUS
 62
     4
 10
18.4783708448999988
 20
16.4999931109999984
 30
0.0
  0
VERTEX
  5
115B
  8
_CURVE
  6
CONTINUOUS
 62
     4
 10
18.4295705094000013
 20
16.5584642733999985
 30
0.0
  0
VERTEX
  5
115C
  8
_CURVE
  6
CONTINUOUS
 62
     4
 10
18.379805965300001
 20
16.6161210176000012
 30
0.0
  0
VERTEX
  5
115D
  8
_CURVE
  6
CONTINUOUS
 62
     4
 10
18.3322341743000017
 20
16.6694741891999989
 30
0.0
  0
VERTEX
  5
115E
  8
_CURVE
  6
CONTINUOUS
 62
     4
 10
18.2838371479999999
 20
16.7220796143000001
 30
0.0
  0
VERTEX
  5
115F
  8
_CURVE
  6
CONTINUOUS
 62
     4
 10
18.2379051166000004
 20
16.770523258299999
 30
0.0
  0
VERTEX
  5
1160
  8
_CURVE
  6
CONTINUOUS
 62
     4
 10
18.1912733381000002
 20
16.8182934800999995
 30
0.0
  0
VERTEX
  5
1161
  8
_CURVE
  6
CONTINUOUS
 62
     4
 10
18.1480544891000015
 20
16.8613494007
 30
0.0
  0
VERTEX
  5
1162
  8
_CURVE
  6
CONTINUOUS
 62
     4
 10
18.1042671131000006
 20
16.9038267393999995
 30
0.0
  0
VERTEX
  5
1163
  8
_CURVE
  6
CONTINUOUS
 62
     4
 10
18.0637335583000009
 20
16.9421598891999992
 30
0.0
  0
VERTEX
  5
1164
  8
_CURVE
  6
CONTINUOUS
 62
     4
 10
18.0227358116999987
 20
16.9799977563999995
 30
0.0
  0
VERTEX
  5
1165
  8
_CURVE
  6
CONTINUOUS
 62
     4
 10
17.9837070268000012
 20
17.0151717303000005
 30
0.0
  0
VERTEX
  5
1166
  8
_CURVE
  6
CONTINUOUS
 62
     4
 10
17.9442767877999998
 20
17.0498949913999986
 30
0.0
  0
VERTEX
  5
1167
  8
_CURVE
  6
CONTINUOUS
 62
     4
 10
17.8658453291000008
 20
17.116634576900001
 30
0.0
  0
VERTEX
  5
1168
  8
_CURVE
  6
CONTINUOUS
 62
     4
 10
17.784551650800001
 20
17.1827057154000009
 30
0.0
  0
VERTEX
  5
1169
  8
_CURVE
  6
CONTINUOUS
 62
     4
 10
17.7412483600000002
 20
17.2166743762999985
 30
0.0
  0
VERTEX
  5
116A
  8
_CURVE
  6
CONTINUOUS
 62
     4
 10
17.6975474440999996
 20
17.2501253396999985
 30
0.0
  0
VERTEX
  5
116B
  8
_CURVE
  6
CONTINUOUS
 62
     4
 10
17.6498506066999994
 20
17.2857131288999994
 30
0.0
  0
VERTEX
  5
116C
  8
_CURVE
  6
CONTINUOUS
 62
     4
 10
17.6017079054999996
 20
17.3206883363999999
 30
0.0
  0
VERTEX
  5
116D
  8
_CURVE
  6
CONTINUOUS
 62
     4
 10
17.5479272144999996
 20
17.3586730747999987
 30
0.0
  0
VERTEX
  5
116E
  8
_CURVE
  6
CONTINUOUS
 62
     4
 10
17.4936276109999902
 20
17.3959006020000011
 30
0.0
  0
VERTEX
  5
116F
  8
_CURVE
  6
CONTINUOUS
 62
     4
 10
17.4324085430000011
 20
17.436566388100001
 30
0.0
  0
VERTEX
  5
1170
  8
_CURVE
  6
CONTINUOUS
 62
     4
 10
17.3705816754999987
 20
17.4762832605000007
 30
0.0
  0
VERTEX
  5
1171
  8
_CURVE
  6
CONTINUOUS
 62
     4
 10
17.3019437435000007
 20
17.5188448639000001
 30
0.0
  0
VERTEX
  5
1172
  8
_CURVE
  6
CONTINUOUS
 62
     4
 10
17.2326240533999986
 20
17.5602593397
 30
0.0
  0
VERTEX
  5
1173
  8
_CURVE
  6
CONTINUOUS
 62
     4
 10
17.1572960250000008
 20
17.6035478213000012
 30
0.0
  0
VERTEX
  5
1174
  8
_CURVE
  6
CONTINUOUS
 62
     4
 10
17.0812446613000013
 20
17.6455145342999984
 30
0.0
  0
VERTEX
  5
1175
  8
_CURVE
  6
CONTINUOUS
 62
     4
 10
16.9987385539999991
 20
17.6891527360999987
 30
0.0
  0
VERTEX
  5
1176
  8
_CURVE
  6
CONTINUOUS
 62
     4
 10
16.915477823499991
 20
17.7312816672999993
 30
0.0
  0
VERTEX
  5
1177
  8
_CURVE
  6
CONTINUOUS
 62
     4
 10
16.8240878277000014
 20
17.7754147901999993
 30
0.0
  0
VERTEX
  5
1178
  8
_CURVE
  6
CONTINUOUS
 62
     4
 10
16.7319052669999984
 20
17.8177959801999997
 30
0.0
  0
VERTEX
  5
1179
  8
_CURVE
  6
CONTINUOUS
 62
     4
 10
16.6296726254999996
 20
17.8624083515999992
 30
0.0
  0
VERTEX
  5
117A
  8
_CURVE
  6
CONTINUOUS
 62
     4
 10
16.5266077311000004
 20
17.9049624013999988
 30
0.0
  0
VERTEX
  5
117B
  8
_CURVE
  6
CONTINUOUS
 62
     4
 10
16.4500335432
 20
17.9350743000000001
 30
0.0
  0
VERTEX
  5
117C
  8
_CURVE
  6
CONTINUOUS
 62
     4
 10
16.3730643082
 20
17.9641005450999991
 30
0.0
  0
VERTEX
  5
117D
  8
_CURVE
  6
CONTINUOUS
 62
     4
 10
16.2957235436999994
 20
17.9920578165999991
 30
0.0
  0
VERTEX
  5
117E
  8
_CURVE
  6
CONTINUOUS
 62
     4
 10
16.2097645224000004
 20
18.0217592728999989
 30
0.0
  0
VERTEX
  5
117F
  8
_CURVE
  6
CONTINUOUS
 62
     4
 10
16.123407898
 20
18.0501981632999993
 30
0.0
  0
VERTEX
  5
1180
  8
_CURVE
  6
CONTINUOUS
 62
     4
 10
16.0366819184999905
 20
18.0773995804000016
 30
0.0
  0
VERTEX
  5
1181
  8
_CURVE
  6
CONTINUOUS
 62
     4
 10
15.9413806795999999
 20
18.1057799967999991
 30
0.0
  0
VERTEX
  5
1182
  8
_CURVE
  6
CONTINUOUS
 62
     4
 10
15.8457027057000008
 20
18.132743980099999
 30
0.0
  0
VERTEX
  5
1183
  8
_CURVE
  6
CONTINUOUS
 62
     4
 10
15.7496797888
 20
18.1583271054000015
 30
0.0
  0
VERTEX
  5
1184
  8
_CURVE
  6
CONTINUOUS
 62
     4
 10
15.6445796738999992
 20
18.1847008718999987
 30
0.0
  0
VERTEX
  5
1185
  8
_CURVE
  6
CONTINUOUS
 62
     4
 10
15.5391410528999998
 20
18.2095215886000013
 30
0.0
  0
VERTEX
  5
1186
  8
_CURVE
  6
CONTINUOUS
 62
     4
 10
15.4333980285999992
 20
18.2328369178999985
 30
0.0
  0
VERTEX
  5
1187
  8
_CURVE
  6
CONTINUOUS
 62
     4
 10
15.3178103082000003
 20
18.2565955934000002
 30
0.0
  0
VERTEX
  5
1188
  8
_CURVE
  6
CONTINUOUS
 62
     4
 10
15.2019352923
 20
18.278683030899991
 30
0.0
  0
VERTEX
  5
1189
  8
_CURVE
  6
CONTINUOUS
 62
     4
 10
15.0858069373999992
 20
18.2991604959999989
 30
0.0
  0
SEQEND
  5
118A
  8
_CURVE
  6
CONTINUOUS
 62
     4
  0
POLYLINE
  5
9C6
  8
_CURVE
  6
CONTINUOUS
 62
     4
 66
     1
 10
0.0
 20
0.0
 30
0.0
  0
VERTEX
  5
118B
  8
_CURVE
  6
CONTINUOUS
 62
     4
 10
10.2589157930999999
 20
18.2980973987999995
 30
0.0
  0
VERTEX
  5
118C
  8
_CURVE
  6
CONTINUOUS
 62
     4
 10
10.1607652894000005
 20
18.2808311249000006
 30
0.0
  0
VERTEX
  5
118D
  8
_CURVE
  6
CONTINUOUS
 62
     4
 10
10.0627929712000004
 20
18.2624200841999986
 30
0.0
  0
VERTEX
  5
118E
  8
_CURVE
  6
CONTINUOUS
 62
     4
 10
9.9650188068999999
 20
18.2428271903999999
 30
0.0
  0
VERTEX
  5
118F
  8
_CURVE
  6
CONTINUOUS
 62
     4
 10
9.8659139681999992
 20
18.2216742708000012
 30
0.0
  0
VERTEX
  5
1190
  8
_CURVE
  6
CONTINUOUS
 62
     4
 10
9.7670611063999981
 20
18.1992243305000017
 30
0.0
  0
VERTEX
  5
1191
  8
_CURVE
  6
CONTINUOUS
 62
     4
 10
9.6684870819000004
 20
18.1754383719999986
 30
0.0
  0
VERTEX
  5
1192
  8
_CURVE
  6
CONTINUOUS
 62
     4
 10
9.5778345299000005
 20
18.1522803289999999
 30
0.0
  0
VERTEX
  5
1193
  8
_CURVE
  6
CONTINUOUS
 62
     4
 10
9.4874673970999996
 20
18.127922246699999
 30
0.0
  0
VERTEX
  5
1194
  8
_CURVE
  6
CONTINUOUS
 62
     4
 10
9.3974110140999993
 20
18.1023339531000005
 30
0.0
  0
VERTEX
  5
1195
  8
_CURVE
  6
CONTINUOUS
 62
     4
 10
9.3153593469000011
 20
18.0778344056000009
 30
0.0
  0
VERTEX
  5
1196
  8
_CURVE
  6
CONTINUOUS
 62
     4
 10
9.2336112026000006
 20
18.0522594458000007
 30
0.0
  0
VERTEX
  5
1197
  8
_CURVE
  6
CONTINUOUS
 62
     4
 10
9.1521891110000002
 20
18.0255874548000001
 30
0.0
  0
VERTEX
  5
1198
  8
_CURVE
  6
CONTINUOUS
 62
     4
 10
9.0415177705999987
 20
17.9873359547000007
 30
0.0
  0
VERTEX
  5
1199
  8
_CURVE
  6
CONTINUOUS
 62
     4
 10
8.9315616730999992
 20
17.9469456303999984
 30
0.0
  0
VERTEX
  5
119A
  8
_CURVE
  6
CONTINUOUS
 62
     4
 10
8.8317811034999991
 20
17.90813080369999
 30
0.0
  0
VERTEX
  5
119B
  8
_CURVE
  6
CONTINUOUS
 62
     4
 10
8.7327058111000007
 20
17.8674538988000009
 30
0.0
  0
VERTEX
  5
119C
  8
_CURVE
  6
CONTINUOUS
 62
     4
 10
8.6422691221000001
 20
17.8283766059000008
 30
0.0
  0
VERTEX
  5
119D
  8
_CURVE
  6
CONTINUOUS
 62
     4
 10
8.5525201123999999
 20
17.7876733221000016
 30
0.0
  0
VERTEX
  5
119E
  8
_CURVE
  6
CONTINUOUS
 62
     4
 10
8.4698449028000002
 20
17.7484061327000013
 30
0.0
  0
VERTEX
  5
119F
  8
_CURVE
  6
CONTINUOUS
 62
     4
 10
8.3878399906999999
 20
17.7077038462999994
 30
0.0
  0
VERTEX
  5
11A0
  8
_CURVE
  6
CONTINUOUS
 62
     4
 10
8.3116960681999998
 20
17.6682792080000013
 30
0.0
  0
VERTEX
  5
11A1
  8
_CURVE
  6
CONTINUOUS
 62
     4
 10
8.2362058408000003
 20
17.6275761600999985
 30
0.0
  0
VERTEX
  5
11A2
  8
_CURVE
  6
CONTINUOUS
 62
     4
 10
8.166497313999999
 20
17.5885013058000013
 30
0.0
  0
VERTEX
  5
11A3
  8
_CURVE
  6
CONTINUOUS
 62
     4
 10
8.0974108789999981
 20
17.5483064627999994
 30
0.0
  0
VERTEX
  5
11A4
  8
_CURVE
  6
CONTINUOUS
 62
     4
 10
8.0347330102000001
 20
17.5105248483999993
 30
0.0
  0
VERTEX
  5
11A5
  8
_CURVE
  6
CONTINUOUS
 62
     4
 10
7.9726194540000002
 20
17.4718009065000004
 30
0.0
  0
VERTEX
  5
11A6
  8
_CURVE
  6
CONTINUOUS
 62
     4
 10
7.9168501853999986
 20
17.4359038973000011
 30
0.0
  0
VERTEX
  5
11A7
  8
_CURVE
  6
CONTINUOUS
 62
     4
 10
7.8615761311999988
 20
17.3992339332999997
 30
0.0
  0
VERTEX
  5
11A8
  8
_CURVE
  6
CONTINUOUS
 62
     4
 10
7.8116454204999988
 20
17.3651420766999998
 30
0.0
  0
VERTEX
  5
11A9
  8
_CURVE
  6
CONTINUOUS
 62
     4
 10
7.762150072499999
 20
17.3304111410999901
 30
0.0
  0
VERTEX
  5
11AA
  8
_CURVE
  6
CONTINUOUS
 62
     4
 10
7.7167167067999989
 20
17.2976832842999997
 30
0.0
  0
VERTEX
  5
11AB
  8
_CURVE
  6
CONTINUOUS
 62
     4
 10
7.6716749804999989
 20
17.2644120060000006
 30
0.0
  0
VERTEX
  5
11AC
  8
_CURVE
  6
CONTINUOUS
 62
     4
 10
7.6294462986999996
 20
17.2324494329000011
 30
0.0
  0
VERTEX
  5
11AD
  8
_CURVE
  6
CONTINUOUS
 62
     4
 10
7.5875823975000003
 20
17.2000059824000004
 30
0.0
  0
VERTEX
  5
11AE
  8
_CURVE
  6
CONTINUOUS
 62
     4
 10
7.5073613389
 20
17.1356469285999999
 30
0.0
  0
VERTEX
  5
11AF
  8
_CURVE
  6
CONTINUOUS
 62
     4
 10
7.4283276254999988
 20
17.0692834088999987
 30
0.0
  0
VERTEX
  5
11B0
  8
_CURVE
  6
CONTINUOUS
 62
     4
 10
7.3875987610999996
 20
17.0338771971000007
 30
0.0
  0
VERTEX
  5
11B1
  8
_CURVE
  6
CONTINUOUS
 62
     4
 10
7.3472897586999988
 20
16.9979924639000011
 30
0.0
  0
VERTEX
  5
11B2
  8
_CURVE
  6
CONTINUOUS
 62
     4
 10
7.3039195760000002
 20
16.9584132945000015
 30
0.0
  0
VERTEX
  5
11B3
  8
_CURVE
  6
CONTINUOUS
 62
     4
 10
7.2610608479999987
 20
16.9182824507999996
 30
0.0
  0
VERTEX
  5
11B4
  8
_CURVE
  6
CONTINUOUS
 62
     4
 10
7.2143734662999988
 20
16.8733742370000002
 30
0.0
  0
VERTEX
  5
11B5
  8
_CURVE
  6
CONTINUOUS
 62
     4
 10
7.1683248188000004
 20
16.8278113398000002
 30
0.0
  0
VERTEX
  5
11B6
  8
_CURVE
  6
CONTINUOUS
 62
     4
 10
7.1188878749000004
 20
16.7774283420000003
 30
0.0
  0
VERTEX
  5
11B7
  8
_CURVE
  6
CONTINUOUS
 62
     4
 10
7.0702316146999991
 20
16.7262906449000006
 30
0.0
  0
VERTEX
  5
11B8
  8
_CURVE
  6
CONTINUOUS
 62
     4
 10
7.018381226399999
 20
16.6700200115000001
 30
0.0
  0
VERTEX
  5
11B9
  8
_CURVE
  6
CONTINUOUS
 62
     4
 10
6.9674762171999998
 20
16.6128925645999992
 30
0.0
  0
VERTEX
  5
11BA
  8
_CURVE
  6
CONTINUOUS
 62
     4
 10
6.9130103876999991
 20
16.5495766017000001
 30
0.0
  0
VERTEX
  5
11BB
  8
_CURVE
  6
CONTINUOUS
 62
     4
 10
6.8597057394999998
 20
16.4852846516000007
 30
0.0
  0
VERTEX
  5
11BC
  8
_CURVE
  6
CONTINUOUS
 62
     4
 10
6.8030905585000001
 20
16.4143169449999995
 30
0.0
  0
VERTEX
  5
11BD
  8
_CURVE
  6
CONTINUOUS
 62
     4
 10
6.7478791499000002
 20
16.3422620215999999
 30
0.0
  0
VERTEX
  5
11BE
  8
_CURVE
  6
CONTINUOUS
 62
     4
 10
6.6895778300000002
 20
16.2628903875999988
 30
0.0
  0
VERTEX
  5
11BF
  8
_CURVE
  6
CONTINUOUS
 62
     4
 10
6.6329594678000001
 20
16.1823244367999983
 30
0.0
  0
VERTEX
  5
11C0
  8
_CURVE
  6
CONTINUOUS
 62
     4
 10
6.5926990147999991
 20
16.1227863109000005
 30
0.0
  0
VERTEX
  5
11C1
  8
_CURVE
  6
CONTINUOUS
 62
     4
 10
6.553344094199999
 20
16.0626565633999903
 30
0.0
  0
VERTEX
  5
11C2
  8
_CURVE
  6
CONTINUOUS
 62
     4
 10
6.5148961627999986
 20
16.0019545082000008
 30
0.0
  0
VERTEX
  5
11C3
  8
_CURVE
  6
CONTINUOUS
 62
     4
 10
6.4734618664000001
 20
15.9342276957000006
 30
0.0
  0
VERTEX
  5
11C4
  8
_CURVE
  6
CONTINUOUS
 62
     4
 10
6.4331348403999993
 20
15.8658516003999992
 30
0.0
  0
VERTEX
  5
11C5
  8
_CURVE
  6
CONTINUOUS
 62
     4
 10
6.3939128366999993
 20
15.7968523315000002
 30
0.0
  0
VERTEX
  5
11C6
  8
_CURVE
  6
CONTINUOUS
 62
     4
 10
6.3517784106999997
 20
15.7197734633999993
 30
0.0
  0
VERTEX
  5
11C7
  8
_CURVE
  6
CONTINUOUS
 62
     4
 10
6.3109867369000003
 20
15.6419976386999995
 30
0.0
  0
VERTEX
  5
11C8
  8
_CURVE
  6
CONTINUOUS
 62
     4
 10
6.2715291275
 20
15.5635595982999995
 30
0.0
  0
VERTEX
  5
11C9
  8
_CURVE
  6
CONTINUOUS
 62
     4
 10
6.2296319321000002
 20
15.4765049481000005
 30
0.0
  0
VERTEX
  5
11CA
  8
_CURVE
  6
CONTINUOUS
 62
     4
 10
6.1893210372
 20
15.3887339864000001
 30
0.0
  0
VERTEX
  5
11CB
  8
_CURVE
  6
CONTINUOUS
 62
     4
 10
6.1505772386000004
 20
15.3002904977000007
 30
0.0
  0
VERTEX
  5
11CC
  8
_CURVE
  6
CONTINUOUS
 62
     4
 10
6.1097519885000002
 20
15.2022949694000005
 30
0.0
  0
VERTEX
  5
11CD
  8
_CURVE
  6
CONTINUOUS
 62
     4
 10
6.0707652479999989
 20
15.1035912909000007
 30
0.0
  0
VERTEX
  5
11CE
  8
_CURVE
  6
CONTINUOUS
 62
     4
 10
6.033583255099999
 20
15.0042318148000007
 30
0.0
  0
VERTEX
  5
11CF
  8
_CURVE
  6
CONTINUOUS
 62
     4
 10
5.9945676501999987
 20
14.8937776500000005
 30
0.0
  0
VERTEX
  5
11D0
  8
_CURVE
  6
CONTINUOUS
 62
     4
 10
5.9576597164000002
 20
14.7826480793999995
 30
0.0
  0
VERTEX
  5
11D1
  8
_CURVE
  6
CONTINUOUS
 62
     4
 10
5.9228062426000001
 20
14.6709039952999998
 30
0.0
  0
VERTEX
  5
11D2
  8
_CURVE
  6
CONTINUOUS
 62
     4
 10
5.8955373196999998
 20
14.5782136425999997
 30
0.0
  0
VERTEX
  5
11D3
  8
_CURVE
  6
CONTINUOUS
 62
     4
 10
5.869599857499999
 20
14.4851738936000007
 30
0.0
  0
VERTEX
  5
11D4
  8
_CURVE
  6
CONTINUOUS
 62
     4
 10
5.8449608375000004
 20
14.3918128187000001
 30
0.0
  0
VERTEX
  5
11D5
  8
_CURVE
  6
CONTINUOUS
 62
     4
 10
5.8215872410999996
 20
14.2981584881000003
 30
0.0
  0
VERTEX
  5
11D6
  8
_CURVE
  6
CONTINUOUS
 62
     4
 10
5.7974242722999989
 20
14.1953852616000002
 30
0.0
  0
VERTEX
  5
11D7
  8
_CURVE
  6
CONTINUOUS
 62
     4
 10
5.7746925866999987
 20
14.0923228610999995
 30
0.0
  0
VERTEX
  5
11D8
  8
_CURVE
  6
CONTINUOUS
 62
     4
 10
5.7533481584999997
 20
13.9889995653000003
 30
0.0
  0
VERTEX
  5
11D9
  8
_CURVE
  6
CONTINUOUS
 62
     4
 10
5.7333469621999997
 20
13.8854436529999994
 30
0.0
  0
VERTEX
  5
11DA
  8
_CURVE
  6
CONTINUOUS
 62
     4
 10
5.7129226680999992
 20
13.7717471478999993
 30
0.0
  0
VERTEX
  5
11DB
  8
_CURVE
  6
CONTINUOUS
 62
     4
 10
5.6940008117999987
 20
13.6578325242999998
 30
0.0
  0
VERTEX
  5
11DC
  8
_CURVE
  6
CONTINUOUS
 62
     4
 10
5.6765241933999997
 20
13.5437269618999991
 30
0.0
  0
VERTEX
  5
11DD
  8
_CURVE
  6
CONTINUOUS
 62
     4
 10
5.6604356133999998
 20
13.4294576402000008
 30
0.0
  0
VERTEX
  5
11DE
  8
_CURVE
  6
CONTINUOUS
 62
     4
 10
5.6445129635000004
 20
13.3055608393
 30
0.0
  0
VERTEX
  5
11DF
  8
_CURVE
  6
CONTINUOUS
 62
     4
 10
5.6300812742999993
 20
13.1815272801999992
 30
0.0
  0
VERTEX
  5
11E0
  8
_CURVE
  6
CONTINUOUS
 62
     4
 10
5.6170708807
 20
13.0573803668000004
 30
0.0
  0
VERTEX
  5
11E1
  8
_CURVE
  6
CONTINUOUS
 62
     4
 10
5.6054121177999994
 20
12.9331435030000002
 30
0.0
  0
VERTEX
  5
11E2
  8
_CURVE
  6
CONTINUOUS
 62
     4
 10
5.5923637298999989
 20
12.7741877970999997
 30
0.0
  0
VERTEX
  5
11E3
  8
_CURVE
  6
CONTINUOUS
 62
     4
 10
5.581272951299999
 20
12.6151534695999992
 30
0.0
  0
VERTEX
  5
11E4
  8
_CURVE
  6
CONTINUOUS
 62
     4
 10
5.5720013587999988
 20
12.4560707038
 30
0.0
  0
VERTEX
  5
11E5
  8
_CURVE
  6
CONTINUOUS
 62
     4
 10
5.5650613460000002
 20
12.3120306508000006
 30
0.0
  0
VERTEX
  5
11E6
  8
_CURVE
  6
CONTINUOUS
 62
     4
 10
5.559398838399999
 20
12.1679896503999991
 30
0.0
  0
VERTEX
  5
11E7
  8
_CURVE
  6
CONTINUOUS
 62
     4
 10
5.5549137563999986
 20
12.0239617174000006
 30
0.0
  0
VERTEX
  5
11E8
  8
_CURVE
  6
CONTINUOUS
 62
     4
 10
5.5506493886000001
 20
11.8352039837999996
 30
0.0
  0
VERTEX
  5
11E9
  8
_CURVE
  6
CONTINUOUS
 62
     4
 10
5.5480040567999991
 20
11.6465125505000007
 30
0.0
  0
VERTEX
  5
11EA
  8
_CURVE
  6
CONTINUOUS
 62
     4
 10
5.5468697309000001
 20
11.4897978899000002
 30
0.0
  0
VERTEX
  5
11EB
  8
_CURVE
  6
CONTINUOUS
 62
     4
 10
5.5465524546999996
 20
11.3331489652999995
 30
0.0
  0
SEQEND
  5
11EC
  8
_CURVE
  6
CONTINUOUS
 62
     4
  0
POLYLINE
  5
A29
  8
_CURVE
  6
CONTINUOUS
 62
     4
 66
     1
 10
0.0
 20
0.0
 30
0.0
  0
VERTEX
  5
11ED
  8
_CURVE
  6
CONTINUOUS
 62
     4
 10
12.6741463231000004
 20
19.3229128695999997
 30
0.0
  0
VERTEX
  5
11EE
  8
_CURVE
  6
CONTINUOUS
 62
     4
 10
12.5930482548999993
 20
19.3212643946999982
 30
0.0
  0
VERTEX
  5
11EF
  8
_CURVE
  6
CONTINUOUS
 62
     4
 10
12.5120022145000007
 20
19.3188059111000001
 30
0.0
  0
VERTEX
  5
11F0
  8
_CURVE
  6
CONTINUOUS
 62
     4
 10
12.4310169607999992
 20
19.3155461731999907
 30
0.0
  0
VERTEX
  5
11F1
  8
_CURVE
  6
CONTINUOUS
 62
     4
 10
12.3501012530000001
 20
19.3114939354000015
 30
0.0
  0
VERTEX
  5
11F2
  8
_CURVE
  6
CONTINUOUS
 62
     4
 10
12.2758429794000001
 20
19.3070808097000004
 30
0.0
  0
VERTEX
  5
11F3
  8
_CURVE
  6
CONTINUOUS
 62
     4
 10
12.2016549850999994
 20
19.3020128944000007
 30
0.0
  0
VERTEX
  5
11F4
  8
_CURVE
  6
CONTINUOUS
 62
     4
 10
12.1275414784999995
 20
19.2962966995000009
 30
0.0
  0
VERTEX
  5
11F5
  8
_CURVE
  6
CONTINUOUS
 62
     4
 10
12.0535066677000007
 20
19.2899387351999998
 30
0.0
  0
VERTEX
  5
11F6
  8
_CURVE
  6
CONTINUOUS
 62
     4
 10
11.9629408684000005
 20
19.2812862687000006
 30
0.0
  0
VERTEX
  5
11F7
  8
_CURVE
  6
CONTINUOUS
 62
     4
 10
11.8725064960999998
 20
19.2716912538999985
 30
0.0
  0
VERTEX
  5
11F8
  8
_CURVE
  6
CONTINUOUS
 62
     4
 10
11.7822106067999997
 20
19.2611641437999985
 30
0.0
  0
VERTEX
  5
11F9
  8
_CURVE
  6
CONTINUOUS
 62
     4
 10
11.6994317019
 20
19.2506865721000011
 30
0.0
  0
VERTEX
  5
11FA
  8
_CURVE
  6
CONTINUOUS
 62
     4
 10
11.6167819617999992
 20
19.2394399269999994
 30
0.0
  0
VERTEX
  5
11FB
  8
_CURVE
  6
CONTINUOUS
 62
     4
 10
11.5342678560999996
 20
19.2274321149000009
 30
0.0
  0
VERTEX
  5
11FC
  8
_CURVE
  6
CONTINUOUS
 62
     4
 10
11.4859593238999995
 20
19.2200417767999987
 30
0.0
  0
VERTEX
  5
11FD
  8
_CURVE
  6
CONTINUOUS
 62
     4
 10
11.4377011419999999
 20
19.2123944024999993
 30
0.0
  0
SEQEND
  5
11FE
  8
_CURVE
  6
CONTINUOUS
 62
     4
  0
POLYLINE
  5
A3C
  8
_CURVE
  6
CONTINUOUS
 62
     4
 66
     1
 10
0.0
 20
0.0
 30
0.0
  0
VERTEX
  5
11FF
  8
_CURVE
  6
CONTINUOUS
 62
     4
 10
13.9067067902999995
 20
19.2123944024999993
 30
0.0
  0
VERTEX
  5
1200
  8
_CURVE
  6
CONTINUOUS
 62
     4
 10
13.8229131385000006
 20
19.226537304299999
 30
0.0
  0
VERTEX
  5
1201
  8
_CURVE
  6
CONTINUOUS
 62
     4
 10
13.7559821409000005
 20
19.2371585855000014
 30
0.0
  0
VERTEX
  5
1202
  8
_CURVE
  6
CONTINUOUS
 62
     4
 10
13.6889364482999998
 20
19.2471934289999993
 30
0.0
  0
VERTEX
  5
1203
  8
_CURVE
  6
CONTINUOUS
 62
     4
 10
13.6217819391999999
 20
19.2566348048999991
 30
0.0
  0
VERTEX
  5
1204
  8
_CURVE
  6
CONTINUOUS
 62
     4
 10
13.5529431369999998
 20
19.2656762756999989
 30
0.0
  0
VERTEX
  5
1205
  8
_CURVE
  6
CONTINUOUS
 62
     4
 10
13.4840019438999992
 20
19.2740822316999996
 30
0.0
  0
VERTEX
  5
1206
  8
_CURVE
  6
CONTINUOUS
 62
     4
 10
13.4149638005000007
 20
19.2818462014999987
 30
0.0
  0
VERTEX
  5
1207
  8
_CURVE
  6
CONTINUOUS
 62
     4
 10
13.3396687827000004
 20
19.2895641325999989
 30
0.0
  0
VERTEX
  5
1208
  8
_CURVE
  6
CONTINUOUS
 62
     4
 10
13.2642713378000003
 20
19.2965042840999992
 30
0.0
  0
VERTEX
  5
1209
  8
_CURVE
  6
CONTINUOUS
 62
     4
 10
13.1887775861000005
 20
19.3026580685000013
 30
0.0
  0
VERTEX
  5
120A
  8
_CURVE
  6
CONTINUOUS
 62
     4
 10
13.1064930124999997
 20
19.3084527918999989
 30
0.0
  0
VERTEX
  5
120B
  8
_CURVE
  6
CONTINUOUS
 62
     4
 10
13.0241101404999995
 20
19.3132927895000002
 30
0.0
  0
VERTEX
  5
120C
  8
_CURVE
  6
CONTINUOUS
 62
     4
 10
12.9416375466000009
 20
19.3171653937000016
 30
0.0
  0
VERTEX
  5
120D
  8
_CURVE
  6
CONTINUOUS
 62
     4
 10
12.8748263986999998
 20
19.3195827163999994
 30
0.0
  0
VERTEX
  5
120E
  8
_CURVE
  6
CONTINUOUS
 62
     4
 10
12.8079693243000001
 20
19.3213510432
 30
0.0
  0
VERTEX
  5
120F
  8
_CURVE
  6
CONTINUOUS
 62
     4
 10
12.7410735551999998
 20
19.3224634142000014
 30
0.0
  0
VERTEX
  5
1210
  8
_CURVE
  6
CONTINUOUS
 62
     4
 10
12.6741463231000004
 20
19.3229128695999997
 30
0.0
  0
SEQEND
  5
1211
  8
_CURVE
  6
CONTINUOUS
 62
     4
  0
LINE
  5
A50
  8
_CURVE
  6
PHANTOM
 62
     8
 10
21.0736251776999985
 20
11.3331632884999998
 30
0.0
 11
21.0730361787999989
 21
11.2318720080999999
 31
0.0
  0
LINE
  5
A51
  8
_CURVE
  6
PHANTOM
 62
     8
 10
21.0716716694000006
 20
11.1228231929000003
 30
0.0
 11
21.0710321271999987
 21
11.0408857435000005
 31
0.0
  0
LINE
  5
A52
  8
_CURVE
  6
PHANTOM
 62
     8
 10
21.0730361787999989
 20
11.2318720080999999
 30
0.0
 11
21.0725460931000015
 21
11.1867703190000007
 31
0.0
  0
LINE
  5
A53
  8
_CURVE
  6
PHANTOM
 62
     8
 10
21.0710321271999987
 20
11.0408857435000005
 30
0.0
 11
21.0707848409999983
 21
11.0205727674999991
 31
0.0
  0
LINE
  5
A54
  8
_CURVE
  6
PHANTOM
 62
     8
 10
21.0700138742000007
 20
10.9811018655999995
 30
0.0
 11
21.0695961692999987
 21
10.9422465272
 31
0.0
  0
LINE
  5
A55
  8
_CURVE
  6
PHANTOM
 62
     8
 10
21.0725460931000015
 20
11.1867703190000007
 30
0.0
 11
21.0716716694000006
 21
11.1228231929000003
 31
0.0
  0
LINE
  5
A56
  8
_CURVE
  6
PHANTOM
 62
     8
 10
21.0695961692999987
 20
10.9422465272
 30
0.0
 11
21.0669551585000008
 21
10.7842143627000002
 31
0.0
  0
POLYLINE
  5
A57
  8
_CURVE
  6
PHANTOM
 62
     8
 66
     1
 10
0.0
 20
0.0
 30
0.0
  0
VERTEX
  5
1212
  8
_CURVE
  6
PHANTOM
 62
     8
 10
21.0669551585000008
 20
10.7842143627000002
 30
0.0
  0
VERTEX
  5
1213
  8
_CURVE
  6
PHANTOM
 62
     8
 10
21.0653897729999997
 20
10.6994445527999993
 30
0.0
  0
VERTEX
  5
1214
  8
_CURVE
  6
PHANTOM
 62
     8
 10
21.0643711431999989
 20
10.6508797317999999
 30
0.0
  0
VERTEX
  5
1215
  8
_CURVE
  6
PHANTOM
 62
     8
 10
21.0630956414999986
 20
10.5957566171999993
 30
0.0
  0
VERTEX
  5
1216
  8
_CURVE
  6
PHANTOM
 62
     8
 10
21.0614966432000017
 20
10.5334413206999997
 30
0.0
  0
VERTEX
  5
1217
  8
_CURVE
  6
PHANTOM
 62
     8
 10
21.0595152677000002
 20
10.4639061625000007
 30
0.0
  0
VERTEX
  5
1218
  8
_CURVE
  6
PHANTOM
 62
     8
 10
21.0570838685999995
 20
10.3869291639999997
 30
0.0
  0
VERTEX
  5
1219
  8
_CURVE
  6
PHANTOM
 62
     8
 10
21.0540985698000007
 20
10.3013755235000009
 30
0.0
  0
VERTEX
  5
121A
  8
_CURVE
  6
PHANTOM
 62
     8
 10
21.0503979622000017
 20
10.2051878770000002
 30
0.0
  0
VERTEX
  5
121B
  8
_CURVE
  6
PHANTOM
 62
     8
 10
21.0458816069000001
 20
10.0988234738999996
 30
0.0
  0
VERTEX
  5
121C
  8
_CURVE
  6
PHANTOM
 62
     8
 10
21.0407633445000002
 20
9.9896294373999996
 30
0.0
  0
VERTEX
  5
121D
  8
_CURVE
  6
PHANTOM
 62
     8
 10
21.0352332868999987
 20
9.8824546591000004
 30
0.0
  0
VERTEX
  5
121E
  8
_CURVE
  6
PHANTOM
 62
     8
 10
21.0292308575
 20
9.7764414830999993
 30
0.0
  0
VERTEX
  5
121F
  8
_CURVE
  6
PHANTOM
 62
     8
 10
21.0225062133000016
 20
9.6681087858000012
 30
0.0
  0
VERTEX
  5
1220
  8
_CURVE
  6
PHANTOM
 62
     8
 10
21.0145350300000011
 20
9.5513342244000015
 30
0.0
  0
VERTEX
  5
1221
  8
_CURVE
  6
PHANTOM
 62
     8
 10
21.0045882540000015
 20
9.4198257769999998
 30
0.0
  0
VERTEX
  5
1222
  8
_CURVE
  6
PHANTOM
 62
     8
 10
20.9919673246999992
 20
9.2707281073000001
 30
0.0
  0
VERTEX
  5
1223
  8
_CURVE
  6
PHANTOM
 62
     8
 10
20.9762537289000015
 20
9.1062185651999972
 30
0.0
  0
VERTEX
  5
1224
  8
_CURVE
  6
PHANTOM
 62
     8
 10
20.9668445159000001
 20
9.0164874850000007
 30
0.0
  0
VERTEX
  5
1225
  8
_CURVE
  6
PHANTOM
 62
     8
 10
20.9568244714000009
 20
8.9268122953999995
 30
0.0
  0
VERTEX
  5
1226
  8
_CURVE
  6
PHANTOM
 62
     8
 10
20.9448423454999997
 20
8.8263365963999991
 30
0.0
  0
VERTEX
  5
1227
  8
_CURVE
  6
PHANTOM
 62
     8
 10
20.9320511855999989
 20
8.7259498067999992
 30
0.0
  0
VERTEX
  5
1228
  8
_CURVE
  6
PHANTOM
 62
     8
 10
20.9163234043000017
 20
8.6106865829999997
 30
0.0
  0
VERTEX
  5
1229
  8
_CURVE
  6
PHANTOM
 62
     8
 10
20.8994661975999989
 20
8.4955650069999997
 30
0.0
  0
VERTEX
  5
122A
  8
_CURVE
  6
PHANTOM
 62
     8
 10
20.8785907168000016
 20
8.3631112535999996
 30
0.0
  0
VERTEX
  5
122B
  8
_CURVE
  6
PHANTOM
 62
     8
 10
20.8560778095999986
 20
8.2308902388000007
 30
0.0
  0
VERTEX
  5
122C
  8
_CURVE
  6
PHANTOM
 62
     8
 10
20.8298054181000012
 20
8.088319395900001
 30
0.0
  0
VERTEX
  5
122D
  8
_CURVE
  6
PHANTOM
 62
     8
 10
20.8013999831000014
 20
7.9461153591999993
 30
0.0
  0
VERTEX
  5
122E
  8
_CURVE
  6
PHANTOM
 62
     8
 10
20.7810683279999999
 20
7.8508364839999993
 30
0.0
  0
VERTEX
  5
122F
  8
_CURVE
  6
PHANTOM
 62
     8
 10
20.7597012009999986
 20
7.755769074699999
 30
0.0
  0
VERTEX
  5
1230
  8
_CURVE
  6
PHANTOM
 62
     8
 10
20.7372769073999983
 20
7.6609318591999989
 30
0.0
  0
VERTEX
  5
1231
  8
_CURVE
  6
PHANTOM
 62
     8
 10
20.7142036159000007
 20
7.5680270831999996
 30
0.0
  0
VERTEX
  5
1232
  8
_CURVE
  6
PHANTOM
 62
     8
 10
20.6900776909000008
 20
7.4753810336999988
 30
0.0
  0
VERTEX
  5
1233
  8
_CURVE
  6
PHANTOM
 62
     8
 10
20.6648872497000013
 20
7.3830123085999997
 30
0.0
  0
VERTEX
  5
1234
  8
_CURVE
  6
PHANTOM
 62
     8
 10
20.6392630490000002
 20
7.2931469750999991
 30
0.0
  0
VERTEX
  5
1235
  8
_CURVE
  6
PHANTOM
 62
     8
 10
20.6125947845999988
 20
7.203571801599999
 30
0.0
  0
VERTEX
  5
1236
  8
_CURVE
  6
PHANTOM
 62
     8
 10
20.5848636796000015
 20
7.1142950772000004
 30
0.0
  0
VERTEX
  5
1237
  8
_CURVE
  6
PHANTOM
 62
     8
 10
20.5569001930000006
 20
7.0279336205999989
 30
0.0
  0
VERTEX
  5
1238
  8
_CURVE
  6
PHANTOM
 62
     8
 10
20.5278340875999987
 20
6.9418962117999987
 30
0.0
  0
VERTEX
  5
1239
  8
_CURVE
  6
PHANTOM
 62
     8
 10
20.4975818706000013
 20
6.8562178827000002
 30
0.0
  0
VERTEX
  5
123A
  8
_CURVE
  6
PHANTOM
 62
     8
 10
20.4671831164999993
 20
6.7738842997999997
 30
0.0
  0
VERTEX
  5
123B
  8
_CURVE
  6
PHANTOM
 62
     8
 10
20.4355829403999998
 20
6.6919772429999993
 30
0.0
  0
VERTEX
  5
123C
  8
_CURVE
  6
PHANTOM
 62
     8
 10
20.4027631261000018
 20
6.6105559468999999
 30
0.0
  0
VERTEX
  5
123D
  8
_CURVE
  6
PHANTOM
 62
     8
 10
20.3698436317999985
 20
6.5322638766000001
 30
0.0
  0
VERTEX
  5
123E
  8
_CURVE
  6
PHANTOM
 62
     8
 10
20.3358781159999999
 20
6.4544650804999986
 30
0.0
  0
VERTEX
  5
123F
  8
_CURVE
  6
PHANTOM
 62
     8
 10
20.3009799495000003
 20
6.3771423820999997
 30
0.0
  0
VERTEX
  5
1240
  8
_CURVE
  6
PHANTOM
 62
     8
 10
20.2481223419999985
 20
6.2641718132999999
 30
0.0
  0
VERTEX
  5
1241
  8
_CURVE
  6
PHANTOM
 62
     8
 10
20.1935803890999992
 20
6.152050738699999
 30
0.0
  0
VERTEX
  5
1242
  8
_CURVE
  6
PHANTOM
 62
     8
 10
20.1569743848999998
 20
6.0790563183000002
 30
0.0
  0
VERTEX
  5
1243
  8
_CURVE
  6
PHANTOM
 62
     8
 10
20.1195215111000003
 20
6.0064053009
 30
0.0
  0
VERTEX
  5
1244
  8
_CURVE
  6
PHANTOM
 62
     8
 10
20.0810582444000012
 20
5.9341388760999996
 30
0.0
  0
VERTEX
  5
1245
  8
_CURVE
  6
PHANTOM
 62
     8
 10
20.0422615071999992
 20
5.8638202728999991
 30
0.0
  0
VERTEX
  5
1246
  8
_CURVE
  6
PHANTOM
 62
     8
 10
20.0021729464000018
 20
5.7940880648000004
 30
0.0
  0
VERTEX
  5
1247
  8
_CURVE
  6
PHANTOM
 62
     8
 10
19.9606260356999989
 20
5.7251204991999991
 30
0.0
  0
VERTEX
  5
1248
  8
_CURVE
  6
PHANTOM
 62
     8
 10
19.9180785594999996
 20
5.6579477470999997
 30
0.0
  0
VERTEX
  5
1249
  8
_CURVE
  6
PHANTOM
 62
     8
 10
19.8741007845999995
 20
5.5917130114999987
 30
0.0
  0
VERTEX
  5
124A
  8
_CURVE
  6
PHANTOM
 62
     8
 10
19.8288453296999982
 20
5.5264357674999989
 30
0.0
  0
VERTEX
  5
124B
  8
_CURVE
  6
PHANTOM
 62
     8
 10
19.7827569431000008
 20
5.4624805146000002
 30
0.0
  0
VERTEX
  5
124C
  8
_CURVE
  6
PHANTOM
 62
     8
 10
19.7358371973000004
 20
5.3993730176000003
 30
0.0
  0
VERTEX
  5
124D
  8
_CURVE
  6
PHANTOM
 62
     8
 10
19.6883668593999985
 20
5.3369952983999989
 30
0.0
  0
VERTEX
  5
124E
  8
_CURVE
  6
PHANTOM
 62
     8
 10
19.616570961299999
 20
5.2443746003999996
 30
0.0
  0
SEQEND
  5
124F
  8
_CURVE
  6
PHANTOM
 62
     8
  0
LINE
  5
A96
  8
_CURVE
  6
PHANTOM
 62
     8
 10
21.0707848409999983
 20
11.0205727674999991
 30
0.0
 11
21.0700138742000007
 21
10.9811018655999995
 31
0.0
  0
POLYLINE
  5
A97
  8
_CURVE
  6
PHANTOM
 62
     8
 66
     1
 10
0.0
 20
0.0
 30
0.0
  0
VERTEX
  5
1250
  8
_CURVE
  6
PHANTOM
 62
     8
 10
9.5107293508000001
 20
19.5092421479999985
 30
0.0
  0
VERTEX
  5
1251
  8
_CURVE
  6
PHANTOM
 62
     8
 10
9.6493336411000001
 20
19.5338077964999997
 30
0.0
  0
VERTEX
  5
1252
  8
_CURVE
  6
PHANTOM
 62
     8
 10
9.7882351947000004
 20
19.5565052096999992
 30
0.0
  0
VERTEX
  5
1253
  8
_CURVE
  6
PHANTOM
 62
     8
 10
9.9273938820000005
 20
19.5774136204000015
 30
0.0
  0
VERTEX
  5
1254
  8
_CURVE
  6
PHANTOM
 62
     8
 10
10.0667695735000002
 20
19.5966122614999989
 30
0.0
  0
VERTEX
  5
1255
  8
_CURVE
  6
PHANTOM
 62
     8
 10
10.2123522002999998
 20
19.6149018843999983
 30
0.0
  0
VERTEX
  5
1256
  8
_CURVE
  6
PHANTOM
 62
     8
 10
10.3581036713000003
 20
19.6314997827000006
 30
0.0
  0
VERTEX
  5
1257
  8
_CURVE
  6
PHANTOM
 62
     8
 10
10.5040003589000008
 20
19.6464885526999993
 30
0.0
  0
VERTEX
  5
1258
  8
_CURVE
  6
PHANTOM
 62
     8
 10
10.6500186354000004
 20
19.6599507905999999
 30
0.0
  0
VERTEX
  5
1259
  8
_CURVE
  6
PHANTOM
 62
     8
 10
10.7961348731999998
 20
19.6719690928000013
 30
0.0
  0
VERTEX
  5
125A
  8
_CURVE
  6
PHANTOM
 62
     8
 10
10.9423254445999998
 20
19.6826260554000001
 30
0.0
  0
VERTEX
  5
125B
  8
_CURVE
  6
PHANTOM
 62
     8
 10
11.1342360061000001
 20
19.6946806262999985
 30
0.0
  0
VERTEX
  5
125C
  8
_CURVE
  6
PHANTOM
 62
     8
 10
11.3262145546999999
 20
19.7047040094000003
 30
0.0
  0
VERTEX
  5
125D
  8
_CURVE
  6
PHANTOM
 62
     8
 10
11.5182417683999994
 20
19.7128668550000015
 30
0.0
  0
VERTEX
  5
125E
  8
_CURVE
  6
PHANTOM
 62
     8
 10
11.7102983248000001
 20
19.7193398130999995
 30
0.0
  0
VERTEX
  5
125F
  8
_CURVE
  6
PHANTOM
 62
     8
 10
11.9023649019000004
 20
19.724293534000001
 30
0.0
  0
VERTEX
  5
1260
  8
_CURVE
  6
PHANTOM
 62
     8
 10
12.0944221774000003
 20
19.7278986678000017
 30
0.0
  0
VERTEX
  5
1261
  8
_CURVE
  6
PHANTOM
 62
     8
 10
12.2864508290999996
 20
19.7303258646999993
 30
0.0
  0
VERTEX
  5
1262
  8
_CURVE
  6
PHANTOM
 62
     8
 10
12.4784315349000003
 20
19.7317457746999985
 30
0.0
  0
SEQEND
  5
1263
  8
_CURVE
  6
PHANTOM
 62
     8
  0
POLYLINE
  5
AAC
  8
_CURVE
  6
PHANTOM
 62
     8
 66
     1
 10
0.0
 20
0.0
 30
0.0
  0
VERTEX
  5
1264
  8
_CURVE
  6
PHANTOM
 62
     8
 10
12.4784315349000003
 20
19.7317457746999985
 30
0.0
  0
VERTEX
  5
1265
  8
_CURVE
  6
PHANTOM
 62
     8
 10
12.6747684984000006
 20
19.7323244303999985
 30
0.0
  0
VERTEX
  5
1266
  8
_CURVE
  6
PHANTOM
 62
     8
 10
12.8687031416999993
 20
19.7317243277999985
 30
0.0
  0
VERTEX
  5
1267
  8
_CURVE
  6
PHANTOM
 62
     8
 10
13.0626684912000002
 20
19.7302692612999984
 30
0.0
  0
VERTEX
  5
1268
  8
_CURVE
  6
PHANTOM
 62
     8
 10
13.2607850263000007
 20
19.7277635861
 30
0.0
  0
VERTEX
  5
1269
  8
_CURVE
  6
PHANTOM
 62
     8
 10
13.4589351268000001
 20
19.7240156370999991
 30
0.0
  0
VERTEX
  5
126A
  8
_CURVE
  6
PHANTOM
 62
     8
 10
13.6614504666999999
 20
19.7186707649999988
 30
0.0
  0
VERTEX
  5
126B
  8
_CURVE
  6
PHANTOM
 62
     8
 10
13.8639655963999999
 20
19.7115946404999995
 30
0.0
  0
VERTEX
  5
126C
  8
_CURVE
  6
PHANTOM
 62
     8
 10
14.0701045641999993
 20
19.7024140888000012
 30
0.0
  0
VERTEX
  5
126D
  8
_CURVE
  6
PHANTOM
 62
     8
 10
14.2761848951000001
 20
19.6910407256000006
 30
0.0
  0
VERTEX
  5
126E
  8
_CURVE
  6
PHANTOM
 62
     8
 10
14.4151100114999995
 20
19.6820312808000004
 30
0.0
  0
VERTEX
  5
126F
  8
_CURVE
  6
PHANTOM
 62
     8
 10
14.5539809981000001
 20
19.671863759299999
 30
0.0
  0
VERTEX
  5
1270
  8
_CURVE
  6
PHANTOM
 62
     8
 10
14.6927836593999999
 20
19.6604677171999995
 30
0.0
  0
VERTEX
  5
1271
  8
_CURVE
  6
PHANTOM
 62
     8
 10
14.8322393039999998
 20
19.6477016651999996
 30
0.0
  0
VERTEX
  5
1272
  8
_CURVE
  6
PHANTOM
 62
     8
 10
14.9715881794999994
 20
19.6335513476999992
 30
0.0
  0
VERTEX
  5
1273
  8
_CURVE
  6
PHANTOM
 62
     8
 10
15.1108069168999997
 20
19.6179453077000012
 30
0.0
  0
VERTEX
  5
1274
  8
_CURVE
  6
PHANTOM
 62
     8
 10
15.2151912389999993
 20
19.6052333228000002
 30
0.0
  0
VERTEX
  5
1275
  8
_CURVE
  6
PHANTOM
 62
     8
 10
15.3194786770999993
 20
19.5916288399999985
 30
0.0
  0
VERTEX
  5
1276
  8
_CURVE
  6
PHANTOM
 62
     8
 10
15.4235800697999998
 20
19.577110792500001
 30
0.0
  0
VERTEX
  5
1277
  8
_CURVE
  6
PHANTOM
 62
     8
 10
15.5275609558000003
 20
19.5616368979999997
 30
0.0
  0
VERTEX
  5
1278
  8
_CURVE
  6
PHANTOM
 62
     8
 10
15.6312953617999995
 20
19.5451929341999993
 30
0.0
  0
VERTEX
  5
1279
  8
_CURVE
  6
PHANTOM
 62
     8
 10
15.7348798474000002
 20
19.5277297788999995
 30
0.0
  0
VERTEX
  5
127A
  8
_CURVE
  6
PHANTOM
 62
     8
 10
15.8382261521000007
 20
19.5092275097999988
 30
0.0
  0
VERTEX
  5
127B
  8
_CURVE
  6
PHANTOM
 62
     8
 10
15.9413634978999994
 20
19.4896458191000015
 30
0.0
  0
VERTEX
  5
127C
  8
_CURVE
  6
PHANTOM
 62
     8
 10
15.9482688669999995
 20
19.4882938481999908
 30
0.0
  0
SEQEND
  5
127D
  8
_CURVE
  6
PHANTOM
 62
     8
  0
POLYLINE
  5
AC7
  8
_CURVE
  6
PHANTOM
 62
     8
 66
     1
 10
0.0
 20
0.0
 30
0.0
  0
VERTEX
  5
127E
  8
_CURVE
  6
PHANTOM
 62
     8
 10
15.9482688669999995
 20
19.4882938481999908
 30
0.0
  0
VERTEX
  5
127F
  8
_CURVE
  6
PHANTOM
 62
     8
 10
16.0890970996999982
 20
19.4594946391000008
 30
0.0
  0
VERTEX
  5
1280
  8
_CURVE
  6
PHANTOM
 62
     8
 10
16.2294863085000003
 20
19.4284879086000011
 30
0.0
  0
VERTEX
  5
1281
  8
_CURVE
  6
PHANTOM
 62
     8
 10
16.3693895530999995
 20
19.3952224567000009
 30
0.0
  0
VERTEX
  5
1282
  8
_CURVE
  6
PHANTOM
 62
     8
 10
16.4750140089000006
 20
19.3684842928000016
 30
0.0
  0
VERTEX
  5
1283
  8
_CURVE
  6
PHANTOM
 62
     8
 10
16.5803018046000012
 20
19.3403726318000011
 30
0.0
  0
VERTEX
  5
1284
  8
_CURVE
  6
PHANTOM
 62
     8
 10
16.6852220737999986
 20
19.3108394662999991
 30
0.0
  0
VERTEX
  5
1285
  8
_CURVE
  6
PHANTOM
 62
     8
 10
16.7897439501999983
 20
19.2798367890000009
 30
0.0
  0
VERTEX
  5
1286
  8
_CURVE
  6
PHANTOM
 62
     8
 10
16.8932321879000007
 20
19.247511575699999
 30
0.0
  0
VERTEX
  5
1287
  8
_CURVE
  6
PHANTOM
 62
     8
 10
16.9962550336999989
 20
19.2136503366999989
 30
0.0
  0
VERTEX
  5
1288
  8
_CURVE
  6
PHANTOM
 62
     8
 10
17.0987713883999994
 20
19.1782170086000008
 30
0.0
  0
VERTEX
  5
1289
  8
_CURVE
  6
PHANTOM
 62
     8
 10
17.2007401528999999
 20
19.1411755284000016
 30
0.0
  0
VERTEX
  5
128A
  8
_CURVE
  6
PHANTOM
 62
     8
 10
17.3023586995000009
 20
19.1023986458999993
 30
0.0
  0
VERTEX
  5
128B
  8
_CURVE
  6
PHANTOM
 62
     8
 10
17.4033430642999996
 20
19.0619463417000006
 30
0.0
  0
VERTEX
  5
128C
  8
_CURVE
  6
PHANTOM
 62
     8
 10
17.5036505387000005
 20
19.0197951843999995
 30
0.0
  0
VERTEX
  5
128D
  8
_CURVE
  6
PHANTOM
 62
     8
 10
17.6032384137999998
 20
18.9759217428999989
 30
0.0
  0
VERTEX
  5
128E
  8
_CURVE
  6
PHANTOM
 62
     8
 10
17.7034453378000016
 20
18.9296489938000008
 30
0.0
  0
VERTEX
  5
128F
  8
_CURVE
  6
PHANTOM
 62
     8
 10
17.8028146567000007
 20
18.8815561946999999
 30
0.0
  0
VERTEX
  5
1290
  8
_CURVE
  6
PHANTOM
 62
     8
 10
17.9012926450000016
 20
18.8316184112999991
 30
0.0
  0
VERTEX
  5
1291
  8
_CURVE
  6
PHANTOM
 62
     8
 10
17.9988255772999999
 20
18.7798107093000013
 30
0.0
  0
VERTEX
  5
1292
  8
_CURVE
  6
PHANTOM
 62
     8
 10
18.0976006673999983
 20
18.7248352002999994
 30
0.0
  0
VERTEX
  5
1293
  8
_CURVE
  6
PHANTOM
 62
     8
 10
18.1952655239999999
 20
18.6678728046000018
 30
0.0
  0
VERTEX
  5
1294
  8
_CURVE
  6
PHANTOM
 62
     8
 10
18.2917558900999992
 20
18.608921025299999
 30
0.0
  0
VERTEX
  5
1295
  8
_CURVE
  6
PHANTOM
 62
     8
 10
18.3870075086999982
 20
18.5479773654000013
 30
0.0
  0
VERTEX
  5
1296
  8
_CURVE
  6
PHANTOM
 62
     8
 10
18.4511134428000005
 20
18.505346703499999
 30
0.0
  0
VERTEX
  5
1297
  8
_CURVE
  6
PHANTOM
 62
     8
 10
18.5145989938
 20
18.4617934476999999
 30
0.0
  0
VERTEX
  5
1298
  8
_CURVE
  6
PHANTOM
 62
     8
 10
18.5774476986999986
 20
18.417319363899999
 30
0.0
  0
VERTEX
  5
1299
  8
_CURVE
  6
PHANTOM
 62
     8
 10
18.6405018608999988
 20
18.3712902070999995
 30
0.0
  0
VERTEX
  5
129A
  8
_CURVE
  6
PHANTOM
 62
     8
 10
18.7028665813999986
 20
18.3243224335000008
 30
0.0
  0
VERTEX
  5
129B
  8
_CURVE
  6
PHANTOM
 62
     8
 10
18.7645239952999994
 20
18.2764221874999997
 30
0.0
  0
VERTEX
  5
129C
  8
_CURVE
  6
PHANTOM
 62
     8
 10
18.8261763604999999
 20
18.2270099310999996
 30
0.0
  0
VERTEX
  5
129D
  8
_CURVE
  6
PHANTOM
 62
     8
 10
18.8870672135
 20
18.1766587743999999
 30
0.0
  0
VERTEX
  5
129E
  8
_CURVE
  6
PHANTOM
 62
     8
 10
18.9471775644999987
 20
18.1253783085000002
 30
0.0
  0
VERTEX
  5
129F
  8
_CURVE
  6
PHANTOM
 62
     8
 10
18.992080532300001
 20
18.0860094230999984
 30
0.0
  0
VERTEX
  5
12A0
  8
_CURVE
  6
PHANTOM
 62
     8
 10
19.0365215280999998
 20
18.0461200346999995
 30
0.0
  0
VERTEX
  5
12A1
  8
_CURVE
  6
PHANTOM
 62
     8
 10
19.1163457665999985
 20
17.9720647197000005
 30
0.0
  0
SEQEND
  5
12A2
  8
_CURVE
  6
PHANTOM
 62
     8
  0
POLYLINE
  5
AED
  8
_CURVE
  6
PHANTOM
 62
     8
 66
     1
 10
0.0
 20
0.0
 30
0.0
  0
VERTEX
  5
12A3
  8
_CURVE
  6
PHANTOM
 62
     8
 10
19.616570961299999
 20
5.2443746003999996
 30
0.0
  0
VERTEX
  5
12A4
  8
_CURVE
  6
PHANTOM
 62
     8
 10
19.5078749701000014
 20
5.1055893322000001
 30
0.0
  0
VERTEX
  5
12A5
  8
_CURVE
  6
PHANTOM
 62
     8
 10
19.4708654193000008
 20
5.0592181472000002
 30
0.0
  0
VERTEX
  5
12A6
  8
_CURVE
  6
PHANTOM
 62
     8
 10
19.4327970175000004
 20
5.0132172083999986
 30
0.0
  0
VERTEX
  5
12A7
  8
_CURVE
  6
PHANTOM
 62
     8
 10
19.3931793289000005
 20
4.9678714877000001
 30
0.0
  0
SEQEND
  5
12A8
  8
_CURVE
  6
PHANTOM
 62
     8
  0
POLYLINE
  5
AF4
  8
_CURVE
  6
PHANTOM
 62
     8
 66
     1
 10
0.0
 20
0.0
 30
0.0
  0
VERTEX
  5
12A9
  8
_CURVE
  6
PHANTOM
 62
     8
 10
19.3931793289000005
 20
4.9678714877000001
 30
0.0
  0
VERTEX
  5
12AA
  8
_CURVE
  6
PHANTOM
 62
     8
 10
19.3866006738999985
 20
4.9606873242000002
 30
0.0
  0
VERTEX
  5
12AB
  8
_CURVE
  6
PHANTOM
 62
     8
 10
19.3799970295999984
 20
4.9536665580000001
 30
0.0
  0
VERTEX
  5
12AC
  8
_CURVE
  6
PHANTOM
 62
     8
 10
19.373375406600001
 20
4.9467948005000002
 30
0.0
  0
VERTEX
  5
12AD
  8
_CURVE
  6
PHANTOM
 62
     8
 10
19.3667428151999985
 20
4.9400576632000002
 30
0.0
  0
VERTEX
  5
12AE
  8
_CURVE
  6
PHANTOM
 62
     8
 10
19.3601062659000007
 20
4.9334407576999988
 30
0.0
  0
VERTEX
  5
12AF
  8
_CURVE
  6
PHANTOM
 62
     8
 10
19.3534727691000015
 20
4.9269296953000001
 30
0.0
  0
VERTEX
  5
12B0
  8
_CURVE
  6
PHANTOM
 62
     8
 10
19.3468493351999911
 20
4.9205100876999994
 30
0.0
  0
SEQEND
  5
12B1
  8
_CURVE
  6
PHANTOM
 62
     8
  0
POLYLINE
  5
AFE
  8
_CURVE
  6
PHANTOM
 62
     8
 66
     1
 10
0.0
 20
0.0
 30
0.0
  0
VERTEX
  5
12B2
  8
_CURVE
  6
PHANTOM
 62
     8
 10
19.2272198211000003
 20
4.8009142251999988
 30
0.0
  0
VERTEX
  5
12B3
  8
_CURVE
  6
PHANTOM
 62
     8
 10
19.2096624662999993
 20
4.7831930514999987
 30
0.0
  0
VERTEX
  5
12B4
  8
_CURVE
  6
PHANTOM
 62
     8
 10
19.1919975586000007
 20
4.7655225357999988
 30
0.0
  0
VERTEX
  5
12B5
  8
_CURVE
  6
PHANTOM
 62
     8
 10
19.1742217072999992
 20
4.7479200495999994
 30
0.0
  0
VERTEX
  5
12B6
  8
_CURVE
  6
PHANTOM
 62
     8
 10
19.1563315219000003
 20
4.7304029640999996
 30
0.0
  0
VERTEX
  5
12B7
  8
_CURVE
  6
PHANTOM
 62
     8
 10
19.1383236118000006
 20
4.7129886506999989
 30
0.0
  0
VERTEX
  5
12B8
  8
_CURVE
  6
PHANTOM
 62
     8
 10
19.1201945864000002
 20
4.6956944807999994
 30
0.0
  0
VERTEX
  5
12B9
  8
_CURVE
  6
PHANTOM
 62
     8
 10
19.1002074616000002
 20
4.676912677799999
 30
0.0
  0
VERTEX
  5
12BA
  8
_CURVE
  6
PHANTOM
 62
     8
 10
19.080094131700001
 20
4.6582862068999988
 30
0.0
  0
VERTEX
  5
12BB
  8
_CURVE
  6
PHANTOM
 62
     8
 10
19.0598776397000016
 20
4.639805557699999
 30
0.0
  0
VERTEX
  5
12BC
  8
_CURVE
  6
PHANTOM
 62
     8
 10
19.0395810286999989
 20
4.6214612196999996
 30
0.0
  0
VERTEX
  5
12BD
  8
_CURVE
  6
PHANTOM
 62
     8
 10
19.0192273418000006
 20
4.6032436825999987
 30
0.0
  0
VERTEX
  5
12BE
  8
_CURVE
  6
PHANTOM
 62
     8
 10
18.9988396221999984
 20
4.5851434360000001
 30
0.0
  0
SEQEND
  5
12BF
  8
_CURVE
  6
PHANTOM
 62
     8
  0
POLYLINE
  5
B0D
  8
_CURVE
  6
PHANTOM
 62
     8
 66
     1
 10
0.0
 20
0.0
 30
0.0
  0
VERTEX
  5
12C0
  8
_CURVE
  6
PHANTOM
 62
     8
 10
19.3077126372999999
 20
4.8831072331999987
 30
0.0
  0
VERTEX
  5
12C1
  8
_CURVE
  6
PHANTOM
 62
     8
 10
19.2973631893999986
 20
4.8730155988000003
 30
0.0
  0
VERTEX
  5
12C2
  8
_CURVE
  6
PHANTOM
 62
     8
 10
19.2871461523999983
 20
4.8628901341999997
 30
0.0
  0
VERTEX
  5
12C3
  8
_CURVE
  6
PHANTOM
 62
     8
 10
19.2770364417000017
 20
4.8527216841999996
 30
0.0
  0
VERTEX
  5
12C4
  8
_CURVE
  6
PHANTOM
 62
     8
 10
19.2670089725999993
 20
4.8425010937000001
 30
0.0
  0
VERTEX
  5
12C5
  8
_CURVE
  6
PHANTOM
 62
     8
 10
19.2570386605999992
 20
4.8322192076999988
 30
0.0
  0
VERTEX
  5
12C6
  8
_CURVE
  6
PHANTOM
 62
     8
 10
19.2471004211000007
 20
4.8218668710000001
 30
0.0
  0
VERTEX
  5
12C7
  8
_CURVE
  6
PHANTOM
 62
     8
 10
19.2272198211000003
 20
4.8009142251999988
 30
0.0
  0
SEQEND
  5
12C8
  8
_CURVE
  6
PHANTOM
 62
     8
  0
LINE
  5
B17
  8
_CURVE
  6
PHANTOM
 62
     8
 10
19.3205964375000008
 20
4.8954584335999991
 30
0.0
 11
19.3077126372999999
 21
4.8831072331999987
 31
0.0
  0
POLYLINE
  5
B18
  8
_CURVE
  6
PHANTOM
 62
     8
 66
     1
 10
0.0
 20
0.0
 30
0.0
  0
VERTEX
  5
12C9
  8
_CURVE
  6
PHANTOM
 62
     8
 10
19.3468493351999911
 20
4.9205100876999994
 30
0.0
  0
VERTEX
  5
12CA
  8
_CURVE
  6
PHANTOM
 62
     8
 10
19.3336606979999992
 20
4.9078876824000002
 30
0.0
  0
VERTEX
  5
12CB
  8
_CURVE
  6
PHANTOM
 62
     8
 10
19.3205964375000008
 20
4.8954584335999991
 30
0.0
  0
SEQEND
  5
12CC
  8
_CURVE
  6
PHANTOM
 62
     8
  0
POLYLINE
  5
B1D
  8
_CURVE
  6
PHANTOM
 62
     8
 66
     1
 10
0.0
 20
0.0
 30
0.0
  0
VERTEX
  5
12CD
  8
_CURVE
  6
PHANTOM
 62
     8
 10
18.9988396221999984
 20
4.5851434360000001
 30
0.0
  0
VERTEX
  5
12CE
  8
_CURVE
  6
PHANTOM
 62
     8
 10
18.9329264630000011
 20
4.5275364399000004
 30
0.0
  0
VERTEX
  5
12CF
  8
_CURVE
  6
PHANTOM
 62
     8
 10
18.8657753686999996
 20
4.470470109199999
 30
0.0
  0
VERTEX
  5
12D0
  8
_CURVE
  6
PHANTOM
 62
     8
 10
18.8188422391000003
 20
4.4317029035999989
 30
0.0
  0
VERTEX
  5
12D1
  8
_CURVE
  6
PHANTOM
 62
     8
 10
18.7713953818000014
 20
4.3935010742999996
 30
0.0
  0
VERTEX
  5
12D2
  8
_CURVE
  6
PHANTOM
 62
     8
 10
18.7231706345000006
 20
4.3557069947000002
 30
0.0
  0
VERTEX
  5
12D3
  8
_CURVE
  6
PHANTOM
 62
     8
 10
18.6744573908999989
 20
4.3185559562999991
 30
0.0
  0
VERTEX
  5
12D4
  8
_CURVE
  6
PHANTOM
 62
     8
 10
18.6086730715999984
 20
4.2699386087999986
 30
0.0
  0
VERTEX
  5
12D5
  8
_CURVE
  6
PHANTOM
 62
     8
 10
18.5421285098999995
 20
4.222434881599999
 30
0.0
  0
VERTEX
  5
12D6
  8
_CURVE
  6
PHANTOM
 62
     8
 10
18.4748838366000001
 20
4.1759919520999986
 30
0.0
  0
VERTEX
  5
12D7
  8
_CURVE
  6
PHANTOM
 62
     8
 10
18.4076562115999991
 20
4.1310025533000001
 30
0.0
  0
VERTEX
  5
12D8
  8
_CURVE
  6
PHANTOM
 62
     8
 10
18.3398086147000008
 20
4.0869909570000003
 30
0.0
  0
VERTEX
  5
12D9
  8
_CURVE
  6
PHANTOM
 62
     8
 10
18.2713486224999997
 20
4.0439465718000003
 30
0.0
  0
VERTEX
  5
12DA
  8
_CURVE
  6
PHANTOM
 62
     8
 10
18.203585058399991
 20
4.0026454878999997
 30
0.0
  0
VERTEX
  5
12DB
  8
_CURVE
  6
PHANTOM
 62
     8
 10
18.1352453675999996
 20
3.9622897668000001
 30
0.0
  0
VERTEX
  5
12DC
  8
_CURVE
  6
PHANTOM
 62
     8
 10
18.0663357580999993
 20
3.9229037133999989
 30
0.0
  0
VERTEX
  5
12DD
  8
_CURVE
  6
PHANTOM
 62
     8
 10
17.9984512684999984
 20
3.885369429399999
 30
0.0
  0
VERTEX
  5
12DE
  8
_CURVE
  6
PHANTOM
 62
     8
 10
17.9300532594000011
 20
3.8487842812999999
 30
0.0
  0
VERTEX
  5
12DF
  8
_CURVE
  6
PHANTOM
 62
     8
 10
17.8611665819000009
 20
3.8131481127999991
 30
0.0
  0
VERTEX
  5
12E0
  8
_CURVE
  6
PHANTOM
 62
     8
 10
17.7597741223999996
 20
3.7628183329999998
 30
0.0
  0
VERTEX
  5
12E1
  8
_CURVE
  6
PHANTOM
 62
     8
 10
17.6574663958000002
 20
3.7144555516
 30
0.0
  0
VERTEX
  5
12E2
  8
_CURVE
  6
PHANTOM
 62
     8
 10
17.5575303435999999
 20
3.6694210470999988
 30
0.0
  0
VERTEX
  5
12E3
  8
_CURVE
  6
PHANTOM
 62
     8
 10
17.4568529961999985
 20
3.6261404587000001
 30
0.0
  0
VERTEX
  5
12E4
  8
_CURVE
  6
PHANTOM
 62
     8
 10
17.3589247019000013
 20
3.5859543555000002
 30
0.0
  0
VERTEX
  5
12E5
  8
_CURVE
  6
PHANTOM
 62
     8
 10
17.2603833133000002
 20
3.5473403516999991
 30
0.0
  0
VERTEX
  5
12E6
  8
_CURVE
  6
PHANTOM
 62
     8
 10
17.1663186745999994
 20
3.512121341299999
 30
0.0
  0
VERTEX
  5
12E7
  8
_CURVE
  6
PHANTOM
 62
     8
 10
17.0717624989000001
 20
3.4782754821999999
 30
0.0
  0
VERTEX
  5
12E8
  8
_CURVE
  6
PHANTOM
 62
     8
 10
16.9767459098000018
 20
3.4457838768000002
 30
0.0
  0
VERTEX
  5
12E9
  8
_CURVE
  6
PHANTOM
 62
     8
 10
16.8813000305000003
 20
3.4146276272999998
 30
0.0
  0
VERTEX
  5
12EA
  8
_CURVE
  6
PHANTOM
 62
     8
 10
16.7611453409999989
 20
3.3774407349999991
 30
0.0
  0
VERTEX
  5
12EB
  8
_CURVE
  6
PHANTOM
 62
     8
 10
16.6404185341999984
 20
3.342261656499999
 30
0.0
  0
VERTEX
  5
12EC
  8
_CURVE
  6
PHANTOM
 62
     8
 10
16.5191726318999983
 20
3.3090313085999998
 30
0.0
  0
VERTEX
  5
12ED
  8
_CURVE
  6
PHANTOM
 62
     8
 10
16.4026964421999999
 20
3.2789976783999988
 30
0.0
  0
VERTEX
  5
12EE
  8
_CURVE
  6
PHANTOM
 62
     8
 10
16.2858304706000006
 20
3.2506358077999988
 30
0.0
  0
VERTEX
  5
12EF
  8
_CURVE
  6
PHANTOM
 62
     8
 10
16.1686118259999994
 20
3.223886672099999
 30
0.0
  0
VERTEX
  5
12F0
  8
_CURVE
  6
PHANTOM
 62
     8
 10
16.0529563017000001
 20
3.1990838164999991
 30
0.0
  0
VERTEX
  5
12F1
  8
_CURVE
  6
PHANTOM
 62
     8
 10
15.9370214303999997
 20
3.1757406572
 30
0.0
  0
VERTEX
  5
12F2
  8
_CURVE
  6
PHANTOM
 62
     8
 10
15.8208334261000001
 20
3.1538124327999988
 30
0.0
  0
VERTEX
  5
12F3
  8
_CURVE
  6
PHANTOM
 62
     8
 10
15.7022787827000005
 20
3.1328888741999998
 30
0.0
  0
VERTEX
  5
12F4
  8
_CURVE
  6
PHANTOM
 62
     8
 10
15.5835129613000003
 20
3.1133352407999988
 30
0.0
  0
VERTEX
  5
12F5
  8
_CURVE
  6
PHANTOM
 62
     8
 10
15.4645601116000009
 20
3.0951005147999999
 30
0.0
  0
VERTEX
  5
12F6
  8
_CURVE
  6
PHANTOM
 62
     8
 10
15.3392294961999998
 20
3.0772836329
 30
0.0
  0
VERTEX
  5
12F7
  8
_CURVE
  6
PHANTOM
 62
     8
 10
15.2137391174999994
 20
3.0608146823000002
 30
0.0
  0
VERTEX
  5
12F8
  8
_CURVE
  6
PHANTOM
 62
     8
 10
15.0881095156999994
 20
3.0456380670000001
 30
0.0
  0
VERTEX
  5
12F9
  8
_CURVE
  6
PHANTOM
 62
     8
 10
14.9525131158000004
 20
3.0306581162000001
 30
0.0
  0
VERTEX
  5
12FA
  8
_CURVE
  6
PHANTOM
 62
     8
 10
14.8167980650000004
 20
3.0170492111999998
 30
0.0
  0
VERTEX
  5
12FB
  8
_CURVE
  6
PHANTOM
 62
     8
 10
14.6809837017000007
 20
3.004744475799999
 30
0.0
  0
VERTEX
  5
12FC
  8
_CURVE
  6
PHANTOM
 62
     8
 10
14.5325864749000004
 20
2.9927197502999991
 30
0.0
  0
VERTEX
  5
12FD
  8
_CURVE
  6
PHANTOM
 62
     8
 10
14.3841125168000001
 20
2.9820882208999988
 30
0.0
  0
VERTEX
  5
12FE
  8
_CURVE
  6
PHANTOM
 62
     8
 10
14.2355804574999993
 20
2.9727677315999999
 30
0.0
  0
VERTEX
  5
12FF
  8
_CURVE
  6
PHANTOM
 62
     8
 10
14.1165008108999999
 20
2.966188478299999
 30
0.0
  0
VERTEX
  5
1300
  8
_CURVE
  6
PHANTOM
 62
     8
 10
13.9974010619999998
 20
2.9603567172999998
 30
0.0
  0
VERTEX
  5
1301
  8
_CURVE
  6
PHANTOM
 62
     8
 10
13.8732296570999996
 20
2.9550282579
 30
0.0
  0
VERTEX
  5
1302
  8
_CURVE
  6
PHANTOM
 62
     8
 10
13.7490482653000008
 20
2.9504214086
 30
0.0
  0
VERTEX
  5
1303
  8
_CURVE
  6
PHANTOM
 62
     8
 10
13.6201163691999998
 20
2.9463534867999992
 30
0.0
  0
VERTEX
  5
1304
  8
_CURVE
  6
PHANTOM
 62
     8
 10
13.4911855964999994
 20
2.942963218
 30
0.0
  0
VERTEX
  5
1305
  8
_CURVE
  6
PHANTOM
 62
     8
 10
13.3580742270999995
 20
2.9401192463999992
 30
0.0
  0
VERTEX
  5
1306
  8
_CURVE
  6
PHANTOM
 62
     8
 10
13.2249728883
 20
2.9378863042000001
 30
0.0
  0
VERTEX
  5
1307
  8
_CURVE
  6
PHANTOM
 62
     8
 10
13.0892399093999998
 20
2.9361799772000001
 30
0.0
  0
VERTEX
  5
1308
  8
_CURVE
  6
PHANTOM
 62
     8
 10
12.9520934540999999
 20
2.934980112599999
 30
0.0
  0
VERTEX
  5
1309
  8
_CURVE
  6
PHANTOM
 62
     8
 10
12.8138244783000008
 20
2.9342402332999988
 30
0.0
  0
SEQEND
  5
130A
  8
_CURVE
  6
PHANTOM
 62
     8
  0
LINE
  5
B5C
  8
_CURVE
  6
PHANTOM
 62
     8
 10
19.1163457665999985
 20
17.9720647197000005
 30
0.0
 11
19.1359854120999984
 21
17.9535314897999996
 31
0.0
  0
LINE
  5
B5D
  8
_CURVE
  6
PHANTOM
 62
     8
 10
19.1359854120999984
 20
17.9535314897999996
 30
0.0
 11
19.1594148597
 21
17.9311635114000012
 31
0.0
  0
LINE
  5
B5E
  8
_CURVE
  6
PHANTOM
 62
     8
 10
19.1594148597
 20
17.9311635114000012
 30
0.0
 11
19.1826347724000001
 21
17.908735953499999
 31
0.0
  0
LINE
  5
B5F
  8
_CURVE
  6
PHANTOM
 62
     8
 10
19.1826347724000001
 20
17.908735953499999
 30
0.0
 11
19.1993936920999992
 21
17.8923660566000002
 31
0.0
  0
LINE
  5
B60
  8
_CURVE
  6
PHANTOM
 62
     8
 10
19.1993936920999992
 20
17.8923660566000002
 30
0.0
 11
19.2214014949999985
 21
17.8706103096
 31
0.0
  0
POLYLINE
  5
B61
  8
_CURVE
  6
PHANTOM
 62
     8
 66
     1
 10
0.0
 20
0.0
 30
0.0
  0
VERTEX
  5
130B
  8
_CURVE
  6
PHANTOM
 62
     8
 10
19.2214014949999985
 20
17.8706103096
 30
0.0
  0
VERTEX
  5
130C
  8
_CURVE
  6
PHANTOM
 62
     8
 10
19.2909008658999994
 20
17.799356597300001
 30
0.0
  0
VERTEX
  5
130D
  8
_CURVE
  6
PHANTOM
 62
     8
 10
19.3590531132000017
 20
17.7267517908999999
 30
0.0
  0
VERTEX
  5
130E
  8
_CURVE
  6
PHANTOM
 62
     8
 10
19.4258277520999982
 20
17.6528294828999996
 30
0.0
  0
VERTEX
  5
130F
  8
_CURVE
  6
PHANTOM
 62
     8
 10
19.4911942979999999
 20
17.5776232659000016
 30
0.0
  0
VERTEX
  5
1310
  8
_CURVE
  6
PHANTOM
 62
     8
 10
19.5551222658999997
 20
17.5011667328000016
 30
0.0
  0
VERTEX
  5
1311
  8
_CURVE
  6
PHANTOM
 62
     8
 10
19.6175811710999994
 20
17.4234934760999991
 30
0.0
  0
VERTEX
  5
1312
  8
_CURVE
  6
PHANTOM
 62
     8
 10
19.678540528900001
 20
17.3446370885000007
 30
0.0
  0
VERTEX
  5
1313
  8
_CURVE
  6
PHANTOM
 62
     8
 10
19.7379698543999993
 20
17.2646311628000007
 30
0.0
  0
VERTEX
  5
1314
  8
_CURVE
  6
PHANTOM
 62
     8
 10
19.7958386630000014
 20
17.1835092916000001
 30
0.0
  0
VERTEX
  5
1315
  8
_CURVE
  6
PHANTOM
 62
     8
 10
19.855174697999999
 20
17.0967520674000006
 30
0.0
  0
VERTEX
  5
1316
  8
_CURVE
  6
PHANTOM
 62
     8
 10
19.9127505798000008
 20
17.0088408049999984
 30
0.0
  0
VERTEX
  5
1317
  8
_CURVE
  6
PHANTOM
 62
     8
 10
19.968577097899999
 20
16.9198262321000001
 30
0.0
  0
VERTEX
  5
1318
  8
_CURVE
  6
PHANTOM
 62
     8
 10
20.0226650419000016
 20
16.8297590767000003
 30
0.0
  0
VERTEX
  5
1319
  8
_CURVE
  6
PHANTOM
 62
     8
 10
20.0750252013000008
 20
16.7386900664999985
 30
0.0
  0
VERTEX
  5
131A
  8
_CURVE
  6
PHANTOM
 62
     8
 10
20.1256683657999993
 20
16.6466699294000016
 30
0.0
  0
VERTEX
  5
131B
  8
_CURVE
  6
PHANTOM
 62
     8
 10
20.1746053250000017
 20
16.5537493932000004
 30
0.0
  0
VERTEX
  5
131C
  8
_CURVE
  6
PHANTOM
 62
     8
 10
20.2218468684000001
 20
16.4599791858000017
 30
0.0
  0
VERTEX
  5
131D
  8
_CURVE
  6
PHANTOM
 62
     8
 10
20.2674037857000009
 20
16.365410035
 30
0.0
  0
VERTEX
  5
131E
  8
_CURVE
  6
PHANTOM
 62
     8
 10
20.3167124715000007
 20
16.2580070692000014
 30
0.0
  0
VERTEX
  5
131F
  8
_CURVE
  6
PHANTOM
 62
     8
 10
20.3639411045000003
 20
16.1497101936000007
 30
0.0
  0
VERTEX
  5
1320
  8
_CURVE
  6
PHANTOM
 62
     8
 10
20.409132722399999
 20
16.0405745338999992
 30
0.0
  0
VERTEX
  5
1321
  8
_CURVE
  6
PHANTOM
 62
     8
 10
20.4523303632999998
 20
15.9306552154999999
 30
0.0
  0
VERTEX
  5
1322
  8
_CURVE
  6
PHANTOM
 62
     8
 10
20.4935770650999984
 20
15.8200073638000003
 30
0.0
  0
VERTEX
  5
1323
  8
_CURVE
  6
PHANTOM
 62
     8
 10
20.5329158659000015
 20
15.7086861042999999
 30
0.0
  0
VERTEX
  5
1324
  8
_CURVE
  6
PHANTOM
 62
     8
 10
20.5703898036000012
 20
15.5967465623999999
 30
0.0
  0
VERTEX
  5
1325
  8
_CURVE
  6
PHANTOM
 62
     8
 10
20.6060419161000006
 20
15.4842438635999997
 30
0.0
  0
VERTEX
  5
1326
  8
_CURVE
  6
PHANTOM
 62
     8
 10
20.6399152414999989
 20
15.3712331333000005
 30
0.0
  0
VERTEX
  5
1327
  8
_CURVE
  6
PHANTOM
 62
     8
 10
20.6764433001000008
 20
15.2417522750999996
 30
0.0
  0
VERTEX
  5
1328
  8
_CURVE
  6
PHANTOM
 62
     8
 10
20.7107874697999996
 20
15.1117265036999893
 30
0.0
  0
VERTEX
  5
1329
  8
_CURVE
  6
PHANTOM
 62
     8
 10
20.7430228817
 20
14.9812003479999998
 30
0.0
  0
VERTEX
  5
132A
  8
_CURVE
  6
PHANTOM
 62
     8
 10
20.7732246672999992
 20
14.8502183367999994
 30
0.0
  0
VERTEX
  5
132B
  8
_CURVE
  6
PHANTOM
 62
     8
 10
20.8014679575000017
 20
14.7188249991000006
 30
0.0
  0
VERTEX
  5
132C
  8
_CURVE
  6
PHANTOM
 62
     8
 10
20.8278278838000013
 20
14.5870648638000002
 30
0.0
  0
VERTEX
  5
132D
  8
_CURVE
  6
PHANTOM
 62
     8
 10
20.8523795772999989
 20
14.4549824598000001
 30
0.0
  0
VERTEX
  5
132E
  8
_CURVE
  6
PHANTOM
 62
     8
 10
20.8751981692000008
 20
14.3226223161000004
 30
0.0
  0
VERTEX
  5
132F
  8
_CURVE
  6
PHANTOM
 62
     8
 10
20.8963587908000008
 20
14.1900289614999995
 30
0.0
  0
VERTEX
  5
1330
  8
_CURVE
  6
PHANTOM
 62
     8
 10
20.9183522523000001
 20
14.0400708518999995
 30
0.0
  0
VERTEX
  5
1331
  8
_CURVE
  6
PHANTOM
 62
     8
 10
20.9384201810000015
 20
13.8898968476999993
 30
0.0
  0
VERTEX
  5
1332
  8
_CURVE
  6
PHANTOM
 62
     8
 10
20.9566553804000009
 20
13.7395316499
 30
0.0
  0
VERTEX
  5
1333
  8
_CURVE
  6
PHANTOM
 62
     8
 10
20.9731506544999995
 20
13.5889999593000006
 30
0.0
  0
VERTEX
  5
1334
  8
_CURVE
  6
PHANTOM
 62
     8
 10
20.9879988068000003
 20
13.4383264766000003
 30
0.0
  0
VERTEX
  5
1335
  8
_CURVE
  6
PHANTOM
 62
     8
 10
21.0012926411999992
 20
13.2875359027000002
 30
0.0
  0
VERTEX
  5
1336
  8
_CURVE
  6
PHANTOM
 62
     8
 10
21.0131249613000008
 20
13.1366529383999993
 30
0.0
  0
VERTEX
  5
1337
  8
_CURVE
  6
PHANTOM
 62
     8
 10
21.0235885708000012
 20
12.9857022845000003
 30
0.0
  0
VERTEX
  5
1338
  8
_CURVE
  6
PHANTOM
 62
     8
 10
21.0327762735000015
 20
12.8347086418000007
 30
0.0
  0
VERTEX
  5
1339
  8
_CURVE
  6
PHANTOM
 62
     8
 10
21.0438125169999992
 20
12.6201839824000004
 30
0.0
  0
VERTEX
  5
133A
  8
_CURVE
  6
PHANTOM
 62
     8
 10
21.0527065690999997
 20
12.4056385310999993
 30
0.0
  0
VERTEX
  5
133B
  8
_CURVE
  6
PHANTOM
 62
     8
 10
21.0597036073000012
 20
12.1910883990999999
 30
0.0
  0
VERTEX
  5
133C
  8
_CURVE
  6
PHANTOM
 62
     8
 10
21.0650488096000004
 20
11.9765496975999994
 30
0.0
  0
VERTEX
  5
133D
  8
_CURVE
  6
PHANTOM
 62
     8
 10
21.0689873536000007
 20
11.7620385379000005
 30
0.0
  0
VERTEX
  5
133E
  8
_CURVE
  6
PHANTOM
 62
     8
 10
21.0717644170000007
 20
11.5475710311000004
 30
0.0
  0
VERTEX
  5
133F
  8
_CURVE
  6
PHANTOM
 62
     8
 10
21.0736251776999985
 20
11.3331632884999998
 30
0.0
  0
SEQEND
  5
1340
  8
_CURVE
  6
PHANTOM
 62
     8
  0
CIRCLE
  5
B98
  8
0
  6
CONTINUOUS
 62
     2
 10
8.1677068069000001
 20
14.9777069489999999
 30
0.0
 40
0.298056591
  0
ARC
  5
B99
  8
0
  6
CONTINUOUS
 62
     2
 10
9.9347376224000001
 20
15.0967755147999991
 30
0.0
 40
0.1750166163
 50
294.4500166358999991
 51
90.0
  0
CIRCLE
  5
B9D
  8
0
  6
CONTINUOUS
 62
     2
 10
8.1677068069000001
 20
14.9777069489999999
 30
0.0
 40
0.1247694151
  0
CIRCLE
  5
BA4
  8
0
  6
CONTINUOUS
 62
     2
 10
10.3073900877
 20
14.6858713760999997
 30
0.0
 40
0.0653578721
  0
ARC
  5
BA7
  8
0
  6
CONTINUOUS
 62
     2
 10
9.9077755237999998
 20
15.0755944570999993
 30
0.0
 40
0.053611735
 50
266.160400990200003
 51
89.999891051299997
  0
ARC
  5
BA9
  8
0
  6
CONTINUOUS
 62
     2
 10
10.3157834212000008
 20
14.7021654345999995
 30
0.0
 40
0.0168314496
 50
270.0
 51
90.0
  0
ARC
  5
BAA
  8
_CURVE
  6
CONTINUOUS
 62
     4
 10
13.6685000608999996
 20
17.8463251842999995
 30
0.0
 40
1.3866822111999999
 50
24.3386148192
 51
80.1085686909000003
  0
ARC
  5
BAB
  8
_CURVE
  6
CONTINUOUS
 62
     4
 10
11.6759078713999997
 20
17.8463251842999995
 30
0.0
 40
1.3866822111999999
 50
99.8914313091000139
 51
156.4848900467000021
  0
ARC
  5
BAC
  8
_CURVE
  6
CONTINUOUS
 62
     4
 10
10.2240621867999995
 20
18.5030369659000016
 30
0.0
 40
0.2078821782
 50
279.6518167277000089
 51
330.1599190471000043
  0
ARC
  5
BAD
  8
_CURVE
  6
CONTINUOUS
 62
     4
 10
15.1203457455999999
 20
18.5030369659000016
 30
0.0
 40
0.2067813924
 50
204.3386148191999894
 51
260.384786818699979
  0
ENDSEC
  0
EOF
