999
DXF file: 1551948-7.dxf
999
Pro/ENGINEER 2021304 by Parametric Technology Corporation
  0
SECTION
  2
HEADER
  9
$ACADVER
  1
AC1015
  9
$DWGCODEPAGE
  3
ANSI_1252
  9
$EXTMAX
 10
34.0
 20
22.0
 30
0.0
  9
$EXTMIN
 10
0.0
 20
0.0
 30
0.0
  9
$LIMMIN
 10
0.0
 20
0.0
  9
$LIMMAX
 10
34.0
 20
22.0
  9
$VIEWCTR
 10
17.0
 20
11.0
  9
$VIEWSIZE
 40
22.0
  9
$CLAYER
  8
0
  9
$LTSCALE
 40
1.87
  9
$CELTYPE
  6
BYLAYER
  9
$DIMSCALE
 40
1.0
  9
$DIMASZ
 40
0.1875
  9
$DIMEXO
 40
0.0625
  9
$DIMDLI
 40
1.292
  9
$DIMEXE
 40
0.125
  9
$DIMCEN
 40
0.306
  9
$DIMLFAC
 40
1.0
  9
$DIMBLK
  1
_FILLED
  9
$DIMALT
 70
1
  9
$DIMALTD
 70
2
  9
$DIMALTTD
 70
2
  9
$DIMALTF
 40
25.4
  9
$DIMTXT
 40
0.15625
  9
$DIMTOL
 70
1
  9
$DIMLIM
 70
0
  9
$DIMTFAC
 40
1.0
  9
$DIMTP
 40
0.01
  9
$DIMTM
 40
0.01
  9
$DIMGAP
 40
0.09
  9
$DIMDSEP
 70
46
  9
$AUNITS
 70
0
  9
$PDMODE
 70
3
  9
$PDSIZE
 40
0.3125
  9
$HANDSEED
  5
476
  9
$TILEMODE
 70
1
  9
$MEASUREMENT
 70
0
  9
$INSUNITS
 70
1
  0
ENDSEC
  0
SECTION
  2
CLASSES
  0
CLASS
  1
ACDBDICTIONARYWDFLT
  2
AcDbDictionaryWithDefault
  3
AutoCAD 2000
 90
0
280
0
281
0
  0
CLASS
  1
ACDBPLACEHOLDER
  2
AcDbPlaceHolder
  3
AutoCAD 2000
 90
0
280
0
281
0
  0
CLASS
  1
LAYOUT
  2
AcDbLayout
  3
AutoCAD 2000
 90
0
280
0
281
0
  0
ENDSEC
  0
SECTION
  2
TABLES
  0
TABLE
  2
VPORT
  5
8
100
AcDbSymbolTable
 70
2
  0
VPORT
  5
1F4
100
AcDbSymbolTableRecord
100
AcDbViewportTableRecord
  2
*ACTIVE
 70
0
 10
0.0
 20
0.0
 11
1.0
 21
1.0
 12
17.0
 22
11.0
 13
0.0
 23
0.0
 14
1.0
 24
1.0
 15
0.0
 25
0.0
 16
0.0
 26
0.0
 36
1.0
 17
0.0
 27
0.0
 37
0.0
 40
22.0
 41
1.5454545455
 42
50.0
 43
0.0
 44
0.0
 50
0.0
 51
0.0
 71
0
 72
100
 73
1
 74
1
 75
0
 76
0
 77
0
 78
0
  0
ENDTAB
  0
TABLE
  2
LTYPE
  5
5
100
AcDbSymbolTable
 70
6
  0
LTYPE
  5
14
100
AcDbSymbolTableRecord
100
AcDbLinetypeTableRecord
  2
BYBLOCK
 70
0
  3

 72
65
 73
0
 40
0.0
  0
LTYPE
  5
15
100
AcDbSymbolTableRecord
100
AcDbLinetypeTableRecord
  2
BYLAYER
 70
0
  3

 72
65
 73
0
 40
0.0
  0
LTYPE
  5
16
100
AcDbSymbolTableRecord
100
AcDbLinetypeTableRecord
  2
CONTINUOUS
 70
64
  3
Solid line
 72
65
 73
0
 40
0.0
  0
LTYPE
  5
1F5
100
AcDbSymbolTableRecord
100
AcDbLinetypeTableRecord
  2
CENTER
 70
64
  3
____ _ ____ _ ____ _ ____ _ ____ _ ____ _ ____
 72
65
 73
4
 40
0.6
 49
0.375
 74
0
 49
-0.075
 74
0
 49
0.075
 74
0
 49
-0.075
 74
0
  0
LTYPE
  5
1F6
100
AcDbSymbolTableRecord
100
AcDbLinetypeTableRecord
  2
HIDDEN
 70
64
  3
- - - - - - - - - - - - - - - - - - - -
 72
65
 73
2
 40
0.2
 49
0.1
 74
0
 49
-0.1
 74
0
  0
LTYPE
  5
1F7
100
AcDbSymbolTableRecord
100
AcDbLinetypeTableRecord
  2
PHANTOM
 70
64
  3
_____ _ _ _____ _ _ _____ _ _ _____
 72
65
 73
6
 40
0.8
 49
0.45
 74
0
 49
-0.05
 74
0
 49
0.1
 74
0
 49
-0.05
 74
0
 49
0.1
 74
0
 49
-0.05
 74
0
  0
LTYPE
  5
1F8
100
AcDbSymbolTableRecord
100
AcDbLinetypeTableRecord
  2
DOT
 70
64
  3
. . . . . . . . . . . . . . . . . . . .
 72
65
 73
2
 40
0.2
 49
0.1
 74
0
 49
-0.1
 74
0
  0
LTYPE
  5
1F9
100
AcDbSymbolTableRecord
100
AcDbLinetypeTableRecord
  2
DASHED
 70
64
  3
- - - - - - - - - - - - - - - - - - - -
 72
65
 73
2
 40
0.2
 49
0.1
 74
0
 49
-0.1
 74
0
  0
ENDTAB
  0
TABLE
  2
LAYER
  5
2
100
AcDbSymbolTable
 70
36
  0
LAYER
  5
10
100
AcDbSymbolTableRecord
100
AcDbLayerTableRecord
  2
0
 70
0
 62
7
  6
CONTINUOUS
370
-3
390
F
  0
LAYER
  5
1FA
100
AcDbSymbolTableRecord
100
AcDbLayerTableRecord
  2
DEFAULT_1
 70
0
 62
7
  6
CENTER
370
-3
390
F
  0
LAYER
  5
1FB
100
AcDbSymbolTableRecord
100
AcDbLayerTableRecord
  2
DEFAULT_2
 70
0
 62
8
  6
HIDDEN
370
-3
390
F
  0
LAYER
  5
1FC
100
AcDbSymbolTableRecord
100
AcDbLayerTableRecord
  2
DEFAULT_3
 70
0
 62
7
  6
PHANTOM
370
-3
390
F
  0
LAYER
  5
1FD
100
AcDbSymbolTableRecord
100
AcDbLayerTableRecord
  2
DATUMS
 70
0
 62
7
  6
CONTINUOUS
370
-3
390
F
  0
LAYER
  5
1FE
100
AcDbSymbolTableRecord
100
AcDbLayerTableRecord
  2
DATUM_AXIS
 70
0
 62
7
  6
CONTINUOUS
370
-3
390
F
  0
LAYER
  5
1FF
100
AcDbSymbolTableRecord
100
AcDbLayerTableRecord
  2
DATUM_CSYS
 70
0
 62
7
  6
CONTINUOUS
370
-3
390
F
  0
LAYER
  5
200
100
AcDbSymbolTableRecord
100
AcDbLayerTableRecord
  2
DATUM_PLANE
 70
0
 62
7
  6
CONTINUOUS
370
-3
390
F
  0
LAYER
  5
201
100
AcDbSymbolTableRecord
100
AcDbLayerTableRecord
  2
DATUM_POINT
 70
0
 62
7
  6
CONTINUOUS
370
-3
390
F
  0
LAYER
  5
202
100
AcDbSymbolTableRecord
100
AcDbLayerTableRecord
  2
_CURVE
 70
0
 62
7
  6
CONTINUOUS
370
-3
390
F
  0
LAYER
  5
203
100
AcDbSymbolTableRecord
100
AcDbLayerTableRecord
  2
_SURFACE
 70
0
 62
7
  6
CONTINUOUS
370
-3
390
F
  0
LAYER
  5
204
100
AcDbSymbolTableRecord
100
AcDbLayerTableRecord
  2
_X2_9ED88BA4503C_X0_
 70
0
 62
7
  6
CONTINUOUS
370
-3
390
F
  0
LAYER
  5
205
100
AcDbSymbolTableRecord
100
AcDbLayerTableRecord
  2
__REF_CURVE
 70
0
 62
7
  6
CONTINUOUS
370
-3
390
F
  0
LAYER
  5
206
100
AcDbSymbolTableRecord
100
AcDbLayerTableRecord
  2
__REF_SURFACE
 70
0
 62
7
  6
CONTINUOUS
370
-3
390
F
  0
LAYER
  5
207
100
AcDbSymbolTableRecord
100
AcDbLayerTableRecord
  2
___NOTE
 70
0
 62
7
  6
CONTINUOUS
370
-3
390
F
  0
LAYER
  5
208
100
AcDbSymbolTableRecord
100
AcDbLayerTableRecord
  2
___SYMBOL
 70
0
 62
7
  6
CONTINUOUS
370
-3
390
F
  0
ENDTAB
  0
TABLE
  2
STYLE
  5
3
100
AcDbSymbolTable
 70
1
  0
STYLE
  5
11
100
AcDbSymbolTableRecord
100
AcDbTextStyleTableRecord
  2
STANDARD
 70
0
 40
0.0
 41
0.8
 50
0.0
 71
0
 42
0.2
  3
txt
  4

  0
STYLE
  5
209
100
AcDbSymbolTableRecord
100
AcDbTextStyleTableRecord
  2
TEXTSTYLE_1
 70
0
 40
0.0
 41
0.8
 50
0.0
 71
0
 42
0.2
  3
gdt
  4

  0
STYLE
  5
20A
100
AcDbSymbolTableRecord
100
AcDbTextStyleTableRecord
  2
TEXTSTYLE_2
 70
0
 40
0.0
 41
1.0
 50
0.0
 71
0
 42
0.2
  3
txt
  4

  0
ENDTAB
  0
TABLE
  2
VIEW
  5
6
100
AcDbSymbolTable
 70
0
  0
ENDTAB
  0
TABLE
  2
UCS
  5
7
100
AcDbSymbolTable
 70
0
  0
ENDTAB
  0
TABLE
  2
APPID
  5
9
100
AcDbSymbolTable
 70
1
  0
APPID
  5
20B
100
AcDbSymbolTableRecord
100
AcDbRegAppTableRecord
  2
ACAD
 70
0
  0
ENDTAB
  0
TABLE
  2
BLOCK_RECORD
  5
1
100
AcDbSymbolTable
 70
0
  0
BLOCK_RECORD
  5
20C
100
AcDbSymbolTableRecord
100
AcDbBlockTableRecord
  2
*Model_Space
  0
BLOCK_RECORD
  5
20D
100
AcDbSymbolTableRecord
100
AcDbBlockTableRecord
  2
*Paper_Space
  0
BLOCK_RECORD
  5
20E
100
AcDbSymbolTableRecord
100
AcDbBlockTableRecord
  2
_FILLED
  0
BLOCK_RECORD
  5
20F
100
AcDbSymbolTableRecord
100
AcDbBlockTableRecord
  2
*D0
  0
BLOCK_RECORD
  5
210
100
AcDbSymbolTableRecord
100
AcDbBlockTableRecord
  2
*D1
  0
BLOCK_RECORD
  5
211
100
AcDbSymbolTableRecord
100
AcDbBlockTableRecord
  2
TEMPLATE_NUMBER_BL4
  0
BLOCK_RECORD
  5
212
100
AcDbSymbolTableRecord
100
AcDbBlockTableRecord
  2
TEMPLATE_NUMBER_BL3
  0
BLOCK_RECORD
  5
213
100
AcDbSymbolTableRecord
100
AcDbBlockTableRecord
  2
COPYRIGHT_YEAR_BL2
  0
BLOCK_RECORD
  5
214
100
AcDbSymbolTableRecord
100
AcDbBlockTableRecord
  2
KOHLER_BL1
  0
BLOCK_RECORD
  5
215
100
AcDbSymbolTableRecord
100
AcDbBlockTableRecord
  2
SCISSORS_BL0
  0
ENDTAB
  0
TABLE
  2
DIMSTYLE
  5
A
100
AcDbSymbolTable
 70
1
100
AcDbDimStyleTable
 71
0
  0
DIMSTYLE
105
216
100
AcDbSymbolTableRecord
100
AcDbDimStyleTableRecord
  2
STANDARD
 70
0
  3

  4

 40
1.0
 41
0.1875
 42
0.0625
 43
0.38
 44
0.125
 45
0.0
 46
0.0
 47
0.01
 48
0.01
140
0.15625
141
0.09
142
0.0
143
25.4
144
1.0
145
0.0
146
1.0
147
0.09
 71
1
 72
0
 73
1
 74
1
 75
0
 76
0
 77
0
 78
4
 79
1
170
1
171
2
172
0
173
0
174
0
175
0
176
0
177
0
178
0
270
2
179
3
271
3
272
3
273
2
274
2
275
0
280
0
281
0
282
0
283
1
284
4
285
0
286
0
287
3
288
0
340
11
278
46
341
20E
342
20E
343
20E
344
20E
  0
DIMSTYLE
105
217
100
AcDbSymbolTableRecord
100
AcDbDimStyleTableRecord
  2
DIMSTYLE_1
 70
0
  3

  4

 40
1.0
 41
0.1875
 42
0.0625
 43
0.38
 44
0.125
 45
0.0
 46
0.0
 47
0.0000000001
 48
0.0000000001
140
0.15625
141
0.09
142
0.0
143
25.4
144
1.0
145
0.0
146
1.0
147
0.078125
 71
0
 72
0
 73
1
 74
1
 75
0
 76
0
 77
0
 78
4
 79
1
170
1
171
-7
172
0
173
0
174
0
175
0
176
0
177
0
178
0
270
2
179
3
271
5
272
32
273
2
274
2
275
0
280
0
281
0
282
0
283
1
284
4
285
0
286
0
287
3
288
0
340
11
278
46
341
20E
342
20E
343
20E
344
20E
  0
DIMSTYLE
105
218
100
AcDbSymbolTableRecord
100
AcDbDimStyleTableRecord
  2
DIMSTYLE_2
 70
0
  3

  4

 40
1.0
 41
0.1875
 42
0.0625
 43
0.38
 44
0.125
 45
0.0
 46
0.0
 47
0.0
 48
0.0
140
0.15625
141
0.09
142
0.0
143
25.4
144
1.0
145
0.0
146
1.0
147
0.078125
 71
0
 72
0
 73
1
 74
1
 75
0
 76
0
 77
0
 78
4
 79
1
170
1
171
1
172
0
173
0
174
0
175
0
176
0
177
0
178
0
270
2
179
3
271
5
272
32
273
2
274
1
275
0
280
0
281
0
282
0
283
1
284
4
285
0
286
0
287
3
288
0
340
11
278
46
341
20E
342
20E
343
20E
344
20E
  0
ENDTAB
  0
ENDSEC
  0
SECTION
  2
BLOCKS
  0
BLOCK
  5
20
100
AcDbEntity
  8
0
100
AcDbBlockBegin
  2
*Model_Space
 70
0
 10
0.0
 20
0.0
 30
0.0
  3
*Model_Space
  1

  0
ENDBLK
  5
21
100
AcDbEntity
  8
0
100
AcDbBlockEnd
  0
BLOCK
  5
1C
100
AcDbEntity
  8
0
100
AcDbBlockBegin
  2
*Paper_Space
 70
0
 10
0.0
 20
0.0
 30
0.0
  3
*Paper_Space
  1

  0
ENDBLK
  5
1D
100
AcDbEntity
  8
0
100
AcDbBlockEnd
  0
BLOCK
  5
219
100
AcDbEntity
  8
___SYMBOL
100
AcDbBlockBegin
 62
2
  6
CONTINUOUS
  2
TEMPLATE_NUMBER_BL4
 70
64
 10
16.4817162956
 20
2.1343492568
  3
TEMPLATE_NUMBER_BL4
  1

  0
TEXT
  5
21A
100
AcDbEntity
  8
___SYMBOL
100
AcDbText
 62
2
  6
CONTINUOUS
 10
15.7942162956
 20
2.0562242568
  7
STANDARD
 40
0.15625
  1
1551948-7
 41
0.8
 72
0
100
AcDbText
  0
TEXT
  5
21B
100
AcDbEntity
  8
___SYMBOL
100
AcDbText
 62
2
  6
CONTINUOUS
 10
16.9192162956
 20
2.0562242568
  7
STANDARD
 40
0.15625
  1
-A
 41
0.8
 72
0
100
AcDbText
  0
ENDBLK
  5
21C
100
AcDbEntity
  8
0
  6
BYBLOCK
 62
0
100
AcDbBlockEnd
  0
BLOCK
  5
21D
100
AcDbEntity
  8
___SYMBOL
100
AcDbBlockBegin
 62
2
  6
CONTINUOUS
  2
TEMPLATE_NUMBER_BL3
 70
64
 10
16.7525401875
 20
5.8753341357
  3
TEMPLATE_NUMBER_BL3
  1

  0
TEXT
  5
21E
100
AcDbEntity
  8
___SYMBOL
100
AcDbText
 62
2
  6
CONTINUOUS
 10
16.0650401875
 20
5.7972091357
  7
STANDARD
 40
0.15625
  1
1551948-7
 41
0.8
 72
0
100
AcDbText
  0
TEXT
  5
21F
100
AcDbEntity
  8
___SYMBOL
100
AcDbText
 62
2
  6
CONTINUOUS
 10
17.1900401875
 20
5.7972091357
  7
STANDARD
 40
0.15625
  1
-A
 41
0.8
 72
0
100
AcDbText
  0
ENDBLK
  5
220
100
AcDbEntity
  8
0
  6
BYBLOCK
 62
0
100
AcDbBlockEnd
  0
BLOCK
  5
221
100
AcDbEntity
  8
___SYMBOL
100
AcDbBlockBegin
 62
2
  6
CONTINUOUS
  2
COPYRIGHT_YEAR_BL2
 70
64
 10
16.4990973002
 20
5.5714862829
  3
COPYRIGHT_YEAR_BL2
  1

  0
TEXT
  5
222
100
AcDbEntity
  8
___SYMBOL
100
AcDbText
 62
2
  6
CONTINUOUS
 10
15.7171091092
 20
5.491398334
  7
STANDARD
 40
0.15625
  1
2023 KOHLER CO.
 41
0.8
 72
0
100
AcDbText
  0
TEXT
  5
223
100
AcDbEntity
  8
___SYMBOL
100
AcDbText
 62
7
  6
CONTINUOUS
 10
15.4597871102
 20
5.4937270839
  7
TEXTSTYLE_2
 40
0.15625
  1
C
 41
1.0
 72
0
100
AcDbText
  0
CIRCLE
  5
224
100
AcDbEntity
  8
___SYMBOL
100
AcDbCircle
 62
7
  6
CONTINUOUS
 10
15.5384425284
 20
5.5714862829
 40
0.1323570371
  0
ENDBLK
  5
225
100
AcDbEntity
  8
0
  6
BYBLOCK
 62
0
100
AcDbBlockEnd
  0
BLOCK
  5
226
100
AcDbEntity
  8
___SYMBOL
100
AcDbBlockBegin
 62
2
  6
CONTINUOUS
  2
KOHLER_BL1
 70
64
 10
8.2040066542
 20
15.6667114998
  3
KOHLER_BL1
  1

  0
LINE
  5
227
100
AcDbEntity
  8
___SYMBOL
100
AcDbLine
 62
2
  6
CONTINUOUS
 10
7.0535141495
 20
15.9902783019
 11
7.2455286644
 21
15.9902783019
  0
LINE
  5
228
100
AcDbEntity
  8
___SYMBOL
100
AcDbLine
 62
2
  6
CONTINUOUS
 10
7.2455286644
 20
15.9902783019
 11
6.9157839087
 21
15.8264974549
  0
LINE
  5
229
100
AcDbEntity
  8
___SYMBOL
100
AcDbLine
 62
2
  6
CONTINUOUS
 10
6.9157839087
 20
15.8264974549
 11
7.0535141495
 21
15.9902783019
  0
SOLID
  5
22A
100
AcDbEntity
  8
___SYMBOL
100
AcDbTrace
 62
2
  6
CONTINUOUS
 10
7.0535141495
 20
15.9902783019
 11
7.2455286644
 21
15.9902783019
 12
6.9157839087
 22
15.8264974549
 13
6.9157839087
 23
15.8264974549
  0
LINE
  5
22B
100
AcDbEntity
  8
___SYMBOL
100
AcDbLine
 62
2
  6
CONTINUOUS
 10
7.0322777407
 20
15.7366924926
 11
6.9157839087
 21
15.8264974549
  0
LINE
  5
22C
100
AcDbEntity
  8
___SYMBOL
100
AcDbLine
 62
2
  6
CONTINUOUS
 10
6.9157839087
 20
15.8264974549
 11
7.2455286644
 21
15.9902783019
  0
LINE
  5
22D
100
AcDbEntity
  8
___SYMBOL
100
AcDbLine
 62
2
  6
CONTINUOUS
 10
7.2455286644
 20
15.9902783019
 11
7.0322777407
 21
15.7366924926
  0
SOLID
  5
22E
100
AcDbEntity
  8
___SYMBOL
100
AcDbTrace
 62
2
  6
CONTINUOUS
 10
7.0322777407
 20
15.7366924926
 11
6.9157839087
 21
15.8264974549
 12
7.2455286644
 22
15.9902783019
 13
7.2455286644
 23
15.9902783019
  0
LINE
  5
22F
100
AcDbEntity
  8
___SYMBOL
100
AcDbLine
 62
2
  6
CONTINUOUS
 10
7.0322777407
 20
15.7366924926
 11
7.0694839891
 21
15.40450894
  0
LINE
  5
230
100
AcDbEntity
  8
___SYMBOL
100
AcDbLine
 62
2
  6
CONTINUOUS
 10
7.0694839891
 20
15.40450894
 11
6.9157839087
 21
15.6059591526
  0
LINE
  5
231
100
AcDbEntity
  8
___SYMBOL
100
AcDbLine
 62
2
  6
CONTINUOUS
 10
6.9157839087
 20
15.6059591526
 11
7.0322777407
 21
15.7366924926
  0
SOLID
  5
232
100
AcDbEntity
  8
___SYMBOL
100
AcDbTrace
 62
2
  6
CONTINUOUS
 10
7.0322777407
 20
15.7366924926
 11
7.0694839891
 21
15.40450894
 12
6.9157839087
 22
15.6059591526
 13
6.9157839087
 23
15.6059591526
  0
LINE
  5
233
100
AcDbEntity
  8
___SYMBOL
100
AcDbLine
 62
2
  6
CONTINUOUS
 10
7.2857231464
 20
15.40450894
 11
7.0694839891
 21
15.40450894
  0
LINE
  5
234
100
AcDbEntity
  8
___SYMBOL
100
AcDbLine
 62
2
  6
CONTINUOUS
 10
7.0694839891
 20
15.40450894
 11
7.0322777407
 21
15.7366924926
  0
LINE
  5
235
100
AcDbEntity
  8
___SYMBOL
100
AcDbLine
 62
2
  6
CONTINUOUS
 10
7.0322777407
 20
15.7366924926
 11
7.2857231464
 21
15.40450894
  0
SOLID
  5
236
100
AcDbEntity
  8
___SYMBOL
100
AcDbTrace
 62
2
  6
CONTINUOUS
 10
7.2857231464
 20
15.40450894
 11
7.0694839891
 21
15.40450894
 12
7.0322777407
 22
15.7366924926
 13
7.0322777407
 23
15.7366924926
  0
LINE
  5
237
100
AcDbEntity
  8
___SYMBOL
100
AcDbLine
 62
2
  6
CONTINUOUS
 10
6.7413266542
 20
15.4044849424
 11
6.9157839087
 21
15.6059591526
  0
LINE
  5
238
100
AcDbEntity
  8
___SYMBOL
100
AcDbLine
 62
2
  6
CONTINUOUS
 10
6.9157839087
 20
15.6059591526
 11
6.9157839087
 21
15.40450894
  0
LINE
  5
239
100
AcDbEntity
  8
___SYMBOL
100
AcDbLine
 62
2
  6
CONTINUOUS
 10
6.9157839087
 20
15.40450894
 11
6.7413266542
 21
15.4044849424
  0
SOLID
  5
23A
100
AcDbEntity
  8
___SYMBOL
100
AcDbTrace
 62
2
  6
CONTINUOUS
 10
6.7413266542
 20
15.4044849424
 11
6.9157839087
 21
15.6059591526
 12
6.9157839087
 22
15.40450894
 13
6.9157839087
 23
15.40450894
  0
LINE
  5
23B
100
AcDbEntity
  8
___SYMBOL
100
AcDbLine
 62
2
  6
CONTINUOUS
 10
6.9157839087
 20
15.6059591526
 11
6.9157839087
 21
15.8264974549
  0
LINE
  5
23C
100
AcDbEntity
  8
___SYMBOL
100
AcDbLine
 62
2
  6
CONTINUOUS
 10
6.9157839087
 20
15.8264974549
 11
7.0322777407
 21
15.7366924926
  0
LINE
  5
23D
100
AcDbEntity
  8
___SYMBOL
100
AcDbLine
 62
2
  6
CONTINUOUS
 10
7.0322777407
 20
15.7366924926
 11
6.9157839087
 21
15.6059591526
  0
SOLID
  5
23E
100
AcDbEntity
  8
___SYMBOL
100
AcDbTrace
 62
2
  6
CONTINUOUS
 10
6.9157839087
 20
15.6059591526
 11
6.9157839087
 21
15.8264974549
 12
7.0322777407
 22
15.7366924926
 13
7.0322777407
 23
15.7366924926
  0
LINE
  5
23F
100
AcDbEntity
  8
___SYMBOL
100
AcDbLine
 62
2
  6
CONTINUOUS
 10
6.7413266542
 20
15.4044849424
 11
6.9157839087
 21
15.8264974549
  0
LINE
  5
240
100
AcDbEntity
  8
___SYMBOL
100
AcDbLine
 62
2
  6
CONTINUOUS
 10
6.9157839087
 20
15.8264974549
 11
6.9157839087
 21
15.6059591526
  0
LINE
  5
241
100
AcDbEntity
  8
___SYMBOL
100
AcDbLine
 62
2
  6
CONTINUOUS
 10
6.9157839087
 20
15.6059591526
 11
6.7413266542
 21
15.4044849424
  0
SOLID
  5
242
100
AcDbEntity
  8
___SYMBOL
100
AcDbTrace
 62
2
  6
CONTINUOUS
 10
6.7413266542
 20
15.4044849424
 11
6.9157839087
 21
15.8264974549
 12
6.9157839087
 22
15.6059591526
 13
6.9157839087
 23
15.6059591526
  0
LINE
  5
243
100
AcDbEntity
  8
___SYMBOL
100
AcDbLine
 62
2
  6
CONTINUOUS
 10
6.7413266542
 20
15.4044849424
 11
6.9157839087
 21
15.9902783019
  0
LINE
  5
244
100
AcDbEntity
  8
___SYMBOL
100
AcDbLine
 62
2
  6
CONTINUOUS
 10
6.9157839087
 20
15.9902783019
 11
6.9157839087
 21
15.8264974549
  0
LINE
  5
245
100
AcDbEntity
  8
___SYMBOL
100
AcDbLine
 62
2
  6
CONTINUOUS
 10
6.9157839087
 20
15.8264974549
 11
6.7413266542
 21
15.4044849424
  0
SOLID
  5
246
100
AcDbEntity
  8
___SYMBOL
100
AcDbTrace
 62
2
  6
CONTINUOUS
 10
6.7413266542
 20
15.4044849424
 11
6.9157839087
 21
15.9902783019
 12
6.9157839087
 22
15.8264974549
 13
6.9157839087
 23
15.8264974549
  0
LINE
  5
247
100
AcDbEntity
  8
___SYMBOL
100
AcDbLine
 62
2
  6
CONTINUOUS
 10
6.7413266542
 20
15.9902783019
 11
6.9157839087
 21
15.9902783019
  0
LINE
  5
248
100
AcDbEntity
  8
___SYMBOL
100
AcDbLine
 62
2
  6
CONTINUOUS
 10
6.9157839087
 20
15.9902783019
 11
6.7413266542
 21
15.4044849424
  0
LINE
  5
249
100
AcDbEntity
  8
___SYMBOL
100
AcDbLine
 62
2
  6
CONTINUOUS
 10
6.7413266542
 20
15.4044849424
 11
6.7413266542
 21
15.9902783019
  0
SOLID
  5
24A
100
AcDbEntity
  8
___SYMBOL
100
AcDbTrace
 62
2
  6
CONTINUOUS
 10
6.7413266542
 20
15.9902783019
 11
6.9157839087
 21
15.9902783019
 12
6.7413266542
 22
15.4044849424
 13
6.7413266542
 23
15.4044849424
  0
LINE
  5
24B
100
AcDbEntity
  8
___SYMBOL
100
AcDbLine
 62
2
  6
CONTINUOUS
 10
7.4310407908
 20
15.9926234536
 11
7.493336241
 21
15.9926234536
  0
LINE
  5
24C
100
AcDbEntity
  8
___SYMBOL
100
AcDbLine
 62
2
  6
CONTINUOUS
 10
7.493336241
 20
15.9926234536
 11
7.3701066457
 21
15.9796715012
  0
LINE
  5
24D
100
AcDbEntity
  8
___SYMBOL
100
AcDbLine
 62
2
  6
CONTINUOUS
 10
7.3701066457
 20
15.9796715012
 11
7.4310407908
 21
15.9926234536
  0
SOLID
  5
24E
100
AcDbEntity
  8
___SYMBOL
100
AcDbTrace
 62
2
  6
CONTINUOUS
 10
7.4310407908
 20
15.9926234536
 11
7.493336241
 21
15.9926234536
 12
7.3701066457
 22
15.9796715012
 13
7.3701066457
 23
15.9796715012
  0
LINE
  5
24F
100
AcDbEntity
  8
___SYMBOL
100
AcDbLine
 62
2
  6
CONTINUOUS
 10
7.554270386
 20
15.9796715012
 11
7.3701066457
 21
15.9796715012
  0
LINE
  5
250
100
AcDbEntity
  8
___SYMBOL
100
AcDbLine
 62
2
  6
CONTINUOUS
 10
7.3701066457
 20
15.9796715012
 11
7.493336241
 21
15.9926234536
  0
LINE
  5
251
100
AcDbEntity
  8
___SYMBOL
100
AcDbLine
 62
2
  6
CONTINUOUS
 10
7.493336241
 20
15.9926234536
 11
7.554270386
 21
15.9796715012
  0
SOLID
  5
252
100
AcDbEntity
  8
___SYMBOL
100
AcDbTrace
 62
2
  6
CONTINUOUS
 10
7.554270386
 20
15.9796715012
 11
7.3701066457
 21
15.9796715012
 12
7.493336241
 22
15.9926234536
 13
7.493336241
 23
15.9926234536
  0
LINE
  5
253
100
AcDbEntity
  8
___SYMBOL
100
AcDbLine
 62
2
  6
CONTINUOUS
 10
7.3701066457
 20
15.9796715012
 11
7.554270386
 21
15.9796715012
  0
LINE
  5
254
100
AcDbEntity
  8
___SYMBOL
100
AcDbLine
 62
2
  6
CONTINUOUS
 10
7.554270386
 20
15.9796715012
 11
7.3131969201
 21
15.9543336589
  0
LINE
  5
255
100
AcDbEntity
  8
___SYMBOL
100
AcDbLine
 62
2
  6
CONTINUOUS
 10
7.3131969201
 20
15.9543336589
 11
7.3701066457
 21
15.9796715012
  0
SOLID
  5
256
100
AcDbEntity
  8
___SYMBOL
100
AcDbTrace
 62
2
  6
CONTINUOUS
 10
7.3701066457
 20
15.9796715012
 11
7.554270386
 21
15.9796715012
 12
7.3131969201
 22
15.9543336589
 13
7.3131969201
 23
15.9543336589
  0
LINE
  5
257
100
AcDbEntity
  8
___SYMBOL
100
AcDbLine
 62
2
  6
CONTINUOUS
 10
7.6111801116
 20
15.9543336589
 11
7.3131969201
 21
15.9543336589
  0
LINE
  5
258
100
AcDbEntity
  8
___SYMBOL
100
AcDbLine
 62
2
  6
CONTINUOUS
 10
7.3131969201
 20
15.9543336589
 11
7.554270386
 21
15.9796715012
  0
LINE
  5
259
100
AcDbEntity
  8
___SYMBOL
100
AcDbLine
 62
2
  6
CONTINUOUS
 10
7.554270386
 20
15.9796715012
 11
7.6111801116
 21
15.9543336589
  0
SOLID
  5
25A
100
AcDbEntity
  8
___SYMBOL
100
AcDbTrace
 62
2
  6
CONTINUOUS
 10
7.6111801116
 20
15.9543336589
 11
7.3131969201
 21
15.9543336589
 12
7.554270386
 22
15.9796715012
 13
7.554270386
 23
15.9796715012
  0
LINE
  5
25B
100
AcDbEntity
  8
___SYMBOL
100
AcDbLine
 62
2
  6
CONTINUOUS
 10
7.3131969201
 20
15.9543336589
 11
7.6111801116
 21
15.9543336589
  0
LINE
  5
25C
100
AcDbEntity
  8
___SYMBOL
100
AcDbLine
 62
2
  6
CONTINUOUS
 10
7.6111801116
 20
15.9543336589
 11
7.2627988424
 21
15.917717312
  0
LINE
  5
25D
100
AcDbEntity
  8
___SYMBOL
100
AcDbLine
 62
2
  6
CONTINUOUS
 10
7.2627988424
 20
15.917717312
 11
7.3131969201
 21
15.9543336589
  0
SOLID
  5
25E
100
AcDbEntity
  8
___SYMBOL
100
AcDbTrace
 62
2
  6
CONTINUOUS
 10
7.3131969201
 20
15.9543336589
 11
7.6111801116
 21
15.9543336589
 12
7.2627988424
 22
15.917717312
 13
7.2627988424
 23
15.917717312
  0
LINE
  5
25F
100
AcDbEntity
  8
___SYMBOL
100
AcDbLine
 62
2
  6
CONTINUOUS
 10
7.6615781895
 20
15.917717312
 11
7.2627988424
 21
15.917717312
  0
LINE
  5
260
100
AcDbEntity
  8
___SYMBOL
100
AcDbLine
 62
2
  6
CONTINUOUS
 10
7.2627988424
 20
15.917717312
 11
7.6111801116
 21
15.9543336589
  0
LINE
  5
261
100
AcDbEntity
  8
___SYMBOL
100
AcDbLine
 62
2
  6
CONTINUOUS
 10
7.6111801116
 20
15.9543336589
 11
7.6615781895
 21
15.917717312
  0
SOLID
  5
262
100
AcDbEntity
  8
___SYMBOL
100
AcDbTrace
 62
2
  6
CONTINUOUS
 10
7.6615781895
 20
15.917717312
 11
7.2627988424
 21
15.917717312
 12
7.6111801116
 22
15.9543336589
 13
7.6111801116
 23
15.9543336589
  0
LINE
  5
263
100
AcDbEntity
  8
___SYMBOL
100
AcDbLine
 62
2
  6
CONTINUOUS
 10
7.2627988424
 20
15.917717312
 11
7.6615781895
 21
15.917717312
  0
LINE
  5
264
100
AcDbEntity
  8
___SYMBOL
100
AcDbLine
 62
2
  6
CONTINUOUS
 10
7.6615781895
 20
15.917717312
 11
7.22111505
 21
15.8714227706
  0
LINE
  5
265
100
AcDbEntity
  8
___SYMBOL
100
AcDbLine
 62
2
  6
CONTINUOUS
 10
7.22111505
 20
15.8714227706
 11
7.2627988424
 21
15.917717312
  0
SOLID
  5
266
100
AcDbEntity
  8
___SYMBOL
100
AcDbTrace
 62
2
  6
CONTINUOUS
 10
7.2627988424
 20
15.917717312
 11
7.6615781895
 21
15.917717312
 12
7.22111505
 22
15.8714227706
 13
7.22111505
 23
15.8714227706
  0
LINE
  5
267
100
AcDbEntity
  8
___SYMBOL
100
AcDbLine
 62
2
  6
CONTINUOUS
 10
7.7032619818
 20
15.8714227706
 11
7.22111505
 21
15.8714227706
  0
LINE
  5
268
100
AcDbEntity
  8
___SYMBOL
100
AcDbLine
 62
2
  6
CONTINUOUS
 10
7.22111505
 20
15.8714227706
 11
7.6615781895
 21
15.917717312
  0
LINE
  5
269
100
AcDbEntity
  8
___SYMBOL
100
AcDbLine
 62
2
  6
CONTINUOUS
 10
7.6615781895
 20
15.917717312
 11
7.7032619818
 21
15.8714227706
  0
SOLID
  5
26A
100
AcDbEntity
  8
___SYMBOL
100
AcDbTrace
 62
2
  6
CONTINUOUS
 10
7.7032619818
 20
15.8714227706
 11
7.22111505
 21
15.8714227706
 12
7.6615781895
 22
15.917717312
 13
7.6615781895
 23
15.917717312
  0
LINE
  5
26B
100
AcDbEntity
  8
___SYMBOL
100
AcDbLine
 62
2
  6
CONTINUOUS
 10
7.1899673249
 20
15.8174733282
 11
7.7032619818
 21
15.8714227706
  0
LINE
  5
26C
100
AcDbEntity
  8
___SYMBOL
100
AcDbLine
 62
2
  6
CONTINUOUS
 10
7.7032619818
 20
15.8714227706
 11
7.4621885159
 21
15.8210113346
  0
LINE
  5
26D
100
AcDbEntity
  8
___SYMBOL
100
AcDbLine
 62
2
  6
CONTINUOUS
 10
7.4621885159
 20
15.8210113346
 11
7.1899673249
 21
15.8174733282
  0
SOLID
  5
26E
100
AcDbEntity
  8
___SYMBOL
100
AcDbTrace
 62
2
  6
CONTINUOUS
 10
7.1899673249
 20
15.8174733282
 11
7.7032619818
 21
15.8714227706
 12
7.4621885159
 22
15.8210113346
 13
7.4621885159
 23
15.8210113346
  0
LINE
  5
26F
100
AcDbEntity
  8
___SYMBOL
100
AcDbLine
 62
2
  6
CONTINUOUS
 10
7.22111505
 20
15.8714227706
 11
7.7032619818
 21
15.8714227706
  0
LINE
  5
270
100
AcDbEntity
  8
___SYMBOL
100
AcDbLine
 62
2
  6
CONTINUOUS
 10
7.7032619818
 20
15.8714227706
 11
7.1899673249
 21
15.8174733282
  0
LINE
  5
271
100
AcDbEntity
  8
___SYMBOL
100
AcDbLine
 62
2
  6
CONTINUOUS
 10
7.1899673249
 20
15.8174733282
 11
7.22111505
 21
15.8714227706
  0
SOLID
  5
272
100
AcDbEntity
  8
___SYMBOL
100
AcDbTrace
 62
2
  6
CONTINUOUS
 10
7.22111505
 20
15.8714227706
 11
7.7032619818
 21
15.8714227706
 12
7.1899673249
 22
15.8174733282
 13
7.1899673249
 23
15.8174733282
  0
LINE
  5
273
100
AcDbEntity
  8
___SYMBOL
100
AcDbLine
 62
2
  6
CONTINUOUS
 10
7.7344097069
 20
15.8174733282
 11
7.4621885159
 21
15.8210113346
  0
LINE
  5
274
100
AcDbEntity
  8
___SYMBOL
100
AcDbLine
 62
2
  6
CONTINUOUS
 10
7.4621885159
 20
15.8210113346
 11
7.7032619818
 21
15.8714227706
  0
LINE
  5
275
100
AcDbEntity
  8
___SYMBOL
100
AcDbLine
 62
2
  6
CONTINUOUS
 10
7.7032619818
 20
15.8714227706
 11
7.7344097069
 21
15.8174733282
  0
SOLID
  5
276
100
AcDbEntity
  8
___SYMBOL
100
AcDbTrace
 62
2
  6
CONTINUOUS
 10
7.7344097069
 20
15.8174733282
 11
7.4621885159
 21
15.8210113346
 12
7.7032619818
 22
15.8714227706
 13
7.7032619818
 23
15.8714227706
  0
LINE
  5
277
100
AcDbEntity
  8
___SYMBOL
100
AcDbLine
 62
2
  6
CONTINUOUS
 10
7.423642141
 20
15.8149061885
 11
7.1899673249
 21
15.8174733282
  0
LINE
  5
278
100
AcDbEntity
  8
___SYMBOL
100
AcDbLine
 62
2
  6
CONTINUOUS
 10
7.1899673249
 20
15.8174733282
 11
7.4621885159
 21
15.8210113346
  0
LINE
  5
279
100
AcDbEntity
  8
___SYMBOL
100
AcDbLine
 62
2
  6
CONTINUOUS
 10
7.4621885159
 20
15.8210113346
 11
7.423642141
 21
15.8149061885
  0
SOLID
  5
27A
100
AcDbEntity
  8
___SYMBOL
100
AcDbTrace
 62
2
  6
CONTINUOUS
 10
7.423642141
 20
15.8149061885
 11
7.1899673249
 21
15.8174733282
 12
7.4621885159
 22
15.8210113346
 13
7.4621885159
 23
15.8210113346
  0
LINE
  5
27B
100
AcDbEntity
  8
___SYMBOL
100
AcDbLine
 62
2
  6
CONTINUOUS
 10
7.4621885159
 20
15.8210113346
 11
7.7344097069
 21
15.8174733282
  0
LINE
  5
27C
100
AcDbEntity
  8
___SYMBOL
100
AcDbLine
 62
2
  6
CONTINUOUS
 10
7.7344097069
 20
15.8174733282
 11
7.5007348908
 21
15.8149061885
  0
LINE
  5
27D
100
AcDbEntity
  8
___SYMBOL
100
AcDbLine
 62
2
  6
CONTINUOUS
 10
7.5007348908
 20
15.8149061885
 11
7.4621885159
 21
15.8210113346
  0
SOLID
  5
27E
100
AcDbEntity
  8
___SYMBOL
100
AcDbTrace
 62
2
  6
CONTINUOUS
 10
7.4621885159
 20
15.8210113346
 11
7.7344097069
 21
15.8174733282
 12
7.5007348908
 22
15.8149061885
 13
7.5007348908
 23
15.8149061885
  0
LINE
  5
27F
100
AcDbEntity
  8
___SYMBOL
100
AcDbLine
 62
2
  6
CONTINUOUS
 10
7.1707169722
 20
15.7582268344
 11
7.3888689539
 21
15.7971883648
  0
LINE
  5
280
100
AcDbEntity
  8
___SYMBOL
100
AcDbLine
 62
2
  6
CONTINUOUS
 10
7.3888689539
 20
15.7971883648
 11
7.3612727964
 21
15.7695922072
  0
LINE
  5
281
100
AcDbEntity
  8
___SYMBOL
100
AcDbLine
 62
2
  6
CONTINUOUS
 10
7.3612727964
 20
15.7695922072
 11
7.1707169722
 21
15.7582268344
  0
SOLID
  5
282
100
AcDbEntity
  8
___SYMBOL
100
AcDbTrace
 62
2
  6
CONTINUOUS
 10
7.1707169722
 20
15.7582268344
 11
7.3888689539
 21
15.7971883648
 12
7.3612727964
 22
15.7695922072
 13
7.3612727964
 23
15.7695922072
  0
LINE
  5
283
100
AcDbEntity
  8
___SYMBOL
100
AcDbLine
 62
2
  6
CONTINUOUS
 10
7.1707169722
 20
15.7582268344
 11
7.423642141
 21
15.8149061885
  0
LINE
  5
284
100
AcDbEntity
  8
___SYMBOL
100
AcDbLine
 62
2
  6
CONTINUOUS
 10
7.423642141
 20
15.8149061885
 11
7.3888689539
 21
15.7971883648
  0
LINE
  5
285
100
AcDbEntity
  8
___SYMBOL
100
AcDbLine
 62
2
  6
CONTINUOUS
 10
7.3888689539
 20
15.7971883648
 11
7.1707169722
 21
15.7582268344
  0
SOLID
  5
286
100
AcDbEntity
  8
___SYMBOL
100
AcDbTrace
 62
2
  6
CONTINUOUS
 10
7.1707169722
 20
15.7582268344
 11
7.423642141
 21
15.8149061885
 12
7.3888689539
 22
15.7971883648
 13
7.3888689539
 23
15.7971883648
  0
LINE
  5
287
100
AcDbEntity
  8
___SYMBOL
100
AcDbLine
 62
2
  6
CONTINUOUS
 10
7.1899673249
 20
15.8174733282
 11
7.423642141
 21
15.8149061885
  0
LINE
  5
288
100
AcDbEntity
  8
___SYMBOL
100
AcDbLine
 62
2
  6
CONTINUOUS
 10
7.423642141
 20
15.8149061885
 11
7.1707169722
 21
15.7582268344
  0
LINE
  5
289
100
AcDbEntity
  8
___SYMBOL
100
AcDbLine
 62
2
  6
CONTINUOUS
 10
7.1707169722
 20
15.7582268344
 11
7.1899673249
 21
15.8174733282
  0
SOLID
  5
28A
100
AcDbEntity
  8
___SYMBOL
100
AcDbTrace
 62
2
  6
CONTINUOUS
 10
7.1899673249
 20
15.8174733282
 11
7.423642141
 21
15.8149061885
 12
7.1707169722
 22
15.7582268344
 13
7.1707169722
 23
15.7582268344
  0
LINE
  5
28B
100
AcDbEntity
  8
___SYMBOL
100
AcDbLine
 62
2
  6
CONTINUOUS
 10
7.7344097069
 20
15.8174733282
 11
7.5355080779
 21
15.7971883648
  0
LINE
  5
28C
100
AcDbEntity
  8
___SYMBOL
100
AcDbLine
 62
2
  6
CONTINUOUS
 10
7.5355080779
 20
15.7971883648
 11
7.5007348908
 21
15.8149061885
  0
LINE
  5
28D
100
AcDbEntity
  8
___SYMBOL
100
AcDbLine
 62
2
  6
CONTINUOUS
 10
7.5007348908
 20
15.8149061885
 11
7.7344097069
 21
15.8174733282
  0
SOLID
  5
28E
100
AcDbEntity
  8
___SYMBOL
100
AcDbTrace
 62
2
  6
CONTINUOUS
 10
7.7344097069
 20
15.8174733282
 11
7.5355080779
 21
15.7971883648
 12
7.5007348908
 22
15.8149061885
 13
7.5007348908
 23
15.8149061885
  0
LINE
  5
28F
100
AcDbEntity
  8
___SYMBOL
100
AcDbLine
 62
2
  6
CONTINUOUS
 10
7.7344097069
 20
15.8174733282
 11
7.5631042354
 21
15.7695922072
  0
LINE
  5
290
100
AcDbEntity
  8
___SYMBOL
100
AcDbLine
 62
2
  6
CONTINUOUS
 10
7.5631042354
 20
15.7695922072
 11
7.5355080779
 21
15.7971883648
  0
LINE
  5
291
100
AcDbEntity
  8
___SYMBOL
100
AcDbLine
 62
2
  6
CONTINUOUS
 10
7.5355080779
 20
15.7971883648
 11
7.7344097069
 21
15.8174733282
  0
SOLID
  5
292
100
AcDbEntity
  8
___SYMBOL
100
AcDbTrace
 62
2
  6
CONTINUOUS
 10
7.7344097069
 20
15.8174733282
 11
7.5631042354
 21
15.7695922072
 12
7.5355080779
 22
15.7971883648
 13
7.5355080779
 23
15.7971883648
  0
LINE
  5
293
100
AcDbEntity
  8
___SYMBOL
100
AcDbLine
 62
2
  6
CONTINUOUS
 10
7.7536600596
 20
15.7582268344
 11
7.5631042354
 21
15.7695922072
  0
LINE
  5
294
100
AcDbEntity
  8
___SYMBOL
100
AcDbLine
 62
2
  6
CONTINUOUS
 10
7.5631042354
 20
15.7695922072
 11
7.7344097069
 21
15.8174733282
  0
LINE
  5
295
100
AcDbEntity
  8
___SYMBOL
100
AcDbLine
 62
2
  6
CONTINUOUS
 10
7.7344097069
 20
15.8174733282
 11
7.7536600596
 21
15.7582268344
  0
SOLID
  5
296
100
AcDbEntity
  8
___SYMBOL
100
AcDbTrace
 62
2
  6
CONTINUOUS
 10
7.7536600596
 20
15.7582268344
 11
7.5631042354
 21
15.7695922072
 12
7.7344097069
 22
15.8174733282
 13
7.7344097069
 23
15.8174733282
  0
LINE
  5
297
100
AcDbEntity
  8
___SYMBOL
100
AcDbLine
 62
2
  6
CONTINUOUS
 10
7.3435549726
 20
15.7348190201
 11
7.1707169722
 21
15.7582268344
  0
LINE
  5
298
100
AcDbEntity
  8
___SYMBOL
100
AcDbLine
 62
2
  6
CONTINUOUS
 10
7.1707169722
 20
15.7582268344
 11
7.3612727964
 21
15.7695922072
  0
LINE
  5
299
100
AcDbEntity
  8
___SYMBOL
100
AcDbLine
 62
2
  6
CONTINUOUS
 10
7.3612727964
 20
15.7695922072
 11
7.3435549726
 21
15.7348190201
  0
SOLID
  5
29A
100
AcDbEntity
  8
___SYMBOL
100
AcDbTrace
 62
2
  6
CONTINUOUS
 10
7.3435549726
 20
15.7348190201
 11
7.1707169722
 21
15.7582268344
 12
7.3612727964
 22
15.7695922072
 13
7.3612727964
 23
15.7695922072
  0
LINE
  5
29B
100
AcDbEntity
  8
___SYMBOL
100
AcDbLine
 62
2
  6
CONTINUOUS
 10
7.5631042354
 20
15.7695922072
 11
7.7536600596
 21
15.7582268344
  0
LINE
  5
29C
100
AcDbEntity
  8
___SYMBOL
100
AcDbLine
 62
2
  6
CONTINUOUS
 10
7.7536600596
 20
15.7582268344
 11
7.5808220592
 21
15.7348190201
  0
LINE
  5
29D
100
AcDbEntity
  8
___SYMBOL
100
AcDbLine
 62
2
  6
CONTINUOUS
 10
7.5808220592
 20
15.7348190201
 11
7.5631042354
 21
15.7695922072
  0
SOLID
  5
29E
100
AcDbEntity
  8
___SYMBOL
100
AcDbTrace
 62
2
  6
CONTINUOUS
 10
7.5631042354
 20
15.7695922072
 11
7.7536600596
 21
15.7582268344
 12
7.5808220592
 22
15.7348190201
 13
7.5808220592
 23
15.7348190201
  0
LINE
  5
29F
100
AcDbEntity
  8
___SYMBOL
100
AcDbLine
 62
2
  6
CONTINUOUS
 10
7.1707169722
 20
15.7582268344
 11
7.3435549726
 21
15.7348190201
  0
LINE
  5
2A0
100
AcDbEntity
  8
___SYMBOL
100
AcDbLine
 62
2
  6
CONTINUOUS
 10
7.3435549726
 20
15.7348190201
 11
7.1642053244
 21
15.6962726453
  0
LINE
  5
2A1
100
AcDbEntity
  8
___SYMBOL
100
AcDbLine
 62
2
  6
CONTINUOUS
 10
7.1642053244
 20
15.6962726453
 11
7.1707169722
 21
15.7582268344
  0
SOLID
  5
2A2
100
AcDbEntity
  8
___SYMBOL
100
AcDbTrace
 62
2
  6
CONTINUOUS
 10
7.1707169722
 20
15.7582268344
 11
7.3435549726
 21
15.7348190201
 12
7.1642053244
 22
15.6962726453
 13
7.1642053244
 23
15.6962726453
  0
LINE
  5
2A3
100
AcDbEntity
  8
___SYMBOL
100
AcDbLine
 62
2
  6
CONTINUOUS
 10
7.3374498266
 20
15.6962726453
 11
7.1642053244
 21
15.6962726453
  0
LINE
  5
2A4
100
AcDbEntity
  8
___SYMBOL
100
AcDbLine
 62
2
  6
CONTINUOUS
 10
7.1642053244
 20
15.6962726453
 11
7.3435549726
 21
15.7348190201
  0
LINE
  5
2A5
100
AcDbEntity
  8
___SYMBOL
100
AcDbLine
 62
2
  6
CONTINUOUS
 10
7.3435549726
 20
15.7348190201
 11
7.3374498266
 21
15.6962726453
  0
SOLID
  5
2A6
100
AcDbEntity
  8
___SYMBOL
100
AcDbTrace
 62
2
  6
CONTINUOUS
 10
7.3374498266
 20
15.6962726453
 11
7.1642053244
 21
15.6962726453
 12
7.3435549726
 22
15.7348190201
 13
7.3435549726
 23
15.7348190201
  0
LINE
  5
2A7
100
AcDbEntity
  8
___SYMBOL
100
AcDbLine
 62
2
  6
CONTINUOUS
 10
7.7536600596
 20
15.7582268344
 11
7.5869272052
 21
15.6962726453
  0
LINE
  5
2A8
100
AcDbEntity
  8
___SYMBOL
100
AcDbLine
 62
2
  6
CONTINUOUS
 10
7.5869272052
 20
15.6962726453
 11
7.5808220592
 21
15.7348190201
  0
LINE
  5
2A9
100
AcDbEntity
  8
___SYMBOL
100
AcDbLine
 62
2
  6
CONTINUOUS
 10
7.5808220592
 20
15.7348190201
 11
7.7536600596
 21
15.7582268344
  0
SOLID
  5
2AA
100
AcDbEntity
  8
___SYMBOL
100
AcDbTrace
 62
2
  6
CONTINUOUS
 10
7.7536600596
 20
15.7582268344
 11
7.5869272052
 21
15.6962726453
 12
7.5808220592
 22
15.7348190201
 13
7.5808220592
 23
15.7348190201
  0
LINE
  5
2AB
100
AcDbEntity
  8
___SYMBOL
100
AcDbLine
 62
2
  6
CONTINUOUS
 10
7.7601717073
 20
15.6962726453
 11
7.5869272052
 21
15.6962726453
  0
LINE
  5
2AC
100
AcDbEntity
  8
___SYMBOL
100
AcDbLine
 62
2
  6
CONTINUOUS
 10
7.5869272052
 20
15.6962726453
 11
7.7536600596
 21
15.7582268344
  0
LINE
  5
2AD
100
AcDbEntity
  8
___SYMBOL
100
AcDbLine
 62
2
  6
CONTINUOUS
 10
7.7536600596
 20
15.7582268344
 11
7.7601717073
 21
15.6962726453
  0
SOLID
  5
2AE
100
AcDbEntity
  8
___SYMBOL
100
AcDbTrace
 62
2
  6
CONTINUOUS
 10
7.7601717073
 20
15.6962726453
 11
7.5869272052
 21
15.6962726453
 12
7.7536600596
 22
15.7582268344
 13
7.7536600596
 23
15.7582268344
  0
LINE
  5
2AF
100
AcDbEntity
  8
___SYMBOL
100
AcDbLine
 62
2
  6
CONTINUOUS
 10
7.5869272052
 20
15.6962726453
 11
7.7601717073
 21
15.6962726453
  0
LINE
  5
2B0
100
AcDbEntity
  8
___SYMBOL
100
AcDbLine
 62
2
  6
CONTINUOUS
 10
7.7601717073
 20
15.6962726453
 11
7.5808220592
 21
15.6577262703
  0
LINE
  5
2B1
100
AcDbEntity
  8
___SYMBOL
100
AcDbLine
 62
2
  6
CONTINUOUS
 10
7.5808220592
 20
15.6577262703
 11
7.5869272052
 21
15.6962726453
  0
SOLID
  5
2B2
100
AcDbEntity
  8
___SYMBOL
100
AcDbTrace
 62
2
  6
CONTINUOUS
 10
7.5869272052
 20
15.6962726453
 11
7.7601717073
 21
15.6962726453
 12
7.5808220592
 22
15.6577262703
 13
7.5808220592
 23
15.6577262703
  0
LINE
  5
2B3
100
AcDbEntity
  8
___SYMBOL
100
AcDbLine
 62
2
  6
CONTINUOUS
 10
7.1707169722
 20
15.6343184561
 11
7.3374498266
 21
15.6962726453
  0
LINE
  5
2B4
100
AcDbEntity
  8
___SYMBOL
100
AcDbLine
 62
2
  6
CONTINUOUS
 10
7.3374498266
 20
15.6962726453
 11
7.3435549726
 21
15.6577262703
  0
LINE
  5
2B5
100
AcDbEntity
  8
___SYMBOL
100
AcDbLine
 62
2
  6
CONTINUOUS
 10
7.3435549726
 20
15.6577262703
 11
7.1707169722
 21
15.6343184561
  0
SOLID
  5
2B6
100
AcDbEntity
  8
___SYMBOL
100
AcDbTrace
 62
2
  6
CONTINUOUS
 10
7.1707169722
 20
15.6343184561
 11
7.3374498266
 21
15.6962726453
 12
7.3435549726
 22
15.6577262703
 13
7.3435549726
 23
15.6577262703
  0
LINE
  5
2B7
100
AcDbEntity
  8
___SYMBOL
100
AcDbLine
 62
2
  6
CONTINUOUS
 10
7.1642053244
 20
15.6962726453
 11
7.3374498266
 21
15.6962726453
  0
LINE
  5
2B8
100
AcDbEntity
  8
___SYMBOL
100
AcDbLine
 62
2
  6
CONTINUOUS
 10
7.3374498266
 20
15.6962726453
 11
7.1707169722
 21
15.6343184561
  0
LINE
  5
2B9
100
AcDbEntity
  8
___SYMBOL
100
AcDbLine
 62
2
  6
CONTINUOUS
 10
7.1707169722
 20
15.6343184561
 11
7.1642053244
 21
15.6962726453
  0
SOLID
  5
2BA
100
AcDbEntity
  8
___SYMBOL
100
AcDbTrace
 62
2
  6
CONTINUOUS
 10
7.1642053244
 20
15.6962726453
 11
7.3374498266
 21
15.6962726453
 12
7.1707169722
 22
15.6343184561
 13
7.1707169722
 23
15.6343184561
  0
LINE
  5
2BB
100
AcDbEntity
  8
___SYMBOL
100
AcDbLine
 62
2
  6
CONTINUOUS
 10
7.7536600596
 20
15.6343184561
 11
7.5808220592
 21
15.6577262703
  0
LINE
  5
2BC
100
AcDbEntity
  8
___SYMBOL
100
AcDbLine
 62
2
  6
CONTINUOUS
 10
7.5808220592
 20
15.6577262703
 11
7.7601717073
 21
15.6962726453
  0
LINE
  5
2BD
100
AcDbEntity
  8
___SYMBOL
100
AcDbLine
 62
2
  6
CONTINUOUS
 10
7.7601717073
 20
15.6962726453
 11
7.7536600596
 21
15.6343184561
  0
SOLID
  5
2BE
100
AcDbEntity
  8
___SYMBOL
100
AcDbTrace
 62
2
  6
CONTINUOUS
 10
7.7536600596
 20
15.6343184561
 11
7.5808220592
 21
15.6577262703
 12
7.7601717073
 22
15.6962726453
 13
7.7601717073
 23
15.6962726453
  0
LINE
  5
2BF
100
AcDbEntity
  8
___SYMBOL
100
AcDbLine
 62
2
  6
CONTINUOUS
 10
7.3612727964
 20
15.6229530833
 11
7.1707169722
 21
15.6343184561
  0
LINE
  5
2C0
100
AcDbEntity
  8
___SYMBOL
100
AcDbLine
 62
2
  6
CONTINUOUS
 10
7.1707169722
 20
15.6343184561
 11
7.3435549726
 21
15.6577262703
  0
LINE
  5
2C1
100
AcDbEntity
  8
___SYMBOL
100
AcDbLine
 62
2
  6
CONTINUOUS
 10
7.3435549726
 20
15.6577262703
 11
7.3612727964
 21
15.6229530833
  0
SOLID
  5
2C2
100
AcDbEntity
  8
___SYMBOL
100
AcDbTrace
 62
2
  6
CONTINUOUS
 10
7.3612727964
 20
15.6229530833
 11
7.1707169722
 21
15.6343184561
 12
7.3435549726
 22
15.6577262703
 13
7.3435549726
 23
15.6577262703
  0
LINE
  5
2C3
100
AcDbEntity
  8
___SYMBOL
100
AcDbLine
 62
2
  6
CONTINUOUS
 10
7.5808220592
 20
15.6577262703
 11
7.7536600596
 21
15.6343184561
  0
LINE
  5
2C4
100
AcDbEntity
  8
___SYMBOL
100
AcDbLine
 62
2
  6
CONTINUOUS
 10
7.7536600596
 20
15.6343184561
 11
7.5631042354
 21
15.6229530833
  0
LINE
  5
2C5
100
AcDbEntity
  8
___SYMBOL
100
AcDbLine
 62
2
  6
CONTINUOUS
 10
7.5631042354
 20
15.6229530833
 11
7.5808220592
 21
15.6577262703
  0
SOLID
  5
2C6
100
AcDbEntity
  8
___SYMBOL
100
AcDbTrace
 62
2
  6
CONTINUOUS
 10
7.5808220592
 20
15.6577262703
 11
7.7536600596
 21
15.6343184561
 12
7.5631042354
 22
15.6229530833
 13
7.5631042354
 23
15.6229530833
  0
LINE
  5
2C7
100
AcDbEntity
  8
___SYMBOL
100
AcDbLine
 62
2
  6
CONTINUOUS
 10
7.1899673249
 20
15.5750719623
 11
7.3888689539
 21
15.5953569257
  0
LINE
  5
2C8
100
AcDbEntity
  8
___SYMBOL
100
AcDbLine
 62
2
  6
CONTINUOUS
 10
7.3888689539
 20
15.5953569257
 11
7.423642141
 21
15.5776391019
  0
LINE
  5
2C9
100
AcDbEntity
  8
___SYMBOL
100
AcDbLine
 62
2
  6
CONTINUOUS
 10
7.423642141
 20
15.5776391019
 11
7.1899673249
 21
15.5750719623
  0
SOLID
  5
2CA
100
AcDbEntity
  8
___SYMBOL
100
AcDbTrace
 62
2
  6
CONTINUOUS
 10
7.1899673249
 20
15.5750719623
 11
7.3888689539
 21
15.5953569257
 12
7.423642141
 22
15.5776391019
 13
7.423642141
 23
15.5776391019
  0
LINE
  5
2CB
100
AcDbEntity
  8
___SYMBOL
100
AcDbLine
 62
2
  6
CONTINUOUS
 10
7.1899673249
 20
15.5750719623
 11
7.3612727964
 21
15.6229530833
  0
LINE
  5
2CC
100
AcDbEntity
  8
___SYMBOL
100
AcDbLine
 62
2
  6
CONTINUOUS
 10
7.3612727964
 20
15.6229530833
 11
7.3888689539
 21
15.5953569257
  0
LINE
  5
2CD
100
AcDbEntity
  8
___SYMBOL
100
AcDbLine
 62
2
  6
CONTINUOUS
 10
7.3888689539
 20
15.5953569257
 11
7.1899673249
 21
15.5750719623
  0
SOLID
  5
2CE
100
AcDbEntity
  8
___SYMBOL
100
AcDbTrace
 62
2
  6
CONTINUOUS
 10
7.1899673249
 20
15.5750719623
 11
7.3612727964
 21
15.6229530833
 12
7.3888689539
 22
15.5953569257
 13
7.3888689539
 23
15.5953569257
  0
LINE
  5
2CF
100
AcDbEntity
  8
___SYMBOL
100
AcDbLine
 62
2
  6
CONTINUOUS
 10
7.1707169722
 20
15.6343184561
 11
7.3612727964
 21
15.6229530833
  0
LINE
  5
2D0
100
AcDbEntity
  8
___SYMBOL
100
AcDbLine
 62
2
  6
CONTINUOUS
 10
7.3612727964
 20
15.6229530833
 11
7.1899673249
 21
15.5750719623
  0
LINE
  5
2D1
100
AcDbEntity
  8
___SYMBOL
100
AcDbLine
 62
2
  6
CONTINUOUS
 10
7.1899673249
 20
15.5750719623
 11
7.1707169722
 21
15.6343184561
  0
SOLID
  5
2D2
100
AcDbEntity
  8
___SYMBOL
100
AcDbTrace
 62
2
  6
CONTINUOUS
 10
7.1707169722
 20
15.6343184561
 11
7.3612727964
 21
15.6229530833
 12
7.1899673249
 22
15.5750719623
 13
7.1899673249
 23
15.5750719623
  0
LINE
  5
2D3
100
AcDbEntity
  8
___SYMBOL
100
AcDbLine
 62
2
  6
CONTINUOUS
 10
7.7536600596
 20
15.6343184561
 11
7.5355080779
 21
15.5953569257
  0
LINE
  5
2D4
100
AcDbEntity
  8
___SYMBOL
100
AcDbLine
 62
2
  6
CONTINUOUS
 10
7.5355080779
 20
15.5953569257
 11
7.5631042354
 21
15.6229530833
  0
LINE
  5
2D5
100
AcDbEntity
  8
___SYMBOL
100
AcDbLine
 62
2
  6
CONTINUOUS
 10
7.5631042354
 20
15.6229530833
 11
7.7536600596
 21
15.6343184561
  0
SOLID
  5
2D6
100
AcDbEntity
  8
___SYMBOL
100
AcDbTrace
 62
2
  6
CONTINUOUS
 10
7.7536600596
 20
15.6343184561
 11
7.5355080779
 21
15.5953569257
 12
7.5631042354
 22
15.6229530833
 13
7.5631042354
 23
15.6229530833
  0
LINE
  5
2D7
100
AcDbEntity
  8
___SYMBOL
100
AcDbLine
 62
2
  6
CONTINUOUS
 10
7.7536600596
 20
15.6343184561
 11
7.5007348908
 21
15.5776391019
  0
LINE
  5
2D8
100
AcDbEntity
  8
___SYMBOL
100
AcDbLine
 62
2
  6
CONTINUOUS
 10
7.5007348908
 20
15.5776391019
 11
7.5355080779
 21
15.5953569257
  0
LINE
  5
2D9
100
AcDbEntity
  8
___SYMBOL
100
AcDbLine
 62
2
  6
CONTINUOUS
 10
7.5355080779
 20
15.5953569257
 11
7.7536600596
 21
15.6343184561
  0
SOLID
  5
2DA
100
AcDbEntity
  8
___SYMBOL
100
AcDbTrace
 62
2
  6
CONTINUOUS
 10
7.7536600596
 20
15.6343184561
 11
7.5007348908
 21
15.5776391019
 12
7.5355080779
 22
15.5953569257
 13
7.5355080779
 23
15.5953569257
  0
LINE
  5
2DB
100
AcDbEntity
  8
___SYMBOL
100
AcDbLine
 62
2
  6
CONTINUOUS
 10
7.7344097069
 20
15.5750719623
 11
7.5007348908
 21
15.5776391019
  0
LINE
  5
2DC
100
AcDbEntity
  8
___SYMBOL
100
AcDbLine
 62
2
  6
CONTINUOUS
 10
7.5007348908
 20
15.5776391019
 11
7.7536600596
 21
15.6343184561
  0
LINE
  5
2DD
100
AcDbEntity
  8
___SYMBOL
100
AcDbLine
 62
2
  6
CONTINUOUS
 10
7.7536600596
 20
15.6343184561
 11
7.7344097069
 21
15.5750719623
  0
SOLID
  5
2DE
100
AcDbEntity
  8
___SYMBOL
100
AcDbTrace
 62
2
  6
CONTINUOUS
 10
7.7344097069
 20
15.5750719623
 11
7.5007348908
 21
15.5776391019
 12
7.7536600596
 22
15.6343184561
 13
7.7536600596
 23
15.6343184561
  0
LINE
  5
2DF
100
AcDbEntity
  8
___SYMBOL
100
AcDbLine
 62
2
  6
CONTINUOUS
 10
7.4621885159
 20
15.5715339559
 11
7.1899673249
 21
15.5750719623
  0
LINE
  5
2E0
100
AcDbEntity
  8
___SYMBOL
100
AcDbLine
 62
2
  6
CONTINUOUS
 10
7.1899673249
 20
15.5750719623
 11
7.423642141
 21
15.5776391019
  0
LINE
  5
2E1
100
AcDbEntity
  8
___SYMBOL
100
AcDbLine
 62
2
  6
CONTINUOUS
 10
7.423642141
 20
15.5776391019
 11
7.4621885159
 21
15.5715339559
  0
SOLID
  5
2E2
100
AcDbEntity
  8
___SYMBOL
100
AcDbTrace
 62
2
  6
CONTINUOUS
 10
7.4621885159
 20
15.5715339559
 11
7.1899673249
 21
15.5750719623
 12
7.423642141
 22
15.5776391019
 13
7.423642141
 23
15.5776391019
  0
LINE
  5
2E3
100
AcDbEntity
  8
___SYMBOL
100
AcDbLine
 62
2
  6
CONTINUOUS
 10
7.5007348908
 20
15.5776391019
 11
7.7344097069
 21
15.5750719623
  0
LINE
  5
2E4
100
AcDbEntity
  8
___SYMBOL
100
AcDbLine
 62
2
  6
CONTINUOUS
 10
7.7344097069
 20
15.5750719623
 11
7.4621885159
 21
15.5715339559
  0
LINE
  5
2E5
100
AcDbEntity
  8
___SYMBOL
100
AcDbLine
 62
2
  6
CONTINUOUS
 10
7.4621885159
 20
15.5715339559
 11
7.5007348908
 21
15.5776391019
  0
SOLID
  5
2E6
100
AcDbEntity
  8
___SYMBOL
100
AcDbTrace
 62
2
  6
CONTINUOUS
 10
7.5007348908
 20
15.5776391019
 11
7.7344097069
 21
15.5750719623
 12
7.4621885159
 22
15.5715339559
 13
7.4621885159
 23
15.5715339559
  0
LINE
  5
2E7
100
AcDbEntity
  8
___SYMBOL
100
AcDbLine
 62
2
  6
CONTINUOUS
 10
7.1899673249
 20
15.5750719623
 11
7.4621885159
 21
15.5715339559
  0
LINE
  5
2E8
100
AcDbEntity
  8
___SYMBOL
100
AcDbLine
 62
2
  6
CONTINUOUS
 10
7.4621885159
 20
15.5715339559
 11
7.22111505
 21
15.5211225199
  0
LINE
  5
2E9
100
AcDbEntity
  8
___SYMBOL
100
AcDbLine
 62
2
  6
CONTINUOUS
 10
7.22111505
 20
15.5211225199
 11
7.1899673249
 21
15.5750719623
  0
SOLID
  5
2EA
100
AcDbEntity
  8
___SYMBOL
100
AcDbTrace
 62
2
  6
CONTINUOUS
 10
7.1899673249
 20
15.5750719623
 11
7.4621885159
 21
15.5715339559
 12
7.22111505
 22
15.5211225199
 13
7.22111505
 23
15.5211225199
  0
LINE
  5
2EB
100
AcDbEntity
  8
___SYMBOL
100
AcDbLine
 62
2
  6
CONTINUOUS
 10
7.7344097069
 20
15.5750719623
 11
7.22111505
 21
15.5211225199
  0
LINE
  5
2EC
100
AcDbEntity
  8
___SYMBOL
100
AcDbLine
 62
2
  6
CONTINUOUS
 10
7.22111505
 20
15.5211225199
 11
7.4621885159
 21
15.5715339559
  0
LINE
  5
2ED
100
AcDbEntity
  8
___SYMBOL
100
AcDbLine
 62
2
  6
CONTINUOUS
 10
7.4621885159
 20
15.5715339559
 11
7.7344097069
 21
15.5750719623
  0
SOLID
  5
2EE
100
AcDbEntity
  8
___SYMBOL
100
AcDbTrace
 62
2
  6
CONTINUOUS
 10
7.7344097069
 20
15.5750719623
 11
7.22111505
 21
15.5211225199
 12
7.4621885159
 22
15.5715339559
 13
7.4621885159
 23
15.5715339559
  0
LINE
  5
2EF
100
AcDbEntity
  8
___SYMBOL
100
AcDbLine
 62
2
  6
CONTINUOUS
 10
7.7032619818
 20
15.5211225199
 11
7.22111505
 21
15.5211225199
  0
LINE
  5
2F0
100
AcDbEntity
  8
___SYMBOL
100
AcDbLine
 62
2
  6
CONTINUOUS
 10
7.22111505
 20
15.5211225199
 11
7.7344097069
 21
15.5750719623
  0
LINE
  5
2F1
100
AcDbEntity
  8
___SYMBOL
100
AcDbLine
 62
2
  6
CONTINUOUS
 10
7.7344097069
 20
15.5750719623
 11
7.7032619818
 21
15.5211225199
  0
SOLID
  5
2F2
100
AcDbEntity
  8
___SYMBOL
100
AcDbTrace
 62
2
  6
CONTINUOUS
 10
7.7032619818
 20
15.5211225199
 11
7.22111505
 21
15.5211225199
 12
7.7344097069
 22
15.5750719623
 13
7.7344097069
 23
15.5750719623
  0
LINE
  5
2F3
100
AcDbEntity
  8
___SYMBOL
100
AcDbLine
 62
2
  6
CONTINUOUS
 10
7.22111505
 20
15.5211225199
 11
7.7032619818
 21
15.5211225199
  0
LINE
  5
2F4
100
AcDbEntity
  8
___SYMBOL
100
AcDbLine
 62
2
  6
CONTINUOUS
 10
7.7032619818
 20
15.5211225199
 11
7.2627988424
 21
15.4748279785
  0
LINE
  5
2F5
100
AcDbEntity
  8
___SYMBOL
100
AcDbLine
 62
2
  6
CONTINUOUS
 10
7.2627988424
 20
15.4748279785
 11
7.22111505
 21
15.5211225199
  0
SOLID
  5
2F6
100
AcDbEntity
  8
___SYMBOL
100
AcDbTrace
 62
2
  6
CONTINUOUS
 10
7.22111505
 20
15.5211225199
 11
7.7032619818
 21
15.5211225199
 12
7.2627988424
 22
15.4748279785
 13
7.2627988424
 23
15.4748279785
  0
LINE
  5
2F7
100
AcDbEntity
  8
___SYMBOL
100
AcDbLine
 62
2
  6
CONTINUOUS
 10
7.6615781895
 20
15.4748279785
 11
7.2627988424
 21
15.4748279785
  0
LINE
  5
2F8
100
AcDbEntity
  8
___SYMBOL
100
AcDbLine
 62
2
  6
CONTINUOUS
 10
7.2627988424
 20
15.4748279785
 11
7.7032619818
 21
15.5211225199
  0
LINE
  5
2F9
100
AcDbEntity
  8
___SYMBOL
100
AcDbLine
 62
2
  6
CONTINUOUS
 10
7.7032619818
 20
15.5211225199
 11
7.6615781895
 21
15.4748279785
  0
SOLID
  5
2FA
100
AcDbEntity
  8
___SYMBOL
100
AcDbTrace
 62
2
  6
CONTINUOUS
 10
7.6615781895
 20
15.4748279785
 11
7.2627988424
 21
15.4748279785
 12
7.7032619818
 22
15.5211225199
 13
7.7032619818
 23
15.5211225199
  0
LINE
  5
2FB
100
AcDbEntity
  8
___SYMBOL
100
AcDbLine
 62
2
  6
CONTINUOUS
 10
7.2627988424
 20
15.4748279785
 11
7.6615781895
 21
15.4748279785
  0
LINE
  5
2FC
100
AcDbEntity
  8
___SYMBOL
100
AcDbLine
 62
2
  6
CONTINUOUS
 10
7.6615781895
 20
15.4748279785
 11
7.3131969201
 21
15.4382116315
  0
LINE
  5
2FD
100
AcDbEntity
  8
___SYMBOL
100
AcDbLine
 62
2
  6
CONTINUOUS
 10
7.3131969201
 20
15.4382116315
 11
7.2627988424
 21
15.4748279785
  0
SOLID
  5
2FE
100
AcDbEntity
  8
___SYMBOL
100
AcDbTrace
 62
2
  6
CONTINUOUS
 10
7.2627988424
 20
15.4748279785
 11
7.6615781895
 21
15.4748279785
 12
7.3131969201
 22
15.4382116315
 13
7.3131969201
 23
15.4382116315
  0
LINE
  5
2FF
100
AcDbEntity
  8
___SYMBOL
100
AcDbLine
 62
2
  6
CONTINUOUS
 10
7.6111801116
 20
15.4382116315
 11
7.3131969201
 21
15.4382116315
  0
LINE
  5
300
100
AcDbEntity
  8
___SYMBOL
100
AcDbLine
 62
2
  6
CONTINUOUS
 10
7.3131969201
 20
15.4382116315
 11
7.6615781895
 21
15.4748279785
  0
LINE
  5
301
100
AcDbEntity
  8
___SYMBOL
100
AcDbLine
 62
2
  6
CONTINUOUS
 10
7.6615781895
 20
15.4748279785
 11
7.6111801116
 21
15.4382116315
  0
SOLID
  5
302
100
AcDbEntity
  8
___SYMBOL
100
AcDbTrace
 62
2
  6
CONTINUOUS
 10
7.6111801116
 20
15.4382116315
 11
7.3131969201
 21
15.4382116315
 12
7.6615781895
 22
15.4748279785
 13
7.6615781895
 23
15.4748279785
  0
LINE
  5
303
100
AcDbEntity
  8
___SYMBOL
100
AcDbLine
 62
2
  6
CONTINUOUS
 10
7.3131969201
 20
15.4382116315
 11
7.6111801116
 21
15.4382116315
  0
LINE
  5
304
100
AcDbEntity
  8
___SYMBOL
100
AcDbLine
 62
2
  6
CONTINUOUS
 10
7.6111801116
 20
15.4382116315
 11
7.3701066457
 21
15.4128737893
  0
LINE
  5
305
100
AcDbEntity
  8
___SYMBOL
100
AcDbLine
 62
2
  6
CONTINUOUS
 10
7.3701066457
 20
15.4128737893
 11
7.3131969201
 21
15.4382116315
  0
SOLID
  5
306
100
AcDbEntity
  8
___SYMBOL
100
AcDbTrace
 62
2
  6
CONTINUOUS
 10
7.3131969201
 20
15.4382116315
 11
7.6111801116
 21
15.4382116315
 12
7.3701066457
 22
15.4128737893
 13
7.3701066457
 23
15.4128737893
  0
LINE
  5
307
100
AcDbEntity
  8
___SYMBOL
100
AcDbLine
 62
2
  6
CONTINUOUS
 10
7.554270386
 20
15.4128737893
 11
7.3701066457
 21
15.4128737893
  0
LINE
  5
308
100
AcDbEntity
  8
___SYMBOL
100
AcDbLine
 62
2
  6
CONTINUOUS
 10
7.3701066457
 20
15.4128737893
 11
7.6111801116
 21
15.4382116315
  0
LINE
  5
309
100
AcDbEntity
  8
___SYMBOL
100
AcDbLine
 62
2
  6
CONTINUOUS
 10
7.6111801116
 20
15.4382116315
 11
7.554270386
 21
15.4128737893
  0
SOLID
  5
30A
100
AcDbEntity
  8
___SYMBOL
100
AcDbTrace
 62
2
  6
CONTINUOUS
 10
7.554270386
 20
15.4128737893
 11
7.3701066457
 21
15.4128737893
 12
7.6111801116
 22
15.4382116315
 13
7.6111801116
 23
15.4382116315
  0
LINE
  5
30B
100
AcDbEntity
  8
___SYMBOL
100
AcDbLine
 62
2
  6
CONTINUOUS
 10
7.3701066457
 20
15.4128737893
 11
7.554270386
 21
15.4128737893
  0
LINE
  5
30C
100
AcDbEntity
  8
___SYMBOL
100
AcDbLine
 62
2
  6
CONTINUOUS
 10
7.554270386
 20
15.4128737893
 11
7.4310407908
 21
15.3999218369
  0
LINE
  5
30D
100
AcDbEntity
  8
___SYMBOL
100
AcDbLine
 62
2
  6
CONTINUOUS
 10
7.4310407908
 20
15.3999218369
 11
7.3701066457
 21
15.4128737893
  0
SOLID
  5
30E
100
AcDbEntity
  8
___SYMBOL
100
AcDbTrace
 62
2
  6
CONTINUOUS
 10
7.3701066457
 20
15.4128737893
 11
7.554270386
 21
15.4128737893
 12
7.4310407908
 22
15.3999218369
 13
7.4310407908
 23
15.3999218369
  0
LINE
  5
30F
100
AcDbEntity
  8
___SYMBOL
100
AcDbLine
 62
2
  6
CONTINUOUS
 10
7.493336241
 20
15.3999218369
 11
7.4310407908
 21
15.3999218369
  0
LINE
  5
310
100
AcDbEntity
  8
___SYMBOL
100
AcDbLine
 62
2
  6
CONTINUOUS
 10
7.4310407908
 20
15.3999218369
 11
7.554270386
 21
15.4128737893
  0
LINE
  5
311
100
AcDbEntity
  8
___SYMBOL
100
AcDbLine
 62
2
  6
CONTINUOUS
 10
7.554270386
 20
15.4128737893
 11
7.493336241
 21
15.3999218369
  0
SOLID
  5
312
100
AcDbEntity
  8
___SYMBOL
100
AcDbTrace
 62
2
  6
CONTINUOUS
 10
7.493336241
 20
15.3999218369
 11
7.4310407908
 21
15.3999218369
 12
7.554270386
 22
15.4128737893
 13
7.554270386
 23
15.4128737893
  0
LINE
  5
313
100
AcDbEntity
  8
___SYMBOL
100
AcDbLine
 62
2
  6
CONTINUOUS
 10
8.0899362177
 20
15.9902783019
 11
8.2546293301
 21
15.9902783019
  0
LINE
  5
314
100
AcDbEntity
  8
___SYMBOL
100
AcDbLine
 62
2
  6
CONTINUOUS
 10
8.2546293301
 20
15.9902783019
 11
8.0899362177
 21
15.7699488142
  0
LINE
  5
315
100
AcDbEntity
  8
___SYMBOL
100
AcDbLine
 62
2
  6
CONTINUOUS
 10
8.0899362177
 20
15.7699488142
 11
8.0899362177
 21
15.9902783019
  0
SOLID
  5
316
100
AcDbEntity
  8
___SYMBOL
100
AcDbTrace
 62
2
  6
CONTINUOUS
 10
8.0899362177
 20
15.9902783019
 11
8.2546293301
 21
15.9902783019
 12
8.0899362177
 22
15.7699488142
 13
8.0899362177
 23
15.7699488142
  0
LINE
  5
317
100
AcDbEntity
  8
___SYMBOL
100
AcDbLine
 62
2
  6
CONTINUOUS
 10
7.9419758524
 20
15.6327773225
 11
7.9419758524
 21
15.7699488142
  0
LINE
  5
318
100
AcDbEntity
  8
___SYMBOL
100
AcDbLine
 62
2
  6
CONTINUOUS
 10
7.9419758524
 20
15.7699488142
 11
8.0899362177
 21
15.7699488142
  0
LINE
  5
319
100
AcDbEntity
  8
___SYMBOL
100
AcDbLine
 62
2
  6
CONTINUOUS
 10
8.0899362177
 20
15.7699488142
 11
7.9419758524
 21
15.6327773225
  0
SOLID
  5
31A
100
AcDbEntity
  8
___SYMBOL
100
AcDbTrace
 62
2
  6
CONTINUOUS
 10
7.9419758524
 20
15.6327773225
 11
7.9419758524
 21
15.7699488142
 12
8.0899362177
 22
15.7699488142
 13
8.0899362177
 23
15.7699488142
  0
LINE
  5
31B
100
AcDbEntity
  8
___SYMBOL
100
AcDbLine
 62
2
  6
CONTINUOUS
 10
7.7772827399
 20
15.40450894
 11
7.9419758524
 21
15.7699488142
  0
LINE
  5
31C
100
AcDbEntity
  8
___SYMBOL
100
AcDbLine
 62
2
  6
CONTINUOUS
 10
7.9419758524
 20
15.7699488142
 11
7.9419758524
 21
15.6327773225
  0
LINE
  5
31D
100
AcDbEntity
  8
___SYMBOL
100
AcDbLine
 62
2
  6
CONTINUOUS
 10
7.9419758524
 20
15.6327773225
 11
7.7772827399
 21
15.40450894
  0
SOLID
  5
31E
100
AcDbEntity
  8
___SYMBOL
100
AcDbTrace
 62
2
  6
CONTINUOUS
 10
7.7772827399
 20
15.40450894
 11
7.9419758524
 21
15.7699488142
 12
7.9419758524
 22
15.6327773225
 13
7.9419758524
 23
15.6327773225
  0
LINE
  5
31F
100
AcDbEntity
  8
___SYMBOL
100
AcDbLine
 62
2
  6
CONTINUOUS
 10
7.7772827399
 20
15.40450894
 11
7.9419758524
 21
15.9902783019
  0
LINE
  5
320
100
AcDbEntity
  8
___SYMBOL
100
AcDbLine
 62
2
  6
CONTINUOUS
 10
7.9419758524
 20
15.9902783019
 11
7.9419758524
 21
15.7699488142
  0
LINE
  5
321
100
AcDbEntity
  8
___SYMBOL
100
AcDbLine
 62
2
  6
CONTINUOUS
 10
7.9419758524
 20
15.7699488142
 11
7.7772827399
 21
15.40450894
  0
SOLID
  5
322
100
AcDbEntity
  8
___SYMBOL
100
AcDbTrace
 62
2
  6
CONTINUOUS
 10
7.7772827399
 20
15.40450894
 11
7.9419758524
 21
15.9902783019
 12
7.9419758524
 22
15.7699488142
 13
7.9419758524
 23
15.7699488142
  0
LINE
  5
323
100
AcDbEntity
  8
___SYMBOL
100
AcDbLine
 62
2
  6
CONTINUOUS
 10
7.7772827399
 20
15.9902783019
 11
7.9419758524
 21
15.9902783019
  0
LINE
  5
324
100
AcDbEntity
  8
___SYMBOL
100
AcDbLine
 62
2
  6
CONTINUOUS
 10
7.9419758524
 20
15.9902783019
 11
7.7772827399
 21
15.40450894
  0
LINE
  5
325
100
AcDbEntity
  8
___SYMBOL
100
AcDbLine
 62
2
  6
CONTINUOUS
 10
7.7772827399
 20
15.40450894
 11
7.7772827399
 21
15.9902783019
  0
SOLID
  5
326
100
AcDbEntity
  8
___SYMBOL
100
AcDbTrace
 62
2
  6
CONTINUOUS
 10
7.7772827399
 20
15.9902783019
 11
7.9419758524
 21
15.9902783019
 12
7.7772827399
 22
15.40450894
 13
7.7772827399
 23
15.40450894
  0
LINE
  5
327
100
AcDbEntity
  8
___SYMBOL
100
AcDbLine
 62
2
  6
CONTINUOUS
 10
7.9419758524
 20
15.40450894
 11
7.7772827399
 21
15.40450894
  0
LINE
  5
328
100
AcDbEntity
  8
___SYMBOL
100
AcDbLine
 62
2
  6
CONTINUOUS
 10
7.7772827399
 20
15.40450894
 11
7.9419758524
 21
15.6327773225
  0
LINE
  5
329
100
AcDbEntity
  8
___SYMBOL
100
AcDbLine
 62
2
  6
CONTINUOUS
 10
7.9419758524
 20
15.6327773225
 11
7.9419758524
 21
15.40450894
  0
SOLID
  5
32A
100
AcDbEntity
  8
___SYMBOL
100
AcDbTrace
 62
2
  6
CONTINUOUS
 10
7.9419758524
 20
15.40450894
 11
7.7772827399
 21
15.40450894
 12
7.9419758524
 22
15.6327773225
 13
7.9419758524
 23
15.6327773225
  0
LINE
  5
32B
100
AcDbEntity
  8
___SYMBOL
100
AcDbLine
 62
2
  6
CONTINUOUS
 10
8.0899362177
 20
15.7699488142
 11
8.0899362177
 21
15.6327773225
  0
LINE
  5
32C
100
AcDbEntity
  8
___SYMBOL
100
AcDbLine
 62
2
  6
CONTINUOUS
 10
8.0899362177
 20
15.6327773225
 11
7.9419758524
 21
15.6327773225
  0
LINE
  5
32D
100
AcDbEntity
  8
___SYMBOL
100
AcDbLine
 62
2
  6
CONTINUOUS
 10
7.9419758524
 20
15.6327773225
 11
8.0899362177
 21
15.7699488142
  0
SOLID
  5
32E
100
AcDbEntity
  8
___SYMBOL
100
AcDbTrace
 62
2
  6
CONTINUOUS
 10
8.0899362177
 20
15.7699488142
 11
8.0899362177
 21
15.6327773225
 12
7.9419758524
 22
15.6327773225
 13
7.9419758524
 23
15.6327773225
  0
LINE
  5
32F
100
AcDbEntity
  8
___SYMBOL
100
AcDbLine
 62
2
  6
CONTINUOUS
 10
8.2546293301
 20
15.9902783019
 11
8.0899362177
 21
15.6327773225
  0
LINE
  5
330
100
AcDbEntity
  8
___SYMBOL
100
AcDbLine
 62
2
  6
CONTINUOUS
 10
8.0899362177
 20
15.6327773225
 11
8.0899362177
 21
15.7699488142
  0
LINE
  5
331
100
AcDbEntity
  8
___SYMBOL
100
AcDbLine
 62
2
  6
CONTINUOUS
 10
8.0899362177
 20
15.7699488142
 11
8.2546293301
 21
15.9902783019
  0
SOLID
  5
332
100
AcDbEntity
  8
___SYMBOL
100
AcDbTrace
 62
2
  6
CONTINUOUS
 10
8.2546293301
 20
15.9902783019
 11
8.0899362177
 21
15.6327773225
 12
8.0899362177
 22
15.7699488142
 13
8.0899362177
 23
15.7699488142
  0
LINE
  5
333
100
AcDbEntity
  8
___SYMBOL
100
AcDbLine
 62
2
  6
CONTINUOUS
 10
8.2546293301
 20
15.9902783019
 11
8.0899362177
 21
15.40450894
  0
LINE
  5
334
100
AcDbEntity
  8
___SYMBOL
100
AcDbLine
 62
2
  6
CONTINUOUS
 10
8.0899362177
 20
15.40450894
 11
8.0899362177
 21
15.6327773225
  0
LINE
  5
335
100
AcDbEntity
  8
___SYMBOL
100
AcDbLine
 62
2
  6
CONTINUOUS
 10
8.0899362177
 20
15.6327773225
 11
8.2546293301
 21
15.9902783019
  0
SOLID
  5
336
100
AcDbEntity
  8
___SYMBOL
100
AcDbTrace
 62
2
  6
CONTINUOUS
 10
8.2546293301
 20
15.9902783019
 11
8.0899362177
 21
15.40450894
 12
8.0899362177
 22
15.6327773225
 13
8.0899362177
 23
15.6327773225
  0
LINE
  5
337
100
AcDbEntity
  8
___SYMBOL
100
AcDbLine
 62
2
  6
CONTINUOUS
 10
8.2546293301
 20
15.40450894
 11
8.0899362177
 21
15.40450894
  0
LINE
  5
338
100
AcDbEntity
  8
___SYMBOL
100
AcDbLine
 62
2
  6
CONTINUOUS
 10
8.0899362177
 20
15.40450894
 11
8.2546293301
 21
15.9902783019
  0
LINE
  5
339
100
AcDbEntity
  8
___SYMBOL
100
AcDbLine
 62
2
  6
CONTINUOUS
 10
8.2546293301
 20
15.9902783019
 11
8.2546293301
 21
15.40450894
  0
SOLID
  5
33A
100
AcDbEntity
  8
___SYMBOL
100
AcDbTrace
 62
2
  6
CONTINUOUS
 10
8.2546293301
 20
15.40450894
 11
8.0899362177
 21
15.40450894
 12
8.2546293301
 22
15.9902783019
 13
8.2546293301
 23
15.9902783019
  0
LINE
  5
33B
100
AcDbEntity
  8
___SYMBOL
100
AcDbLine
 62
2
  6
CONTINUOUS
 10
8.2996630815
 20
15.40450894
 11
8.4496721939
 21
15.5457009186
  0
LINE
  5
33C
100
AcDbEntity
  8
___SYMBOL
100
AcDbLine
 62
2
  6
CONTINUOUS
 10
8.4496721939
 20
15.5457009186
 11
8.6123162012
 21
15.5457009186
  0
LINE
  5
33D
100
AcDbEntity
  8
___SYMBOL
100
AcDbLine
 62
2
  6
CONTINUOUS
 10
8.6123162012
 20
15.5457009186
 11
8.2996630815
 21
15.40450894
  0
SOLID
  5
33E
100
AcDbEntity
  8
___SYMBOL
100
AcDbTrace
 62
2
  6
CONTINUOUS
 10
8.2996630815
 20
15.40450894
 11
8.4496721939
 21
15.5457009186
 12
8.6123162012
 22
15.5457009186
 13
8.6123162012
 23
15.5457009186
  0
LINE
  5
33F
100
AcDbEntity
  8
___SYMBOL
100
AcDbLine
 62
2
  6
CONTINUOUS
 10
8.2996630815
 20
15.40450894
 11
8.4496721939
 21
15.9902783019
  0
LINE
  5
340
100
AcDbEntity
  8
___SYMBOL
100
AcDbLine
 62
2
  6
CONTINUOUS
 10
8.4496721939
 20
15.9902783019
 11
8.4496721939
 21
15.5457009186
  0
LINE
  5
341
100
AcDbEntity
  8
___SYMBOL
100
AcDbLine
 62
2
  6
CONTINUOUS
 10
8.4496721939
 20
15.5457009186
 11
8.2996630815
 21
15.40450894
  0
SOLID
  5
342
100
AcDbEntity
  8
___SYMBOL
100
AcDbTrace
 62
2
  6
CONTINUOUS
 10
8.2996630815
 20
15.40450894
 11
8.4496721939
 21
15.9902783019
 12
8.4496721939
 22
15.5457009186
 13
8.4496721939
 23
15.5457009186
  0
LINE
  5
343
100
AcDbEntity
  8
___SYMBOL
100
AcDbLine
 62
2
  6
CONTINUOUS
 10
8.2996630815
 20
15.9902783019
 11
8.4496721939
 21
15.9902783019
  0
LINE
  5
344
100
AcDbEntity
  8
___SYMBOL
100
AcDbLine
 62
2
  6
CONTINUOUS
 10
8.4496721939
 20
15.9902783019
 11
8.2996630815
 21
15.40450894
  0
LINE
  5
345
100
AcDbEntity
  8
___SYMBOL
100
AcDbLine
 62
2
  6
CONTINUOUS
 10
8.2996630815
 20
15.40450894
 11
8.2996630815
 21
15.9902783019
  0
SOLID
  5
346
100
AcDbEntity
  8
___SYMBOL
100
AcDbTrace
 62
2
  6
CONTINUOUS
 10
8.2996630815
 20
15.9902783019
 11
8.4496721939
 21
15.9902783019
 12
8.2996630815
 22
15.40450894
 13
8.2996630815
 23
15.40450894
  0
LINE
  5
347
100
AcDbEntity
  8
___SYMBOL
100
AcDbLine
 62
2
  6
CONTINUOUS
 10
8.6123162012
 20
15.5457009186
 11
8.4496721939
 21
15.40450894
  0
LINE
  5
348
100
AcDbEntity
  8
___SYMBOL
100
AcDbLine
 62
2
  6
CONTINUOUS
 10
8.4496721939
 20
15.40450894
 11
8.2996630815
 21
15.40450894
  0
LINE
  5
349
100
AcDbEntity
  8
___SYMBOL
100
AcDbLine
 62
2
  6
CONTINUOUS
 10
8.2996630815
 20
15.40450894
 11
8.6123162012
 21
15.5457009186
  0
SOLID
  5
34A
100
AcDbEntity
  8
___SYMBOL
100
AcDbTrace
 62
2
  6
CONTINUOUS
 10
8.6123162012
 20
15.5457009186
 11
8.4496721939
 21
15.40450894
 12
8.2996630815
 22
15.40450894
 13
8.2996630815
 23
15.40450894
  0
LINE
  5
34B
100
AcDbEntity
  8
___SYMBOL
100
AcDbLine
 62
2
  6
CONTINUOUS
 10
8.6123162012
 20
15.40450894
 11
8.4496721939
 21
15.40450894
  0
LINE
  5
34C
100
AcDbEntity
  8
___SYMBOL
100
AcDbLine
 62
2
  6
CONTINUOUS
 10
8.4496721939
 20
15.40450894
 11
8.6123162012
 21
15.5457009186
  0
LINE
  5
34D
100
AcDbEntity
  8
___SYMBOL
100
AcDbLine
 62
2
  6
CONTINUOUS
 10
8.6123162012
 20
15.5457009186
 11
8.6123162012
 21
15.40450894
  0
SOLID
  5
34E
100
AcDbEntity
  8
___SYMBOL
100
AcDbTrace
 62
2
  6
CONTINUOUS
 10
8.6123162012
 20
15.40450894
 11
8.4496721939
 21
15.40450894
 12
8.6123162012
 22
15.5457009186
 13
8.6123162012
 23
15.5457009186
  0
LINE
  5
34F
100
AcDbEntity
  8
___SYMBOL
100
AcDbLine
 62
2
  6
CONTINUOUS
 10
8.9504848172
 20
15.8475540612
 11
8.799664444
 21
15.8475540612
  0
LINE
  5
350
100
AcDbEntity
  8
___SYMBOL
100
AcDbLine
 62
2
  6
CONTINUOUS
 10
8.799664444
 20
15.8475540612
 11
8.9504848172
 21
15.9902783019
  0
LINE
  5
351
100
AcDbEntity
  8
___SYMBOL
100
AcDbLine
 62
2
  6
CONTINUOUS
 10
8.9504848172
 20
15.9902783019
 11
8.9504848172
 21
15.8475540612
  0
SOLID
  5
352
100
AcDbEntity
  8
___SYMBOL
100
AcDbTrace
 62
2
  6
CONTINUOUS
 10
8.9504848172
 20
15.8475540612
 11
8.799664444
 21
15.8475540612
 12
8.9504848172
 22
15.9902783019
 13
8.9504848172
 23
15.9902783019
  0
LINE
  5
353
100
AcDbEntity
  8
___SYMBOL
100
AcDbLine
 62
2
  6
CONTINUOUS
 10
8.9504848172
 20
15.625602768
 11
8.799664444
 21
15.625602768
  0
LINE
  5
354
100
AcDbEntity
  8
___SYMBOL
100
AcDbLine
 62
2
  6
CONTINUOUS
 10
8.799664444
 20
15.625602768
 11
8.9504848172
 21
15.7699488142
  0
LINE
  5
355
100
AcDbEntity
  8
___SYMBOL
100
AcDbLine
 62
2
  6
CONTINUOUS
 10
8.9504848172
 20
15.7699488142
 11
8.9504848172
 21
15.625602768
  0
SOLID
  5
356
100
AcDbEntity
  8
___SYMBOL
100
AcDbTrace
 62
2
  6
CONTINUOUS
 10
8.9504848172
 20
15.625602768
 11
8.799664444
 21
15.625602768
 12
8.9504848172
 22
15.7699488142
 13
8.9504848172
 23
15.7699488142
  0
LINE
  5
357
100
AcDbEntity
  8
___SYMBOL
100
AcDbLine
 62
2
  6
CONTINUOUS
 10
8.6414567619
 20
15.40450894
 11
8.799664444
 21
15.5457009186
  0
LINE
  5
358
100
AcDbEntity
  8
___SYMBOL
100
AcDbLine
 62
2
  6
CONTINUOUS
 10
8.799664444
 20
15.5457009186
 11
8.9504848172
 21
15.5457009186
  0
LINE
  5
359
100
AcDbEntity
  8
___SYMBOL
100
AcDbLine
 62
2
  6
CONTINUOUS
 10
8.9504848172
 20
15.5457009186
 11
8.6414567619
 21
15.40450894
  0
SOLID
  5
35A
100
AcDbEntity
  8
___SYMBOL
100
AcDbTrace
 62
2
  6
CONTINUOUS
 10
8.6414567619
 20
15.40450894
 11
8.799664444
 21
15.5457009186
 12
8.9504848172
 22
15.5457009186
 13
8.9504848172
 23
15.5457009186
  0
LINE
  5
35B
100
AcDbEntity
  8
___SYMBOL
100
AcDbLine
 62
2
  6
CONTINUOUS
 10
8.6414567619
 20
15.40450894
 11
8.799664444
 21
15.625602768
  0
LINE
  5
35C
100
AcDbEntity
  8
___SYMBOL
100
AcDbLine
 62
2
  6
CONTINUOUS
 10
8.799664444
 20
15.625602768
 11
8.799664444
 21
15.5457009186
  0
LINE
  5
35D
100
AcDbEntity
  8
___SYMBOL
100
AcDbLine
 62
2
  6
CONTINUOUS
 10
8.799664444
 20
15.5457009186
 11
8.6414567619
 21
15.40450894
  0
SOLID
  5
35E
100
AcDbEntity
  8
___SYMBOL
100
AcDbTrace
 62
2
  6
CONTINUOUS
 10
8.6414567619
 20
15.40450894
 11
8.799664444
 21
15.625602768
 12
8.799664444
 22
15.5457009186
 13
8.799664444
 23
15.5457009186
  0
LINE
  5
35F
100
AcDbEntity
  8
___SYMBOL
100
AcDbLine
 62
2
  6
CONTINUOUS
 10
8.799664444
 20
15.625602768
 11
8.799664444
 21
15.7699488142
  0
LINE
  5
360
100
AcDbEntity
  8
___SYMBOL
100
AcDbLine
 62
2
  6
CONTINUOUS
 10
8.799664444
 20
15.7699488142
 11
8.9504848172
 21
15.7699488142
  0
LINE
  5
361
100
AcDbEntity
  8
___SYMBOL
100
AcDbLine
 62
2
  6
CONTINUOUS
 10
8.9504848172
 20
15.7699488142
 11
8.799664444
 21
15.625602768
  0
SOLID
  5
362
100
AcDbEntity
  8
___SYMBOL
100
AcDbTrace
 62
2
  6
CONTINUOUS
 10
8.799664444
 20
15.625602768
 11
8.799664444
 21
15.7699488142
 12
8.9504848172
 22
15.7699488142
 13
8.9504848172
 23
15.7699488142
  0
LINE
  5
363
100
AcDbEntity
  8
___SYMBOL
100
AcDbLine
 62
2
  6
CONTINUOUS
 10
8.6414567619
 20
15.40450894
 11
8.799664444
 21
15.7699488142
  0
LINE
  5
364
100
AcDbEntity
  8
___SYMBOL
100
AcDbLine
 62
2
  6
CONTINUOUS
 10
8.799664444
 20
15.7699488142
 11
8.799664444
 21
15.625602768
  0
LINE
  5
365
100
AcDbEntity
  8
___SYMBOL
100
AcDbLine
 62
2
  6
CONTINUOUS
 10
8.799664444
 20
15.625602768
 11
8.6414567619
 21
15.40450894
  0
SOLID
  5
366
100
AcDbEntity
  8
___SYMBOL
100
AcDbTrace
 62
2
  6
CONTINUOUS
 10
8.6414567619
 20
15.40450894
 11
8.799664444
 21
15.7699488142
 12
8.799664444
 22
15.625602768
 13
8.799664444
 23
15.625602768
  0
LINE
  5
367
100
AcDbEntity
  8
___SYMBOL
100
AcDbLine
 62
2
  6
CONTINUOUS
 10
8.6414567619
 20
15.40450894
 11
8.799664444
 21
15.8475540612
  0
LINE
  5
368
100
AcDbEntity
  8
___SYMBOL
100
AcDbLine
 62
2
  6
CONTINUOUS
 10
8.799664444
 20
15.8475540612
 11
8.799664444
 21
15.7699488142
  0
LINE
  5
369
100
AcDbEntity
  8
___SYMBOL
100
AcDbLine
 62
2
  6
CONTINUOUS
 10
8.799664444
 20
15.7699488142
 11
8.6414567619
 21
15.40450894
  0
SOLID
  5
36A
100
AcDbEntity
  8
___SYMBOL
100
AcDbTrace
 62
2
  6
CONTINUOUS
 10
8.6414567619
 20
15.40450894
 11
8.799664444
 21
15.8475540612
 12
8.799664444
 22
15.7699488142
 13
8.799664444
 23
15.7699488142
  0
LINE
  5
36B
100
AcDbEntity
  8
___SYMBOL
100
AcDbLine
 62
2
  6
CONTINUOUS
 10
8.799664444
 20
15.8475540612
 11
8.8138652694
 21
15.9902783019
  0
LINE
  5
36C
100
AcDbEntity
  8
___SYMBOL
100
AcDbLine
 62
2
  6
CONTINUOUS
 10
8.8138652694
 20
15.9902783019
 11
8.9504848172
 21
15.9902783019
  0
LINE
  5
36D
100
AcDbEntity
  8
___SYMBOL
100
AcDbLine
 62
2
  6
CONTINUOUS
 10
8.9504848172
 20
15.9902783019
 11
8.799664444
 21
15.8475540612
  0
SOLID
  5
36E
100
AcDbEntity
  8
___SYMBOL
100
AcDbTrace
 62
2
  6
CONTINUOUS
 10
8.799664444
 20
15.8475540612
 11
8.8138652694
 21
15.9902783019
 12
8.9504848172
 22
15.9902783019
 13
8.9504848172
 23
15.9902783019
  0
LINE
  5
36F
100
AcDbEntity
  8
___SYMBOL
100
AcDbLine
 62
2
  6
CONTINUOUS
 10
8.6414567619
 20
15.40450894
 11
8.8138652694
 21
15.9902783019
  0
LINE
  5
370
100
AcDbEntity
  8
___SYMBOL
100
AcDbLine
 62
2
  6
CONTINUOUS
 10
8.8138652694
 20
15.9902783019
 11
8.799664444
 21
15.8475540612
  0
LINE
  5
371
100
AcDbEntity
  8
___SYMBOL
100
AcDbLine
 62
2
  6
CONTINUOUS
 10
8.799664444
 20
15.8475540612
 11
8.6414567619
 21
15.40450894
  0
SOLID
  5
372
100
AcDbEntity
  8
___SYMBOL
100
AcDbTrace
 62
2
  6
CONTINUOUS
 10
8.6414567619
 20
15.40450894
 11
8.8138652694
 21
15.9902783019
 12
8.799664444
 22
15.8475540612
 13
8.799664444
 23
15.8475540612
  0
LINE
  5
373
100
AcDbEntity
  8
___SYMBOL
100
AcDbLine
 62
2
  6
CONTINUOUS
 10
8.6414567619
 20
15.9902783019
 11
8.8138652694
 21
15.9902783019
  0
LINE
  5
374
100
AcDbEntity
  8
___SYMBOL
100
AcDbLine
 62
2
  6
CONTINUOUS
 10
8.8138652694
 20
15.9902783019
 11
8.6414567619
 21
15.40450894
  0
LINE
  5
375
100
AcDbEntity
  8
___SYMBOL
100
AcDbLine
 62
2
  6
CONTINUOUS
 10
8.6414567619
 20
15.40450894
 11
8.6414567619
 21
15.9902783019
  0
SOLID
  5
376
100
AcDbEntity
  8
___SYMBOL
100
AcDbTrace
 62
2
  6
CONTINUOUS
 10
8.6414567619
 20
15.9902783019
 11
8.8138652694
 21
15.9902783019
 12
8.6414567619
 22
15.40450894
 13
8.6414567619
 23
15.40450894
  0
LINE
  5
377
100
AcDbEntity
  8
___SYMBOL
100
AcDbLine
 62
2
  6
CONTINUOUS
 10
8.9504848172
 20
15.40450894
 11
8.6414567619
 21
15.40450894
  0
LINE
  5
378
100
AcDbEntity
  8
___SYMBOL
100
AcDbLine
 62
2
  6
CONTINUOUS
 10
8.6414567619
 20
15.40450894
 11
8.9504848172
 21
15.5457009186
  0
LINE
  5
379
100
AcDbEntity
  8
___SYMBOL
100
AcDbLine
 62
2
  6
CONTINUOUS
 10
8.9504848172
 20
15.5457009186
 11
8.9504848172
 21
15.40450894
  0
SOLID
  5
37A
100
AcDbEntity
  8
___SYMBOL
100
AcDbTrace
 62
2
  6
CONTINUOUS
 10
8.9504848172
 20
15.40450894
 11
8.6414567619
 21
15.40450894
 12
8.9504848172
 22
15.5457009186
 13
8.9504848172
 23
15.5457009186
  0
LINE
  5
37B
100
AcDbEntity
  8
___SYMBOL
100
AcDbLine
 62
2
  6
CONTINUOUS
 10
9.2757056473
 20
15.983876736
 11
8.9952939944
 21
15.9902783019
  0
LINE
  5
37C
100
AcDbEntity
  8
___SYMBOL
100
AcDbLine
 62
2
  6
CONTINUOUS
 10
8.9952939944
 20
15.9902783019
 11
9.2287841814
 21
15.9902854058
  0
LINE
  5
37D
100
AcDbEntity
  8
___SYMBOL
100
AcDbLine
 62
2
  6
CONTINUOUS
 10
9.2287841814
 20
15.9902854058
 11
9.2757056473
 21
15.983876736
  0
SOLID
  5
37E
100
AcDbEntity
  8
___SYMBOL
100
AcDbTrace
 62
2
  6
CONTINUOUS
 10
9.2757056473
 20
15.983876736
 11
8.9952939944
 21
15.9902783019
 12
9.2287841814
 22
15.9902854058
 13
9.2287841814
 23
15.9902854058
  0
LINE
  5
37F
100
AcDbEntity
  8
___SYMBOL
100
AcDbLine
 62
2
  6
CONTINUOUS
 10
9.3997899221
 20
15.8523627757
 11
9.2018288245
 21
15.8477345802
  0
LINE
  5
380
100
AcDbEntity
  8
___SYMBOL
100
AcDbLine
 62
2
  6
CONTINUOUS
 10
9.2018288245
 20
15.8477345802
 11
9.1459127163
 21
15.8477345802
  0
LINE
  5
381
100
AcDbEntity
  8
___SYMBOL
100
AcDbLine
 62
2
  6
CONTINUOUS
 10
9.1459127163
 20
15.8477345802
 11
9.3997899221
 21
15.8523627757
  0
SOLID
  5
382
100
AcDbEntity
  8
___SYMBOL
100
AcDbTrace
 62
2
  6
CONTINUOUS
 10
9.3997899221
 20
15.8523627757
 11
9.2018288245
 21
15.8477345802
 12
9.1459127163
 22
15.8477345802
 13
9.1459127163
 23
15.8477345802
  0
LINE
  5
383
100
AcDbEntity
  8
___SYMBOL
100
AcDbLine
 62
2
  6
CONTINUOUS
 10
9.3997899221
 20
15.8523627757
 11
9.2255455642
 21
15.8422017746
  0
LINE
  5
384
100
AcDbEntity
  8
___SYMBOL
100
AcDbLine
 62
2
  6
CONTINUOUS
 10
9.2255455642
 20
15.8422017746
 11
9.2018288245
 21
15.8477345802
  0
LINE
  5
385
100
AcDbEntity
  8
___SYMBOL
100
AcDbLine
 62
2
  6
CONTINUOUS
 10
9.2018288245
 20
15.8477345802
 11
9.3997899221
 21
15.8523627757
  0
SOLID
  5
386
100
AcDbEntity
  8
___SYMBOL
100
AcDbTrace
 62
2
  6
CONTINUOUS
 10
9.3997899221
 20
15.8523627757
 11
9.2255455642
 21
15.8422017746
 12
9.2018288245
 22
15.8477345802
 13
9.2018288245
 23
15.8477345802
  0
LINE
  5
387
100
AcDbEntity
  8
___SYMBOL
100
AcDbLine
 62
2
  6
CONTINUOUS
 10
9.3997899221
 20
15.8523627757
 11
9.2443659159
 21
15.8267457068
  0
LINE
  5
388
100
AcDbEntity
  8
___SYMBOL
100
AcDbLine
 62
2
  6
CONTINUOUS
 10
9.2443659159
 20
15.8267457068
 11
9.2255455642
 21
15.8422017746
  0
LINE
  5
389
100
AcDbEntity
  8
___SYMBOL
100
AcDbLine
 62
2
  6
CONTINUOUS
 10
9.2255455642
 20
15.8422017746
 11
9.3997899221
 21
15.8523627757
  0
SOLID
  5
38A
100
AcDbEntity
  8
___SYMBOL
100
AcDbTrace
 62
2
  6
CONTINUOUS
 10
9.3997899221
 20
15.8523627757
 11
9.2443659159
 21
15.8267457068
 12
9.2255455642
 22
15.8422017746
 13
9.2255455642
 23
15.8422017746
  0
LINE
  5
38B
100
AcDbEntity
  8
___SYMBOL
100
AcDbLine
 62
2
  6
CONTINUOUS
 10
9.4034622639
 20
15.8051482768
 11
9.2443659159
 21
15.8267457068
  0
LINE
  5
38C
100
AcDbEntity
  8
___SYMBOL
100
AcDbLine
 62
2
  6
CONTINUOUS
 10
9.2443659159
 20
15.8267457068
 11
9.3997899221
 21
15.8523627757
  0
LINE
  5
38D
100
AcDbEntity
  8
___SYMBOL
100
AcDbLine
 62
2
  6
CONTINUOUS
 10
9.3997899221
 20
15.8523627757
 11
9.4034622639
 21
15.8051482768
  0
SOLID
  5
38E
100
AcDbEntity
  8
___SYMBOL
100
AcDbTrace
 62
2
  6
CONTINUOUS
 10
9.4034622639
 20
15.8051482768
 11
9.2443659159
 21
15.8267457068
 12
9.3997899221
 22
15.8523627757
 13
9.3997899221
 23
15.8523627757
  0
LINE
  5
38F
100
AcDbEntity
  8
___SYMBOL
100
AcDbLine
 62
2
  6
CONTINUOUS
 10
9.2443659159
 20
15.8267457068
 11
9.4034622639
 21
15.8051482768
  0
LINE
  5
390
100
AcDbEntity
  8
___SYMBOL
100
AcDbLine
 62
2
  6
CONTINUOUS
 10
9.4034622639
 20
15.8051482768
 11
9.2544043818
 21
15.8045573117
  0
LINE
  5
391
100
AcDbEntity
  8
___SYMBOL
100
AcDbLine
 62
2
  6
CONTINUOUS
 10
9.2544043818
 20
15.8045573117
 11
9.2443659159
 21
15.8267457068
  0
SOLID
  5
392
100
AcDbEntity
  8
___SYMBOL
100
AcDbTrace
 62
2
  6
CONTINUOUS
 10
9.2443659159
 20
15.8267457068
 11
9.4034622639
 21
15.8051482768
 12
9.2544043818
 22
15.8045573117
 13
9.2544043818
 23
15.8045573117
  0
LINE
  5
393
100
AcDbEntity
  8
___SYMBOL
100
AcDbLine
 62
2
  6
CONTINUOUS
 10
9.4034622639
 20
15.8051482768
 11
9.2535885011
 21
15.7802174264
  0
LINE
  5
394
100
AcDbEntity
  8
___SYMBOL
100
AcDbLine
 62
2
  6
CONTINUOUS
 10
9.2535885011
 20
15.7802174264
 11
9.2544043818
 21
15.8045573117
  0
LINE
  5
395
100
AcDbEntity
  8
___SYMBOL
100
AcDbLine
 62
2
  6
CONTINUOUS
 10
9.2544043818
 20
15.8045573117
 11
9.4034622639
 21
15.8051482768
  0
SOLID
  5
396
100
AcDbEntity
  8
___SYMBOL
100
AcDbTrace
 62
2
  6
CONTINUOUS
 10
9.4034622639
 20
15.8051482768
 11
9.2535885011
 21
15.7802174264
 12
9.2544043818
 22
15.8045573117
 13
9.2544043818
 23
15.8045573117
  0
LINE
  5
397
100
AcDbEntity
  8
___SYMBOL
100
AcDbLine
 62
2
  6
CONTINUOUS
 10
9.4034622639
 20
15.8051482768
 11
9.2420867139
 21
15.7587510674
  0
LINE
  5
398
100
AcDbEntity
  8
___SYMBOL
100
AcDbLine
 62
2
  6
CONTINUOUS
 10
9.2420867139
 20
15.7587510674
 11
9.2535885011
 21
15.7802174264
  0
LINE
  5
399
100
AcDbEntity
  8
___SYMBOL
100
AcDbLine
 62
2
  6
CONTINUOUS
 10
9.2535885011
 20
15.7802174264
 11
9.4034622639
 21
15.8051482768
  0
SOLID
  5
39A
100
AcDbEntity
  8
___SYMBOL
100
AcDbTrace
 62
2
  6
CONTINUOUS
 10
9.4034622639
 20
15.8051482768
 11
9.2420867139
 21
15.7587510674
 12
9.2535885011
 22
15.7802174264
 13
9.2535885011
 23
15.7802174264
  0
LINE
  5
39B
100
AcDbEntity
  8
___SYMBOL
100
AcDbLine
 62
2
  6
CONTINUOUS
 10
9.3943389076
 20
15.7586782932
 11
9.2420867139
 21
15.7587510674
  0
LINE
  5
39C
100
AcDbEntity
  8
___SYMBOL
100
AcDbLine
 62
2
  6
CONTINUOUS
 10
9.2420867139
 20
15.7587510674
 11
9.4034622639
 21
15.8051482768
  0
LINE
  5
39D
100
AcDbEntity
  8
___SYMBOL
100
AcDbLine
 62
2
  6
CONTINUOUS
 10
9.4034622639
 20
15.8051482768
 11
9.3943389076
 21
15.7586782932
  0
SOLID
  5
39E
100
AcDbEntity
  8
___SYMBOL
100
AcDbTrace
 62
2
  6
CONTINUOUS
 10
9.3943389076
 20
15.7586782932
 11
9.2420867139
 21
15.7587510674
 12
9.4034622639
 22
15.8051482768
 13
9.4034622639
 23
15.8051482768
  0
LINE
  5
39F
100
AcDbEntity
  8
___SYMBOL
100
AcDbLine
 62
2
  6
CONTINUOUS
 10
9.2420867139
 20
15.7587510674
 11
9.3943389076
 21
15.7586782932
  0
LINE
  5
3A0
100
AcDbEntity
  8
___SYMBOL
100
AcDbLine
 62
2
  6
CONTINUOUS
 10
9.3943389076
 20
15.7586782932
 11
9.2222735865
 21
15.7445900061
  0
LINE
  5
3A1
100
AcDbEntity
  8
___SYMBOL
100
AcDbLine
 62
2
  6
CONTINUOUS
 10
9.2222735865
 20
15.7445900061
 11
9.2420867139
 21
15.7587510674
  0
SOLID
  5
3A2
100
AcDbEntity
  8
___SYMBOL
100
AcDbTrace
 62
2
  6
CONTINUOUS
 10
9.2420867139
 20
15.7587510674
 11
9.3943389076
 21
15.7586782932
 12
9.2222735865
 22
15.7445900061
 13
9.2222735865
 23
15.7445900061
  0
LINE
  5
3A3
100
AcDbEntity
  8
___SYMBOL
100
AcDbLine
 62
2
  6
CONTINUOUS
 10
9.3943389076
 20
15.7586782932
 11
9.1982395773
 21
15.7406578209
  0
LINE
  5
3A4
100
AcDbEntity
  8
___SYMBOL
100
AcDbLine
 62
2
  6
CONTINUOUS
 10
9.1982395773
 20
15.7406578209
 11
9.2222735865
 21
15.7445900061
  0
LINE
  5
3A5
100
AcDbEntity
  8
___SYMBOL
100
AcDbLine
 62
2
  6
CONTINUOUS
 10
9.2222735865
 20
15.7445900061
 11
9.3943389076
 21
15.7586782932
  0
SOLID
  5
3A6
100
AcDbEntity
  8
___SYMBOL
100
AcDbTrace
 62
2
  6
CONTINUOUS
 10
9.3943389076
 20
15.7586782932
 11
9.1982395773
 21
15.7406578209
 12
9.2222735865
 22
15.7445900061
 13
9.2222735865
 23
15.7445900061
  0
LINE
  5
3A7
100
AcDbEntity
  8
___SYMBOL
100
AcDbLine
 62
2
  6
CONTINUOUS
 10
9.3730881664
 20
15.7163568921
 11
9.1982395773
 21
15.7406578209
  0
LINE
  5
3A8
100
AcDbEntity
  8
___SYMBOL
100
AcDbLine
 62
2
  6
CONTINUOUS
 10
9.1982395773
 20
15.7406578209
 11
9.3943389076
 21
15.7586782932
  0
LINE
  5
3A9
100
AcDbEntity
  8
___SYMBOL
100
AcDbLine
 62
2
  6
CONTINUOUS
 10
9.3943389076
 20
15.7586782932
 11
9.3730881664
 21
15.7163568921
  0
SOLID
  5
3AA
100
AcDbEntity
  8
___SYMBOL
100
AcDbTrace
 62
2
  6
CONTINUOUS
 10
9.3730881664
 20
15.7163568921
 11
9.1982395773
 21
15.7406578209
 12
9.3943389076
 22
15.7586782932
 13
9.3943389076
 23
15.7586782932
  0
LINE
  5
3AB
100
AcDbEntity
  8
___SYMBOL
100
AcDbLine
 62
2
  6
CONTINUOUS
 10
9.1459127163
 20
15.6014168083
 11
9.3412667216
 21
15.6812842439
  0
LINE
  5
3AC
100
AcDbEntity
  8
___SYMBOL
100
AcDbLine
 62
2
  6
CONTINUOUS
 10
9.3412667216
 20
15.6812842439
 11
9.3012055902
 21
15.6560295264
  0
LINE
  5
3AD
100
AcDbEntity
  8
___SYMBOL
100
AcDbLine
 62
2
  6
CONTINUOUS
 10
9.3012055902
 20
15.6560295264
 11
9.1459127163
 21
15.6014168083
  0
SOLID
  5
3AE
100
AcDbEntity
  8
___SYMBOL
100
AcDbTrace
 62
2
  6
CONTINUOUS
 10
9.1459127163
 20
15.6014168083
 11
9.3412667216
 21
15.6812842439
 12
9.3012055902
 22
15.6560295264
 13
9.3012055902
 23
15.6560295264
  0
LINE
  5
3AF
100
AcDbEntity
  8
___SYMBOL
100
AcDbLine
 62
2
  6
CONTINUOUS
 10
9.1459127163
 20
15.6014168083
 11
9.3730881664
 21
15.7163568921
  0
LINE
  5
3B0
100
AcDbEntity
  8
___SYMBOL
100
AcDbLine
 62
2
  6
CONTINUOUS
 10
9.3730881664
 20
15.7163568921
 11
9.3412667216
 21
15.6812842439
  0
LINE
  5
3B1
100
AcDbEntity
  8
___SYMBOL
100
AcDbLine
 62
2
  6
CONTINUOUS
 10
9.3412667216
 20
15.6812842439
 11
9.1459127163
 21
15.6014168083
  0
SOLID
  5
3B2
100
AcDbEntity
  8
___SYMBOL
100
AcDbTrace
 62
2
  6
CONTINUOUS
 10
9.1459127163
 20
15.6014168083
 11
9.3730881664
 21
15.7163568921
 12
9.3412667216
 22
15.6812842439
 13
9.3412667216
 23
15.6812842439
  0
LINE
  5
3B3
100
AcDbEntity
  8
___SYMBOL
100
AcDbLine
 62
2
  6
CONTINUOUS
 10
9.1459127163
 20
15.6014168083
 11
9.1982395773
 21
15.7406578209
  0
LINE
  5
3B4
100
AcDbEntity
  8
___SYMBOL
100
AcDbLine
 62
2
  6
CONTINUOUS
 10
9.1982395773
 20
15.7406578209
 11
9.3730881664
 21
15.7163568921
  0
LINE
  5
3B5
100
AcDbEntity
  8
___SYMBOL
100
AcDbLine
 62
2
  6
CONTINUOUS
 10
9.3730881664
 20
15.7163568921
 11
9.1459127163
 21
15.6014168083
  0
SOLID
  5
3B6
100
AcDbEntity
  8
___SYMBOL
100
AcDbTrace
 62
2
  6
CONTINUOUS
 10
9.1459127163
 20
15.6014168083
 11
9.1982395773
 21
15.7406578209
 12
9.3730881664
 22
15.7163568921
 13
9.3730881664
 23
15.7163568921
  0
LINE
  5
3B7
100
AcDbEntity
  8
___SYMBOL
100
AcDbLine
 62
2
  6
CONTINUOUS
 10
8.9952939944
 20
15.40450894
 11
9.1982395773
 21
15.7406578209
  0
LINE
  5
3B8
100
AcDbEntity
  8
___SYMBOL
100
AcDbLine
 62
2
  6
CONTINUOUS
 10
9.1982395773
 20
15.7406578209
 11
9.1459127163
 21
15.6014168083
  0
LINE
  5
3B9
100
AcDbEntity
  8
___SYMBOL
100
AcDbLine
 62
2
  6
CONTINUOUS
 10
9.1459127163
 20
15.6014168083
 11
8.9952939944
 21
15.40450894
  0
SOLID
  5
3BA
100
AcDbEntity
  8
___SYMBOL
100
AcDbTrace
 62
2
  6
CONTINUOUS
 10
8.9952939944
 20
15.40450894
 11
9.1982395773
 21
15.7406578209
 12
9.1459127163
 22
15.6014168083
 13
9.1459127163
 23
15.6014168083
  0
LINE
  5
3BB
100
AcDbEntity
  8
___SYMBOL
100
AcDbLine
 62
2
  6
CONTINUOUS
 10
8.9952939944
 20
15.40450894
 11
9.1459127163
 21
15.7406578209
  0
LINE
  5
3BC
100
AcDbEntity
  8
___SYMBOL
100
AcDbLine
 62
2
  6
CONTINUOUS
 10
9.1459127163
 20
15.7406578209
 11
9.1982395773
 21
15.7406578209
  0
LINE
  5
3BD
100
AcDbEntity
  8
___SYMBOL
100
AcDbLine
 62
2
  6
CONTINUOUS
 10
9.1982395773
 20
15.7406578209
 11
8.9952939944
 21
15.40450894
  0
SOLID
  5
3BE
100
AcDbEntity
  8
___SYMBOL
100
AcDbTrace
 62
2
  6
CONTINUOUS
 10
8.9952939944
 20
15.40450894
 11
9.1459127163
 21
15.7406578209
 12
9.1982395773
 22
15.7406578209
 13
9.1982395773
 23
15.7406578209
  0
LINE
  5
3BF
100
AcDbEntity
  8
___SYMBOL
100
AcDbLine
 62
2
  6
CONTINUOUS
 10
8.9952939944
 20
15.40450894
 11
9.1459127163
 21
15.8477345802
  0
LINE
  5
3C0
100
AcDbEntity
  8
___SYMBOL
100
AcDbLine
 62
2
  6
CONTINUOUS
 10
9.1459127163
 20
15.8477345802
 11
9.1459127163
 21
15.7406578209
  0
LINE
  5
3C1
100
AcDbEntity
  8
___SYMBOL
100
AcDbLine
 62
2
  6
CONTINUOUS
 10
9.1459127163
 20
15.7406578209
 11
8.9952939944
 21
15.40450894
  0
SOLID
  5
3C2
100
AcDbEntity
  8
___SYMBOL
100
AcDbTrace
 62
2
  6
CONTINUOUS
 10
8.9952939944
 20
15.40450894
 11
9.1459127163
 21
15.8477345802
 12
9.1459127163
 22
15.7406578209
 13
9.1459127163
 23
15.7406578209
  0
LINE
  5
3C3
100
AcDbEntity
  8
___SYMBOL
100
AcDbLine
 62
2
  6
CONTINUOUS
 10
9.1459127163
 20
15.8477345802
 11
9.3835908922
 21
15.896863185
  0
LINE
  5
3C4
100
AcDbEntity
  8
___SYMBOL
100
AcDbLine
 62
2
  6
CONTINUOUS
 10
9.3835908922
 20
15.896863185
 11
9.3997899221
 21
15.8523627757
  0
LINE
  5
3C5
100
AcDbEntity
  8
___SYMBOL
100
AcDbLine
 62
2
  6
CONTINUOUS
 10
9.3997899221
 20
15.8523627757
 11
9.1459127163
 21
15.8477345802
  0
SOLID
  5
3C6
100
AcDbEntity
  8
___SYMBOL
100
AcDbTrace
 62
2
  6
CONTINUOUS
 10
9.1459127163
 20
15.8477345802
 11
9.3835908922
 21
15.896863185
 12
9.3997899221
 22
15.8523627757
 13
9.3997899221
 23
15.8523627757
  0
LINE
  5
3C7
100
AcDbEntity
  8
___SYMBOL
100
AcDbLine
 62
2
  6
CONTINUOUS
 10
9.1459127163
 20
15.8477345802
 11
9.3560518021
 21
15.9353897151
  0
LINE
  5
3C8
100
AcDbEntity
  8
___SYMBOL
100
AcDbLine
 62
2
  6
CONTINUOUS
 10
9.3560518021
 20
15.9353897151
 11
9.3835908922
 21
15.896863185
  0
LINE
  5
3C9
100
AcDbEntity
  8
___SYMBOL
100
AcDbLine
 62
2
  6
CONTINUOUS
 10
9.3835908922
 20
15.896863185
 11
9.1459127163
 21
15.8477345802
  0
SOLID
  5
3CA
100
AcDbEntity
  8
___SYMBOL
100
AcDbTrace
 62
2
  6
CONTINUOUS
 10
9.1459127163
 20
15.8477345802
 11
9.3560518021
 21
15.9353897151
 12
9.3835908922
 22
15.896863185
 13
9.3835908922
 23
15.896863185
  0
LINE
  5
3CB
100
AcDbEntity
  8
___SYMBOL
100
AcDbLine
 62
2
  6
CONTINUOUS
 10
9.1459127163
 20
15.8477345802
 11
9.3191899737
 21
15.9651201809
  0
LINE
  5
3CC
100
AcDbEntity
  8
___SYMBOL
100
AcDbLine
 62
2
  6
CONTINUOUS
 10
9.3191899737
 20
15.9651201809
 11
9.3560518021
 21
15.9353897151
  0
LINE
  5
3CD
100
AcDbEntity
  8
___SYMBOL
100
AcDbLine
 62
2
  6
CONTINUOUS
 10
9.3560518021
 20
15.9353897151
 11
9.1459127163
 21
15.8477345802
  0
SOLID
  5
3CE
100
AcDbEntity
  8
___SYMBOL
100
AcDbTrace
 62
2
  6
CONTINUOUS
 10
9.1459127163
 20
15.8477345802
 11
9.3191899737
 21
15.9651201809
 12
9.3560518021
 22
15.9353897151
 13
9.3560518021
 23
15.9353897151
  0
LINE
  5
3CF
100
AcDbEntity
  8
___SYMBOL
100
AcDbLine
 62
2
  6
CONTINUOUS
 10
9.1459127163
 20
15.8477345802
 11
9.2757056473
 21
15.983876736
  0
LINE
  5
3D0
100
AcDbEntity
  8
___SYMBOL
100
AcDbLine
 62
2
  6
CONTINUOUS
 10
9.2757056473
 20
15.983876736
 11
9.3191899737
 21
15.9651201809
  0
LINE
  5
3D1
100
AcDbEntity
  8
___SYMBOL
100
AcDbLine
 62
2
  6
CONTINUOUS
 10
9.3191899737
 20
15.9651201809
 11
9.1459127163
 21
15.8477345802
  0
SOLID
  5
3D2
100
AcDbEntity
  8
___SYMBOL
100
AcDbTrace
 62
2
  6
CONTINUOUS
 10
9.1459127163
 20
15.8477345802
 11
9.2757056473
 21
15.983876736
 12
9.3191899737
 22
15.9651201809
 13
9.3191899737
 23
15.9651201809
  0
LINE
  5
3D3
100
AcDbEntity
  8
___SYMBOL
100
AcDbLine
 62
2
  6
CONTINUOUS
 10
9.1459127163
 20
15.8477345802
 11
8.9952939944
 21
15.9902783019
  0
LINE
  5
3D4
100
AcDbEntity
  8
___SYMBOL
100
AcDbLine
 62
2
  6
CONTINUOUS
 10
8.9952939944
 20
15.9902783019
 11
9.2757056473
 21
15.983876736
  0
LINE
  5
3D5
100
AcDbEntity
  8
___SYMBOL
100
AcDbLine
 62
2
  6
CONTINUOUS
 10
9.2757056473
 20
15.983876736
 11
9.1459127163
 21
15.8477345802
  0
SOLID
  5
3D6
100
AcDbEntity
  8
___SYMBOL
100
AcDbTrace
 62
2
  6
CONTINUOUS
 10
9.1459127163
 20
15.8477345802
 11
8.9952939944
 21
15.9902783019
 12
9.2757056473
 22
15.983876736
 13
9.2757056473
 23
15.983876736
  0
LINE
  5
3D7
100
AcDbEntity
  8
___SYMBOL
100
AcDbLine
 62
2
  6
CONTINUOUS
 10
8.9952939944
 20
15.9902783019
 11
9.1459127163
 21
15.8477345802
  0
LINE
  5
3D8
100
AcDbEntity
  8
___SYMBOL
100
AcDbLine
 62
2
  6
CONTINUOUS
 10
9.1459127163
 20
15.8477345802
 11
8.9952939944
 21
15.40450894
  0
LINE
  5
3D9
100
AcDbEntity
  8
___SYMBOL
100
AcDbLine
 62
2
  6
CONTINUOUS
 10
8.9952939944
 20
15.40450894
 11
8.9952939944
 21
15.9902783019
  0
SOLID
  5
3DA
100
AcDbEntity
  8
___SYMBOL
100
AcDbTrace
 62
2
  6
CONTINUOUS
 10
8.9952939944
 20
15.9902783019
 11
9.1459127163
 21
15.8477345802
 12
8.9952939944
 22
15.40450894
 13
8.9952939944
 23
15.40450894
  0
LINE
  5
3DB
100
AcDbEntity
  8
___SYMBOL
100
AcDbLine
 62
2
  6
CONTINUOUS
 10
9.1459127163
 20
15.40450894
 11
8.9952939944
 21
15.40450894
  0
LINE
  5
3DC
100
AcDbEntity
  8
___SYMBOL
100
AcDbLine
 62
2
  6
CONTINUOUS
 10
8.9952939944
 20
15.40450894
 11
9.1459127163
 21
15.6014168083
  0
LINE
  5
3DD
100
AcDbEntity
  8
___SYMBOL
100
AcDbLine
 62
2
  6
CONTINUOUS
 10
9.1459127163
 20
15.6014168083
 11
9.1459127163
 21
15.40450894
  0
SOLID
  5
3DE
100
AcDbEntity
  8
___SYMBOL
100
AcDbTrace
 62
2
  6
CONTINUOUS
 10
9.1459127163
 20
15.40450894
 11
8.9952939944
 21
15.40450894
 12
9.1459127163
 22
15.6014168083
 13
9.1459127163
 23
15.6014168083
  0
LINE
  5
3DF
100
AcDbEntity
  8
___SYMBOL
100
AcDbLine
 62
2
  6
CONTINUOUS
 10
9.3012055902
 20
15.6560295264
 11
9.2707054065
 21
15.40450894
  0
LINE
  5
3E0
100
AcDbEntity
  8
___SYMBOL
100
AcDbLine
 62
2
  6
CONTINUOUS
 10
9.2707054065
 20
15.40450894
 11
9.1459127163
 21
15.6014168083
  0
LINE
  5
3E1
100
AcDbEntity
  8
___SYMBOL
100
AcDbLine
 62
2
  6
CONTINUOUS
 10
9.1459127163
 20
15.6014168083
 11
9.3012055902
 21
15.6560295264
  0
SOLID
  5
3E2
100
AcDbEntity
  8
___SYMBOL
100
AcDbTrace
 62
2
  6
CONTINUOUS
 10
9.3012055902
 20
15.6560295264
 11
9.2707054065
 21
15.40450894
 12
9.1459127163
 22
15.6014168083
 13
9.1459127163
 23
15.6014168083
  0
LINE
  5
3E3
100
AcDbEntity
  8
___SYMBOL
100
AcDbLine
 62
2
  6
CONTINUOUS
 10
9.4606095685
 20
15.40450894
 11
9.2707054065
 21
15.40450894
  0
LINE
  5
3E4
100
AcDbEntity
  8
___SYMBOL
100
AcDbLine
 62
2
  6
CONTINUOUS
 10
9.2707054065
 20
15.40450894
 11
9.3012055902
 21
15.6560295264
  0
LINE
  5
3E5
100
AcDbEntity
  8
___SYMBOL
100
AcDbLine
 62
2
  6
CONTINUOUS
 10
9.3012055902
 20
15.6560295264
 11
9.4606095685
 21
15.40450894
  0
SOLID
  5
3E6
100
AcDbEntity
  8
___SYMBOL
100
AcDbTrace
 62
2
  6
CONTINUOUS
 10
9.4606095685
 20
15.40450894
 11
9.2707054065
 21
15.40450894
 12
9.3012055902
 22
15.6560295264
 13
9.3012055902
 23
15.6560295264
  0
LINE
  5
3E7
100
AcDbEntity
  8
___SYMBOL
100
AcDbLine
 62
2
  6
CONTINUOUS
 10
6.9157839087
 20
15.6059591526
 11
6.8499603768
 21
15.4255609638
  0
LINE
  5
3E8
100
AcDbEntity
  8
___SYMBOL
100
AcDbLine
 62
2
  6
CONTINUOUS
 10
7.0535141495
 20
15.9902783019
 11
6.9157839087
 21
15.8264974549
  0
LINE
  5
3E9
100
AcDbEntity
  8
___SYMBOL
100
AcDbLine
 62
2
  6
CONTINUOUS
 10
7.2455286644
 20
15.9902783019
 11
7.0322777407
 21
15.7366924926
  0
LINE
  5
3EA
100
AcDbEntity
  8
___SYMBOL
100
AcDbLine
 62
2
  6
CONTINUOUS
 10
6.7413266542
 20
15.9902783019
 11
6.7595280542
 21
15.6276178049
  0
LINE
  5
3EB
100
AcDbEntity
  8
___SYMBOL
100
AcDbLine
 62
2
  6
CONTINUOUS
 10
6.9157839087
 20
15.9902783019
 11
6.9157839087
 21
15.8264974549
  0
LINE
  5
3EC
100
AcDbEntity
  8
___SYMBOL
100
AcDbLine
 62
2
  6
CONTINUOUS
 10
7.7772827399
 20
15.9902783019
 11
7.7772827399
 21
15.40450894
  0
LINE
  5
3ED
100
AcDbEntity
  8
___SYMBOL
100
AcDbLine
 62
2
  6
CONTINUOUS
 10
7.9419758524
 20
15.9902783019
 11
7.9419758524
 21
15.7699488142
  0
LINE
  5
3EE
100
AcDbEntity
  8
___SYMBOL
100
AcDbLine
 62
2
  6
CONTINUOUS
 10
7.9419758524
 20
15.6327773225
 11
7.9419758524
 21
15.40450894
  0
LINE
  5
3EF
100
AcDbEntity
  8
___SYMBOL
100
AcDbLine
 62
2
  6
CONTINUOUS
 10
8.0899362177
 20
15.9902783019
 11
8.0899362177
 21
15.7699488142
  0
LINE
  5
3F0
100
AcDbEntity
  8
___SYMBOL
100
AcDbLine
 62
2
  6
CONTINUOUS
 10
8.0899362177
 20
15.6327773225
 11
8.0899362177
 21
15.40450894
  0
LINE
  5
3F1
100
AcDbEntity
  8
___SYMBOL
100
AcDbLine
 62
2
  6
CONTINUOUS
 10
8.2546293301
 20
15.9902783019
 11
8.2546293301
 21
15.40450894
  0
LINE
  5
3F2
100
AcDbEntity
  8
___SYMBOL
100
AcDbLine
 62
2
  6
CONTINUOUS
 10
8.2996630815
 20
15.40450894
 11
8.2996630815
 21
15.9902783019
  0
LINE
  5
3F3
100
AcDbEntity
  8
___SYMBOL
100
AcDbLine
 62
2
  6
CONTINUOUS
 10
6.8933097335
 20
15.4515705779
 11
6.7413266542
 21
15.4044849424
  0
LINE
  5
3F4
100
AcDbEntity
  8
___SYMBOL
100
AcDbLine
 62
2
  6
CONTINUOUS
 10
8.4496721939
 20
15.9902783019
 11
8.4496721939
 21
15.5457009186
  0
LINE
  5
3F5
100
AcDbEntity
  8
___SYMBOL
100
AcDbLine
 62
2
  6
CONTINUOUS
 10
8.6123162012
 20
15.5457009186
 11
8.6123162012
 21
15.40450894
  0
LINE
  5
3F6
100
AcDbEntity
  8
___SYMBOL
100
AcDbLine
 62
2
  6
CONTINUOUS
 10
8.6414567619
 20
15.40450894
 11
8.6414567619
 21
15.9902783019
  0
LINE
  5
3F7
100
AcDbEntity
  8
___SYMBOL
100
AcDbLine
 62
2
  6
CONTINUOUS
 10
8.799664444
 20
15.8475540612
 11
8.799664444
 21
15.7699488142
  0
LINE
  5
3F8
100
AcDbEntity
  8
___SYMBOL
100
AcDbLine
 62
2
  6
CONTINUOUS
 10
8.799664444
 20
15.625602768
 11
8.799664444
 21
15.5457009186
  0
LINE
  5
3F9
100
AcDbEntity
  8
___SYMBOL
100
AcDbLine
 62
2
  6
CONTINUOUS
 10
8.9504848172
 20
15.40450894
 11
8.9504848172
 21
15.5457009186
  0
LINE
  5
3FA
100
AcDbEntity
  8
___SYMBOL
100
AcDbLine
 62
2
  6
CONTINUOUS
 10
8.9504848172
 20
15.625602768
 11
8.9504848172
 21
15.7699488142
  0
LINE
  5
3FB
100
AcDbEntity
  8
___SYMBOL
100
AcDbLine
 62
2
  6
CONTINUOUS
 10
8.9504848172
 20
15.8475540612
 11
8.9504848172
 21
15.9902783019
  0
LINE
  5
3FC
100
AcDbEntity
  8
___SYMBOL
100
AcDbLine
 62
2
  6
CONTINUOUS
 10
8.9952939944
 20
15.40450894
 11
8.9952939944
 21
15.9902783019
  0
LINE
  5
3FD
100
AcDbEntity
  8
___SYMBOL
100
AcDbLine
 62
2
  6
CONTINUOUS
 10
9.1459127163
 20
15.8477345802
 11
9.1459127163
 21
15.7406578209
  0
LINE
  5
3FE
100
AcDbEntity
  8
___SYMBOL
100
AcDbLine
 62
2
  6
CONTINUOUS
 10
9.1459127163
 20
15.6014168083
 11
9.1459127163
 21
15.40450894
  0
LINE
  5
3FF
100
AcDbEntity
  8
___SYMBOL
100
AcDbLine
 62
2
  6
CONTINUOUS
 10
9.5854627898
 20
15.3716763366
 11
9.5854627898
 21
15.4376262906
  0
LINE
  5
400
100
AcDbEntity
  8
___SYMBOL
100
AcDbLine
 62
2
  6
CONTINUOUS
 10
7.0694839891
 20
15.40450894
 11
6.9157839087
 21
15.6059591526
  0
LINE
  5
401
100
AcDbEntity
  8
___SYMBOL
100
AcDbLine
 62
2
  6
CONTINUOUS
 10
7.2857231464
 20
15.40450894
 11
7.0322777407
 21
15.7366924926
  0
LINE
  5
402
100
AcDbEntity
  8
___SYMBOL
100
AcDbLine
 62
2
  6
CONTINUOUS
 10
9.2707054065
 20
15.40450894
 11
9.1459127163
 21
15.6014168083
  0
LINE
  5
403
100
AcDbEntity
  8
___SYMBOL
100
AcDbLine
 62
2
  6
CONTINUOUS
 10
9.4606095685
 20
15.40450894
 11
9.3012055902
 21
15.6560295264
  0
LINE
  5
404
100
AcDbEntity
  8
___SYMBOL
100
AcDbLine
 62
2
  6
CONTINUOUS
 10
9.5970579098
 20
15.403971323
 11
9.6289180748
 21
15.3716763366
  0
LINE
  5
405
100
AcDbEntity
  8
___SYMBOL
100
AcDbLine
 62
2
  6
CONTINUOUS
 10
7.8634809871
 20
15.6879580908
 11
8.0899362177
 21
15.6327773225
  0
LINE
  5
406
100
AcDbEntity
  8
___SYMBOL
100
AcDbLine
 62
2
  6
CONTINUOUS
 10
9.6097361437
 20
15.403971323
 11
9.5854627898
 21
15.403971323
  0
LINE
  5
407
100
AcDbEntity
  8
___SYMBOL
100
AcDbLine
 62
2
  6
CONTINUOUS
 10
8.2546293301
 20
15.40450894
 11
8.0899362177
 21
15.40450894
  0
LINE
  5
408
100
AcDbEntity
  8
___SYMBOL
100
AcDbLine
 62
2
  6
CONTINUOUS
 10
7.9419758524
 20
15.40450894
 11
7.7772827399
 21
15.40450894
  0
LINE
  5
409
100
AcDbEntity
  8
___SYMBOL
100
AcDbLine
 62
2
  6
CONTINUOUS
 10
7.0694839891
 20
15.40450894
 11
7.2857231464
 21
15.40450894
  0
LINE
  5
40A
100
AcDbEntity
  8
___SYMBOL
100
AcDbLine
 62
2
  6
CONTINUOUS
 10
8.2996630815
 20
15.40450894
 11
8.6123162012
 21
15.40450894
  0
LINE
  5
40B
100
AcDbEntity
  8
___SYMBOL
100
AcDbLine
 62
2
  6
CONTINUOUS
 10
8.6414567619
 20
15.40450894
 11
8.9504848172
 21
15.40450894
  0
LINE
  5
40C
100
AcDbEntity
  8
___SYMBOL
100
AcDbLine
 62
2
  6
CONTINUOUS
 10
8.9952939944
 20
15.40450894
 11
9.1459127163
 21
15.40450894
  0
LINE
  5
40D
100
AcDbEntity
  8
___SYMBOL
100
AcDbLine
 62
2
  6
CONTINUOUS
 10
9.2707054065
 20
15.40450894
 11
9.4606095685
 21
15.40450894
  0
LINE
  5
40E
100
AcDbEntity
  8
___SYMBOL
100
AcDbLine
 62
2
  6
CONTINUOUS
 10
9.5854627898
 20
15.4376262906
 11
9.6097361437
 21
15.4376262906
  0
LINE
  5
40F
100
AcDbEntity
  8
___SYMBOL
100
AcDbLine
 62
2
  6
CONTINUOUS
 10
8.4496721939
 20
15.5457009186
 11
8.6123162012
 21
15.5457009186
  0
LINE
  5
410
100
AcDbEntity
  8
___SYMBOL
100
AcDbLine
 62
2
  6
CONTINUOUS
 10
8.799664444
 20
15.5457009186
 11
8.9504848172
 21
15.5457009186
  0
LINE
  5
411
100
AcDbEntity
  8
___SYMBOL
100
AcDbLine
 62
2
  6
CONTINUOUS
 10
8.799664444
 20
15.625602768
 11
8.9504848172
 21
15.625602768
  0
LINE
  5
412
100
AcDbEntity
  8
___SYMBOL
100
AcDbLine
 62
2
  6
CONTINUOUS
 10
9.1459127163
 20
15.7406578209
 11
9.1982395773
 21
15.7406578209
  0
LINE
  5
413
100
AcDbEntity
  8
___SYMBOL
100
AcDbLine
 62
2
  6
CONTINUOUS
 10
7.9419758524
 20
15.7699488142
 11
8.0899362177
 21
15.7699488142
  0
LINE
  5
414
100
AcDbEntity
  8
___SYMBOL
100
AcDbLine
 62
2
  6
CONTINUOUS
 10
8.799664444
 20
15.7699488142
 11
8.9504848172
 21
15.7699488142
  0
LINE
  5
415
100
AcDbEntity
  8
___SYMBOL
100
AcDbLine
 62
2
  6
CONTINUOUS
 10
8.799664444
 20
15.8475540612
 11
8.9504848172
 21
15.8475540612
  0
LINE
  5
416
100
AcDbEntity
  8
___SYMBOL
100
AcDbLine
 62
2
  6
CONTINUOUS
 10
9.2018288245
 20
15.8477345802
 11
9.1459127163
 21
15.8477345802
  0
LINE
  5
417
100
AcDbEntity
  8
___SYMBOL
100
AcDbLine
 62
2
  6
CONTINUOUS
 10
6.7413266542
 20
15.9902783019
 11
6.9157839087
 21
15.9902783019
  0
LINE
  5
418
100
AcDbEntity
  8
___SYMBOL
100
AcDbLine
 62
2
  6
CONTINUOUS
 10
7.0535141495
 20
15.9902783019
 11
7.2455286644
 21
15.9902783019
  0
LINE
  5
419
100
AcDbEntity
  8
___SYMBOL
100
AcDbLine
 62
2
  6
CONTINUOUS
 10
7.7772827399
 20
15.9902783019
 11
7.9419758524
 21
15.9902783019
  0
LINE
  5
41A
100
AcDbEntity
  8
___SYMBOL
100
AcDbLine
 62
2
  6
CONTINUOUS
 10
8.0899362177
 20
15.9902783019
 11
8.2546293301
 21
15.9902783019
  0
LINE
  5
41B
100
AcDbEntity
  8
___SYMBOL
100
AcDbLine
 62
2
  6
CONTINUOUS
 10
8.2996630815
 20
15.9902783019
 11
8.4496721939
 21
15.9902783019
  0
LINE
  5
41C
100
AcDbEntity
  8
___SYMBOL
100
AcDbLine
 62
2
  6
CONTINUOUS
 10
8.6414567619
 20
15.9902783019
 11
8.9504848172
 21
15.9902783019
  0
LINE
  5
41D
100
AcDbEntity
  8
___SYMBOL
100
AcDbLine
 62
2
  6
CONTINUOUS
 10
8.9952939944
 20
15.9902783019
 11
9.2287841814
 21
15.9902783019
  0
CIRCLE
  5
41E
100
AcDbEntity
  8
___SYMBOL
100
AcDbCircle
 62
2
  6
CONTINUOUS
 10
7.4621885159
 20
15.6962726453
 40
0.2979831914
  0
ARC
  5
41F
100
AcDbEntity
  8
___SYMBOL
100
AcDbCircle
 62
2
  6
CONTINUOUS
 10
9.2287841814
 20
15.8153118892
 40
0.1749735166
100
AcDbArc
 50
294.4500166359
 51
90.0
  0
CIRCLE
  5
420
100
AcDbEntity
  8
___SYMBOL
100
AcDbCircle
 62
2
  6
CONTINUOUS
 10
7.4621885159
 20
15.6962726453
 40
0.1373499095
  0
CIRCLE
  5
421
100
AcDbEntity
  8
___SYMBOL
100
AcDbCircle
 62
2
  6
CONTINUOUS
 10
9.6013448772
 20
15.40450894
 40
0.065341777
  0
ARC
  5
422
100
AcDbEntity
  8
___SYMBOL
100
AcDbCircle
 62
2
  6
CONTINUOUS
 10
9.2018287225
 20
15.7941360476
 40
0.0535985325
100
AcDbArc
 50
266.1604009902
 51
89.9998910512
  0
ARC
  5
423
100
AcDbEntity
  8
___SYMBOL
100
AcDbCircle
 62
2
  6
CONTINUOUS
 10
9.6097361437
 20
15.4207989859
 40
0.0168273047
100
AcDbArc
 50
270.0
 51
90.0
  0
ENDBLK
  5
424
100
AcDbEntity
  8
0
  6
BYBLOCK
 62
0
100
AcDbBlockEnd
  0
BLOCK
  5
425
100
AcDbEntity
  8
___SYMBOL
100
AcDbBlockBegin
 62
2
  6
CONTINUOUS
  2
SCISSORS_BL0
 70
64
 10
21.2696463423
 20
8.8995376137
  3
SCISSORS_BL0
  1

  0
LINE
  5
426
100
AcDbEntity
  8
___SYMBOL
100
AcDbLine
 62
7
  6
CONTINUOUS
 10
21.230468249
 20
8.9557029644
 11
21.3442885978
 21
9.4277662897
  0
LINE
  5
427
100
AcDbEntity
  8
___SYMBOL
100
AcDbLine
 62
7
  6
CONTINUOUS
 10
21.1820589809
 20
8.950295141
 11
21.3442885978
 21
9.4277662897
  0
LINE
  5
428
100
AcDbEntity
  8
___SYMBOL
100
AcDbLine
 62
7
  6
CONTINUOUS
 10
21.2169464325
 20
8.8712531087
 11
21.2341997795
 21
8.9114416211
  0
LINE
  5
429
100
AcDbEntity
  8
___SYMBOL
100
AcDbLine
 62
7
  6
CONTINUOUS
 10
21.2472063984
 20
8.9060214974
 11
21.2298343305
 21
8.8655564466
  0
LINE
  5
42A
100
AcDbEntity
  8
___SYMBOL
100
AcDbLine
 62
7
  6
CONTINUOUS
 10
21.3070326665
 20
9.0463569638
 11
21.6024832659
 21
9.2981341453
  0
LINE
  5
42B
100
AcDbEntity
  8
___SYMBOL
100
AcDbLine
 62
7
  6
CONTINUOUS
 10
21.124304933
 20
8.8865980413
 11
21.171958497
 21
8.9226259443
  0
LINE
  5
42C
100
AcDbEntity
  8
___SYMBOL
100
AcDbLine
 62
7
  6
CONTINUOUS
 10
21.290156409
 20
8.8735854951
 11
21.5242058662
 21
9.1302677198
  0
LINE
  5
42D
100
AcDbEntity
  8
___SYMBOL
100
AcDbLine
 62
7
  6
CONTINUOUS
 10
21.2975376845
 20
8.9491516451
 11
21.230468249
 21
8.9557029644
  0
LINE
  5
42E
100
AcDbEntity
  8
___SYMBOL
100
AcDbLine
 62
7
  6
CONTINUOUS
 10
21.2839706177
 20
8.810258169
 11
21.1891090328
 21
8.7233505194
  0
LINE
  5
42F
100
AcDbEntity
  8
___SYMBOL
100
AcDbLine
 62
7
  6
CONTINUOUS
 10
21.116938138
 20
8.761283571
 11
21.1679164757
 21
8.7809520057
  0
LINE
  5
430
100
AcDbEntity
  8
___SYMBOL
100
AcDbLine
 62
7
  6
CONTINUOUS
 10
21.3442885978
 20
9.4277662897
 11
21.2839706177
 21
8.810258169
  0
LINE
  5
431
100
AcDbEntity
  8
___SYMBOL
100
AcDbLine
 62
7
  6
CONTINUOUS
 10
21.116938138
 20
8.761283571
 11
21.124304933
 21
8.8865980413
  0
ARC
  5
432
100
AcDbEntity
  8
___SYMBOL
100
AcDbCircle
 62
7
  6
CONTINUOUS
 10
21.2948461736
 20
9.3394037892
 40
0.3103929189
100
AcDbArc
 50
317.6406360869
 51
352.3593639131
  0
ARC
  5
433
100
AcDbEntity
  8
___SYMBOL
100
AcDbCircle
 62
7
  6
CONTINUOUS
 10
21.4292221364
 20
8.8443914671
 40
0.2688962877
100
AcDbArc
 50
156.8059909349
 51
206.752660067
  0
CIRCLE
  5
434
100
AcDbEntity
  8
___SYMBOL
100
AcDbCircle
 62
7
  6
CONTINUOUS
 10
21.2322620685
 20
8.8884757236
 40
0.0230474981
  0
ARC
  5
435
100
AcDbEntity
  8
___SYMBOL
100
AcDbCircle
 62
7
  6
CONTINUOUS
 10
21.2212327997
 20
8.5404797336
 40
0.0125581039
100
AcDbArc
 50
160.3133793157
 51
289.0675041521
  0
ARC
  5
436
100
AcDbEntity
  8
___SYMBOL
100
AcDbCircle
 62
7
  6
CONTINUOUS
 10
20.9577715707
 20
8.6562005477
 40
0.0125580003
100
AcDbArc
 50
208.3109272841
 51
334.4467240969
  0
SPLINE
  5
437
100
AcDbEntity
  8
___SYMBOL
100
AcDbSpline
 62
7
  6
CONTINUOUS
 70
0
 71
3
 72
12
 73
8
 74
0
 42
0.0000001
 43
0.0000001
 44
0.0000000001
 40
0.0
 40
0.0
 40
0.0
 40
0.0
 40
0.4884256058
 40
0.6683914397
 40
0.8669439281
 40
0.9099489479
 40
1.0
 40
1.0
 40
1.0
 40
1.0
 10
21.1065472842
 20
8.3713089378
 30
0.0
 10
21.1131700777
 20
8.4327589657
 30
0.0
 10
21.1459996419
 20
8.5132708502
 30
0.0
 10
21.1933315569
 20
8.6115376224
 30
0.0
 10
21.2123476395
 20
8.6622519773
 30
0.0
 10
21.2145713909
 20
8.7047431272
 30
0.0
 10
21.2000985594
 20
8.720337243
 30
0.0
 10
21.1891090328
 20
8.7233505194
 30
0.0
  0
SPLINE
  5
438
100
AcDbEntity
  8
___SYMBOL
100
AcDbSpline
 62
7
  6
CONTINUOUS
 70
0
 71
3
 72
14
 73
10
 74
0
 42
0.0000001
 43
0.0000001
 44
0.0000000001
 40
0.0
 40
0.0
 40
0.0
 40
0.0
 40
0.0469735811
 40
0.2606095073
 40
0.5805460666
 40
0.7382389988
 40
0.8401572415
 40
0.925087268
 40
1.0
 40
1.0
 40
1.0
 40
1.0
 10
21.2094087266
 20
8.54471025
 30
0.0
 10
21.2108922656
 20
8.5488566645
 30
0.0
 10
21.2196870106
 20
8.5717006981
 30
0.0
 10
21.244498656
 20
8.6194499779
 30
0.0
 10
21.2779260184
 20
8.67925175
 30
0.0
 10
21.2712369983
 20
8.7339679084
 30
0.0
 10
21.2664978373
 20
8.7665872398
 30
0.0
 10
21.2757872909
 20
8.789932727
 30
0.0
 10
21.2819959919
 20
8.8035183305
 30
0.0
 10
21.2839706177
 20
8.810258169
 30
0.0
  0
SPLINE
  5
439
100
AcDbEntity
  8
___SYMBOL
100
AcDbSpline
 62
7
  6
CONTINUOUS
 70
0
 71
3
 72
12
 73
8
 74
0
 42
0.0000001
 43
0.0000001
 44
0.0000000001
 40
0.0
 40
0.0
 40
0.0
 40
0.0
 40
0.2870411994
 40
0.5613888029
 40
0.7613462239
 40
0.9013972407
 40
1.0
 40
1.0
 40
1.0
 40
1.0
 10
20.9340535921
 20
8.4884093987
 30
0.0
 10
20.9545504685
 20
8.5136488902
 30
0.0
 10
20.984654849
 20
8.5704578606
 30
0.0
 10
21.0163174994
 20
8.651165769
 30
0.0
 10
21.0510509122
 20
8.7102263739
 30
0.0
 10
21.0763441336
 20
8.7561770517
 30
0.0
 10
21.1059041976
 20
8.7630151934
 30
0.0
 10
21.116938138
 20
8.761283571
 30
0.0
  0
SPLINE
  5
43A
100
AcDbEntity
  8
___SYMBOL
100
AcDbSpline
 62
7
  6
CONTINUOUS
 70
0
 71
3
 72
13
 73
9
 74
0
 42
0.0000001
 43
0.0000001
 44
0.0000000001
 40
0.0
 40
0.0
 40
0.0
 40
0.0
 40
0.0902051637
 40
0.4170421866
 40
0.6587388922
 40
0.9356437381
 40
0.9595034934
 40
1.0
 40
1.0
 40
1.0
 40
1.0
 10
20.969101205
 20
8.6507836521
 30
0.0
 10
20.9728008169
 20
8.658521525
 30
0.0
 10
20.9893123587
 20
8.6945099448
 30
0.0
 10
21.0144542137
 20
8.7527432833
 30
0.0
 10
21.0592747101
 20
8.8175613819
 30
0.0
 10
21.115197896
 20
8.846842854
 30
0.0
 10
21.1161110068
 20
8.8795805858
 30
0.0
 10
21.120655378
 20
8.8853705346
 30
0.0
 10
21.124304933
 20
8.8865980413
 30
0.0
  0
ELLIPSE
  5
43B
100
AcDbEntity
  8
___SYMBOL
100
AcDbEllipse
 62
7
  6
CONTINUOUS
 10
21.2259127675
 20
8.3839548621
 30
0.0
 11
-0.0402346841
 21
-0.0986234265
 31
0.0
 40
0.774293327
 41
0.0
 42
6.2831853072
  0
ELLIPSE
  5
43C
100
AcDbEntity
  8
___SYMBOL
100
AcDbEllipse
 62
7
  6
CONTINUOUS
 10
21.2259127675
 20
8.3839548621
 30
0.0
 11
-0.0693641181
 21
-0.1425818973
 31
0.0
 40
0.700902774
 41
5.1250505418
 42
10.0362700851
  0
ELLIPSE
  5
43D
100
AcDbEntity
  8
___SYMBOL
100
AcDbEllipse
 62
7
  6
CONTINUOUS
 10
20.8476629289
 20
8.5725268597
 30
0.0
 11
-0.0328144222
 21
-0.1012204252
 31
0.0
 40
0.7501188416
 41
0.0
 42
6.2831853072
  0
ELLIPSE
  5
43E
100
AcDbEntity
  8
___SYMBOL
100
AcDbEllipse
 62
7
  6
CONTINUOUS
 10
20.8419969233
 20
8.5557486212
 30
0.0
 11
-0.061316421
 21
-0.1361209396
 31
0.0
 40
0.7569683881
 41
2.6163261196
 42
7.6953125801
  0
LINE
  5
43F
100
AcDbEntity
  8
___SYMBOL
100
AcDbLine
 62
7
  6
CONTINUOUS
 10
21.225573106
 20
8.8913473649
 11
21.2320467352
 21
8.8885681684
  0
ENDBLK
  5
440
100
AcDbEntity
  8
0
  6
BYBLOCK
 62
0
100
AcDbBlockEnd
  0
BLOCK
  5
441
100
AcDbEntity
  8
0
100
AcDbBlockBegin
  2
_FILLED
 70
64
 10
0.0
 20
0.0
  3
_FILLED
  1

  0
SOLID
  5
442
100
AcDbEntity
  8
0
  6
BYBLOCK
 62
0
100
AcDbTrace
 10
0.0
 20
0.0
 11
-1.0
 21
0.1666666667
 12
-1.0
 22
-0.1666666667
 13
-1.0
 23
-0.1666666667
  0
ENDBLK
  5
443
100
AcDbEntity
  8
0
  6
BYBLOCK
 62
0
100
AcDbBlockEnd
  0
BLOCK
  5
444
100
AcDbEntity
  8
0
100
AcDbBlockBegin
 62
2
  6
CONTINUOUS
  2
*D0
 70
65
 10
0.0
 20
0.0
  3
*D0
  1

  0
MTEXT
  5
445
100
AcDbEntity
  8
0
100
AcDbMText
 62
2
  6
CONTINUOUS
  7
STANDARD
 71
2
 72
1
 10
13.8995008855
 20
14.5173329694
 30
0.0
 11
1.0
 21
0.0
 31
0.0
 73
2
 44
0.9
  1
15-15/32\P[393]
 40
0.15625
 41
1.0
  0
LINE
  5
446
100
AcDbEntity
  8
0
100
AcDbLine
 62
2
  6
CONTINUOUS
 10
13.7641905284
 20
3.2960257815
 11
14.0245008855
 21
3.2960257815
  0
LINE
  5
447
100
AcDbEntity
  8
0
100
AcDbLine
 62
2
  6
CONTINUOUS
 10
13.5920545503
 20
18.7797006907
 11
14.0245008855
 21
18.7797006907
  0
LINE
  5
448
100
AcDbEntity
  8
0
100
AcDbLine
 62
2
  6
CONTINUOUS
 10
13.8995008855
 20
3.2960257815
 11
13.8995008855
 21
14.0485821533
  0
LINE
  5
449
100
AcDbEntity
  8
0
100
AcDbLine
 62
2
  6
CONTINUOUS
 10
13.8995008855
 20
18.7797006907
 11
13.8995008855
 21
14.5954579694
  0
INSERT
  5
44A
100
AcDbEntity
  8
0
100
AcDbBlockReference
 62
2
  6
CONTINUOUS
  2
_FILLED
 10
13.8995008855
 20
3.2960257815
 41
0.1875
 42
0.1875
 43
0.1875
 50
270.0
  0
INSERT
  5
44B
100
AcDbEntity
  8
0
100
AcDbBlockReference
 62
2
  6
CONTINUOUS
  2
_FILLED
 10
13.8995008855
 20
18.7797006907
 41
0.1875
 42
0.1875
 43
0.1875
 50
90.0
  0
ENDBLK
  5
44C
100
AcDbEntity
  8
0
  6
BYBLOCK
 62
0
100
AcDbBlockEnd
  0
BLOCK
  5
44D
100
AcDbEntity
  8
0
100
AcDbBlockBegin
 62
2
  6
CONTINUOUS
  2
*D1
 70
65
 10
0.0
 20
0.0
  3
*D1
  1

  0
MTEXT
  5
44E
100
AcDbEntity
  8
0
100
AcDbMText
 62
2
  6
CONTINUOUS
  7
STANDARD
 71
2
 72
1
 10
10.0703521081
 20
12.4928211806
 30
0.0
 11
1.0
 21
0.0
 31
0.0
 73
2
 44
0.9
  1
18\P[457,5]
 40
0.15625
 41
0.875
  0
LINE
  5
44F
100
AcDbEntity
  8
0
100
AcDbLine
 62
2
  6
CONTINUOUS
 10
3.7601046996
 20
12.0947102848
 11
3.7601046996
 21
12.5396961806
  0
LINE
  5
450
100
AcDbEntity
  8
0
100
AcDbLine
 62
2
  6
CONTINUOUS
 10
21.7723216508
 20
12.0730915942
 11
21.7723216508
 21
12.5396961806
  0
LINE
  5
451
100
AcDbEntity
  8
0
100
AcDbLine
 62
2
  6
CONTINUOUS
 10
3.7601046996
 20
12.4146961806
 11
9.8672271081
 21
12.4146961806
  0
LINE
  5
452
100
AcDbEntity
  8
0
100
AcDbLine
 62
2
  6
CONTINUOUS
 10
21.7723216508
 20
12.4146961806
 11
10.8984771081
 21
12.4146961806
  0
INSERT
  5
453
100
AcDbEntity
  8
0
100
AcDbBlockReference
 62
2
  6
CONTINUOUS
  2
_FILLED
 10
3.7601046996
 20
12.4146961806
 41
0.1875
 42
0.1875
 43
0.1875
 50
180.0
  0
INSERT
  5
454
100
AcDbEntity
  8
0
100
AcDbBlockReference
 62
2
  6
CONTINUOUS
  2
_FILLED
 10
21.7723216508
 20
12.4146961806
 41
0.1875
 42
0.1875
 43
0.1875
  0
ENDBLK
  5
455
100
AcDbEntity
  8
0
  6
BYBLOCK
 62
0
100
AcDbBlockEnd
  0
ENDSEC
  0
SECTION
  2
ENTITIES
  0
DIMENSION
  5
456
100
AcDbEntity
  8
0
100
AcDbDimension
 62
2
  6
CONTINUOUS
  2
*D0
 10
13.8995008855
 20
18.7797006907
 11
13.8995008855
 21
14.3220204694
 70
160
 71
2
 72
2
 41
0.9
 42
15.4836749093
  1
<>\P[]
  3
DIMSTYLE_1
100
AcDbAlignedDimension
 13
13.7016905284
 23
3.2960257815
 14
13.5295545503
 24
18.7797006907
 50
90.0
100
AcDbRotatedDimension
  0
DIMENSION
  5
457
100
AcDbEntity
  8
0
100
AcDbDimension
 62
2
  6
CONTINUOUS
  2
*D1
 10
21.7723216508
 20
12.4146961806
 11
10.3828521081
 21
12.2975086806
 70
160
 71
2
 72
2
 41
0.9
 42
18.0122169512
  1
<>\P[]
  3
DIMSTYLE_2
100
AcDbAlignedDimension
 13
3.7601046996
 23
12.0322102848
 14
21.7723216508
 24
12.0105915942
100
AcDbRotatedDimension
  0
MTEXT
  5
458
100
AcDbEntity
  8
___NOTE
100
AcDbMText
 62
2
  6
CONTINUOUS
  7
STANDARD
 71
1
 72
1
 10
4.6984466024
 20
8.8123842287
 30
0.0
 11
1.0
 21
0.0
 31
0.0
 73
2
 44
0.9
  3
WHEN PLOTTING TEMPLATE FULL SIZE:\P Make sure horizontal and vertical dimensions match \P  the dimensions labeled on the template.\P \P      LORS DU TRACÉ DU GABARIT À L'ÉCHELLE:  \P       S'assurer que les dimensions horizontales \P        et vertic
  3
ales correspondent à celles marquées \P          sur le gabarit.\P \P              AL TRAZAR LA PLANTILLA A ESCALA COMPLETA: \P                 Asegúrese de que las dimensiones \P                   horizontal y vertical sean iguales \P               
  1
       a las indicadas en la plantilla.
 40
0.15625
 41
7.0
  0
MTEXT
  5
459
100
AcDbEntity
  8
___NOTE
100
AcDbMText
 62
2
  6
CONTINUOUS
  7
STANDARD
 71
1
 72
1
 10
6.6818124022
 20
15.2379082657
 30
0.0
 11
1.0
 21
0.0
 31
0.0
 73
2
 44
0.9
  1
CUT-OUT TEMPLATE\PGABARIT DE DÉCOUPAGE\PPLANTILLA DE CORTE\P21780
 40
0.25
 41
4.0
  0
LEADER
  5
45A
100
AcDbEntity
  8
___NOTE
100
AcDbLeader
 62
2
  6
CONTINUOUS
  3
STANDARD
 71
1
 72
0
 73
0
 75
0
 40
0.15625
 41
1.25
 76
3
 10
22.9616023457
 20
13.3813696334
 30
0.0
 10
20.0329451339
 20
15.0116391499
 30
0.0
 10
19.7829451339
 20
15.0116391499
 30
0.0
340
45B
1001
ACAD
1000
DSTYLE
1002
{
1070
77
1070
0
1002
}
  0
MTEXT
  5
45B
102
{ACAD_REACTORS
330
45A
102
}
100
AcDbEntity
  8
___NOTE
100
AcDbMText
 62
2
  6
CONTINUOUS
  7
STANDARD
 71
3
 72
1
 10
19.7829451339
 20
15.0897641499
 30
0.0
 11
1.0
 21
0.0
 31
0.0
 73
2
 44
0.9
  1
RIM OF LAV\PREBORD DU LAVABO\PBORDE DEL LAVABO
 40
0.15625
 41
2.0
  0
LEADER
  5
45C
100
AcDbEntity
  8
___NOTE
100
AcDbLeader
 62
2
  6
CONTINUOUS
  3
STANDARD
 71
1
 72
0
 73
0
 75
0
 40
0.15625
 41
3.625
 76
3
 10
21.6515663856
 20
10.1681759987
 30
0.0
 10
20.7187055251
 20
10.6548296106
 30
0.0
 10
20.4687055251
 20
10.6548296106
 30
0.0
340
45D
1001
ACAD
1000
DSTYLE
1002
{
1070
77
1070
0
1002
}
  0
MTEXT
  5
45D
102
{ACAD_REACTORS
330
45C
102
}
100
AcDbEntity
  8
___NOTE
100
AcDbMText
 62
2
  6
CONTINUOUS
  7
STANDARD
 71
3
 72
1
 10
20.4687055251
 20
10.7329546106
 30
0.0
 11
1.0
 21
0.0
 31
0.0
 73
2
 44
0.9
  1
FOR SELF-RIMMING INSTALLATION\PCUT ALONG THIS LINE\PPOUR INSTALLATION À REBORD INCORPORÉ\PDÉCOUPER LE LONG DE CETTE LIGNE\PEN INSTALACIONES DE REBORDE TERMINADO,\PCORTE A LO LARGO DE ESTA LÍNEA
 40
0.15625
 41
4.75
  0
LEADER
  5
45E
100
AcDbEntity
  8
___NOTE
100
AcDbLeader
 62
2
  6
CONTINUOUS
  3
STANDARD
 71
1
 72
0
 73
0
 75
0
 40
0.15625
 41
2.25
 76
3
 10
22.5794618631
 20
12.3620363199
 30
0.0
 10
20.5402527386
 20
13.4400848821
 30
0.0
 10
20.2902527386
 20
13.4400848821
 30
0.0
340
45F
1001
ACAD
1000
DSTYLE
1002
{
1070
77
1070
0
1002
}
  0
MTEXT
  5
45F
102
{ACAD_REACTORS
330
45E
102
}
100
AcDbEntity
  8
___NOTE
100
AcDbMText
 62
2
  6
CONTINUOUS
  7
STANDARD
 71
3
 72
1
 10
20.2902527386
 20
13.5182098821
 30
0.0
 11
1.0
 21
0.0
 31
0.0
 73
2
 44
0.9
  1
BOTTOM EDGE OF LAV\PBORD BAS DU LAVABO\PBORDE INFERIOR DEL LAVABO
 40
0.15625
 41
3.125
  0
INSERT
  5
460
100
AcDbEntity
  8
___SYMBOL
100
AcDbBlockReference
 62
2
  6
CONTINUOUS
  2
SCISSORS_BL0
 10
21.2696463423
 20
8.8995376137
  0
INSERT
  5
461
100
AcDbEntity
  8
___SYMBOL
100
AcDbBlockReference
 62
2
  6
CONTINUOUS
  2
KOHLER_BL1
 10
8.2040066542
 20
15.6667114998
  0
INSERT
  5
462
100
AcDbEntity
  8
___SYMBOL
100
AcDbBlockReference
 62
2
  6
CONTINUOUS
  2
COPYRIGHT_YEAR_BL2
 10
16.4990973002
 20
5.5714862829
  0
INSERT
  5
463
100
AcDbEntity
  8
___SYMBOL
100
AcDbBlockReference
 62
2
  6
CONTINUOUS
  2
TEMPLATE_NUMBER_BL3
 10
16.7525401875
 20
5.8753341357
  0
INSERT
  5
464
100
AcDbEntity
  8
___SYMBOL
100
AcDbBlockReference
 62
2
  6
CONTINUOUS
  2
TEMPLATE_NUMBER_BL4
 10
16.4817162956
 20
2.1343492568
  0
LINE
  5
465
100
AcDbEntity
  8
0
100
AcDbLine
 62
7
  6
CONTINUOUS
 10
12.0391166633
 20
3.2960257815
 11
13.4941293064
 21
3.2960257815
  0
LINE
  5
466
100
AcDbEntity
  8
DATUM_AXIS
100
AcDbLine
 62
7
  6
CENTER
 10
12.7666216153
 20
20.342018926
 11
12.7666216153
 21
2.4144014644
  0
LINE
  5
467
100
AcDbEntity
  8
DATUM_AXIS
100
AcDbLine
 62
7
  6
CENTER
 10
2.1979337084
 20
11.3789908385
 11
23.3344945672
 21
11.3789908385
  0
CIRCLE
  5
468
100
AcDbEntity
  8
DEFAULT_3
100
AcDbCircle
 62
8
  6
PHANTOM
 10
12.7666216153
 20
11.3789908385
 40
0.8857677165
  0
ARC
  5
469
100
AcDbEntity
  8
0
100
AcDbCircle
 62
7
  6
CONTINUOUS
 10
10.6641166633
 20
3.67074936
 40
0.5004655266
100
AcDbArc
 50
25.2065208586
 51
79.3777458255
  0
ARC
  5
46A
100
AcDbEntity
  8
0
100
AcDbCircle
 62
7
  6
CONTINUOUS
 10
14.8689505201
 20
3.6714687257
 40
0.5
100
AcDbArc
 50
100.6302215349
 51
154.8150008085
  0
SPLINE
  5
46B
100
AcDbEntity
  8
DEFAULT_3
100
AcDbSpline
 62
8
  6
PHANTOM
 70
0
 71
3
 72
49
 73
45
 74
0
 42
0.0000001
 43
0.0000001
 44
0.0000000001
 40
0.0
 40
0.0
 40
0.0
 40
0.0
 40
0.0054788907
 40
0.0117342997
 40
0.0241946704
 40
0.0366555547
 40
0.049445452
 40
0.075398132
 40
0.1005208676
 40
0.1133075225
 40
0.1271221067
 40
0.1409375265
 40
0.1548473436
 40
0.1828816054
 40
0.2113796387
 40
0.2391353472
 40
0.2664035454
 40
0.2953291657
 40
0.324286299
 40
0.3495131539
 40
0.3713517671
 40
0.4175323592
 40
0.469578396
 40
0.4968466305
 40
0.5266406665
 40
0.5576161765
 40
0.5885900928
 40
0.6317676373
 40
0.6665962902
 40
0.696262529
 40
0.7252451002
 40
0.7542463004
 40
0.7829650285
 40
0.8114084203
 40
0.8397357119
 40
0.8536565057
 40
0.8674264459
 40
0.8940801966
 40
0.9194401401
 40
0.9426716769
 40
0.958096142
 40
0.9750574253
 40
0.9875304396
 40
1.0
 40
1.0
 40
1.0
 40
1.0
 10
2.8834673906
 20
11.3840894052
 30
0.0
 10
2.8835039958
 20
11.4353562427
 30
0.0
 10
2.8847912355
 20
11.5451493
 30
0.0
 10
2.8928159068
 20
11.771507789
 30
0.0
 10
2.9141432698
 20
12.0626067618
 30
0.0
 10
2.9574768044
 20
12.4131412729
 30
0.0
 10
3.0402446942
 20
12.885595015
 30
0.0
 10
3.188661131
 20
13.4667762028
 30
0.0
 10
3.3941778534
 20
14.0309532917
 30
0.0
 10
3.5932039457
 20
14.47514567
 30
0.0
 10
3.7660350824
 20
14.8144571096
 30
0.0
 10
3.9614718646
 20
15.1543693439
 30
0.0
 10
4.246507697
 20
15.5972757632
 30
0.0
 10
4.6484419686
 20
16.1304676831
 30
0.0
 10
5.1897689606
 20
16.7211105642
 30
0.0
 10
5.7790098573
 20
17.2567838116
 30
0.0
 10
6.4163643681
 20
17.74379516
 30
0.0
 10
7.1039496158
 20
18.1834064205
 30
0.0
 10
7.8095762472
 20
18.5563456555
 30
0.0
 10
8.4797669762
 20
18.8491350426
 30
0.0
 10
9.3238231228
 20
19.1565735376
 30
0.0
 10
10.4444901984
 20
19.4559791805
 30
0.0
 10
11.6475180787
 20
19.6228805764
 30
0.0
 10
12.7017753506
 20
19.6657495933
 30
0.0
 10
13.5531351297
 20
19.641231079
 30
0.0
 10
14.4353243243
 20
19.5499700982
 30
0.0
 10
15.4346121838
 20
19.3682813086
 30
0.0
 10
16.4477761398
 20
19.0841298783
 30
0.0
 10
17.4132485744
 20
18.7040761359
 30
0.0
 10
18.2173514017
 20
18.3033744697
 30
0.0
 10
18.9360223286
 20
17.8676976018
 30
0.0
 10
19.6057535599
 20
17.3789921077
 30
0.0
 10
20.2243977693
 20
16.8374720923
 30
0.0
 10
20.7843955674
 20
16.2482547795
 30
0.0
 10
21.1977790143
 20
15.720433241
 30
0.0
 10
21.4925770369
 20
15.280483844
 30
0.0
 10
21.7568035454
 20
14.840556186
 30
0.0
 10
22.0360535435
 20
14.2867198444
 30
0.0
 10
22.2913026046
 20
13.6265603757
 30
0.0
 10
22.4545674525
 20
13.0478569363
 30
0.0
 10
22.5573766546
 20
12.5370205693
 30
0.0
 10
22.6135707213
 20
12.1204094988
 30
0.0
 10
22.6430819632
 20
11.7289785977
 30
0.0
 10
22.6489560391
 20
11.4956907257
 30
0.0
 10
22.6489598632
 20
11.3790145187
 30
0.0
  0
SPLINE
  5
46C
100
AcDbEntity
  8
DEFAULT_3
100
AcDbSpline
 62
8
  6
PHANTOM
 70
0
 71
3
 72
48
 73
44
 74
0
 42
0.0000001
 43
0.0000001
 44
0.0000000001
 40
0.0
 40
0.0
 40
0.0
 40
0.0
 40
0.0124637487
 40
0.0249274974
 40
0.0372610492
 40
0.0492567284
 40
0.0612529551
 40
0.0735798492
 40
0.0987677779
 40
0.1258563641
 40
0.1395232527
 40
0.1534724873
 40
0.1814810287
 40
0.2099521579
 40
0.2329929186
 40
0.2581584753
 40
0.289527032
 40
0.315814415
 40
0.3421072175
 40
0.3654727087
 40
0.3857806247
 40
0.4317477463
 40
0.4863914617
 40
0.5433404321
 40
0.5919525287
 40
0.6335963927
 40
0.6689657964
 40
0.696488658
 40
0.7254454379
 40
0.7399205579
 40
0.7522260523
 40
0.76660954
 40
0.7953460482
 40
0.8239594345
 40
0.8379115063
 40
0.8517132868
 40
0.8791549122
 40
0.9063159652
 40
0.932721093
 40
0.9456123602
 40
0.9582304112
 40
0.9811329264
 40
1.0
 40
1.0
 40
1.0
 40
1.0
 10
22.6489598632
 20
11.3790145189
 30
0.0
 10
22.6489636874
 20
11.2623383119
 30
0.0
 10
22.6431057214
 20
11.0288890513
 30
0.0
 10
22.6169403439
 20
10.6806946815
 30
0.0
 10
22.5740753522
 20
10.3387633369
 30
0.0
 10
22.5153221084
 20
10.0033245857
 30
0.0
 10
22.4406746326
 20
9.6708932843
 30
0.0
 10
22.3172676473
 20
9.2228538474
 30
0.0
 10
22.1136255559
 20
8.6502823333
 30
0.0
 10
21.8481197051
 20
8.0880707283
 30
0.0
 10
21.5932302995
 20
7.6390213872
 30
0.0
 10
21.3111893012
 20
7.1954198865
 30
0.0
 10
20.9120457945
 20
6.6600004669
 30
0.0
 10
20.404120279
 20
6.0999237079
 30
0.0
 10
19.8695860316
 20
5.6015946562
 30
0.0
 10
19.2759339551
 20
5.126584643
 30
0.0
 10
18.6164071872
 20
4.6852833495
 30
0.0
 10
17.9116631588
 20
4.2942574121
 30
0.0
 10
17.2484782545
 20
3.9872075686
 30
0.0
 10
16.6192838396
 20
3.7453124948
 30
0.0
 10
15.7959953606
 20
3.4816547838
 30
0.0
 10
14.6561579305
 20
3.2209727436
 30
0.0
 10
13.1371001609
 20
3.0691467357
 30
0.0
 10
11.5852510331
 20
3.1255366839
 30
0.0
 10
10.179860676
 20
3.3612211294
 30
0.0
 10
9.0137492724
 20
3.6966166505
 30
0.0
 10
8.0785378193
 20
4.0710542589
 30
0.0
 10
7.2897269703
 20
4.4680859904
 30
0.0
 10
6.7079241134
 20
4.821482149
 30
0.0
 10
6.27076782
 20
5.1268516896
 30
0.0
 10
5.9577218971
 20
5.3648876381
 30
0.0
 10
5.5501859674
 20
5.7020171351
 30
0.0
 10
5.0538542328
 20
6.1726052781
 30
0.0
 10
4.6080270032
 20
6.6828074608
 30
0.0
 10
4.2869293583
 20
7.1094944036
 30
0.0
 10
3.9936828924
 20
7.5413663936
 30
0.0
 10
3.6710279534
 20
8.1014841521
 30
0.0
 10
3.3586196281
 20
8.7981532819
 30
0.0
 10
3.1625349659
 20
9.3915905277
 30
0.0
 10
3.0458340785
 20
9.8643328319
 30
0.0
 10
2.9594484299
 20
10.3098632351
 30
0.0
 10
2.8978937215
 20
10.816356867
 30
0.0
 10
2.8833412786
 20
11.207464927
 30
0.0
 10
2.8834673906
 20
11.3840894055
 30
0.0
  0
SPLINE
  5
46D
100
AcDbEntity
  8
DEFAULT_3
100
AcDbSpline
 62
8
  6
PHANTOM
 70
0
 71
3
 72
48
 73
44
 74
0
 42
0.0000001
 43
0.0000001
 44
0.0000000001
 40
0.0
 40
0.0
 40
0.0
 40
0.0
 40
0.0188669991
 40
0.0417695188
 40
0.0543875723
 40
0.067278842
 40
0.0936839751
 40
0.1208450334
 40
0.1482866642
 40
0.1620884474
 40
0.1760405219
 40
0.2046539139
 40
0.2333904277
 40
0.2477739184
 40
0.2600794151
 40
0.274554538
 40
0.3035113236
 40
0.3310341906
 40
0.3664036012
 40
0.4080474734
 40
0.4566595796
 40
0.5136085613
 40
0.5682522874
 40
0.614219418
 40
0.6345273381
 40
0.6578928338
 40
0.6841856415
 40
0.7104730297
 40
0.7418415926
 40
0.7670071542
 40
0.7900479194
 40
0.8185190543
 40
0.8465276012
 40
0.8604768386
 40
0.8741437298
 40
0.9012323213
 40
0.926420255
 40
0.9387471516
 40
0.9507433806
 40
0.9627390622
 40
0.9750726164
 40
0.9875363675
 40
1.0
 40
1.0
 40
1.0
 40
1.0
 10
2.3021173001
 20
11.3844576458
 30
0.0
 10
2.3019819328
 20
11.1931122477
 30
0.0
 10
2.3177461469
 20
10.7695499889
 30
0.0
 10
2.3844040659
 20
10.2211521464
 30
0.0
 10
2.4778651044
 20
9.7391656449
 30
0.0
 10
2.6041171871
 20
9.2277593433
 30
0.0
 10
2.8159159022
 20
8.5869164742
 30
0.0
 10
3.1525718896
 20
7.8362873602
 30
0.0
 10
3.4994430033
 20
7.2342386992
 30
0.0
 10
3.8139504895
 20
6.77107679
 30
0.0
 10
4.1579148553
 20
6.3140292042
 30
0.0
 10
4.634249863
 20
5.7690059326
 30
0.0
 10
5.1629511843
 20
5.2677957518
 30
0.0
 10
5.5961756712
 20
4.9094291669
 30
0.0
 10
5.9285818413
 20
4.6566796658
 30
0.0
 10
6.3921265831
 20
4.332891931
 30
0.0
 10
7.0077841276
 20
3.9589803825
 30
0.0
 10
7.840574439
 20
3.5398561035
 30
0.0
 10
8.8259755653
 20
3.1453831159
 30
0.0
 10
10.0522170238
 20
2.7927651993
 30
0.0
 10
11.5276120162
 20
2.5454113454
 30
0.0
 10
13.1552530438
 20
2.4862916533
 30
0.0
 10
14.7489212932
 20
2.6455323204
 30
0.0
 10
15.9465493522
 20
2.9193689229
 30
0.0
 10
16.8127291376
 20
3.1967556856
 30
0.0
 10
17.4754009369
 20
3.4515089343
 30
0.0
 10
18.1750124888
 20
3.7753978495
 30
0.0
 10
18.9200244726
 20
4.1887317375
 30
0.0
 10
19.6189313498
 20
4.6563254573
 30
0.0
 10
20.2495732854
 20
5.1608879439
 30
0.0
 10
20.8188984632
 20
5.6916098201
 30
0.0
 10
21.3613039481
 20
6.2896308594
 30
0.0
 10
21.7888442828
 20
6.8630563129
 30
0.0
 10
22.0916197942
 20
7.3392589058
 30
0.0
 10
22.3656462439
 20
7.8220024098
 30
0.0
 10
22.6516666791
 20
8.4275818399
 30
0.0
 10
22.8714961424
 20
9.0455769897
 30
0.0
 10
23.0048940462
 20
9.5298861005
 30
0.0
 10
23.0856266985
 20
9.8894158495
 30
0.0
 10
23.1492158098
 20
10.2524553282
 30
0.0
 10
23.1956423639
 20
10.622802974
 30
0.0
 10
23.2239710709
 20
10.9998366234
 30
0.0
 10
23.2303155446
 20
11.2526657263
 30
0.0
 10
23.2303103313
 20
11.3790635869
 30
0.0
  0
SPLINE
  5
46E
100
AcDbEntity
  8
DEFAULT_3
100
AcDbSpline
 62
8
  6
PHANTOM
 70
0
 71
3
 72
49
 73
45
 74
0
 42
0.0000001
 43
0.0000001
 44
0.0000000001
 40
0.0
 40
0.0
 40
0.0
 40
0.0
 40
0.0124694636
 40
0.0249424813
 40
0.0419037692
 40
0.0573282385
 40
0.0805597816
 40
0.105919732
 40
0.13257349
 40
0.1463434339
 40
0.1602642315
 40
0.1885915308
 40
0.2170349304
 40
0.2457536662
 40
0.2747548743
 40
0.3037374534
 40
0.3334037003
 40
0.3682323627
 40
0.4114099189
 40
0.4423838436
 40
0.4733593621
 40
0.5031534061
 40
0.530421648
 40
0.582467699
 40
0.6286483037
 40
0.6504869228
 40
0.6757137846
 40
0.7046709258
 40
0.7335965539
 40
0.7608647595
 40
0.7886204756
 40
0.8171185166
 40
0.845152786
 40
0.8590626069
 40
0.8728780305
 40
0.8866926185
 40
0.8994792768
 40
0.9246020193
 40
0.9505547064
 40
0.9633446071
 40
0.9758054948
 40
0.9882658688
 40
0.9945212796
 40
1.0
 40
1.0
 40
1.0
 40
1.0
 10
23.230310331
 20
11.3790702451
 30
0.0
 10
23.2303050061
 20
11.5054682933
 30
0.0
 10
23.2239385598
 20
11.7582682286
 30
0.0
 10
23.191975935
 20
12.1821143309
 30
0.0
 10
23.1311439857
 20
12.6330958406
 30
0.0
 10
23.019853101
 20
13.186025587
 30
0.0
 10
22.8433781603
 20
13.8114263719
 30
0.0
 10
22.5679980538
 20
14.5235599372
 30
0.0
 10
22.2673036364
 20
15.1198232823
 30
0.0
 10
21.9835105848
 20
15.5922984101
 30
0.0
 10
21.6672593743
 20
16.0642411289
 30
0.0
 10
21.2247945943
 20
16.6291041089
 30
0.0
 10
20.6271235388
 20
17.2578668458
 30
0.0
 10
19.9690034087
 20
17.8338575263
 30
0.0
 10
19.2583686091
 20
18.3523448823
 30
0.0
 10
18.4978021069
 20
18.8133615606
 30
0.0
 10
17.6488699291
 20
19.2363465301
 30
0.0
 10
16.6319176624
 20
19.6366051066
 30
0.0
 10
15.566634696
 20
19.9353178448
 30
0.0
 10
14.5171995987
 20
20.126103612
 30
0.0
 10
13.5914775855
 20
20.2218501432
 30
0.0
 10
12.698614707
 20
20.2475587365
 30
0.0
 10
11.5927630179
 20
20.2025922845
 30
0.0
 10
10.3300220986
 20
20.0274502851
 30
0.0
 10
9.1520320909
 20
19.712789414
 30
0.0
 10
8.2633924303
 20
19.389127126
 30
0.0
 10
7.5567422867
 20
19.0804313082
 30
0.0
 10
6.8112306879
 20
18.6864503922
 30
0.0
 10
6.0830831678
 20
18.2209542846
 30
0.0
 10
5.4064151803
 20
17.7039542602
 30
0.0
 10
4.7791527317
 20
17.1337847732
 30
0.0
 10
4.201135323
 20
16.5031887043
 30
0.0
 10
3.7706816231
 20
15.9322476017
 30
0.0
 10
3.4647122101
 20
15.4568263648
 30
0.0
 10
3.2546779263
 20
15.091534878
 30
0.0
 10
3.068651505
 20
14.7263285222
 30
0.0
 10
2.8541488504
 20
14.2476124272
 30
0.0
 10
2.6323096352
 20
13.6386793252
 30
0.0
 10
2.4718480551
 20
13.0104355766
 30
0.0
 10
2.3822603974
 20
12.4990539302
 30
0.0
 10
2.3353438034
 20
12.119524936
 30
0.0
 10
2.3122448202
 20
11.8042458948
 30
0.0
 10
2.3035501462
 20
11.5589577959
 30
0.0
 10
2.3021566517
 20
11.4400034532
 30
0.0
 10
2.3021173055
 20
11.384465248
 30
0.0
  0
SPLINE
  5
46F
100
AcDbEntity
  8
0
100
AcDbSpline
 62
7
  6
CONTINUOUS
 70
0
 71
3
 72
95
 73
91
 74
0
 42
0.0000001
 43
0.0000001
 44
0.0000000001
 40
0.0
 40
0.0
 40
0.0
 40
0.0
 40
0.009406434
 40
0.0176409038
 40
0.0250772233
 40
0.0321309114
 40
0.039105115
 40
0.0460580994
 40
0.0530299196
 40
0.0600097811
 40
0.0669967202
 40
0.0739957357
 40
0.0810050013
 40
0.0880224247
 40
0.0950511832
 40
0.1020932843
 40
0.1091472559
 40
0.1162155669
 40
0.1233032481
 40
0.1304057155
 40
0.1375181884
 40
0.1446574036
 40
0.1518205083
 40
0.1589537659
 40
0.1661143162
 40
0.1735884005
 40
0.1817478578
 40
0.1909174801
 40
0.2013099279
 40
0.2130089955
 40
0.2260092872
 40
0.2401514497
 40
0.2551549256
 40
0.2706963875
 40
0.2865482469
 40
0.3026835488
 40
0.3191392169
 40
0.3359135689
 40
0.3529940153
 40
0.3703626248
 40
0.3879850363
 40
0.4058256767
 40
0.423855497
 40
0.4420432827
 40
0.4603627446
 40
0.478797785
 40
0.4973274092
 40
0.5159076369
 40
0.5344721546
 40
0.5529498123
 40
0.5712978032
 40
0.5895035176
 40
0.6075431916
 40
0.6253788162
 40
0.6429928323
 40
0.6603659671
 40
0.6774499021
 40
0.6942011085
 40
0.7106222298
 40
0.7267268392
 40
0.74249787
 40
0.7579270657
 40
0.7730443873
 40
0.7878676044
 40
0.802301204
 40
0.8160402878
 40
0.8286614592
 40
0.8398632229
 40
0.8496327153
 40
0.8581354885
 40
0.8657182194
 40
0.8728453919
 40
0.879887209
 40
0.8869666781
 40
0.8940319641
 40
0.9010695965
 40
0.9080988127
 40
0.9151183189
 40
0.9221217403
 40
0.9291150518
 40
0.9361019782
 40
0.9430778421
 40
0.9500452712
 40
0.9570141025
 40
0.9639800072
 40
0.9709391577
 40
0.9779272354
 40
0.985007757
 40
0.9922410537
 40
1.0
 40
1.0
 40
1.0
 40
1.0
 10
3.7601046996
 20
11.3836218977
 30
0.0
 10
3.7601654552
 20
11.4655259593
 30
0.0
 10
3.7633832012
 20
11.6191419742
 30
0.0
 10
3.7762107225
 20
11.8371264259
 30
0.0
 10
3.79442824
 20
12.0341168943
 30
0.0
 10
3.817359644
 20
12.2195449398
 30
0.0
 10
3.8451541188
 20
12.4000179616
 30
0.0
 10
3.8781003277
 20
12.5788498749
 30
0.0
 10
3.9162540222
 20
12.7566477283
 30
0.0
 10
3.9596154572
 20
12.9334980667
 30
0.0
 10
4.0081125655
 20
13.1091972156
 30
0.0
 10
4.0616999189
 20
13.2836424803
 30
0.0
 10
4.1203285239
 20
13.4566844775
 30
0.0
 10
4.1839039113
 20
13.6281574144
 30
0.0
 10
4.252355989
 20
13.7979788686
 30
0.0
 10
4.3256317331
 20
13.9660667119
 30
0.0
 10
4.4036616287
 20
14.1323024723
 30
0.0
 10
4.4863674172
 20
14.2966050526
 30
0.0
 10
4.5736661979
 20
14.4588879654
 30
0.0
 10
4.6654433384
 20
14.6190205899
 30
0.0
 10
4.7616442505
 20
14.7769720339
 30
0.0
 10
4.8622231619
 20
14.9327049951
 30
0.0
 10
4.9668908621
 20
15.0858289086
 30
0.0
 10
5.0755226608
 20
15.2362778985
 30
0.0
 10
5.1895141145
 20
15.3859864211
 30
0.0
 10
5.3128082846
 20
15.5395723127
 30
0.0
 10
5.451385533
 20
15.7029362094
 30
0.0
 10
5.611506651
 20
15.8807631114
 30
0.0
 10
5.7984032792
 20
16.0751570818
 30
0.0
 10
6.0157994142
 20
16.2855157572
 30
0.0
 10
6.2652451069
 20
16.5085252031
 30
0.0
 10
6.5457323759
 20
16.7386915354
 30
0.0
 10
6.8534525914
 20
16.96911081
 30
0.0
 10
7.1831447603
 20
17.1934645554
 30
0.0
 10
7.5306325633
 20
17.4076497643
 30
0.0
 10
7.8939834693
 20
17.6097454419
 30
0.0
 10
8.2728222411
 20
17.7988548058
 30
0.0
 10
8.666794541
 20
17.9741776213
 30
0.0
 10
9.0751236096
 20
18.1347715696
 30
0.0
 10
9.4967498845
 20
18.2796373521
 30
0.0
 10
9.9303592437
 20
18.4077502141
 30
0.0
 10
10.3744489516
 20
18.5182046609
 30
0.0
 10
10.8275155675
 20
18.6102333299
 30
0.0
 10
11.28808191
 20
18.6831794764
 30
0.0
 10
11.7547173785
 20
18.7365196864
 30
0.0
 10
12.226048567
 20
18.7698663318
 30
0.0
 10
12.700540689
 20
18.7829219252
 30
0.0
 10
13.1762381036
 20
18.7755053255
 30
0.0
 10
13.6507760033
 20
18.7475829613
 30
0.0
 10
14.1217793374
 20
18.6993075677
 30
0.0
 10
14.5873133088
 20
18.6310075247
 30
0.0
 10
15.0458528382
 20
18.5431349059
 30
0.0
 10
15.4959717182
 20
18.4362731678
 30
0.0
 10
15.9362643904
 20
18.3110937466
 30
0.0
 10
16.3653684028
 20
18.1683615519
 30
0.0
 10
16.7819097791
 20
18.0090081969
 30
0.0
 10
17.1844000171
 20
17.8341360524
 30
0.0
 10
17.5716051349
 20
17.6448772121
 30
0.0
 10
17.9427674654
 20
17.4422202537
 30
0.0
 10
18.2974070218
 20
17.2271493248
 30
0.0
 10
18.6350434987
 20
17.0006772986
 30
0.0
 10
18.9553629504
 20
16.7637504945
 30
0.0
 10
19.2582570051
 20
16.5171675663
 30
0.0
 10
19.5431670283
 20
16.2622511083
 30
0.0
 10
19.807587999
 20
16.0023454818
 30
0.0
 10
20.0469574827
 20
15.7441240085
 30
0.0
 10
20.2566765557
 20
15.4965257595
 30
0.0
 10
20.4350156292
 20
15.2673693359
 30
0.0
 10
20.5839984657
 20
15.0604954695
 30
0.0
 10
20.7086879942
 20
14.8747036291
 30
0.0
 10
20.8157115299
 20
14.7045985807
 30
0.0
 10
20.911650577
 20
14.5424456973
 30
0.0
 10
21.0011587523
 20
14.3815185688
 30
0.0
 10
21.0860899732
 20
14.2186300656
 30
0.0
 10
21.1665542133
 20
14.053443782
 30
0.0
 10
21.2422861582
 20
13.8864330752
 30
0.0
 10
21.3132248897
 20
13.717679579
 30
0.0
 10
21.3793208349
 20
13.5472196175
 30
0.0
 10
21.440494849
 20
13.3752119737
 30
0.0
 10
21.4966984836
 20
13.2017560617
 30
0.0
 10
21.5478769363
 20
13.0269285629
 30
0.0
 10
21.5939580544
 20
12.8508369833
 30
0.0
 10
21.6348745096
 20
12.6735680416
 30
0.0
 10
21.6705732395
 20
12.4952233874
 30
0.0
 10
21.7010031016
 20
12.3159502233
 30
0.0
 10
21.7261608669
 20
12.1356752641
 30
0.0
 10
21.7460867029
 20
11.9537480549
 30
0.0
 10
21.7607734587
 20
11.7689148812
 30
0.0
 10
21.7701492468
 20
11.5769545256
 30
0.0
 10
21.7723220453
 20
11.4464058734
 30
0.0
 10
21.7723216508
 20
11.3788496587
 30
0.0
  0
SPLINE
  5
470
100
AcDbEntity
  8
0
100
AcDbSpline
 62
7
  6
CONTINUOUS
 70
0
 71
3
 72
46
 73
42
 74
0
 42
0.0000001
 43
0.0000001
 44
0.0000000001
 40
0.0
 40
0.0
 40
0.0
 40
0.0
 40
0.0197099387
 40
0.03697524
 40
0.0529262475
 40
0.0687479968
 40
0.0848912965
 40
0.1010821464
 40
0.1172654025
 40
0.1334396371
 40
0.1496395714
 40
0.165869639
 40
0.1821193485
 40
0.1983796152
 40
0.2146817941
 40
0.2310512863
 40
0.247373261
 40
0.2636136009
 40
0.2802750792
 40
0.2982123891
 40
0.3182435798
 40
0.3409390666
 40
0.3664468062
 40
0.3946383506
 40
0.4250811274
 40
0.4570333095
 40
0.4899210421
 40
0.5235409003
 40
0.5578452757
 40
0.5928275734
 40
0.6285034425
 40
0.6648926884
 40
0.7020083313
 40
0.739859761
 40
0.7784567839
 40
0.8177801926
 40
0.8577653217
 40
0.8983286031
 40
0.9394210783
 40
0.9809443807
 40
1.0
 40
1.0
 40
1.0
 40
1.0
 10
21.7723216508
 20
11.3788496587
 30
0.0
 10
21.7723211882
 20
11.3065557896
 30
0.0
 10
21.7699043439
 20
11.1709497837
 30
0.0
 10
21.7600151873
 20
10.9771204016
 30
0.0
 10
21.7455149242
 20
10.7978786236
 30
0.0
 10
21.7263589978
 20
10.6231981237
 30
0.0
 10
21.7020792333
 20
10.4482810479
 30
0.0
 10
21.6725451102
 20
10.2728787476
 30
0.0
 10
21.6379767252
 20
10.0983417318
 30
0.0
 10
21.5984527597
 20
9.9248669343
 30
0.0
 10
21.5539855978
 20
9.7524457748
 30
0.0
 10
21.5046024698
 20
9.5811402902
 30
0.0
 10
21.4503916074
 20
9.4111448982
 30
0.0
 10
21.3914081485
 20
9.2425261974
 30
0.0
 10
21.3276447665
 20
9.075234559
 30
0.0
 10
21.2592381974
 20
8.9096148667
 30
0.0
 10
21.1864685108
 20
8.74619763
 30
0.0
 10
21.1089069793
 20
8.5838939448
 30
0.0
 10
21.0243578329
 20
8.4185356487
 30
0.0
 10
20.9286124502
 20
8.2435313969
 30
0.0
 10
20.8165224117
 20
8.0526057849
 30
0.0
 10
20.6833910423
 20
7.8423110407
 30
0.0
 10
20.5257833747
 20
7.6127064206
 30
0.0
 10
20.3422089815
 20
7.3672487556
 30
0.0
 10
20.1334588697
 20
7.1119711892
 30
0.0
 10
19.9021899939
 20
6.8538489769
 30
0.0
 10
19.6515713505
 20
6.5985208179
 30
0.0
 10
19.3836184803
 20
6.3492135143
 30
0.0
 10
19.0991377477
 20
6.1074921129
 30
0.0
 10
18.7984324851
 20
5.87437187
 30
0.0
 10
18.4817267373
 20
5.6506950996
 30
0.0
 10
18.1491965484
 20
5.4372171879
 30
0.0
 10
17.8010503897
 20
5.2347363788
 30
0.0
 10
17.4375805024
 20
5.0440699307
 30
0.0
 10
17.0592248907
 20
4.8660762118
 30
0.0
 10
16.6666967768
 20
4.7016705251
 30
0.0
 10
16.2610271959
 20
4.5518585849
 30
0.0
 10
15.8434192018
 20
4.4176311133
 30
0.0
 10
15.4152887421
 20
4.2999102602
 30
0.0
 10
15.0582404446
 20
4.2178623661
 30
0.0
 10
14.8441700416
 20
4.1755483984
 30
0.0
 10
14.7767156254
 20
4.1628878179
 30
0.0
  0
SPLINE
  5
471
100
AcDbEntity
  8
0
100
AcDbSpline
 62
7
  6
CONTINUOUS
 70
0
 71
3
 72
23
 73
19
 74
0
 42
0.0000001
 43
0.0000001
 44
0.0000000001
 40
0.0
 40
0.0
 40
0.0
 40
0.0
 40
0.0108427923
 40
0.0774595866
 40
0.1439697524
 40
0.2103374271
 40
0.2765562847
 40
0.3426336558
 40
0.4085858804
 40
0.4744308916
 40
0.5401755566
 40
0.6058096776
 40
0.6713464534
 40
0.7368554918
 40
0.8024066141
 40
0.867960733
 40
0.9333638786
 40
1.0
 40
1.0
 40
1.0
 40
1.0
 10
14.416481272
 20
3.8842399162
 30
0.0
 10
14.4147088243
 20
3.8804707121
 30
0.0
 10
14.4018839111
 20
3.8536196562
 30
0.0
 10
14.3758961251
 20
3.804744625
 30
0.0
 10
14.334944106
 20
3.7398584685
 30
0.0
 10
14.2893598511
 20
3.6782970548
 30
0.0
 10
14.2394170839
 20
3.6204024715
 30
0.0
 10
14.1854020811
 20
3.5664796866
 30
0.0
 10
14.1276154629
 20
3.5168062748
 30
0.0
 10
14.0663765031
 20
3.4716387626
 30
0.0
 10
14.0020306705
 20
3.4312161024
 30
0.0
 10
13.9349429143
 20
3.3957505728
 30
0.0
 10
13.8654711461
 20
3.3654152266
 30
0.0
 10
13.7939544449
 20
3.3403505159
 30
0.0
 10
13.7207555634
 20
3.3206874676
 30
0.0
 10
13.6463342407
 20
3.306550936
 30
0.0
 10
13.5706526731
 20
3.2979544706
 30
0.0
 10
13.519790796
 20
3.2960258435
 30
0.0
 10
13.4941293064
 20
3.2960257815
 30
0.0
  0
SPLINE
  5
472
100
AcDbEntity
  8
0
100
AcDbSpline
 62
7
  6
CONTINUOUS
 70
0
 71
3
 72
23
 73
19
 74
0
 42
0.0000001
 43
0.0000001
 44
0.0000000001
 40
0.0
 40
0.0
 40
0.0
 40
0.0
 40
0.0683449345
 40
0.1363072998
 40
0.2031460734
 40
0.2687182289
 40
0.3343266686
 40
0.3998930792
 40
0.4654866377
 40
0.5311806469
 40
0.5969832001
 40
0.6628855843
 40
0.7288951436
 40
0.7950302036
 40
0.8613065383
 40
0.927732566
 40
0.9942962455
 40
1.0
 40
1.0
 40
1.0
 40
1.0
 10
12.0391166633
 20
3.2960257814
 30
0.0
 10
12.0128059034
 20
3.2960257814
 30
0.0
 10
11.9603167547
 20
3.2980663501
 30
0.0
 10
11.8825586253
 20
3.3071637731
 30
0.0
 10
11.806777198
 20
3.3219934836
 30
0.0
 10
11.7332055222
 20
3.3422505224
 30
0.0
 10
11.6618178259
 20
3.367775334
 30
0.0
 10
11.5925324808
 20
3.3985531664
 30
0.0
 10
11.5257137985
 20
3.4344162733
 30
0.0
 10
11.4616863633
 20
3.4751952434
 30
0.0
 10
11.4007907895
 20
3.5206871136
 30
0.0
 10
11.3433717743
 20
3.5706492093
 30
0.0
 10
11.2897509151
 20
3.6248158902
 30
0.0
 10
11.2402230623
 20
3.6829064118
 30
0.0
 10
11.1950629383
 20
3.7446214559
 30
0.0
 10
11.1545305918
 20
3.8096340944
 30
0.0
 10
11.1297586638
 20
3.8568352077
 30
0.0
 10
11.1178599679
 20
3.8819070127
 30
0.0
 10
11.116927156
 20
3.8838887534
 30
0.0
  0
SPLINE
  5
473
100
AcDbEntity
  8
0
100
AcDbSpline
 62
7
  6
CONTINUOUS
 70
0
 71
3
 72
45
 73
41
 74
0
 42
0.0000001
 43
0.0000001
 44
0.0000000001
 40
0.0
 40
0.0
 40
0.0
 40
0.0
 40
0.0201022841
 40
0.0627152888
 40
0.1047237151
 40
0.1461928423
 40
0.1870890203
 40
0.227374084
 40
0.2670146228
 40
0.3059604376
 40
0.344151678
 40
0.3815408459
 40
0.4181103189
 40
0.4538991752
 40
0.4889728607
 40
0.5233738794
 40
0.5570899682
 40
0.5900184334
 40
0.6217350487
 40
0.6513561789
 40
0.6779929284
 40
0.7013441593
 40
0.7216750582
 40
0.7396827532
 40
0.7563819244
 40
0.7727393863
 40
0.7892720331
 40
0.8059806073
 40
0.8224004162
 40
0.837953576
 40
0.8527413909
 40
0.8673500042
 40
0.8823716785
 40
0.8981951297
 40
0.9146053776
 40
0.9310315136
 40
0.9474045441
 40
0.9640399986
 40
0.9812860182
 40
1.0
 40
1.0
 40
1.0
 40
1.0
 10
10.7563690339
 20
4.1626388227
 30
0.0
 10
10.6851716491
 20
4.1759916754
 30
0.0
 10
10.4634544715
 20
4.2199064834
 30
0.0
 10
10.0956175684
 20
4.3050038365
 30
0.0
 10
9.6574326693
 20
4.426686059
 30
0.0
 10
9.2306822286
 20
4.5655412305
 30
0.0
 10
8.8160662477
 20
4.7208928318
 30
0.0
 10
8.4145804359
 20
4.8918984609
 30
0.0
 10
8.0272061422
 20
5.0776226895
 30
0.0
 10
7.6549542436
 20
5.2770385778
 30
0.0
 10
7.2987898147
 20
5.488997584
 30
0.0
 10
6.9595187169
 20
5.712360401
 30
0.0
 10
6.6375809527
 20
5.9461072861
 30
0.0
 10
6.3330820028
 20
6.189421867
 30
0.0
 10
6.0458818555
 20
6.4415908851
 30
0.0
 10
5.7759589934
 20
6.7018692337
 30
0.0
 10
5.5236835772
 20
6.9690943234
 30
0.0
 10
5.2904549208
 20
7.2408113737
 30
0.0
 10
5.0792952622
 20
7.5117352972
 30
0.0
 10
4.8939161234
 20
7.7736037218
 30
0.0
 10
4.736468149
 20
8.0177715888
 30
0.0
 10
4.6058672177
 20
8.2388354895
 30
0.0
 10
4.4980438442
 20
8.4367498898
 30
0.0
 10
4.4073234704
 20
8.6162977452
 30
0.0
 10
4.3278801485
 20
8.7852684742
 30
0.0
 10
4.2552117813
 20
8.9514724842
 30
0.0
 10
4.1870932589
 20
9.1197192472
 30
0.0
 10
4.1236248354
 20
9.2900887611
 30
0.0
 10
4.0661264454
 20
9.4588349865
 30
0.0
 10
4.0153503624
 20
9.6224429836
 30
0.0
 10
3.9706832843
 20
9.781009078
 30
0.0
 10
3.9305837811
 20
9.9388335069
 30
0.0
 10
3.8937749523
 20
10.1013771745
 30
0.0
 10
3.8601214945
 20
10.2713581534
 30
0.0
 10
3.8304722323
 20
10.4473335469
 30
0.0
 10
3.8056910106
 20
10.6261358733
 30
0.0
 10
3.786069541
 20
10.806430606
 30
0.0
 10
3.7715425693
 20
10.9902323269
 30
0.0
 10
3.762186646
 20
11.1829910899
 30
0.0
 10
3.7600538043
 20
11.3149487673
 30
0.0
 10
3.7601046996
 20
11.3836218977
 30
0.0
  0
ENDSEC
  0
SECTION
  2
OBJECTS
  0
DICTIONARY
  5
C
100
AcDbDictionary
280
0
281
1
  3
ACAD_GROUP
350
D
  3
ACAD_MLINESTYLE
350
17
  3
ACAD_LAYOUT
350
1A
  3
ACAD_PLOTSETTINGS
350
19
  3
ACAD_PLOTSTYLENAME
350
E
  0
DICTIONARY
  5
D
102
{ACAD_REACTORS
330
C
102
}
100
AcDbDictionary
280
0
281
1
  0
ACDBDICTIONARYWDFLT
  5
E
102
{ACAD_REACTORS
330
C
102
}
100
AcDbDictionary
281
1
  3
Normal
350
F
100
AcDbDictionaryWithDefault
340
F
  0
DICTIONARY
  5
17
102
{ACAD_REACTORS
330
C
102
}
100
AcDbDictionary
280
0
281
1
  3
Standard
350
18
  0
DICTIONARY
  5
19
102
{ACAD_REACTORS
330
C
102
}
100
AcDbDictionary
281
1
  0
DICTIONARY
  5
1A
102
{ACAD_REACTORS
330
C
102
}
100
AcDbDictionary
281
1
  3
Model
350
474
  3
Layout1
350
475
  0
ACDBPLACEHOLDER
  5
F
102
{ACAD_REACTORS
330
E
102
}
  0
MLINESTYLE
  5
18
102
{ACAD_REACTORS
330
17
102
}
100
AcDbMlineStyle
  2
STANDARD
 70
0
  3

 62
256
 51
90.0
 52
90.0
 71
2
 49
0.5
 62
256
  6
BYLAYER
 49
-0.5
 62
256
  6
BYLAYER
  0
LAYOUT
  5
474
102
{ACAD_REACTORS
330
1A
102
}
100
AcDbPlotSettings
  1

  2
none_device
  4
ANSI_D_(34.00_x_22.00_Inches)
  6

 40
0.0
 41
0.0
 42
0.0
 43
0.0
 44
863.6
 45
558.8
 46
0.0
 47
0.0
 48
0.0
 49
0.0
140
0.0
141
0.0
142
1.0
143
1.0
 70
1024
 72
0
 73
0
 74
0
  7

 75
0
147
1.0
148
0.0
149
0.0
100
AcDbLayout
  1
Model
 70
0
 71
0
 10
0.0
 20
0.0
 11
34.0
 21
22.0
 12
0.0
 22
0.0
 32
0.0
 14
0.0
 24
0.0
 34
0.0
 15
0.0
 25
0.0
 35
0.0
146
0.0
 13
0.0
 23
0.0
 33
0.0
 16
1.0
 26
0.0
 36
0.0
 17
0.0
 27
1.0
 37
0.0
 76
0
330
20C
345
0
346
0
  0
LAYOUT
  5
475
102
{ACAD_REACTORS
330
1A
102
}
100
AcDbPlotSettings
  1

  2
none_device
  4
ANSI_D_(34.00_x_22.00_Inches)
  6

 40
0.0
 41
0.0
 42
0.0
 43
0.0
 44
863.6
 45
558.8
 46
0.0
 47
0.0
 48
0.0
 49
0.0
140
0.0
141
0.0
142
1.0
143
1.0
 70
0
 72
0
 73
0
 74
0
  7

 75
0
147
1.0
148
0.0
149
0.0
100
AcDbLayout
  1
Layout1
 70
0
 71
1
 10
0.0
 20
0.0
 11
34.0
 21
22.0
 12
0.0
 22
0.0
 32
0.0
 14
0.0
 24
0.0
 34
0.0
 15
0.0
 25
0.0
 35
0.0
146
0.0
 13
0.0
 23
0.0
 33
0.0
 16
1.0
 26
0.0
 36
0.0
 17
0.0
 27
1.0
 37
0.0
 76
0
330
20D
345
0
346
0
  0
ENDSEC
  0
EOF
