999
DXF file: 1551950-7.dxf
999
Pro/ENGINEER 2021304 by Parametric Technology Corporation
  0
SECTION
  2
HEADER
  9
$ACADVER
  1
AC1015
  9
$DWGCODEPAGE
  3
ANSI_1252
  9
$EXTMAX
 10
34.0
 20
22.0
 30
0.0
  9
$EXTMIN
 10
0.0
 20
0.0
 30
0.0
  9
$LIMMIN
 10
0.0
 20
0.0
  9
$LIMMAX
 10
34.0
 20
22.0
  9
$VIEWCTR
 10
17.0
 20
11.0
  9
$VIEWSIZE
 40
22.0
  9
$CLAYER
  8
0
  9
$LTSCALE
 40
1.87
  9
$CELTYPE
  6
BYLAYER
  9
$DIMSCALE
 40
1.0
  9
$DIMASZ
 40
0.1875
  9
$DIMEXO
 40
0.0625
  9
$DIMDLI
 40
1.292
  9
$DIMEXE
 40
0.125
  9
$DIMCEN
 40
0.306
  9
$DIMLFAC
 40
1.0
  9
$DIMBLK
  1
_FILLED
  9
$DIMALT
 70
1
  9
$DIMALTD
 70
2
  9
$DIMALTTD
 70
2
  9
$DIMALTF
 40
25.4
  9
$DIMTXT
 40
0.15625
  9
$DIMTOL
 70
1
  9
$DIMLIM
 70
0
  9
$DIMTFAC
 40
1.0
  9
$DIMTP
 40
0.01
  9
$DIMTM
 40
0.01
  9
$DIMGAP
 40
0.09
  9
$DIMDSEP
 70
46
  9
$AUNITS
 70
0
  9
$PDMODE
 70
3
  9
$PDSIZE
 40
0.3125
  9
$HANDSEED
  5
564
  9
$TILEMODE
 70
1
  9
$MEASUREMENT
 70
0
  9
$INSUNITS
 70
1
  0
ENDSEC
  0
SECTION
  2
CLASSES
  0
CLASS
  1
ACDBDICTIONARYWDFLT
  2
AcDbDictionaryWithDefault
  3
AutoCAD 2000
 90
0
280
0
281
0
  0
CLASS
  1
ACDBPLACEHOLDER
  2
AcDbPlaceHolder
  3
AutoCAD 2000
 90
0
280
0
281
0
  0
CLASS
  1
LAYOUT
  2
AcDbLayout
  3
AutoCAD 2000
 90
0
280
0
281
0
  0
ENDSEC
  0
SECTION
  2
TABLES
  0
TABLE
  2
VPORT
  5
8
100
AcDbSymbolTable
 70
2
  0
VPORT
  5
1F4
100
AcDbSymbolTableRecord
100
AcDbViewportTableRecord
  2
*ACTIVE
 70
0
 10
0.0
 20
0.0
 11
1.0
 21
1.0
 12
17.0
 22
11.0
 13
0.0
 23
0.0
 14
1.0
 24
1.0
 15
0.0
 25
0.0
 16
0.0
 26
0.0
 36
1.0
 17
0.0
 27
0.0
 37
0.0
 40
22.0
 41
1.5454545455
 42
50.0
 43
0.0
 44
0.0
 50
0.0
 51
0.0
 71
0
 72
100
 73
1
 74
1
 75
0
 76
0
 77
0
 78
0
  0
ENDTAB
  0
TABLE
  2
LTYPE
  5
5
100
AcDbSymbolTable
 70
6
  0
LTYPE
  5
14
100
AcDbSymbolTableRecord
100
AcDbLinetypeTableRecord
  2
BYBLOCK
 70
0
  3

 72
65
 73
0
 40
0.0
  0
LTYPE
  5
15
100
AcDbSymbolTableRecord
100
AcDbLinetypeTableRecord
  2
BYLAYER
 70
0
  3

 72
65
 73
0
 40
0.0
  0
LTYPE
  5
16
100
AcDbSymbolTableRecord
100
AcDbLinetypeTableRecord
  2
CONTINUOUS
 70
64
  3
Solid line
 72
65
 73
0
 40
0.0
  0
LTYPE
  5
1F5
100
AcDbSymbolTableRecord
100
AcDbLinetypeTableRecord
  2
CENTER
 70
64
  3
____ _ ____ _ ____ _ ____ _ ____ _ ____ _ ____
 72
65
 73
4
 40
0.6
 49
0.375
 74
0
 49
-0.075
 74
0
 49
0.075
 74
0
 49
-0.075
 74
0
  0
LTYPE
  5
1F6
100
AcDbSymbolTableRecord
100
AcDbLinetypeTableRecord
  2
HIDDEN
 70
64
  3
- - - - - - - - - - - - - - - - - - - -
 72
65
 73
2
 40
0.2
 49
0.1
 74
0
 49
-0.1
 74
0
  0
LTYPE
  5
1F7
100
AcDbSymbolTableRecord
100
AcDbLinetypeTableRecord
  2
PHANTOM
 70
64
  3
_____ _ _ _____ _ _ _____ _ _ _____
 72
65
 73
6
 40
0.8
 49
0.45
 74
0
 49
-0.05
 74
0
 49
0.1
 74
0
 49
-0.05
 74
0
 49
0.1
 74
0
 49
-0.05
 74
0
  0
LTYPE
  5
1F8
100
AcDbSymbolTableRecord
100
AcDbLinetypeTableRecord
  2
DOT
 70
64
  3
. . . . . . . . . . . . . . . . . . . .
 72
65
 73
2
 40
0.2
 49
0.1
 74
0
 49
-0.1
 74
0
  0
LTYPE
  5
1F9
100
AcDbSymbolTableRecord
100
AcDbLinetypeTableRecord
  2
DASHED
 70
64
  3
- - - - - - - - - - - - - - - - - - - -
 72
65
 73
2
 40
0.2
 49
0.1
 74
0
 49
-0.1
 74
0
  0
ENDTAB
  0
TABLE
  2
LAYER
  5
2
100
AcDbSymbolTable
 70
36
  0
LAYER
  5
10
100
AcDbSymbolTableRecord
100
AcDbLayerTableRecord
  2
0
 70
0
 62
7
  6
CONTINUOUS
370
-3
390
F
  0
LAYER
  5
1FA
100
AcDbSymbolTableRecord
100
AcDbLayerTableRecord
  2
DEFAULT_1
 70
0
 62
7
  6
CENTER
370
-3
390
F
  0
LAYER
  5
1FB
100
AcDbSymbolTableRecord
100
AcDbLayerTableRecord
  2
DEFAULT_2
 70
0
 62
8
  6
HIDDEN
370
-3
390
F
  0
LAYER
  5
1FC
100
AcDbSymbolTableRecord
100
AcDbLayerTableRecord
  2
DEFAULT_3
 70
0
 62
7
  6
PHANTOM
370
-3
390
F
  0
LAYER
  5
1FD
100
AcDbSymbolTableRecord
100
AcDbLayerTableRecord
  2
DATUMS
 70
0
 62
7
  6
CONTINUOUS
370
-3
390
F
  0
LAYER
  5
1FE
100
AcDbSymbolTableRecord
100
AcDbLayerTableRecord
  2
DATUM_AXIS
 70
0
 62
7
  6
CONTINUOUS
370
-3
390
F
  0
LAYER
  5
1FF
100
AcDbSymbolTableRecord
100
AcDbLayerTableRecord
  2
DATUM_CSYS
 70
0
 62
7
  6
CONTINUOUS
370
-3
390
F
  0
LAYER
  5
200
100
AcDbSymbolTableRecord
100
AcDbLayerTableRecord
  2
DATUM_PLANE
 70
0
 62
7
  6
CONTINUOUS
370
-3
390
F
  0
LAYER
  5
201
100
AcDbSymbolTableRecord
100
AcDbLayerTableRecord
  2
DATUM_POINT
 70
0
 62
7
  6
CONTINUOUS
370
-3
390
F
  0
LAYER
  5
202
100
AcDbSymbolTableRecord
100
AcDbLayerTableRecord
  2
_CURVE
 70
0
 62
7
  6
CONTINUOUS
370
-3
390
F
  0
LAYER
  5
203
100
AcDbSymbolTableRecord
100
AcDbLayerTableRecord
  2
_SURFACE
 70
0
 62
7
  6
CONTINUOUS
370
-3
390
F
  0
LAYER
  5
204
100
AcDbSymbolTableRecord
100
AcDbLayerTableRecord
  2
_X2_9ED88BA4503C_X0_
 70
0
 62
7
  6
CONTINUOUS
370
-3
390
F
  0
LAYER
  5
205
100
AcDbSymbolTableRecord
100
AcDbLayerTableRecord
  2
__REF_CURVE
 70
0
 62
7
  6
CONTINUOUS
370
-3
390
F
  0
LAYER
  5
206
100
AcDbSymbolTableRecord
100
AcDbLayerTableRecord
  2
__REF_SURFACE
 70
0
 62
7
  6
CONTINUOUS
370
-3
390
F
  0
LAYER
  5
207
100
AcDbSymbolTableRecord
100
AcDbLayerTableRecord
  2
___COSMETIC_SKETCH
 70
0
 62
7
  6
CONTINUOUS
370
-3
390
F
  0
LAYER
  5
208
100
AcDbSymbolTableRecord
100
AcDbLayerTableRecord
  2
___NOTE
 70
0
 62
7
  6
CONTINUOUS
370
-3
390
F
  0
LAYER
  5
209
100
AcDbSymbolTableRecord
100
AcDbLayerTableRecord
  2
___SYMBOL
 70
0
 62
7
  6
CONTINUOUS
370
-3
390
F
  0
ENDTAB
  0
TABLE
  2
STYLE
  5
3
100
AcDbSymbolTable
 70
1
  0
STYLE
  5
11
100
AcDbSymbolTableRecord
100
AcDbTextStyleTableRecord
  2
STANDARD
 70
0
 40
0.0
 41
0.8
 50
0.0
 71
0
 42
0.2
  3
txt
  4

  0
STYLE
  5
20A
100
AcDbSymbolTableRecord
100
AcDbTextStyleTableRecord
  2
TEXTSTYLE_1
 70
0
 40
0.0
 41
0.8
 50
0.0
 71
0
 42
0.2
  3
gdt
  4

  0
STYLE
  5
20B
100
AcDbSymbolTableRecord
100
AcDbTextStyleTableRecord
  2
TEXTSTYLE_2
 70
0
 40
0.0
 41
1.0
 50
0.0
 71
0
 42
0.2
  3
gdt
  4

  0
STYLE
  5
20C
100
AcDbSymbolTableRecord
100
AcDbTextStyleTableRecord
  2
TEXTSTYLE_3
 70
0
 40
0.0
 41
1.0
 50
0.0
 71
0
 42
0.2
  3
txt
  4

  0
ENDTAB
  0
TABLE
  2
VIEW
  5
6
100
AcDbSymbolTable
 70
0
  0
ENDTAB
  0
TABLE
  2
UCS
  5
7
100
AcDbSymbolTable
 70
0
  0
ENDTAB
  0
TABLE
  2
APPID
  5
9
100
AcDbSymbolTable
 70
1
  0
APPID
  5
20D
100
AcDbSymbolTableRecord
100
AcDbRegAppTableRecord
  2
ACAD
 70
0
  0
ENDTAB
  0
TABLE
  2
BLOCK_RECORD
  5
1
100
AcDbSymbolTable
 70
0
  0
BLOCK_RECORD
  5
20E
100
AcDbSymbolTableRecord
100
AcDbBlockTableRecord
  2
*Model_Space
  0
BLOCK_RECORD
  5
20F
100
AcDbSymbolTableRecord
100
AcDbBlockTableRecord
  2
*Paper_Space
  0
BLOCK_RECORD
  5
210
100
AcDbSymbolTableRecord
100
AcDbBlockTableRecord
  2
_FILLED
  0
BLOCK_RECORD
  5
211
100
AcDbSymbolTableRecord
100
AcDbBlockTableRecord
  2
*D0
  0
BLOCK_RECORD
  5
212
100
AcDbSymbolTableRecord
100
AcDbBlockTableRecord
  2
*D1
  0
BLOCK_RECORD
  5
213
100
AcDbSymbolTableRecord
100
AcDbBlockTableRecord
  2
TEMPLATE_NUMBER_BL4
  0
BLOCK_RECORD
  5
214
100
AcDbSymbolTableRecord
100
AcDbBlockTableRecord
  2
TEMPLATE_NUMBER_BL3
  0
BLOCK_RECORD
  5
215
100
AcDbSymbolTableRecord
100
AcDbBlockTableRecord
  2
COPYRIGHT_YEAR_BL2
  0
BLOCK_RECORD
  5
216
100
AcDbSymbolTableRecord
100
AcDbBlockTableRecord
  2
KOHLER_BL1
  0
BLOCK_RECORD
  5
217
100
AcDbSymbolTableRecord
100
AcDbBlockTableRecord
  2
SCISSORS_BL0
  0
ENDTAB
  0
TABLE
  2
DIMSTYLE
  5
A
100
AcDbSymbolTable
 70
1
100
AcDbDimStyleTable
 71
0
  0
DIMSTYLE
105
218
100
AcDbSymbolTableRecord
100
AcDbDimStyleTableRecord
  2
STANDARD
 70
0
  3

  4

 40
1.0
 41
0.1875
 42
0.0625
 43
0.38
 44
0.125
 45
0.0
 46
0.0
 47
0.01
 48
0.01
140
0.15625
141
0.09
142
0.0
143
25.4
144
1.0
145
0.0
146
1.0
147
0.09
 71
1
 72
0
 73
1
 74
1
 75
0
 76
0
 77
0
 78
4
 79
1
170
1
171
2
172
0
173
0
174
0
175
0
176
0
177
0
178
0
270
2
179
3
271
3
272
3
273
2
274
2
275
0
280
0
281
0
282
0
283
1
284
4
285
0
286
0
287
3
288
0
340
11
278
46
341
210
342
210
343
210
344
210
  0
DIMSTYLE
105
219
100
AcDbSymbolTableRecord
100
AcDbDimStyleTableRecord
  2
DIMSTYLE_1
 70
0
  3

  4

 40
1.0
 41
0.1875
 42
0.0625
 43
0.38
 44
0.125
 45
0.0
 46
0.0
 47
0.0000000001
 48
0.0000000001
140
0.15625
141
0.09
142
0.0
143
25.4
144
1.0
145
0.0
146
1.0
147
0.078125
 71
0
 72
0
 73
1
 74
1
 75
0
 76
0
 77
0
 78
4
 79
1
170
1
171
0
172
0
173
0
174
0
175
0
176
0
177
0
178
0
270
2
179
3
271
4
272
16
273
2
274
0
275
0
280
0
281
0
282
0
283
1
284
4
285
0
286
0
287
3
288
0
340
11
278
46
341
210
342
210
343
210
344
210
  0
DIMSTYLE
105
21A
100
AcDbSymbolTableRecord
100
AcDbDimStyleTableRecord
  2
DIMSTYLE_2
 70
0
  3

  4

 40
1.0
 41
0.1875
 42
0.0625
 43
0.38
 44
0.125
 45
0.0
 46
0.0
 47
0.0
 48
0.0
140
0.15625
141
0.09
142
0.0
143
25.4
144
1.0
145
0.0
146
1.0
147
0.078125
 71
0
 72
0
 73
1
 74
1
 75
0
 76
0
 77
0
 78
4
 79
1
170
1
171
0
172
0
173
0
174
0
175
0
176
0
177
0
178
0
270
2
179
3
271
5
272
32
273
2
274
1
275
0
280
0
281
0
282
0
283
1
284
4
285
0
286
0
287
3
288
0
340
11
278
46
341
210
342
210
343
210
344
210
  0
ENDTAB
  0
ENDSEC
  0
SECTION
  2
BLOCKS
  0
BLOCK
  5
20
100
AcDbEntity
  8
0
100
AcDbBlockBegin
  2
*Model_Space
 70
0
 10
0.0
 20
0.0
 30
0.0
  3
*Model_Space
  1

  0
ENDBLK
  5
21
100
AcDbEntity
  8
0
100
AcDbBlockEnd
  0
BLOCK
  5
1C
100
AcDbEntity
  8
0
100
AcDbBlockBegin
  2
*Paper_Space
 70
0
 10
0.0
 20
0.0
 30
0.0
  3
*Paper_Space
  1

  0
ENDBLK
  5
1D
100
AcDbEntity
  8
0
100
AcDbBlockEnd
  0
BLOCK
  5
21B
100
AcDbEntity
  8
___SYMBOL
100
AcDbBlockBegin
 62
2
  6
CONTINUOUS
  2
TEMPLATE_NUMBER_BL4
 70
64
 10
15.2879609408
 20
2.2144225471
  3
TEMPLATE_NUMBER_BL4
  1

  0
TEXT
  5
21C
100
AcDbEntity
  8
___SYMBOL
100
AcDbText
 62
2
  6
CONTINUOUS
 10
14.6004609408
 20
2.1362975471
  7
STANDARD
 40
0.15625
  1
1551950-7
 41
0.8
 72
0
100
AcDbText
  0
TEXT
  5
21D
100
AcDbEntity
  8
___SYMBOL
100
AcDbText
 62
2
  6
CONTINUOUS
 10
15.7254609408
 20
2.1362975471
  7
STANDARD
 40
0.15625
  1
-B
 41
0.8
 72
0
100
AcDbText
  0
ENDBLK
  5
21E
100
AcDbEntity
  8
0
  6
BYBLOCK
 62
0
100
AcDbBlockEnd
  0
BLOCK
  5
21F
100
AcDbEntity
  8
___SYMBOL
100
AcDbBlockBegin
 62
2
  6
CONTINUOUS
  2
TEMPLATE_NUMBER_BL3
 70
64
 10
15.5000486262
 20
5.0155123034
  3
TEMPLATE_NUMBER_BL3
  1

  0
TEXT
  5
220
100
AcDbEntity
  8
___SYMBOL
100
AcDbText
 62
2
  6
CONTINUOUS
 10
14.8125486262
 20
4.9373873034
  7
STANDARD
 40
0.15625
  1
1551950-7
 41
0.8
 72
0
100
AcDbText
  0
TEXT
  5
221
100
AcDbEntity
  8
___SYMBOL
100
AcDbText
 62
2
  6
CONTINUOUS
 10
15.9375486262
 20
4.9373873034
  7
STANDARD
 40
0.15625
  1
-B
 41
0.8
 72
0
100
AcDbText
  0
ENDBLK
  5
222
100
AcDbEntity
  8
0
  6
BYBLOCK
 62
0
100
AcDbBlockEnd
  0
BLOCK
  5
223
100
AcDbEntity
  8
___SYMBOL
100
AcDbBlockBegin
 62
2
  6
CONTINUOUS
  2
COPYRIGHT_YEAR_BL2
 70
64
 10
15.136619468
 20
4.5697541538
  3
COPYRIGHT_YEAR_BL2
  1

  0
TEXT
  5
224
100
AcDbEntity
  8
___SYMBOL
100
AcDbText
 62
2
  6
CONTINUOUS
 10
14.354631277
 20
4.4896662049
  7
STANDARD
 40
0.15625
  1
2023 KOHLER CO.
 41
0.8
 72
0
100
AcDbText
  0
TEXT
  5
225
100
AcDbEntity
  8
___SYMBOL
100
AcDbText
 62
7
  6
CONTINUOUS
 10
14.0973092779
 20
4.4919949549
  7
TEXTSTYLE_3
 40
0.15625
  1
C
 41
1.0
 72
0
100
AcDbText
  0
CIRCLE
  5
226
100
AcDbEntity
  8
___SYMBOL
100
AcDbCircle
 62
7
  6
CONTINUOUS
 10
14.1759646961
 20
4.5697541538
 40
0.1323570371
  0
ENDBLK
  5
227
100
AcDbEntity
  8
0
  6
BYBLOCK
 62
0
100
AcDbBlockEnd
  0
BLOCK
  5
228
100
AcDbEntity
  8
___SYMBOL
100
AcDbBlockBegin
 62
2
  6
CONTINUOUS
  2
KOHLER_BL1
 70
64
 10
8.0098776219
 20
16.0911631127
  3
KOHLER_BL1
  1

  0
LINE
  5
229
100
AcDbEntity
  8
___SYMBOL
100
AcDbLine
 62
2
  6
CONTINUOUS
 10
6.8593851172
 20
16.4147299148
 11
7.0513996321
 21
16.4147299148
  0
LINE
  5
22A
100
AcDbEntity
  8
___SYMBOL
100
AcDbLine
 62
2
  6
CONTINUOUS
 10
7.0513996321
 20
16.4147299148
 11
6.7216548764
 21
16.2509490678
  0
LINE
  5
22B
100
AcDbEntity
  8
___SYMBOL
100
AcDbLine
 62
2
  6
CONTINUOUS
 10
6.7216548764
 20
16.2509490678
 11
6.8593851172
 21
16.4147299148
  0
SOLID
  5
22C
100
AcDbEntity
  8
___SYMBOL
100
AcDbTrace
 62
2
  6
CONTINUOUS
 10
6.8593851172
 20
16.4147299148
 11
7.0513996321
 21
16.4147299148
 12
6.7216548764
 22
16.2509490678
 13
6.7216548764
 23
16.2509490678
  0
LINE
  5
22D
100
AcDbEntity
  8
___SYMBOL
100
AcDbLine
 62
2
  6
CONTINUOUS
 10
6.8381487084
 20
16.1611441055
 11
6.7216548764
 21
16.2509490678
  0
LINE
  5
22E
100
AcDbEntity
  8
___SYMBOL
100
AcDbLine
 62
2
  6
CONTINUOUS
 10
6.7216548764
 20
16.2509490678
 11
7.0513996321
 21
16.4147299148
  0
LINE
  5
22F
100
AcDbEntity
  8
___SYMBOL
100
AcDbLine
 62
2
  6
CONTINUOUS
 10
7.0513996321
 20
16.4147299148
 11
6.8381487084
 21
16.1611441055
  0
SOLID
  5
230
100
AcDbEntity
  8
___SYMBOL
100
AcDbTrace
 62
2
  6
CONTINUOUS
 10
6.8381487084
 20
16.1611441055
 11
6.7216548764
 21
16.2509490678
 12
7.0513996321
 22
16.4147299148
 13
7.0513996321
 23
16.4147299148
  0
LINE
  5
231
100
AcDbEntity
  8
___SYMBOL
100
AcDbLine
 62
2
  6
CONTINUOUS
 10
6.8381487084
 20
16.1611441055
 11
6.8753549568
 21
15.8289605529
  0
LINE
  5
232
100
AcDbEntity
  8
___SYMBOL
100
AcDbLine
 62
2
  6
CONTINUOUS
 10
6.8753549568
 20
15.8289605529
 11
6.7216548764
 21
16.0304107655
  0
LINE
  5
233
100
AcDbEntity
  8
___SYMBOL
100
AcDbLine
 62
2
  6
CONTINUOUS
 10
6.7216548764
 20
16.0304107655
 11
6.8381487084
 21
16.1611441055
  0
SOLID
  5
234
100
AcDbEntity
  8
___SYMBOL
100
AcDbTrace
 62
2
  6
CONTINUOUS
 10
6.8381487084
 20
16.1611441055
 11
6.8753549568
 21
15.8289605529
 12
6.7216548764
 22
16.0304107655
 13
6.7216548764
 23
16.0304107655
  0
LINE
  5
235
100
AcDbEntity
  8
___SYMBOL
100
AcDbLine
 62
2
  6
CONTINUOUS
 10
7.0915941142
 20
15.8289605529
 11
6.8753549568
 21
15.8289605529
  0
LINE
  5
236
100
AcDbEntity
  8
___SYMBOL
100
AcDbLine
 62
2
  6
CONTINUOUS
 10
6.8753549568
 20
15.8289605529
 11
6.8381487084
 21
16.1611441055
  0
LINE
  5
237
100
AcDbEntity
  8
___SYMBOL
100
AcDbLine
 62
2
  6
CONTINUOUS
 10
6.8381487084
 20
16.1611441055
 11
7.0915941142
 21
15.8289605529
  0
SOLID
  5
238
100
AcDbEntity
  8
___SYMBOL
100
AcDbTrace
 62
2
  6
CONTINUOUS
 10
7.0915941142
 20
15.8289605529
 11
6.8753549568
 21
15.8289605529
 12
6.8381487084
 22
16.1611441055
 13
6.8381487084
 23
16.1611441055
  0
LINE
  5
239
100
AcDbEntity
  8
___SYMBOL
100
AcDbLine
 62
2
  6
CONTINUOUS
 10
6.5471976219
 20
15.8289365553
 11
6.7216548764
 21
16.0304107655
  0
LINE
  5
23A
100
AcDbEntity
  8
___SYMBOL
100
AcDbLine
 62
2
  6
CONTINUOUS
 10
6.7216548764
 20
16.0304107655
 11
6.7216548764
 21
15.8289605529
  0
LINE
  5
23B
100
AcDbEntity
  8
___SYMBOL
100
AcDbLine
 62
2
  6
CONTINUOUS
 10
6.7216548764
 20
15.8289605529
 11
6.5471976219
 21
15.8289365553
  0
SOLID
  5
23C
100
AcDbEntity
  8
___SYMBOL
100
AcDbTrace
 62
2
  6
CONTINUOUS
 10
6.5471976219
 20
15.8289365553
 11
6.7216548764
 21
16.0304107655
 12
6.7216548764
 22
15.8289605529
 13
6.7216548764
 23
15.8289605529
  0
LINE
  5
23D
100
AcDbEntity
  8
___SYMBOL
100
AcDbLine
 62
2
  6
CONTINUOUS
 10
6.7216548764
 20
16.0304107655
 11
6.7216548764
 21
16.2509490678
  0
LINE
  5
23E
100
AcDbEntity
  8
___SYMBOL
100
AcDbLine
 62
2
  6
CONTINUOUS
 10
6.7216548764
 20
16.2509490678
 11
6.8381487084
 21
16.1611441055
  0
LINE
  5
23F
100
AcDbEntity
  8
___SYMBOL
100
AcDbLine
 62
2
  6
CONTINUOUS
 10
6.8381487084
 20
16.1611441055
 11
6.7216548764
 21
16.0304107655
  0
SOLID
  5
240
100
AcDbEntity
  8
___SYMBOL
100
AcDbTrace
 62
2
  6
CONTINUOUS
 10
6.7216548764
 20
16.0304107655
 11
6.7216548764
 21
16.2509490678
 12
6.8381487084
 22
16.1611441055
 13
6.8381487084
 23
16.1611441055
  0
LINE
  5
241
100
AcDbEntity
  8
___SYMBOL
100
AcDbLine
 62
2
  6
CONTINUOUS
 10
6.5471976219
 20
15.8289365553
 11
6.7216548764
 21
16.2509490678
  0
LINE
  5
242
100
AcDbEntity
  8
___SYMBOL
100
AcDbLine
 62
2
  6
CONTINUOUS
 10
6.7216548764
 20
16.2509490678
 11
6.7216548764
 21
16.0304107655
  0
LINE
  5
243
100
AcDbEntity
  8
___SYMBOL
100
AcDbLine
 62
2
  6
CONTINUOUS
 10
6.7216548764
 20
16.0304107655
 11
6.5471976219
 21
15.8289365553
  0
SOLID
  5
244
100
AcDbEntity
  8
___SYMBOL
100
AcDbTrace
 62
2
  6
CONTINUOUS
 10
6.5471976219
 20
15.8289365553
 11
6.7216548764
 21
16.2509490678
 12
6.7216548764
 22
16.0304107655
 13
6.7216548764
 23
16.0304107655
  0
LINE
  5
245
100
AcDbEntity
  8
___SYMBOL
100
AcDbLine
 62
2
  6
CONTINUOUS
 10
6.5471976219
 20
15.8289365553
 11
6.7216548764
 21
16.4147299148
  0
LINE
  5
246
100
AcDbEntity
  8
___SYMBOL
100
AcDbLine
 62
2
  6
CONTINUOUS
 10
6.7216548764
 20
16.4147299148
 11
6.7216548764
 21
16.2509490678
  0
LINE
  5
247
100
AcDbEntity
  8
___SYMBOL
100
AcDbLine
 62
2
  6
CONTINUOUS
 10
6.7216548764
 20
16.2509490678
 11
6.5471976219
 21
15.8289365553
  0
SOLID
  5
248
100
AcDbEntity
  8
___SYMBOL
100
AcDbTrace
 62
2
  6
CONTINUOUS
 10
6.5471976219
 20
15.8289365553
 11
6.7216548764
 21
16.4147299148
 12
6.7216548764
 22
16.2509490678
 13
6.7216548764
 23
16.2509490678
  0
LINE
  5
249
100
AcDbEntity
  8
___SYMBOL
100
AcDbLine
 62
2
  6
CONTINUOUS
 10
6.5471976219
 20
16.4147299148
 11
6.7216548764
 21
16.4147299148
  0
LINE
  5
24A
100
AcDbEntity
  8
___SYMBOL
100
AcDbLine
 62
2
  6
CONTINUOUS
 10
6.7216548764
 20
16.4147299148
 11
6.5471976219
 21
15.8289365553
  0
LINE
  5
24B
100
AcDbEntity
  8
___SYMBOL
100
AcDbLine
 62
2
  6
CONTINUOUS
 10
6.5471976219
 20
15.8289365553
 11
6.5471976219
 21
16.4147299148
  0
SOLID
  5
24C
100
AcDbEntity
  8
___SYMBOL
100
AcDbTrace
 62
2
  6
CONTINUOUS
 10
6.5471976219
 20
16.4147299148
 11
6.7216548764
 21
16.4147299148
 12
6.5471976219
 22
15.8289365553
 13
6.5471976219
 23
15.8289365553
  0
LINE
  5
24D
100
AcDbEntity
  8
___SYMBOL
100
AcDbLine
 62
2
  6
CONTINUOUS
 10
7.2369117585
 20
16.4170750665
 11
7.2992072088
 21
16.4170750665
  0
LINE
  5
24E
100
AcDbEntity
  8
___SYMBOL
100
AcDbLine
 62
2
  6
CONTINUOUS
 10
7.2992072088
 20
16.4170750665
 11
7.1759776134
 21
16.4041231141
  0
LINE
  5
24F
100
AcDbEntity
  8
___SYMBOL
100
AcDbLine
 62
2
  6
CONTINUOUS
 10
7.1759776134
 20
16.4041231141
 11
7.2369117585
 21
16.4170750665
  0
SOLID
  5
250
100
AcDbEntity
  8
___SYMBOL
100
AcDbTrace
 62
2
  6
CONTINUOUS
 10
7.2369117585
 20
16.4170750665
 11
7.2992072088
 21
16.4170750665
 12
7.1759776134
 22
16.4041231141
 13
7.1759776134
 23
16.4041231141
  0
LINE
  5
251
100
AcDbEntity
  8
___SYMBOL
100
AcDbLine
 62
2
  6
CONTINUOUS
 10
7.3601413538
 20
16.4041231141
 11
7.1759776134
 21
16.4041231141
  0
LINE
  5
252
100
AcDbEntity
  8
___SYMBOL
100
AcDbLine
 62
2
  6
CONTINUOUS
 10
7.1759776134
 20
16.4041231141
 11
7.2992072088
 21
16.4170750665
  0
LINE
  5
253
100
AcDbEntity
  8
___SYMBOL
100
AcDbLine
 62
2
  6
CONTINUOUS
 10
7.2992072088
 20
16.4170750665
 11
7.3601413538
 21
16.4041231141
  0
SOLID
  5
254
100
AcDbEntity
  8
___SYMBOL
100
AcDbTrace
 62
2
  6
CONTINUOUS
 10
7.3601413538
 20
16.4041231141
 11
7.1759776134
 21
16.4041231141
 12
7.2992072088
 22
16.4170750665
 13
7.2992072088
 23
16.4170750665
  0
LINE
  5
255
100
AcDbEntity
  8
___SYMBOL
100
AcDbLine
 62
2
  6
CONTINUOUS
 10
7.1759776134
 20
16.4041231141
 11
7.3601413538
 21
16.4041231141
  0
LINE
  5
256
100
AcDbEntity
  8
___SYMBOL
100
AcDbLine
 62
2
  6
CONTINUOUS
 10
7.3601413538
 20
16.4041231141
 11
7.1190678879
 21
16.3787852718
  0
LINE
  5
257
100
AcDbEntity
  8
___SYMBOL
100
AcDbLine
 62
2
  6
CONTINUOUS
 10
7.1190678879
 20
16.3787852718
 11
7.1759776134
 21
16.4041231141
  0
SOLID
  5
258
100
AcDbEntity
  8
___SYMBOL
100
AcDbTrace
 62
2
  6
CONTINUOUS
 10
7.1759776134
 20
16.4041231141
 11
7.3601413538
 21
16.4041231141
 12
7.1190678879
 22
16.3787852718
 13
7.1190678879
 23
16.3787852718
  0
LINE
  5
259
100
AcDbEntity
  8
___SYMBOL
100
AcDbLine
 62
2
  6
CONTINUOUS
 10
7.4170510793
 20
16.3787852718
 11
7.1190678879
 21
16.3787852718
  0
LINE
  5
25A
100
AcDbEntity
  8
___SYMBOL
100
AcDbLine
 62
2
  6
CONTINUOUS
 10
7.1190678879
 20
16.3787852718
 11
7.3601413538
 21
16.4041231141
  0
LINE
  5
25B
100
AcDbEntity
  8
___SYMBOL
100
AcDbLine
 62
2
  6
CONTINUOUS
 10
7.3601413538
 20
16.4041231141
 11
7.4170510793
 21
16.3787852718
  0
SOLID
  5
25C
100
AcDbEntity
  8
___SYMBOL
100
AcDbTrace
 62
2
  6
CONTINUOUS
 10
7.4170510793
 20
16.3787852718
 11
7.1190678879
 21
16.3787852718
 12
7.3601413538
 22
16.4041231141
 13
7.3601413538
 23
16.4041231141
  0
LINE
  5
25D
100
AcDbEntity
  8
___SYMBOL
100
AcDbLine
 62
2
  6
CONTINUOUS
 10
7.1190678879
 20
16.3787852718
 11
7.4170510793
 21
16.3787852718
  0
LINE
  5
25E
100
AcDbEntity
  8
___SYMBOL
100
AcDbLine
 62
2
  6
CONTINUOUS
 10
7.4170510793
 20
16.3787852718
 11
7.0686698101
 21
16.3421689249
  0
LINE
  5
25F
100
AcDbEntity
  8
___SYMBOL
100
AcDbLine
 62
2
  6
CONTINUOUS
 10
7.0686698101
 20
16.3421689249
 11
7.1190678879
 21
16.3787852718
  0
SOLID
  5
260
100
AcDbEntity
  8
___SYMBOL
100
AcDbTrace
 62
2
  6
CONTINUOUS
 10
7.1190678879
 20
16.3787852718
 11
7.4170510793
 21
16.3787852718
 12
7.0686698101
 22
16.3421689249
 13
7.0686698101
 23
16.3421689249
  0
LINE
  5
261
100
AcDbEntity
  8
___SYMBOL
100
AcDbLine
 62
2
  6
CONTINUOUS
 10
7.4674491572
 20
16.3421689249
 11
7.0686698101
 21
16.3421689249
  0
LINE
  5
262
100
AcDbEntity
  8
___SYMBOL
100
AcDbLine
 62
2
  6
CONTINUOUS
 10
7.0686698101
 20
16.3421689249
 11
7.4170510793
 21
16.3787852718
  0
LINE
  5
263
100
AcDbEntity
  8
___SYMBOL
100
AcDbLine
 62
2
  6
CONTINUOUS
 10
7.4170510793
 20
16.3787852718
 11
7.4674491572
 21
16.3421689249
  0
SOLID
  5
264
100
AcDbEntity
  8
___SYMBOL
100
AcDbTrace
 62
2
  6
CONTINUOUS
 10
7.4674491572
 20
16.3421689249
 11
7.0686698101
 21
16.3421689249
 12
7.4170510793
 22
16.3787852718
 13
7.4170510793
 23
16.3787852718
  0
LINE
  5
265
100
AcDbEntity
  8
___SYMBOL
100
AcDbLine
 62
2
  6
CONTINUOUS
 10
7.0686698101
 20
16.3421689249
 11
7.4674491572
 21
16.3421689249
  0
LINE
  5
266
100
AcDbEntity
  8
___SYMBOL
100
AcDbLine
 62
2
  6
CONTINUOUS
 10
7.4674491572
 20
16.3421689249
 11
7.0269860177
 21
16.2958743835
  0
LINE
  5
267
100
AcDbEntity
  8
___SYMBOL
100
AcDbLine
 62
2
  6
CONTINUOUS
 10
7.0269860177
 20
16.2958743835
 11
7.0686698101
 21
16.3421689249
  0
SOLID
  5
268
100
AcDbEntity
  8
___SYMBOL
100
AcDbTrace
 62
2
  6
CONTINUOUS
 10
7.0686698101
 20
16.3421689249
 11
7.4674491572
 21
16.3421689249
 12
7.0269860177
 22
16.2958743835
 13
7.0269860177
 23
16.2958743835
  0
LINE
  5
269
100
AcDbEntity
  8
___SYMBOL
100
AcDbLine
 62
2
  6
CONTINUOUS
 10
7.5091329495
 20
16.2958743835
 11
7.0269860177
 21
16.2958743835
  0
LINE
  5
26A
100
AcDbEntity
  8
___SYMBOL
100
AcDbLine
 62
2
  6
CONTINUOUS
 10
7.0269860177
 20
16.2958743835
 11
7.4674491572
 21
16.3421689249
  0
LINE
  5
26B
100
AcDbEntity
  8
___SYMBOL
100
AcDbLine
 62
2
  6
CONTINUOUS
 10
7.4674491572
 20
16.3421689249
 11
7.5091329495
 21
16.2958743835
  0
SOLID
  5
26C
100
AcDbEntity
  8
___SYMBOL
100
AcDbTrace
 62
2
  6
CONTINUOUS
 10
7.5091329495
 20
16.2958743835
 11
7.0269860177
 21
16.2958743835
 12
7.4674491572
 22
16.3421689249
 13
7.4674491572
 23
16.3421689249
  0
LINE
  5
26D
100
AcDbEntity
  8
___SYMBOL
100
AcDbLine
 62
2
  6
CONTINUOUS
 10
6.9958382926
 20
16.2419249411
 11
7.5091329495
 21
16.2958743835
  0
LINE
  5
26E
100
AcDbEntity
  8
___SYMBOL
100
AcDbLine
 62
2
  6
CONTINUOUS
 10
7.5091329495
 20
16.2958743835
 11
7.2680594836
 21
16.2454629475
  0
LINE
  5
26F
100
AcDbEntity
  8
___SYMBOL
100
AcDbLine
 62
2
  6
CONTINUOUS
 10
7.2680594836
 20
16.2454629475
 11
6.9958382926
 21
16.2419249411
  0
SOLID
  5
270
100
AcDbEntity
  8
___SYMBOL
100
AcDbTrace
 62
2
  6
CONTINUOUS
 10
6.9958382926
 20
16.2419249411
 11
7.5091329495
 21
16.2958743835
 12
7.2680594836
 22
16.2454629475
 13
7.2680594836
 23
16.2454629475
  0
LINE
  5
271
100
AcDbEntity
  8
___SYMBOL
100
AcDbLine
 62
2
  6
CONTINUOUS
 10
7.0269860177
 20
16.2958743835
 11
7.5091329495
 21
16.2958743835
  0
LINE
  5
272
100
AcDbEntity
  8
___SYMBOL
100
AcDbLine
 62
2
  6
CONTINUOUS
 10
7.5091329495
 20
16.2958743835
 11
6.9958382926
 21
16.2419249411
  0
LINE
  5
273
100
AcDbEntity
  8
___SYMBOL
100
AcDbLine
 62
2
  6
CONTINUOUS
 10
6.9958382926
 20
16.2419249411
 11
7.0269860177
 21
16.2958743835
  0
SOLID
  5
274
100
AcDbEntity
  8
___SYMBOL
100
AcDbTrace
 62
2
  6
CONTINUOUS
 10
7.0269860177
 20
16.2958743835
 11
7.5091329495
 21
16.2958743835
 12
6.9958382926
 22
16.2419249411
 13
6.9958382926
 23
16.2419249411
  0
LINE
  5
275
100
AcDbEntity
  8
___SYMBOL
100
AcDbLine
 62
2
  6
CONTINUOUS
 10
7.5402806747
 20
16.2419249411
 11
7.2680594836
 21
16.2454629475
  0
LINE
  5
276
100
AcDbEntity
  8
___SYMBOL
100
AcDbLine
 62
2
  6
CONTINUOUS
 10
7.2680594836
 20
16.2454629475
 11
7.5091329495
 21
16.2958743835
  0
LINE
  5
277
100
AcDbEntity
  8
___SYMBOL
100
AcDbLine
 62
2
  6
CONTINUOUS
 10
7.5091329495
 20
16.2958743835
 11
7.5402806747
 21
16.2419249411
  0
SOLID
  5
278
100
AcDbEntity
  8
___SYMBOL
100
AcDbTrace
 62
2
  6
CONTINUOUS
 10
7.5402806747
 20
16.2419249411
 11
7.2680594836
 21
16.2454629475
 12
7.5091329495
 22
16.2958743835
 13
7.5091329495
 23
16.2958743835
  0
LINE
  5
279
100
AcDbEntity
  8
___SYMBOL
100
AcDbLine
 62
2
  6
CONTINUOUS
 10
7.2295131088
 20
16.2393578014
 11
6.9958382926
 21
16.2419249411
  0
LINE
  5
27A
100
AcDbEntity
  8
___SYMBOL
100
AcDbLine
 62
2
  6
CONTINUOUS
 10
6.9958382926
 20
16.2419249411
 11
7.2680594836
 21
16.2454629475
  0
LINE
  5
27B
100
AcDbEntity
  8
___SYMBOL
100
AcDbLine
 62
2
  6
CONTINUOUS
 10
7.2680594836
 20
16.2454629475
 11
7.2295131088
 21
16.2393578014
  0
SOLID
  5
27C
100
AcDbEntity
  8
___SYMBOL
100
AcDbTrace
 62
2
  6
CONTINUOUS
 10
7.2295131088
 20
16.2393578014
 11
6.9958382926
 21
16.2419249411
 12
7.2680594836
 22
16.2454629475
 13
7.2680594836
 23
16.2454629475
  0
LINE
  5
27D
100
AcDbEntity
  8
___SYMBOL
100
AcDbLine
 62
2
  6
CONTINUOUS
 10
7.2680594836
 20
16.2454629475
 11
7.5402806747
 21
16.2419249411
  0
LINE
  5
27E
100
AcDbEntity
  8
___SYMBOL
100
AcDbLine
 62
2
  6
CONTINUOUS
 10
7.5402806747
 20
16.2419249411
 11
7.3066058585
 21
16.2393578014
  0
LINE
  5
27F
100
AcDbEntity
  8
___SYMBOL
100
AcDbLine
 62
2
  6
CONTINUOUS
 10
7.3066058585
 20
16.2393578014
 11
7.2680594836
 21
16.2454629475
  0
SOLID
  5
280
100
AcDbEntity
  8
___SYMBOL
100
AcDbTrace
 62
2
  6
CONTINUOUS
 10
7.2680594836
 20
16.2454629475
 11
7.5402806747
 21
16.2419249411
 12
7.3066058585
 22
16.2393578014
 13
7.3066058585
 23
16.2393578014
  0
LINE
  5
281
100
AcDbEntity
  8
___SYMBOL
100
AcDbLine
 62
2
  6
CONTINUOUS
 10
6.9765879399
 20
16.1826784473
 11
7.1947399217
 21
16.2216399777
  0
LINE
  5
282
100
AcDbEntity
  8
___SYMBOL
100
AcDbLine
 62
2
  6
CONTINUOUS
 10
7.1947399217
 20
16.2216399777
 11
7.1671437642
 21
16.1940438201
  0
LINE
  5
283
100
AcDbEntity
  8
___SYMBOL
100
AcDbLine
 62
2
  6
CONTINUOUS
 10
7.1671437642
 20
16.1940438201
 11
6.9765879399
 21
16.1826784473
  0
SOLID
  5
284
100
AcDbEntity
  8
___SYMBOL
100
AcDbTrace
 62
2
  6
CONTINUOUS
 10
6.9765879399
 20
16.1826784473
 11
7.1947399217
 21
16.2216399777
 12
7.1671437642
 22
16.1940438201
 13
7.1671437642
 23
16.1940438201
  0
LINE
  5
285
100
AcDbEntity
  8
___SYMBOL
100
AcDbLine
 62
2
  6
CONTINUOUS
 10
6.9765879399
 20
16.1826784473
 11
7.2295131088
 21
16.2393578014
  0
LINE
  5
286
100
AcDbEntity
  8
___SYMBOL
100
AcDbLine
 62
2
  6
CONTINUOUS
 10
7.2295131088
 20
16.2393578014
 11
7.1947399217
 21
16.2216399777
  0
LINE
  5
287
100
AcDbEntity
  8
___SYMBOL
100
AcDbLine
 62
2
  6
CONTINUOUS
 10
7.1947399217
 20
16.2216399777
 11
6.9765879399
 21
16.1826784473
  0
SOLID
  5
288
100
AcDbEntity
  8
___SYMBOL
100
AcDbTrace
 62
2
  6
CONTINUOUS
 10
6.9765879399
 20
16.1826784473
 11
7.2295131088
 21
16.2393578014
 12
7.1947399217
 22
16.2216399777
 13
7.1947399217
 23
16.2216399777
  0
LINE
  5
289
100
AcDbEntity
  8
___SYMBOL
100
AcDbLine
 62
2
  6
CONTINUOUS
 10
6.9958382926
 20
16.2419249411
 11
7.2295131088
 21
16.2393578014
  0
LINE
  5
28A
100
AcDbEntity
  8
___SYMBOL
100
AcDbLine
 62
2
  6
CONTINUOUS
 10
7.2295131088
 20
16.2393578014
 11
6.9765879399
 21
16.1826784473
  0
LINE
  5
28B
100
AcDbEntity
  8
___SYMBOL
100
AcDbLine
 62
2
  6
CONTINUOUS
 10
6.9765879399
 20
16.1826784473
 11
6.9958382926
 21
16.2419249411
  0
SOLID
  5
28C
100
AcDbEntity
  8
___SYMBOL
100
AcDbTrace
 62
2
  6
CONTINUOUS
 10
6.9958382926
 20
16.2419249411
 11
7.2295131088
 21
16.2393578014
 12
6.9765879399
 22
16.1826784473
 13
6.9765879399
 23
16.1826784473
  0
LINE
  5
28D
100
AcDbEntity
  8
___SYMBOL
100
AcDbLine
 62
2
  6
CONTINUOUS
 10
7.5402806747
 20
16.2419249411
 11
7.3413790456
 21
16.2216399777
  0
LINE
  5
28E
100
AcDbEntity
  8
___SYMBOL
100
AcDbLine
 62
2
  6
CONTINUOUS
 10
7.3413790456
 20
16.2216399777
 11
7.3066058585
 21
16.2393578014
  0
LINE
  5
28F
100
AcDbEntity
  8
___SYMBOL
100
AcDbLine
 62
2
  6
CONTINUOUS
 10
7.3066058585
 20
16.2393578014
 11
7.5402806747
 21
16.2419249411
  0
SOLID
  5
290
100
AcDbEntity
  8
___SYMBOL
100
AcDbTrace
 62
2
  6
CONTINUOUS
 10
7.5402806747
 20
16.2419249411
 11
7.3413790456
 21
16.2216399777
 12
7.3066058585
 22
16.2393578014
 13
7.3066058585
 23
16.2393578014
  0
LINE
  5
291
100
AcDbEntity
  8
___SYMBOL
100
AcDbLine
 62
2
  6
CONTINUOUS
 10
7.5402806747
 20
16.2419249411
 11
7.3689752031
 21
16.1940438201
  0
LINE
  5
292
100
AcDbEntity
  8
___SYMBOL
100
AcDbLine
 62
2
  6
CONTINUOUS
 10
7.3689752031
 20
16.1940438201
 11
7.3413790456
 21
16.2216399777
  0
LINE
  5
293
100
AcDbEntity
  8
___SYMBOL
100
AcDbLine
 62
2
  6
CONTINUOUS
 10
7.3413790456
 20
16.2216399777
 11
7.5402806747
 21
16.2419249411
  0
SOLID
  5
294
100
AcDbEntity
  8
___SYMBOL
100
AcDbTrace
 62
2
  6
CONTINUOUS
 10
7.5402806747
 20
16.2419249411
 11
7.3689752031
 21
16.1940438201
 12
7.3413790456
 22
16.2216399777
 13
7.3413790456
 23
16.2216399777
  0
LINE
  5
295
100
AcDbEntity
  8
___SYMBOL
100
AcDbLine
 62
2
  6
CONTINUOUS
 10
7.5595310274
 20
16.1826784473
 11
7.3689752031
 21
16.1940438201
  0
LINE
  5
296
100
AcDbEntity
  8
___SYMBOL
100
AcDbLine
 62
2
  6
CONTINUOUS
 10
7.3689752031
 20
16.1940438201
 11
7.5402806747
 21
16.2419249411
  0
LINE
  5
297
100
AcDbEntity
  8
___SYMBOL
100
AcDbLine
 62
2
  6
CONTINUOUS
 10
7.5402806747
 20
16.2419249411
 11
7.5595310274
 21
16.1826784473
  0
SOLID
  5
298
100
AcDbEntity
  8
___SYMBOL
100
AcDbTrace
 62
2
  6
CONTINUOUS
 10
7.5595310274
 20
16.1826784473
 11
7.3689752031
 21
16.1940438201
 12
7.5402806747
 22
16.2419249411
 13
7.5402806747
 23
16.2419249411
  0
LINE
  5
299
100
AcDbEntity
  8
___SYMBOL
100
AcDbLine
 62
2
  6
CONTINUOUS
 10
7.1494259403
 20
16.159270633
 11
6.9765879399
 21
16.1826784473
  0
LINE
  5
29A
100
AcDbEntity
  8
___SYMBOL
100
AcDbLine
 62
2
  6
CONTINUOUS
 10
6.9765879399
 20
16.1826784473
 11
7.1671437642
 21
16.1940438201
  0
LINE
  5
29B
100
AcDbEntity
  8
___SYMBOL
100
AcDbLine
 62
2
  6
CONTINUOUS
 10
7.1671437642
 20
16.1940438201
 11
7.1494259403
 21
16.159270633
  0
SOLID
  5
29C
100
AcDbEntity
  8
___SYMBOL
100
AcDbTrace
 62
2
  6
CONTINUOUS
 10
7.1494259403
 20
16.159270633
 11
6.9765879399
 21
16.1826784473
 12
7.1671437642
 22
16.1940438201
 13
7.1671437642
 23
16.1940438201
  0
LINE
  5
29D
100
AcDbEntity
  8
___SYMBOL
100
AcDbLine
 62
2
  6
CONTINUOUS
 10
7.3689752031
 20
16.1940438201
 11
7.5595310274
 21
16.1826784473
  0
LINE
  5
29E
100
AcDbEntity
  8
___SYMBOL
100
AcDbLine
 62
2
  6
CONTINUOUS
 10
7.5595310274
 20
16.1826784473
 11
7.3866930269
 21
16.159270633
  0
LINE
  5
29F
100
AcDbEntity
  8
___SYMBOL
100
AcDbLine
 62
2
  6
CONTINUOUS
 10
7.3866930269
 20
16.159270633
 11
7.3689752031
 21
16.1940438201
  0
SOLID
  5
2A0
100
AcDbEntity
  8
___SYMBOL
100
AcDbTrace
 62
2
  6
CONTINUOUS
 10
7.3689752031
 20
16.1940438201
 11
7.5595310274
 21
16.1826784473
 12
7.3866930269
 22
16.159270633
 13
7.3866930269
 23
16.159270633
  0
LINE
  5
2A1
100
AcDbEntity
  8
___SYMBOL
100
AcDbLine
 62
2
  6
CONTINUOUS
 10
6.9765879399
 20
16.1826784473
 11
7.1494259403
 21
16.159270633
  0
LINE
  5
2A2
100
AcDbEntity
  8
___SYMBOL
100
AcDbLine
 62
2
  6
CONTINUOUS
 10
7.1494259403
 20
16.159270633
 11
6.9700762922
 21
16.1207242582
  0
LINE
  5
2A3
100
AcDbEntity
  8
___SYMBOL
100
AcDbLine
 62
2
  6
CONTINUOUS
 10
6.9700762922
 20
16.1207242582
 11
6.9765879399
 21
16.1826784473
  0
SOLID
  5
2A4
100
AcDbEntity
  8
___SYMBOL
100
AcDbTrace
 62
2
  6
CONTINUOUS
 10
6.9765879399
 20
16.1826784473
 11
7.1494259403
 21
16.159270633
 12
6.9700762922
 22
16.1207242582
 13
6.9700762922
 23
16.1207242582
  0
LINE
  5
2A5
100
AcDbEntity
  8
___SYMBOL
100
AcDbLine
 62
2
  6
CONTINUOUS
 10
7.1433207944
 20
16.1207242582
 11
6.9700762922
 21
16.1207242582
  0
LINE
  5
2A6
100
AcDbEntity
  8
___SYMBOL
100
AcDbLine
 62
2
  6
CONTINUOUS
 10
6.9700762922
 20
16.1207242582
 11
7.1494259403
 21
16.159270633
  0
LINE
  5
2A7
100
AcDbEntity
  8
___SYMBOL
100
AcDbLine
 62
2
  6
CONTINUOUS
 10
7.1494259403
 20
16.159270633
 11
7.1433207944
 21
16.1207242582
  0
SOLID
  5
2A8
100
AcDbEntity
  8
___SYMBOL
100
AcDbTrace
 62
2
  6
CONTINUOUS
 10
7.1433207944
 20
16.1207242582
 11
6.9700762922
 21
16.1207242582
 12
7.1494259403
 22
16.159270633
 13
7.1494259403
 23
16.159270633
  0
LINE
  5
2A9
100
AcDbEntity
  8
___SYMBOL
100
AcDbLine
 62
2
  6
CONTINUOUS
 10
7.5595310274
 20
16.1826784473
 11
7.3927981729
 21
16.1207242582
  0
LINE
  5
2AA
100
AcDbEntity
  8
___SYMBOL
100
AcDbLine
 62
2
  6
CONTINUOUS
 10
7.3927981729
 20
16.1207242582
 11
7.3866930269
 21
16.159270633
  0
LINE
  5
2AB
100
AcDbEntity
  8
___SYMBOL
100
AcDbLine
 62
2
  6
CONTINUOUS
 10
7.3866930269
 20
16.159270633
 11
7.5595310274
 21
16.1826784473
  0
SOLID
  5
2AC
100
AcDbEntity
  8
___SYMBOL
100
AcDbTrace
 62
2
  6
CONTINUOUS
 10
7.5595310274
 20
16.1826784473
 11
7.3927981729
 21
16.1207242582
 12
7.3866930269
 22
16.159270633
 13
7.3866930269
 23
16.159270633
  0
LINE
  5
2AD
100
AcDbEntity
  8
___SYMBOL
100
AcDbLine
 62
2
  6
CONTINUOUS
 10
7.566042675
 20
16.1207242582
 11
7.3927981729
 21
16.1207242582
  0
LINE
  5
2AE
100
AcDbEntity
  8
___SYMBOL
100
AcDbLine
 62
2
  6
CONTINUOUS
 10
7.3927981729
 20
16.1207242582
 11
7.5595310274
 21
16.1826784473
  0
LINE
  5
2AF
100
AcDbEntity
  8
___SYMBOL
100
AcDbLine
 62
2
  6
CONTINUOUS
 10
7.5595310274
 20
16.1826784473
 11
7.566042675
 21
16.1207242582
  0
SOLID
  5
2B0
100
AcDbEntity
  8
___SYMBOL
100
AcDbTrace
 62
2
  6
CONTINUOUS
 10
7.566042675
 20
16.1207242582
 11
7.3927981729
 21
16.1207242582
 12
7.5595310274
 22
16.1826784473
 13
7.5595310274
 23
16.1826784473
  0
LINE
  5
2B1
100
AcDbEntity
  8
___SYMBOL
100
AcDbLine
 62
2
  6
CONTINUOUS
 10
7.3927981729
 20
16.1207242582
 11
7.566042675
 21
16.1207242582
  0
LINE
  5
2B2
100
AcDbEntity
  8
___SYMBOL
100
AcDbLine
 62
2
  6
CONTINUOUS
 10
7.566042675
 20
16.1207242582
 11
7.3866930269
 21
16.0821778832
  0
LINE
  5
2B3
100
AcDbEntity
  8
___SYMBOL
100
AcDbLine
 62
2
  6
CONTINUOUS
 10
7.3866930269
 20
16.0821778832
 11
7.3927981729
 21
16.1207242582
  0
SOLID
  5
2B4
100
AcDbEntity
  8
___SYMBOL
100
AcDbTrace
 62
2
  6
CONTINUOUS
 10
7.3927981729
 20
16.1207242582
 11
7.566042675
 21
16.1207242582
 12
7.3866930269
 22
16.0821778832
 13
7.3866930269
 23
16.0821778832
  0
LINE
  5
2B5
100
AcDbEntity
  8
___SYMBOL
100
AcDbLine
 62
2
  6
CONTINUOUS
 10
6.9765879399
 20
16.058770069
 11
7.1433207944
 21
16.1207242582
  0
LINE
  5
2B6
100
AcDbEntity
  8
___SYMBOL
100
AcDbLine
 62
2
  6
CONTINUOUS
 10
7.1433207944
 20
16.1207242582
 11
7.1494259403
 21
16.0821778832
  0
LINE
  5
2B7
100
AcDbEntity
  8
___SYMBOL
100
AcDbLine
 62
2
  6
CONTINUOUS
 10
7.1494259403
 20
16.0821778832
 11
6.9765879399
 21
16.058770069
  0
SOLID
  5
2B8
100
AcDbEntity
  8
___SYMBOL
100
AcDbTrace
 62
2
  6
CONTINUOUS
 10
6.9765879399
 20
16.058770069
 11
7.1433207944
 21
16.1207242582
 12
7.1494259403
 22
16.0821778832
 13
7.1494259403
 23
16.0821778832
  0
LINE
  5
2B9
100
AcDbEntity
  8
___SYMBOL
100
AcDbLine
 62
2
  6
CONTINUOUS
 10
6.9700762922
 20
16.1207242582
 11
7.1433207944
 21
16.1207242582
  0
LINE
  5
2BA
100
AcDbEntity
  8
___SYMBOL
100
AcDbLine
 62
2
  6
CONTINUOUS
 10
7.1433207944
 20
16.1207242582
 11
6.9765879399
 21
16.058770069
  0
LINE
  5
2BB
100
AcDbEntity
  8
___SYMBOL
100
AcDbLine
 62
2
  6
CONTINUOUS
 10
6.9765879399
 20
16.058770069
 11
6.9700762922
 21
16.1207242582
  0
SOLID
  5
2BC
100
AcDbEntity
  8
___SYMBOL
100
AcDbTrace
 62
2
  6
CONTINUOUS
 10
6.9700762922
 20
16.1207242582
 11
7.1433207944
 21
16.1207242582
 12
6.9765879399
 22
16.058770069
 13
6.9765879399
 23
16.058770069
  0
LINE
  5
2BD
100
AcDbEntity
  8
___SYMBOL
100
AcDbLine
 62
2
  6
CONTINUOUS
 10
7.5595310274
 20
16.058770069
 11
7.3866930269
 21
16.0821778832
  0
LINE
  5
2BE
100
AcDbEntity
  8
___SYMBOL
100
AcDbLine
 62
2
  6
CONTINUOUS
 10
7.3866930269
 20
16.0821778832
 11
7.566042675
 21
16.1207242582
  0
LINE
  5
2BF
100
AcDbEntity
  8
___SYMBOL
100
AcDbLine
 62
2
  6
CONTINUOUS
 10
7.566042675
 20
16.1207242582
 11
7.5595310274
 21
16.058770069
  0
SOLID
  5
2C0
100
AcDbEntity
  8
___SYMBOL
100
AcDbTrace
 62
2
  6
CONTINUOUS
 10
7.5595310274
 20
16.058770069
 11
7.3866930269
 21
16.0821778832
 12
7.566042675
 22
16.1207242582
 13
7.566042675
 23
16.1207242582
  0
LINE
  5
2C1
100
AcDbEntity
  8
___SYMBOL
100
AcDbLine
 62
2
  6
CONTINUOUS
 10
7.1671437642
 20
16.0474046962
 11
6.9765879399
 21
16.058770069
  0
LINE
  5
2C2
100
AcDbEntity
  8
___SYMBOL
100
AcDbLine
 62
2
  6
CONTINUOUS
 10
6.9765879399
 20
16.058770069
 11
7.1494259403
 21
16.0821778832
  0
LINE
  5
2C3
100
AcDbEntity
  8
___SYMBOL
100
AcDbLine
 62
2
  6
CONTINUOUS
 10
7.1494259403
 20
16.0821778832
 11
7.1671437642
 21
16.0474046962
  0
SOLID
  5
2C4
100
AcDbEntity
  8
___SYMBOL
100
AcDbTrace
 62
2
  6
CONTINUOUS
 10
7.1671437642
 20
16.0474046962
 11
6.9765879399
 21
16.058770069
 12
7.1494259403
 22
16.0821778832
 13
7.1494259403
 23
16.0821778832
  0
LINE
  5
2C5
100
AcDbEntity
  8
___SYMBOL
100
AcDbLine
 62
2
  6
CONTINUOUS
 10
7.3866930269
 20
16.0821778832
 11
7.5595310274
 21
16.058770069
  0
LINE
  5
2C6
100
AcDbEntity
  8
___SYMBOL
100
AcDbLine
 62
2
  6
CONTINUOUS
 10
7.5595310274
 20
16.058770069
 11
7.3689752031
 21
16.0474046962
  0
LINE
  5
2C7
100
AcDbEntity
  8
___SYMBOL
100
AcDbLine
 62
2
  6
CONTINUOUS
 10
7.3689752031
 20
16.0474046962
 11
7.3866930269
 21
16.0821778832
  0
SOLID
  5
2C8
100
AcDbEntity
  8
___SYMBOL
100
AcDbTrace
 62
2
  6
CONTINUOUS
 10
7.3866930269
 20
16.0821778832
 11
7.5595310274
 21
16.058770069
 12
7.3689752031
 22
16.0474046962
 13
7.3689752031
 23
16.0474046962
  0
LINE
  5
2C9
100
AcDbEntity
  8
___SYMBOL
100
AcDbLine
 62
2
  6
CONTINUOUS
 10
6.9958382926
 20
15.9995235752
 11
7.1947399217
 21
16.0198085386
  0
LINE
  5
2CA
100
AcDbEntity
  8
___SYMBOL
100
AcDbLine
 62
2
  6
CONTINUOUS
 10
7.1947399217
 20
16.0198085386
 11
7.2295131088
 21
16.0020907148
  0
LINE
  5
2CB
100
AcDbEntity
  8
___SYMBOL
100
AcDbLine
 62
2
  6
CONTINUOUS
 10
7.2295131088
 20
16.0020907148
 11
6.9958382926
 21
15.9995235752
  0
SOLID
  5
2CC
100
AcDbEntity
  8
___SYMBOL
100
AcDbTrace
 62
2
  6
CONTINUOUS
 10
6.9958382926
 20
15.9995235752
 11
7.1947399217
 21
16.0198085386
 12
7.2295131088
 22
16.0020907148
 13
7.2295131088
 23
16.0020907148
  0
LINE
  5
2CD
100
AcDbEntity
  8
___SYMBOL
100
AcDbLine
 62
2
  6
CONTINUOUS
 10
6.9958382926
 20
15.9995235752
 11
7.1671437642
 21
16.0474046962
  0
LINE
  5
2CE
100
AcDbEntity
  8
___SYMBOL
100
AcDbLine
 62
2
  6
CONTINUOUS
 10
7.1671437642
 20
16.0474046962
 11
7.1947399217
 21
16.0198085386
  0
LINE
  5
2CF
100
AcDbEntity
  8
___SYMBOL
100
AcDbLine
 62
2
  6
CONTINUOUS
 10
7.1947399217
 20
16.0198085386
 11
6.9958382926
 21
15.9995235752
  0
SOLID
  5
2D0
100
AcDbEntity
  8
___SYMBOL
100
AcDbTrace
 62
2
  6
CONTINUOUS
 10
6.9958382926
 20
15.9995235752
 11
7.1671437642
 21
16.0474046962
 12
7.1947399217
 22
16.0198085386
 13
7.1947399217
 23
16.0198085386
  0
LINE
  5
2D1
100
AcDbEntity
  8
___SYMBOL
100
AcDbLine
 62
2
  6
CONTINUOUS
 10
6.9765879399
 20
16.058770069
 11
7.1671437642
 21
16.0474046962
  0
LINE
  5
2D2
100
AcDbEntity
  8
___SYMBOL
100
AcDbLine
 62
2
  6
CONTINUOUS
 10
7.1671437642
 20
16.0474046962
 11
6.9958382926
 21
15.9995235752
  0
LINE
  5
2D3
100
AcDbEntity
  8
___SYMBOL
100
AcDbLine
 62
2
  6
CONTINUOUS
 10
6.9958382926
 20
15.9995235752
 11
6.9765879399
 21
16.058770069
  0
SOLID
  5
2D4
100
AcDbEntity
  8
___SYMBOL
100
AcDbTrace
 62
2
  6
CONTINUOUS
 10
6.9765879399
 20
16.058770069
 11
7.1671437642
 21
16.0474046962
 12
6.9958382926
 22
15.9995235752
 13
6.9958382926
 23
15.9995235752
  0
LINE
  5
2D5
100
AcDbEntity
  8
___SYMBOL
100
AcDbLine
 62
2
  6
CONTINUOUS
 10
7.5595310274
 20
16.058770069
 11
7.3413790456
 21
16.0198085386
  0
LINE
  5
2D6
100
AcDbEntity
  8
___SYMBOL
100
AcDbLine
 62
2
  6
CONTINUOUS
 10
7.3413790456
 20
16.0198085386
 11
7.3689752031
 21
16.0474046962
  0
LINE
  5
2D7
100
AcDbEntity
  8
___SYMBOL
100
AcDbLine
 62
2
  6
CONTINUOUS
 10
7.3689752031
 20
16.0474046962
 11
7.5595310274
 21
16.058770069
  0
SOLID
  5
2D8
100
AcDbEntity
  8
___SYMBOL
100
AcDbTrace
 62
2
  6
CONTINUOUS
 10
7.5595310274
 20
16.058770069
 11
7.3413790456
 21
16.0198085386
 12
7.3689752031
 22
16.0474046962
 13
7.3689752031
 23
16.0474046962
  0
LINE
  5
2D9
100
AcDbEntity
  8
___SYMBOL
100
AcDbLine
 62
2
  6
CONTINUOUS
 10
7.5595310274
 20
16.058770069
 11
7.3066058585
 21
16.0020907148
  0
LINE
  5
2DA
100
AcDbEntity
  8
___SYMBOL
100
AcDbLine
 62
2
  6
CONTINUOUS
 10
7.3066058585
 20
16.0020907148
 11
7.3413790456
 21
16.0198085386
  0
LINE
  5
2DB
100
AcDbEntity
  8
___SYMBOL
100
AcDbLine
 62
2
  6
CONTINUOUS
 10
7.3413790456
 20
16.0198085386
 11
7.5595310274
 21
16.058770069
  0
SOLID
  5
2DC
100
AcDbEntity
  8
___SYMBOL
100
AcDbTrace
 62
2
  6
CONTINUOUS
 10
7.5595310274
 20
16.058770069
 11
7.3066058585
 21
16.0020907148
 12
7.3413790456
 22
16.0198085386
 13
7.3413790456
 23
16.0198085386
  0
LINE
  5
2DD
100
AcDbEntity
  8
___SYMBOL
100
AcDbLine
 62
2
  6
CONTINUOUS
 10
7.5402806747
 20
15.9995235752
 11
7.3066058585
 21
16.0020907148
  0
LINE
  5
2DE
100
AcDbEntity
  8
___SYMBOL
100
AcDbLine
 62
2
  6
CONTINUOUS
 10
7.3066058585
 20
16.0020907148
 11
7.5595310274
 21
16.058770069
  0
LINE
  5
2DF
100
AcDbEntity
  8
___SYMBOL
100
AcDbLine
 62
2
  6
CONTINUOUS
 10
7.5595310274
 20
16.058770069
 11
7.5402806747
 21
15.9995235752
  0
SOLID
  5
2E0
100
AcDbEntity
  8
___SYMBOL
100
AcDbTrace
 62
2
  6
CONTINUOUS
 10
7.5402806747
 20
15.9995235752
 11
7.3066058585
 21
16.0020907148
 12
7.5595310274
 22
16.058770069
 13
7.5595310274
 23
16.058770069
  0
LINE
  5
2E1
100
AcDbEntity
  8
___SYMBOL
100
AcDbLine
 62
2
  6
CONTINUOUS
 10
7.2680594836
 20
15.9959855688
 11
6.9958382926
 21
15.9995235752
  0
LINE
  5
2E2
100
AcDbEntity
  8
___SYMBOL
100
AcDbLine
 62
2
  6
CONTINUOUS
 10
6.9958382926
 20
15.9995235752
 11
7.2295131088
 21
16.0020907148
  0
LINE
  5
2E3
100
AcDbEntity
  8
___SYMBOL
100
AcDbLine
 62
2
  6
CONTINUOUS
 10
7.2295131088
 20
16.0020907148
 11
7.2680594836
 21
15.9959855688
  0
SOLID
  5
2E4
100
AcDbEntity
  8
___SYMBOL
100
AcDbTrace
 62
2
  6
CONTINUOUS
 10
7.2680594836
 20
15.9959855688
 11
6.9958382926
 21
15.9995235752
 12
7.2295131088
 22
16.0020907148
 13
7.2295131088
 23
16.0020907148
  0
LINE
  5
2E5
100
AcDbEntity
  8
___SYMBOL
100
AcDbLine
 62
2
  6
CONTINUOUS
 10
7.3066058585
 20
16.0020907148
 11
7.5402806747
 21
15.9995235752
  0
LINE
  5
2E6
100
AcDbEntity
  8
___SYMBOL
100
AcDbLine
 62
2
  6
CONTINUOUS
 10
7.5402806747
 20
15.9995235752
 11
7.2680594836
 21
15.9959855688
  0
LINE
  5
2E7
100
AcDbEntity
  8
___SYMBOL
100
AcDbLine
 62
2
  6
CONTINUOUS
 10
7.2680594836
 20
15.9959855688
 11
7.3066058585
 21
16.0020907148
  0
SOLID
  5
2E8
100
AcDbEntity
  8
___SYMBOL
100
AcDbTrace
 62
2
  6
CONTINUOUS
 10
7.3066058585
 20
16.0020907148
 11
7.5402806747
 21
15.9995235752
 12
7.2680594836
 22
15.9959855688
 13
7.2680594836
 23
15.9959855688
  0
LINE
  5
2E9
100
AcDbEntity
  8
___SYMBOL
100
AcDbLine
 62
2
  6
CONTINUOUS
 10
6.9958382926
 20
15.9995235752
 11
7.2680594836
 21
15.9959855688
  0
LINE
  5
2EA
100
AcDbEntity
  8
___SYMBOL
100
AcDbLine
 62
2
  6
CONTINUOUS
 10
7.2680594836
 20
15.9959855688
 11
7.0269860177
 21
15.9455741328
  0
LINE
  5
2EB
100
AcDbEntity
  8
___SYMBOL
100
AcDbLine
 62
2
  6
CONTINUOUS
 10
7.0269860177
 20
15.9455741328
 11
6.9958382926
 21
15.9995235752
  0
SOLID
  5
2EC
100
AcDbEntity
  8
___SYMBOL
100
AcDbTrace
 62
2
  6
CONTINUOUS
 10
6.9958382926
 20
15.9995235752
 11
7.2680594836
 21
15.9959855688
 12
7.0269860177
 22
15.9455741328
 13
7.0269860177
 23
15.9455741328
  0
LINE
  5
2ED
100
AcDbEntity
  8
___SYMBOL
100
AcDbLine
 62
2
  6
CONTINUOUS
 10
7.5402806747
 20
15.9995235752
 11
7.0269860177
 21
15.9455741328
  0
LINE
  5
2EE
100
AcDbEntity
  8
___SYMBOL
100
AcDbLine
 62
2
  6
CONTINUOUS
 10
7.0269860177
 20
15.9455741328
 11
7.2680594836
 21
15.9959855688
  0
LINE
  5
2EF
100
AcDbEntity
  8
___SYMBOL
100
AcDbLine
 62
2
  6
CONTINUOUS
 10
7.2680594836
 20
15.9959855688
 11
7.5402806747
 21
15.9995235752
  0
SOLID
  5
2F0
100
AcDbEntity
  8
___SYMBOL
100
AcDbTrace
 62
2
  6
CONTINUOUS
 10
7.5402806747
 20
15.9995235752
 11
7.0269860177
 21
15.9455741328
 12
7.2680594836
 22
15.9959855688
 13
7.2680594836
 23
15.9959855688
  0
LINE
  5
2F1
100
AcDbEntity
  8
___SYMBOL
100
AcDbLine
 62
2
  6
CONTINUOUS
 10
7.5091329495
 20
15.9455741328
 11
7.0269860177
 21
15.9455741328
  0
LINE
  5
2F2
100
AcDbEntity
  8
___SYMBOL
100
AcDbLine
 62
2
  6
CONTINUOUS
 10
7.0269860177
 20
15.9455741328
 11
7.5402806747
 21
15.9995235752
  0
LINE
  5
2F3
100
AcDbEntity
  8
___SYMBOL
100
AcDbLine
 62
2
  6
CONTINUOUS
 10
7.5402806747
 20
15.9995235752
 11
7.5091329495
 21
15.9455741328
  0
SOLID
  5
2F4
100
AcDbEntity
  8
___SYMBOL
100
AcDbTrace
 62
2
  6
CONTINUOUS
 10
7.5091329495
 20
15.9455741328
 11
7.0269860177
 21
15.9455741328
 12
7.5402806747
 22
15.9995235752
 13
7.5402806747
 23
15.9995235752
  0
LINE
  5
2F5
100
AcDbEntity
  8
___SYMBOL
100
AcDbLine
 62
2
  6
CONTINUOUS
 10
7.0269860177
 20
15.9455741328
 11
7.5091329495
 21
15.9455741328
  0
LINE
  5
2F6
100
AcDbEntity
  8
___SYMBOL
100
AcDbLine
 62
2
  6
CONTINUOUS
 10
7.5091329495
 20
15.9455741328
 11
7.0686698101
 21
15.8992795914
  0
LINE
  5
2F7
100
AcDbEntity
  8
___SYMBOL
100
AcDbLine
 62
2
  6
CONTINUOUS
 10
7.0686698101
 20
15.8992795914
 11
7.0269860177
 21
15.9455741328
  0
SOLID
  5
2F8
100
AcDbEntity
  8
___SYMBOL
100
AcDbTrace
 62
2
  6
CONTINUOUS
 10
7.0269860177
 20
15.9455741328
 11
7.5091329495
 21
15.9455741328
 12
7.0686698101
 22
15.8992795914
 13
7.0686698101
 23
15.8992795914
  0
LINE
  5
2F9
100
AcDbEntity
  8
___SYMBOL
100
AcDbLine
 62
2
  6
CONTINUOUS
 10
7.4674491572
 20
15.8992795914
 11
7.0686698101
 21
15.8992795914
  0
LINE
  5
2FA
100
AcDbEntity
  8
___SYMBOL
100
AcDbLine
 62
2
  6
CONTINUOUS
 10
7.0686698101
 20
15.8992795914
 11
7.5091329495
 21
15.9455741328
  0
LINE
  5
2FB
100
AcDbEntity
  8
___SYMBOL
100
AcDbLine
 62
2
  6
CONTINUOUS
 10
7.5091329495
 20
15.9455741328
 11
7.4674491572
 21
15.8992795914
  0
SOLID
  5
2FC
100
AcDbEntity
  8
___SYMBOL
100
AcDbTrace
 62
2
  6
CONTINUOUS
 10
7.4674491572
 20
15.8992795914
 11
7.0686698101
 21
15.8992795914
 12
7.5091329495
 22
15.9455741328
 13
7.5091329495
 23
15.9455741328
  0
LINE
  5
2FD
100
AcDbEntity
  8
___SYMBOL
100
AcDbLine
 62
2
  6
CONTINUOUS
 10
7.0686698101
 20
15.8992795914
 11
7.4674491572
 21
15.8992795914
  0
LINE
  5
2FE
100
AcDbEntity
  8
___SYMBOL
100
AcDbLine
 62
2
  6
CONTINUOUS
 10
7.4674491572
 20
15.8992795914
 11
7.1190678879
 21
15.8626632445
  0
LINE
  5
2FF
100
AcDbEntity
  8
___SYMBOL
100
AcDbLine
 62
2
  6
CONTINUOUS
 10
7.1190678879
 20
15.8626632445
 11
7.0686698101
 21
15.8992795914
  0
SOLID
  5
300
100
AcDbEntity
  8
___SYMBOL
100
AcDbTrace
 62
2
  6
CONTINUOUS
 10
7.0686698101
 20
15.8992795914
 11
7.4674491572
 21
15.8992795914
 12
7.1190678879
 22
15.8626632445
 13
7.1190678879
 23
15.8626632445
  0
LINE
  5
301
100
AcDbEntity
  8
___SYMBOL
100
AcDbLine
 62
2
  6
CONTINUOUS
 10
7.4170510793
 20
15.8626632445
 11
7.1190678879
 21
15.8626632445
  0
LINE
  5
302
100
AcDbEntity
  8
___SYMBOL
100
AcDbLine
 62
2
  6
CONTINUOUS
 10
7.1190678879
 20
15.8626632445
 11
7.4674491572
 21
15.8992795914
  0
LINE
  5
303
100
AcDbEntity
  8
___SYMBOL
100
AcDbLine
 62
2
  6
CONTINUOUS
 10
7.4674491572
 20
15.8992795914
 11
7.4170510793
 21
15.8626632445
  0
SOLID
  5
304
100
AcDbEntity
  8
___SYMBOL
100
AcDbTrace
 62
2
  6
CONTINUOUS
 10
7.4170510793
 20
15.8626632445
 11
7.1190678879
 21
15.8626632445
 12
7.4674491572
 22
15.8992795914
 13
7.4674491572
 23
15.8992795914
  0
LINE
  5
305
100
AcDbEntity
  8
___SYMBOL
100
AcDbLine
 62
2
  6
CONTINUOUS
 10
7.1190678879
 20
15.8626632445
 11
7.4170510793
 21
15.8626632445
  0
LINE
  5
306
100
AcDbEntity
  8
___SYMBOL
100
AcDbLine
 62
2
  6
CONTINUOUS
 10
7.4170510793
 20
15.8626632445
 11
7.1759776134
 21
15.8373254022
  0
LINE
  5
307
100
AcDbEntity
  8
___SYMBOL
100
AcDbLine
 62
2
  6
CONTINUOUS
 10
7.1759776134
 20
15.8373254022
 11
7.1190678879
 21
15.8626632445
  0
SOLID
  5
308
100
AcDbEntity
  8
___SYMBOL
100
AcDbTrace
 62
2
  6
CONTINUOUS
 10
7.1190678879
 20
15.8626632445
 11
7.4170510793
 21
15.8626632445
 12
7.1759776134
 22
15.8373254022
 13
7.1759776134
 23
15.8373254022
  0
LINE
  5
309
100
AcDbEntity
  8
___SYMBOL
100
AcDbLine
 62
2
  6
CONTINUOUS
 10
7.3601413538
 20
15.8373254022
 11
7.1759776134
 21
15.8373254022
  0
LINE
  5
30A
100
AcDbEntity
  8
___SYMBOL
100
AcDbLine
 62
2
  6
CONTINUOUS
 10
7.1759776134
 20
15.8373254022
 11
7.4170510793
 21
15.8626632445
  0
LINE
  5
30B
100
AcDbEntity
  8
___SYMBOL
100
AcDbLine
 62
2
  6
CONTINUOUS
 10
7.4170510793
 20
15.8626632445
 11
7.3601413538
 21
15.8373254022
  0
SOLID
  5
30C
100
AcDbEntity
  8
___SYMBOL
100
AcDbTrace
 62
2
  6
CONTINUOUS
 10
7.3601413538
 20
15.8373254022
 11
7.1759776134
 21
15.8373254022
 12
7.4170510793
 22
15.8626632445
 13
7.4170510793
 23
15.8626632445
  0
LINE
  5
30D
100
AcDbEntity
  8
___SYMBOL
100
AcDbLine
 62
2
  6
CONTINUOUS
 10
7.1759776134
 20
15.8373254022
 11
7.3601413538
 21
15.8373254022
  0
LINE
  5
30E
100
AcDbEntity
  8
___SYMBOL
100
AcDbLine
 62
2
  6
CONTINUOUS
 10
7.3601413538
 20
15.8373254022
 11
7.2369117585
 21
15.8243734498
  0
LINE
  5
30F
100
AcDbEntity
  8
___SYMBOL
100
AcDbLine
 62
2
  6
CONTINUOUS
 10
7.2369117585
 20
15.8243734498
 11
7.1759776134
 21
15.8373254022
  0
SOLID
  5
310
100
AcDbEntity
  8
___SYMBOL
100
AcDbTrace
 62
2
  6
CONTINUOUS
 10
7.1759776134
 20
15.8373254022
 11
7.3601413538
 21
15.8373254022
 12
7.2369117585
 22
15.8243734498
 13
7.2369117585
 23
15.8243734498
  0
LINE
  5
311
100
AcDbEntity
  8
___SYMBOL
100
AcDbLine
 62
2
  6
CONTINUOUS
 10
7.2992072088
 20
15.8243734498
 11
7.2369117585
 21
15.8243734498
  0
LINE
  5
312
100
AcDbEntity
  8
___SYMBOL
100
AcDbLine
 62
2
  6
CONTINUOUS
 10
7.2369117585
 20
15.8243734498
 11
7.3601413538
 21
15.8373254022
  0
LINE
  5
313
100
AcDbEntity
  8
___SYMBOL
100
AcDbLine
 62
2
  6
CONTINUOUS
 10
7.3601413538
 20
15.8373254022
 11
7.2992072088
 21
15.8243734498
  0
SOLID
  5
314
100
AcDbEntity
  8
___SYMBOL
100
AcDbTrace
 62
2
  6
CONTINUOUS
 10
7.2992072088
 20
15.8243734498
 11
7.2369117585
 21
15.8243734498
 12
7.3601413538
 22
15.8373254022
 13
7.3601413538
 23
15.8373254022
  0
LINE
  5
315
100
AcDbEntity
  8
___SYMBOL
100
AcDbLine
 62
2
  6
CONTINUOUS
 10
7.8958071854
 20
16.4147299148
 11
8.0605002978
 21
16.4147299148
  0
LINE
  5
316
100
AcDbEntity
  8
___SYMBOL
100
AcDbLine
 62
2
  6
CONTINUOUS
 10
8.0605002978
 20
16.4147299148
 11
7.8958071854
 21
16.1944004271
  0
LINE
  5
317
100
AcDbEntity
  8
___SYMBOL
100
AcDbLine
 62
2
  6
CONTINUOUS
 10
7.8958071854
 20
16.1944004271
 11
7.8958071854
 21
16.4147299148
  0
SOLID
  5
318
100
AcDbEntity
  8
___SYMBOL
100
AcDbTrace
 62
2
  6
CONTINUOUS
 10
7.8958071854
 20
16.4147299148
 11
8.0605002978
 21
16.4147299148
 12
7.8958071854
 22
16.1944004271
 13
7.8958071854
 23
16.1944004271
  0
LINE
  5
319
100
AcDbEntity
  8
___SYMBOL
100
AcDbLine
 62
2
  6
CONTINUOUS
 10
7.7478468201
 20
16.0572289354
 11
7.7478468201
 21
16.1944004271
  0
LINE
  5
31A
100
AcDbEntity
  8
___SYMBOL
100
AcDbLine
 62
2
  6
CONTINUOUS
 10
7.7478468201
 20
16.1944004271
 11
7.8958071854
 21
16.1944004271
  0
LINE
  5
31B
100
AcDbEntity
  8
___SYMBOL
100
AcDbLine
 62
2
  6
CONTINUOUS
 10
7.8958071854
 20
16.1944004271
 11
7.7478468201
 21
16.0572289354
  0
SOLID
  5
31C
100
AcDbEntity
  8
___SYMBOL
100
AcDbTrace
 62
2
  6
CONTINUOUS
 10
7.7478468201
 20
16.0572289354
 11
7.7478468201
 21
16.1944004271
 12
7.8958071854
 22
16.1944004271
 13
7.8958071854
 23
16.1944004271
  0
LINE
  5
31D
100
AcDbEntity
  8
___SYMBOL
100
AcDbLine
 62
2
  6
CONTINUOUS
 10
7.5831537076
 20
15.8289605529
 11
7.7478468201
 21
16.1944004271
  0
LINE
  5
31E
100
AcDbEntity
  8
___SYMBOL
100
AcDbLine
 62
2
  6
CONTINUOUS
 10
7.7478468201
 20
16.1944004271
 11
7.7478468201
 21
16.0572289354
  0
LINE
  5
31F
100
AcDbEntity
  8
___SYMBOL
100
AcDbLine
 62
2
  6
CONTINUOUS
 10
7.7478468201
 20
16.0572289354
 11
7.5831537076
 21
15.8289605529
  0
SOLID
  5
320
100
AcDbEntity
  8
___SYMBOL
100
AcDbTrace
 62
2
  6
CONTINUOUS
 10
7.5831537076
 20
15.8289605529
 11
7.7478468201
 21
16.1944004271
 12
7.7478468201
 22
16.0572289354
 13
7.7478468201
 23
16.0572289354
  0
LINE
  5
321
100
AcDbEntity
  8
___SYMBOL
100
AcDbLine
 62
2
  6
CONTINUOUS
 10
7.5831537076
 20
15.8289605529
 11
7.7478468201
 21
16.4147299148
  0
LINE
  5
322
100
AcDbEntity
  8
___SYMBOL
100
AcDbLine
 62
2
  6
CONTINUOUS
 10
7.7478468201
 20
16.4147299148
 11
7.7478468201
 21
16.1944004271
  0
LINE
  5
323
100
AcDbEntity
  8
___SYMBOL
100
AcDbLine
 62
2
  6
CONTINUOUS
 10
7.7478468201
 20
16.1944004271
 11
7.5831537076
 21
15.8289605529
  0
SOLID
  5
324
100
AcDbEntity
  8
___SYMBOL
100
AcDbTrace
 62
2
  6
CONTINUOUS
 10
7.5831537076
 20
15.8289605529
 11
7.7478468201
 21
16.4147299148
 12
7.7478468201
 22
16.1944004271
 13
7.7478468201
 23
16.1944004271
  0
LINE
  5
325
100
AcDbEntity
  8
___SYMBOL
100
AcDbLine
 62
2
  6
CONTINUOUS
 10
7.5831537076
 20
16.4147299148
 11
7.7478468201
 21
16.4147299148
  0
LINE
  5
326
100
AcDbEntity
  8
___SYMBOL
100
AcDbLine
 62
2
  6
CONTINUOUS
 10
7.7478468201
 20
16.4147299148
 11
7.5831537076
 21
15.8289605529
  0
LINE
  5
327
100
AcDbEntity
  8
___SYMBOL
100
AcDbLine
 62
2
  6
CONTINUOUS
 10
7.5831537076
 20
15.8289605529
 11
7.5831537076
 21
16.4147299148
  0
SOLID
  5
328
100
AcDbEntity
  8
___SYMBOL
100
AcDbTrace
 62
2
  6
CONTINUOUS
 10
7.5831537076
 20
16.4147299148
 11
7.7478468201
 21
16.4147299148
 12
7.5831537076
 22
15.8289605529
 13
7.5831537076
 23
15.8289605529
  0
LINE
  5
329
100
AcDbEntity
  8
___SYMBOL
100
AcDbLine
 62
2
  6
CONTINUOUS
 10
7.7478468201
 20
15.8289605529
 11
7.5831537076
 21
15.8289605529
  0
LINE
  5
32A
100
AcDbEntity
  8
___SYMBOL
100
AcDbLine
 62
2
  6
CONTINUOUS
 10
7.5831537076
 20
15.8289605529
 11
7.7478468201
 21
16.0572289354
  0
LINE
  5
32B
100
AcDbEntity
  8
___SYMBOL
100
AcDbLine
 62
2
  6
CONTINUOUS
 10
7.7478468201
 20
16.0572289354
 11
7.7478468201
 21
15.8289605529
  0
SOLID
  5
32C
100
AcDbEntity
  8
___SYMBOL
100
AcDbTrace
 62
2
  6
CONTINUOUS
 10
7.7478468201
 20
15.8289605529
 11
7.5831537076
 21
15.8289605529
 12
7.7478468201
 22
16.0572289354
 13
7.7478468201
 23
16.0572289354
  0
LINE
  5
32D
100
AcDbEntity
  8
___SYMBOL
100
AcDbLine
 62
2
  6
CONTINUOUS
 10
7.8958071854
 20
16.1944004271
 11
7.8958071854
 21
16.0572289354
  0
LINE
  5
32E
100
AcDbEntity
  8
___SYMBOL
100
AcDbLine
 62
2
  6
CONTINUOUS
 10
7.8958071854
 20
16.0572289354
 11
7.7478468201
 21
16.0572289354
  0
LINE
  5
32F
100
AcDbEntity
  8
___SYMBOL
100
AcDbLine
 62
2
  6
CONTINUOUS
 10
7.7478468201
 20
16.0572289354
 11
7.8958071854
 21
16.1944004271
  0
SOLID
  5
330
100
AcDbEntity
  8
___SYMBOL
100
AcDbTrace
 62
2
  6
CONTINUOUS
 10
7.8958071854
 20
16.1944004271
 11
7.8958071854
 21
16.0572289354
 12
7.7478468201
 22
16.0572289354
 13
7.7478468201
 23
16.0572289354
  0
LINE
  5
331
100
AcDbEntity
  8
___SYMBOL
100
AcDbLine
 62
2
  6
CONTINUOUS
 10
8.0605002978
 20
16.4147299148
 11
7.8958071854
 21
16.0572289354
  0
LINE
  5
332
100
AcDbEntity
  8
___SYMBOL
100
AcDbLine
 62
2
  6
CONTINUOUS
 10
7.8958071854
 20
16.0572289354
 11
7.8958071854
 21
16.1944004271
  0
LINE
  5
333
100
AcDbEntity
  8
___SYMBOL
100
AcDbLine
 62
2
  6
CONTINUOUS
 10
7.8958071854
 20
16.1944004271
 11
8.0605002978
 21
16.4147299148
  0
SOLID
  5
334
100
AcDbEntity
  8
___SYMBOL
100
AcDbTrace
 62
2
  6
CONTINUOUS
 10
8.0605002978
 20
16.4147299148
 11
7.8958071854
 21
16.0572289354
 12
7.8958071854
 22
16.1944004271
 13
7.8958071854
 23
16.1944004271
  0
LINE
  5
335
100
AcDbEntity
  8
___SYMBOL
100
AcDbLine
 62
2
  6
CONTINUOUS
 10
8.0605002978
 20
16.4147299148
 11
7.8958071854
 21
15.8289605529
  0
LINE
  5
336
100
AcDbEntity
  8
___SYMBOL
100
AcDbLine
 62
2
  6
CONTINUOUS
 10
7.8958071854
 20
15.8289605529
 11
7.8958071854
 21
16.0572289354
  0
LINE
  5
337
100
AcDbEntity
  8
___SYMBOL
100
AcDbLine
 62
2
  6
CONTINUOUS
 10
7.8958071854
 20
16.0572289354
 11
8.0605002978
 21
16.4147299148
  0
SOLID
  5
338
100
AcDbEntity
  8
___SYMBOL
100
AcDbTrace
 62
2
  6
CONTINUOUS
 10
8.0605002978
 20
16.4147299148
 11
7.8958071854
 21
15.8289605529
 12
7.8958071854
 22
16.0572289354
 13
7.8958071854
 23
16.0572289354
  0
LINE
  5
339
100
AcDbEntity
  8
___SYMBOL
100
AcDbLine
 62
2
  6
CONTINUOUS
 10
8.0605002978
 20
15.8289605529
 11
7.8958071854
 21
15.8289605529
  0
LINE
  5
33A
100
AcDbEntity
  8
___SYMBOL
100
AcDbLine
 62
2
  6
CONTINUOUS
 10
7.8958071854
 20
15.8289605529
 11
8.0605002978
 21
16.4147299148
  0
LINE
  5
33B
100
AcDbEntity
  8
___SYMBOL
100
AcDbLine
 62
2
  6
CONTINUOUS
 10
8.0605002978
 20
16.4147299148
 11
8.0605002978
 21
15.8289605529
  0
SOLID
  5
33C
100
AcDbEntity
  8
___SYMBOL
100
AcDbTrace
 62
2
  6
CONTINUOUS
 10
8.0605002978
 20
15.8289605529
 11
7.8958071854
 21
15.8289605529
 12
8.0605002978
 22
16.4147299148
 13
8.0605002978
 23
16.4147299148
  0
LINE
  5
33D
100
AcDbEntity
  8
___SYMBOL
100
AcDbLine
 62
2
  6
CONTINUOUS
 10
8.1055340493
 20
15.8289605529
 11
8.2555431617
 21
15.9701525315
  0
LINE
  5
33E
100
AcDbEntity
  8
___SYMBOL
100
AcDbLine
 62
2
  6
CONTINUOUS
 10
8.2555431617
 20
15.9701525315
 11
8.4181871689
 21
15.9701525315
  0
LINE
  5
33F
100
AcDbEntity
  8
___SYMBOL
100
AcDbLine
 62
2
  6
CONTINUOUS
 10
8.4181871689
 20
15.9701525315
 11
8.1055340493
 21
15.8289605529
  0
SOLID
  5
340
100
AcDbEntity
  8
___SYMBOL
100
AcDbTrace
 62
2
  6
CONTINUOUS
 10
8.1055340493
 20
15.8289605529
 11
8.2555431617
 21
15.9701525315
 12
8.4181871689
 22
15.9701525315
 13
8.4181871689
 23
15.9701525315
  0
LINE
  5
341
100
AcDbEntity
  8
___SYMBOL
100
AcDbLine
 62
2
  6
CONTINUOUS
 10
8.1055340493
 20
15.8289605529
 11
8.2555431617
 21
16.4147299148
  0
LINE
  5
342
100
AcDbEntity
  8
___SYMBOL
100
AcDbLine
 62
2
  6
CONTINUOUS
 10
8.2555431617
 20
16.4147299148
 11
8.2555431617
 21
15.9701525315
  0
LINE
  5
343
100
AcDbEntity
  8
___SYMBOL
100
AcDbLine
 62
2
  6
CONTINUOUS
 10
8.2555431617
 20
15.9701525315
 11
8.1055340493
 21
15.8289605529
  0
SOLID
  5
344
100
AcDbEntity
  8
___SYMBOL
100
AcDbTrace
 62
2
  6
CONTINUOUS
 10
8.1055340493
 20
15.8289605529
 11
8.2555431617
 21
16.4147299148
 12
8.2555431617
 22
15.9701525315
 13
8.2555431617
 23
15.9701525315
  0
LINE
  5
345
100
AcDbEntity
  8
___SYMBOL
100
AcDbLine
 62
2
  6
CONTINUOUS
 10
8.1055340493
 20
16.4147299148
 11
8.2555431617
 21
16.4147299148
  0
LINE
  5
346
100
AcDbEntity
  8
___SYMBOL
100
AcDbLine
 62
2
  6
CONTINUOUS
 10
8.2555431617
 20
16.4147299148
 11
8.1055340493
 21
15.8289605529
  0
LINE
  5
347
100
AcDbEntity
  8
___SYMBOL
100
AcDbLine
 62
2
  6
CONTINUOUS
 10
8.1055340493
 20
15.8289605529
 11
8.1055340493
 21
16.4147299148
  0
SOLID
  5
348
100
AcDbEntity
  8
___SYMBOL
100
AcDbTrace
 62
2
  6
CONTINUOUS
 10
8.1055340493
 20
16.4147299148
 11
8.2555431617
 21
16.4147299148
 12
8.1055340493
 22
15.8289605529
 13
8.1055340493
 23
15.8289605529
  0
LINE
  5
349
100
AcDbEntity
  8
___SYMBOL
100
AcDbLine
 62
2
  6
CONTINUOUS
 10
8.4181871689
 20
15.9701525315
 11
8.2555431617
 21
15.8289605529
  0
LINE
  5
34A
100
AcDbEntity
  8
___SYMBOL
100
AcDbLine
 62
2
  6
CONTINUOUS
 10
8.2555431617
 20
15.8289605529
 11
8.1055340493
 21
15.8289605529
  0
LINE
  5
34B
100
AcDbEntity
  8
___SYMBOL
100
AcDbLine
 62
2
  6
CONTINUOUS
 10
8.1055340493
 20
15.8289605529
 11
8.4181871689
 21
15.9701525315
  0
SOLID
  5
34C
100
AcDbEntity
  8
___SYMBOL
100
AcDbTrace
 62
2
  6
CONTINUOUS
 10
8.4181871689
 20
15.9701525315
 11
8.2555431617
 21
15.8289605529
 12
8.1055340493
 22
15.8289605529
 13
8.1055340493
 23
15.8289605529
  0
LINE
  5
34D
100
AcDbEntity
  8
___SYMBOL
100
AcDbLine
 62
2
  6
CONTINUOUS
 10
8.4181871689
 20
15.8289605529
 11
8.2555431617
 21
15.8289605529
  0
LINE
  5
34E
100
AcDbEntity
  8
___SYMBOL
100
AcDbLine
 62
2
  6
CONTINUOUS
 10
8.2555431617
 20
15.8289605529
 11
8.4181871689
 21
15.9701525315
  0
LINE
  5
34F
100
AcDbEntity
  8
___SYMBOL
100
AcDbLine
 62
2
  6
CONTINUOUS
 10
8.4181871689
 20
15.9701525315
 11
8.4181871689
 21
15.8289605529
  0
SOLID
  5
350
100
AcDbEntity
  8
___SYMBOL
100
AcDbTrace
 62
2
  6
CONTINUOUS
 10
8.4181871689
 20
15.8289605529
 11
8.2555431617
 21
15.8289605529
 12
8.4181871689
 22
15.9701525315
 13
8.4181871689
 23
15.9701525315
  0
LINE
  5
351
100
AcDbEntity
  8
___SYMBOL
100
AcDbLine
 62
2
  6
CONTINUOUS
 10
8.7563557849
 20
16.2720056741
 11
8.6055354118
 21
16.2720056741
  0
LINE
  5
352
100
AcDbEntity
  8
___SYMBOL
100
AcDbLine
 62
2
  6
CONTINUOUS
 10
8.6055354118
 20
16.2720056741
 11
8.7563557849
 21
16.4147299148
  0
LINE
  5
353
100
AcDbEntity
  8
___SYMBOL
100
AcDbLine
 62
2
  6
CONTINUOUS
 10
8.7563557849
 20
16.4147299148
 11
8.7563557849
 21
16.2720056741
  0
SOLID
  5
354
100
AcDbEntity
  8
___SYMBOL
100
AcDbTrace
 62
2
  6
CONTINUOUS
 10
8.7563557849
 20
16.2720056741
 11
8.6055354118
 21
16.2720056741
 12
8.7563557849
 22
16.4147299148
 13
8.7563557849
 23
16.4147299148
  0
LINE
  5
355
100
AcDbEntity
  8
___SYMBOL
100
AcDbLine
 62
2
  6
CONTINUOUS
 10
8.7563557849
 20
16.0500543809
 11
8.6055354118
 21
16.0500543809
  0
LINE
  5
356
100
AcDbEntity
  8
___SYMBOL
100
AcDbLine
 62
2
  6
CONTINUOUS
 10
8.6055354118
 20
16.0500543809
 11
8.7563557849
 21
16.1944004271
  0
LINE
  5
357
100
AcDbEntity
  8
___SYMBOL
100
AcDbLine
 62
2
  6
CONTINUOUS
 10
8.7563557849
 20
16.1944004271
 11
8.7563557849
 21
16.0500543809
  0
SOLID
  5
358
100
AcDbEntity
  8
___SYMBOL
100
AcDbTrace
 62
2
  6
CONTINUOUS
 10
8.7563557849
 20
16.0500543809
 11
8.6055354118
 21
16.0500543809
 12
8.7563557849
 22
16.1944004271
 13
8.7563557849
 23
16.1944004271
  0
LINE
  5
359
100
AcDbEntity
  8
___SYMBOL
100
AcDbLine
 62
2
  6
CONTINUOUS
 10
8.4473277297
 20
15.8289605529
 11
8.6055354118
 21
15.9701525315
  0
LINE
  5
35A
100
AcDbEntity
  8
___SYMBOL
100
AcDbLine
 62
2
  6
CONTINUOUS
 10
8.6055354118
 20
15.9701525315
 11
8.7563557849
 21
15.9701525315
  0
LINE
  5
35B
100
AcDbEntity
  8
___SYMBOL
100
AcDbLine
 62
2
  6
CONTINUOUS
 10
8.7563557849
 20
15.9701525315
 11
8.4473277297
 21
15.8289605529
  0
SOLID
  5
35C
100
AcDbEntity
  8
___SYMBOL
100
AcDbTrace
 62
2
  6
CONTINUOUS
 10
8.4473277297
 20
15.8289605529
 11
8.6055354118
 21
15.9701525315
 12
8.7563557849
 22
15.9701525315
 13
8.7563557849
 23
15.9701525315
  0
LINE
  5
35D
100
AcDbEntity
  8
___SYMBOL
100
AcDbLine
 62
2
  6
CONTINUOUS
 10
8.4473277297
 20
15.8289605529
 11
8.6055354118
 21
16.0500543809
  0
LINE
  5
35E
100
AcDbEntity
  8
___SYMBOL
100
AcDbLine
 62
2
  6
CONTINUOUS
 10
8.6055354118
 20
16.0500543809
 11
8.6055354118
 21
15.9701525315
  0
LINE
  5
35F
100
AcDbEntity
  8
___SYMBOL
100
AcDbLine
 62
2
  6
CONTINUOUS
 10
8.6055354118
 20
15.9701525315
 11
8.4473277297
 21
15.8289605529
  0
SOLID
  5
360
100
AcDbEntity
  8
___SYMBOL
100
AcDbTrace
 62
2
  6
CONTINUOUS
 10
8.4473277297
 20
15.8289605529
 11
8.6055354118
 21
16.0500543809
 12
8.6055354118
 22
15.9701525315
 13
8.6055354118
 23
15.9701525315
  0
LINE
  5
361
100
AcDbEntity
  8
___SYMBOL
100
AcDbLine
 62
2
  6
CONTINUOUS
 10
8.6055354118
 20
16.0500543809
 11
8.6055354118
 21
16.1944004271
  0
LINE
  5
362
100
AcDbEntity
  8
___SYMBOL
100
AcDbLine
 62
2
  6
CONTINUOUS
 10
8.6055354118
 20
16.1944004271
 11
8.7563557849
 21
16.1944004271
  0
LINE
  5
363
100
AcDbEntity
  8
___SYMBOL
100
AcDbLine
 62
2
  6
CONTINUOUS
 10
8.7563557849
 20
16.1944004271
 11
8.6055354118
 21
16.0500543809
  0
SOLID
  5
364
100
AcDbEntity
  8
___SYMBOL
100
AcDbTrace
 62
2
  6
CONTINUOUS
 10
8.6055354118
 20
16.0500543809
 11
8.6055354118
 21
16.1944004271
 12
8.7563557849
 22
16.1944004271
 13
8.7563557849
 23
16.1944004271
  0
LINE
  5
365
100
AcDbEntity
  8
___SYMBOL
100
AcDbLine
 62
2
  6
CONTINUOUS
 10
8.4473277297
 20
15.8289605529
 11
8.6055354118
 21
16.1944004271
  0
LINE
  5
366
100
AcDbEntity
  8
___SYMBOL
100
AcDbLine
 62
2
  6
CONTINUOUS
 10
8.6055354118
 20
16.1944004271
 11
8.6055354118
 21
16.0500543809
  0
LINE
  5
367
100
AcDbEntity
  8
___SYMBOL
100
AcDbLine
 62
2
  6
CONTINUOUS
 10
8.6055354118
 20
16.0500543809
 11
8.4473277297
 21
15.8289605529
  0
SOLID
  5
368
100
AcDbEntity
  8
___SYMBOL
100
AcDbTrace
 62
2
  6
CONTINUOUS
 10
8.4473277297
 20
15.8289605529
 11
8.6055354118
 21
16.1944004271
 12
8.6055354118
 22
16.0500543809
 13
8.6055354118
 23
16.0500543809
  0
LINE
  5
369
100
AcDbEntity
  8
___SYMBOL
100
AcDbLine
 62
2
  6
CONTINUOUS
 10
8.4473277297
 20
15.8289605529
 11
8.6055354118
 21
16.2720056741
  0
LINE
  5
36A
100
AcDbEntity
  8
___SYMBOL
100
AcDbLine
 62
2
  6
CONTINUOUS
 10
8.6055354118
 20
16.2720056741
 11
8.6055354118
 21
16.1944004271
  0
LINE
  5
36B
100
AcDbEntity
  8
___SYMBOL
100
AcDbLine
 62
2
  6
CONTINUOUS
 10
8.6055354118
 20
16.1944004271
 11
8.4473277297
 21
15.8289605529
  0
SOLID
  5
36C
100
AcDbEntity
  8
___SYMBOL
100
AcDbTrace
 62
2
  6
CONTINUOUS
 10
8.4473277297
 20
15.8289605529
 11
8.6055354118
 21
16.2720056741
 12
8.6055354118
 22
16.1944004271
 13
8.6055354118
 23
16.1944004271
  0
LINE
  5
36D
100
AcDbEntity
  8
___SYMBOL
100
AcDbLine
 62
2
  6
CONTINUOUS
 10
8.6055354118
 20
16.2720056741
 11
8.6197362371
 21
16.4147299148
  0
LINE
  5
36E
100
AcDbEntity
  8
___SYMBOL
100
AcDbLine
 62
2
  6
CONTINUOUS
 10
8.6197362371
 20
16.4147299148
 11
8.7563557849
 21
16.4147299148
  0
LINE
  5
36F
100
AcDbEntity
  8
___SYMBOL
100
AcDbLine
 62
2
  6
CONTINUOUS
 10
8.7563557849
 20
16.4147299148
 11
8.6055354118
 21
16.2720056741
  0
SOLID
  5
370
100
AcDbEntity
  8
___SYMBOL
100
AcDbTrace
 62
2
  6
CONTINUOUS
 10
8.6055354118
 20
16.2720056741
 11
8.6197362371
 21
16.4147299148
 12
8.7563557849
 22
16.4147299148
 13
8.7563557849
 23
16.4147299148
  0
LINE
  5
371
100
AcDbEntity
  8
___SYMBOL
100
AcDbLine
 62
2
  6
CONTINUOUS
 10
8.4473277297
 20
15.8289605529
 11
8.6197362371
 21
16.4147299148
  0
LINE
  5
372
100
AcDbEntity
  8
___SYMBOL
100
AcDbLine
 62
2
  6
CONTINUOUS
 10
8.6197362371
 20
16.4147299148
 11
8.6055354118
 21
16.2720056741
  0
LINE
  5
373
100
AcDbEntity
  8
___SYMBOL
100
AcDbLine
 62
2
  6
CONTINUOUS
 10
8.6055354118
 20
16.2720056741
 11
8.4473277297
 21
15.8289605529
  0
SOLID
  5
374
100
AcDbEntity
  8
___SYMBOL
100
AcDbTrace
 62
2
  6
CONTINUOUS
 10
8.4473277297
 20
15.8289605529
 11
8.6197362371
 21
16.4147299148
 12
8.6055354118
 22
16.2720056741
 13
8.6055354118
 23
16.2720056741
  0
LINE
  5
375
100
AcDbEntity
  8
___SYMBOL
100
AcDbLine
 62
2
  6
CONTINUOUS
 10
8.4473277297
 20
16.4147299148
 11
8.6197362371
 21
16.4147299148
  0
LINE
  5
376
100
AcDbEntity
  8
___SYMBOL
100
AcDbLine
 62
2
  6
CONTINUOUS
 10
8.6197362371
 20
16.4147299148
 11
8.4473277297
 21
15.8289605529
  0
LINE
  5
377
100
AcDbEntity
  8
___SYMBOL
100
AcDbLine
 62
2
  6
CONTINUOUS
 10
8.4473277297
 20
15.8289605529
 11
8.4473277297
 21
16.4147299148
  0
SOLID
  5
378
100
AcDbEntity
  8
___SYMBOL
100
AcDbTrace
 62
2
  6
CONTINUOUS
 10
8.4473277297
 20
16.4147299148
 11
8.6197362371
 21
16.4147299148
 12
8.4473277297
 22
15.8289605529
 13
8.4473277297
 23
15.8289605529
  0
LINE
  5
379
100
AcDbEntity
  8
___SYMBOL
100
AcDbLine
 62
2
  6
CONTINUOUS
 10
8.7563557849
 20
15.8289605529
 11
8.4473277297
 21
15.8289605529
  0
LINE
  5
37A
100
AcDbEntity
  8
___SYMBOL
100
AcDbLine
 62
2
  6
CONTINUOUS
 10
8.4473277297
 20
15.8289605529
 11
8.7563557849
 21
15.9701525315
  0
LINE
  5
37B
100
AcDbEntity
  8
___SYMBOL
100
AcDbLine
 62
2
  6
CONTINUOUS
 10
8.7563557849
 20
15.9701525315
 11
8.7563557849
 21
15.8289605529
  0
SOLID
  5
37C
100
AcDbEntity
  8
___SYMBOL
100
AcDbTrace
 62
2
  6
CONTINUOUS
 10
8.7563557849
 20
15.8289605529
 11
8.4473277297
 21
15.8289605529
 12
8.7563557849
 22
15.9701525315
 13
8.7563557849
 23
15.9701525315
  0
LINE
  5
37D
100
AcDbEntity
  8
___SYMBOL
100
AcDbLine
 62
2
  6
CONTINUOUS
 10
9.081576615
 20
16.4083283489
 11
8.8011649622
 21
16.4147299148
  0
LINE
  5
37E
100
AcDbEntity
  8
___SYMBOL
100
AcDbLine
 62
2
  6
CONTINUOUS
 10
8.8011649622
 20
16.4147299148
 11
9.0346551492
 21
16.4147370187
  0
LINE
  5
37F
100
AcDbEntity
  8
___SYMBOL
100
AcDbLine
 62
2
  6
CONTINUOUS
 10
9.0346551492
 20
16.4147370187
 11
9.081576615
 21
16.4083283489
  0
SOLID
  5
380
100
AcDbEntity
  8
___SYMBOL
100
AcDbTrace
 62
2
  6
CONTINUOUS
 10
9.081576615
 20
16.4083283489
 11
8.8011649622
 21
16.4147299148
 12
9.0346551492
 22
16.4147370187
 13
9.0346551492
 23
16.4147370187
  0
LINE
  5
381
100
AcDbEntity
  8
___SYMBOL
100
AcDbLine
 62
2
  6
CONTINUOUS
 10
9.2056608898
 20
16.2768143886
 11
9.0076997923
 21
16.2721861931
  0
LINE
  5
382
100
AcDbEntity
  8
___SYMBOL
100
AcDbLine
 62
2
  6
CONTINUOUS
 10
9.0076997923
 20
16.2721861931
 11
8.9517836841
 21
16.2721861931
  0
LINE
  5
383
100
AcDbEntity
  8
___SYMBOL
100
AcDbLine
 62
2
  6
CONTINUOUS
 10
8.9517836841
 20
16.2721861931
 11
9.2056608898
 21
16.2768143886
  0
SOLID
  5
384
100
AcDbEntity
  8
___SYMBOL
100
AcDbTrace
 62
2
  6
CONTINUOUS
 10
9.2056608898
 20
16.2768143886
 11
9.0076997923
 21
16.2721861931
 12
8.9517836841
 22
16.2721861931
 13
8.9517836841
 23
16.2721861931
  0
LINE
  5
385
100
AcDbEntity
  8
___SYMBOL
100
AcDbLine
 62
2
  6
CONTINUOUS
 10
9.2056608898
 20
16.2768143886
 11
9.0314165319
 21
16.2666533875
  0
LINE
  5
386
100
AcDbEntity
  8
___SYMBOL
100
AcDbLine
 62
2
  6
CONTINUOUS
 10
9.0314165319
 20
16.2666533875
 11
9.0076997923
 21
16.2721861931
  0
LINE
  5
387
100
AcDbEntity
  8
___SYMBOL
100
AcDbLine
 62
2
  6
CONTINUOUS
 10
9.0076997923
 20
16.2721861931
 11
9.2056608898
 21
16.2768143886
  0
SOLID
  5
388
100
AcDbEntity
  8
___SYMBOL
100
AcDbTrace
 62
2
  6
CONTINUOUS
 10
9.2056608898
 20
16.2768143886
 11
9.0314165319
 21
16.2666533875
 12
9.0076997923
 22
16.2721861931
 13
9.0076997923
 23
16.2721861931
  0
LINE
  5
389
100
AcDbEntity
  8
___SYMBOL
100
AcDbLine
 62
2
  6
CONTINUOUS
 10
9.2056608898
 20
16.2768143886
 11
9.0502368837
 21
16.2511973197
  0
LINE
  5
38A
100
AcDbEntity
  8
___SYMBOL
100
AcDbLine
 62
2
  6
CONTINUOUS
 10
9.0502368837
 20
16.2511973197
 11
9.0314165319
 21
16.2666533875
  0
LINE
  5
38B
100
AcDbEntity
  8
___SYMBOL
100
AcDbLine
 62
2
  6
CONTINUOUS
 10
9.0314165319
 20
16.2666533875
 11
9.2056608898
 21
16.2768143886
  0
SOLID
  5
38C
100
AcDbEntity
  8
___SYMBOL
100
AcDbTrace
 62
2
  6
CONTINUOUS
 10
9.2056608898
 20
16.2768143886
 11
9.0502368837
 21
16.2511973197
 12
9.0314165319
 22
16.2666533875
 13
9.0314165319
 23
16.2666533875
  0
LINE
  5
38D
100
AcDbEntity
  8
___SYMBOL
100
AcDbLine
 62
2
  6
CONTINUOUS
 10
9.2093332317
 20
16.2295998897
 11
9.0502368837
 21
16.2511973197
  0
LINE
  5
38E
100
AcDbEntity
  8
___SYMBOL
100
AcDbLine
 62
2
  6
CONTINUOUS
 10
9.0502368837
 20
16.2511973197
 11
9.2056608898
 21
16.2768143886
  0
LINE
  5
38F
100
AcDbEntity
  8
___SYMBOL
100
AcDbLine
 62
2
  6
CONTINUOUS
 10
9.2056608898
 20
16.2768143886
 11
9.2093332317
 21
16.2295998897
  0
SOLID
  5
390
100
AcDbEntity
  8
___SYMBOL
100
AcDbTrace
 62
2
  6
CONTINUOUS
 10
9.2093332317
 20
16.2295998897
 11
9.0502368837
 21
16.2511973197
 12
9.2056608898
 22
16.2768143886
 13
9.2056608898
 23
16.2768143886
  0
LINE
  5
391
100
AcDbEntity
  8
___SYMBOL
100
AcDbLine
 62
2
  6
CONTINUOUS
 10
9.0502368837
 20
16.2511973197
 11
9.2093332317
 21
16.2295998897
  0
LINE
  5
392
100
AcDbEntity
  8
___SYMBOL
100
AcDbLine
 62
2
  6
CONTINUOUS
 10
9.2093332317
 20
16.2295998897
 11
9.0602753496
 21
16.2290089246
  0
LINE
  5
393
100
AcDbEntity
  8
___SYMBOL
100
AcDbLine
 62
2
  6
CONTINUOUS
 10
9.0602753496
 20
16.2290089246
 11
9.0502368837
 21
16.2511973197
  0
SOLID
  5
394
100
AcDbEntity
  8
___SYMBOL
100
AcDbTrace
 62
2
  6
CONTINUOUS
 10
9.0502368837
 20
16.2511973197
 11
9.2093332317
 21
16.2295998897
 12
9.0602753496
 22
16.2290089246
 13
9.0602753496
 23
16.2290089246
  0
LINE
  5
395
100
AcDbEntity
  8
___SYMBOL
100
AcDbLine
 62
2
  6
CONTINUOUS
 10
9.2093332317
 20
16.2295998897
 11
9.0594594689
 21
16.2046690393
  0
LINE
  5
396
100
AcDbEntity
  8
___SYMBOL
100
AcDbLine
 62
2
  6
CONTINUOUS
 10
9.0594594689
 20
16.2046690393
 11
9.0602753496
 21
16.2290089246
  0
LINE
  5
397
100
AcDbEntity
  8
___SYMBOL
100
AcDbLine
 62
2
  6
CONTINUOUS
 10
9.0602753496
 20
16.2290089246
 11
9.2093332317
 21
16.2295998897
  0
SOLID
  5
398
100
AcDbEntity
  8
___SYMBOL
100
AcDbTrace
 62
2
  6
CONTINUOUS
 10
9.2093332317
 20
16.2295998897
 11
9.0594594689
 21
16.2046690393
 12
9.0602753496
 22
16.2290089246
 13
9.0602753496
 23
16.2290089246
  0
LINE
  5
399
100
AcDbEntity
  8
___SYMBOL
100
AcDbLine
 62
2
  6
CONTINUOUS
 10
9.2093332317
 20
16.2295998897
 11
9.0479576817
 21
16.1832026803
  0
LINE
  5
39A
100
AcDbEntity
  8
___SYMBOL
100
AcDbLine
 62
2
  6
CONTINUOUS
 10
9.0479576817
 20
16.1832026803
 11
9.0594594689
 21
16.2046690393
  0
LINE
  5
39B
100
AcDbEntity
  8
___SYMBOL
100
AcDbLine
 62
2
  6
CONTINUOUS
 10
9.0594594689
 20
16.2046690393
 11
9.2093332317
 21
16.2295998897
  0
SOLID
  5
39C
100
AcDbEntity
  8
___SYMBOL
100
AcDbTrace
 62
2
  6
CONTINUOUS
 10
9.2093332317
 20
16.2295998897
 11
9.0479576817
 21
16.1832026803
 12
9.0594594689
 22
16.2046690393
 13
9.0594594689
 23
16.2046690393
  0
LINE
  5
39D
100
AcDbEntity
  8
___SYMBOL
100
AcDbLine
 62
2
  6
CONTINUOUS
 10
9.2002098753
 20
16.1831299061
 11
9.0479576817
 21
16.1832026803
  0
LINE
  5
39E
100
AcDbEntity
  8
___SYMBOL
100
AcDbLine
 62
2
  6
CONTINUOUS
 10
9.0479576817
 20
16.1832026803
 11
9.2093332317
 21
16.2295998897
  0
LINE
  5
39F
100
AcDbEntity
  8
___SYMBOL
100
AcDbLine
 62
2
  6
CONTINUOUS
 10
9.2093332317
 20
16.2295998897
 11
9.2002098753
 21
16.1831299061
  0
SOLID
  5
3A0
100
AcDbEntity
  8
___SYMBOL
100
AcDbTrace
 62
2
  6
CONTINUOUS
 10
9.2002098753
 20
16.1831299061
 11
9.0479576817
 21
16.1832026803
 12
9.2093332317
 22
16.2295998897
 13
9.2093332317
 23
16.2295998897
  0
LINE
  5
3A1
100
AcDbEntity
  8
___SYMBOL
100
AcDbLine
 62
2
  6
CONTINUOUS
 10
9.0479576817
 20
16.1832026803
 11
9.2002098753
 21
16.1831299061
  0
LINE
  5
3A2
100
AcDbEntity
  8
___SYMBOL
100
AcDbLine
 62
2
  6
CONTINUOUS
 10
9.2002098753
 20
16.1831299061
 11
9.0281445543
 21
16.169041619
  0
LINE
  5
3A3
100
AcDbEntity
  8
___SYMBOL
100
AcDbLine
 62
2
  6
CONTINUOUS
 10
9.0281445543
 20
16.169041619
 11
9.0479576817
 21
16.1832026803
  0
SOLID
  5
3A4
100
AcDbEntity
  8
___SYMBOL
100
AcDbTrace
 62
2
  6
CONTINUOUS
 10
9.0479576817
 20
16.1832026803
 11
9.2002098753
 21
16.1831299061
 12
9.0281445543
 22
16.169041619
 13
9.0281445543
 23
16.169041619
  0
LINE
  5
3A5
100
AcDbEntity
  8
___SYMBOL
100
AcDbLine
 62
2
  6
CONTINUOUS
 10
9.2002098753
 20
16.1831299061
 11
9.0041105451
 21
16.1651094339
  0
LINE
  5
3A6
100
AcDbEntity
  8
___SYMBOL
100
AcDbLine
 62
2
  6
CONTINUOUS
 10
9.0041105451
 20
16.1651094339
 11
9.0281445543
 21
16.169041619
  0
LINE
  5
3A7
100
AcDbEntity
  8
___SYMBOL
100
AcDbLine
 62
2
  6
CONTINUOUS
 10
9.0281445543
 20
16.169041619
 11
9.2002098753
 21
16.1831299061
  0
SOLID
  5
3A8
100
AcDbEntity
  8
___SYMBOL
100
AcDbTrace
 62
2
  6
CONTINUOUS
 10
9.2002098753
 20
16.1831299061
 11
9.0041105451
 21
16.1651094339
 12
9.0281445543
 22
16.169041619
 13
9.0281445543
 23
16.169041619
  0
LINE
  5
3A9
100
AcDbEntity
  8
___SYMBOL
100
AcDbLine
 62
2
  6
CONTINUOUS
 10
9.1789591342
 20
16.140808505
 11
9.0041105451
 21
16.1651094339
  0
LINE
  5
3AA
100
AcDbEntity
  8
___SYMBOL
100
AcDbLine
 62
2
  6
CONTINUOUS
 10
9.0041105451
 20
16.1651094339
 11
9.2002098753
 21
16.1831299061
  0
LINE
  5
3AB
100
AcDbEntity
  8
___SYMBOL
100
AcDbLine
 62
2
  6
CONTINUOUS
 10
9.2002098753
 20
16.1831299061
 11
9.1789591342
 21
16.140808505
  0
SOLID
  5
3AC
100
AcDbEntity
  8
___SYMBOL
100
AcDbTrace
 62
2
  6
CONTINUOUS
 10
9.1789591342
 20
16.140808505
 11
9.0041105451
 21
16.1651094339
 12
9.2002098753
 22
16.1831299061
 13
9.2002098753
 23
16.1831299061
  0
LINE
  5
3AD
100
AcDbEntity
  8
___SYMBOL
100
AcDbLine
 62
2
  6
CONTINUOUS
 10
8.9517836841
 20
16.0258684212
 11
9.1471376894
 21
16.1057358568
  0
LINE
  5
3AE
100
AcDbEntity
  8
___SYMBOL
100
AcDbLine
 62
2
  6
CONTINUOUS
 10
9.1471376894
 20
16.1057358568
 11
9.107076558
 21
16.0804811393
  0
LINE
  5
3AF
100
AcDbEntity
  8
___SYMBOL
100
AcDbLine
 62
2
  6
CONTINUOUS
 10
9.107076558
 20
16.0804811393
 11
8.9517836841
 21
16.0258684212
  0
SOLID
  5
3B0
100
AcDbEntity
  8
___SYMBOL
100
AcDbTrace
 62
2
  6
CONTINUOUS
 10
8.9517836841
 20
16.0258684212
 11
9.1471376894
 21
16.1057358568
 12
9.107076558
 22
16.0804811393
 13
9.107076558
 23
16.0804811393
  0
LINE
  5
3B1
100
AcDbEntity
  8
___SYMBOL
100
AcDbLine
 62
2
  6
CONTINUOUS
 10
8.9517836841
 20
16.0258684212
 11
9.1789591342
 21
16.140808505
  0
LINE
  5
3B2
100
AcDbEntity
  8
___SYMBOL
100
AcDbLine
 62
2
  6
CONTINUOUS
 10
9.1789591342
 20
16.140808505
 11
9.1471376894
 21
16.1057358568
  0
LINE
  5
3B3
100
AcDbEntity
  8
___SYMBOL
100
AcDbLine
 62
2
  6
CONTINUOUS
 10
9.1471376894
 20
16.1057358568
 11
8.9517836841
 21
16.0258684212
  0
SOLID
  5
3B4
100
AcDbEntity
  8
___SYMBOL
100
AcDbTrace
 62
2
  6
CONTINUOUS
 10
8.9517836841
 20
16.0258684212
 11
9.1789591342
 21
16.140808505
 12
9.1471376894
 22
16.1057358568
 13
9.1471376894
 23
16.1057358568
  0
LINE
  5
3B5
100
AcDbEntity
  8
___SYMBOL
100
AcDbLine
 62
2
  6
CONTINUOUS
 10
8.9517836841
 20
16.0258684212
 11
9.0041105451
 21
16.1651094339
  0
LINE
  5
3B6
100
AcDbEntity
  8
___SYMBOL
100
AcDbLine
 62
2
  6
CONTINUOUS
 10
9.0041105451
 20
16.1651094339
 11
9.1789591342
 21
16.140808505
  0
LINE
  5
3B7
100
AcDbEntity
  8
___SYMBOL
100
AcDbLine
 62
2
  6
CONTINUOUS
 10
9.1789591342
 20
16.140808505
 11
8.9517836841
 21
16.0258684212
  0
SOLID
  5
3B8
100
AcDbEntity
  8
___SYMBOL
100
AcDbTrace
 62
2
  6
CONTINUOUS
 10
8.9517836841
 20
16.0258684212
 11
9.0041105451
 21
16.1651094339
 12
9.1789591342
 22
16.140808505
 13
9.1789591342
 23
16.140808505
  0
LINE
  5
3B9
100
AcDbEntity
  8
___SYMBOL
100
AcDbLine
 62
2
  6
CONTINUOUS
 10
8.8011649622
 20
15.8289605529
 11
9.0041105451
 21
16.1651094339
  0
LINE
  5
3BA
100
AcDbEntity
  8
___SYMBOL
100
AcDbLine
 62
2
  6
CONTINUOUS
 10
9.0041105451
 20
16.1651094339
 11
8.9517836841
 21
16.0258684212
  0
LINE
  5
3BB
100
AcDbEntity
  8
___SYMBOL
100
AcDbLine
 62
2
  6
CONTINUOUS
 10
8.9517836841
 20
16.0258684212
 11
8.8011649622
 21
15.8289605529
  0
SOLID
  5
3BC
100
AcDbEntity
  8
___SYMBOL
100
AcDbTrace
 62
2
  6
CONTINUOUS
 10
8.8011649622
 20
15.8289605529
 11
9.0041105451
 21
16.1651094339
 12
8.9517836841
 22
16.0258684212
 13
8.9517836841
 23
16.0258684212
  0
LINE
  5
3BD
100
AcDbEntity
  8
___SYMBOL
100
AcDbLine
 62
2
  6
CONTINUOUS
 10
8.8011649622
 20
15.8289605529
 11
8.9517836841
 21
16.1651094339
  0
LINE
  5
3BE
100
AcDbEntity
  8
___SYMBOL
100
AcDbLine
 62
2
  6
CONTINUOUS
 10
8.9517836841
 20
16.1651094339
 11
9.0041105451
 21
16.1651094339
  0
LINE
  5
3BF
100
AcDbEntity
  8
___SYMBOL
100
AcDbLine
 62
2
  6
CONTINUOUS
 10
9.0041105451
 20
16.1651094339
 11
8.8011649622
 21
15.8289605529
  0
SOLID
  5
3C0
100
AcDbEntity
  8
___SYMBOL
100
AcDbTrace
 62
2
  6
CONTINUOUS
 10
8.8011649622
 20
15.8289605529
 11
8.9517836841
 21
16.1651094339
 12
9.0041105451
 22
16.1651094339
 13
9.0041105451
 23
16.1651094339
  0
LINE
  5
3C1
100
AcDbEntity
  8
___SYMBOL
100
AcDbLine
 62
2
  6
CONTINUOUS
 10
8.8011649622
 20
15.8289605529
 11
8.9517836841
 21
16.2721861931
  0
LINE
  5
3C2
100
AcDbEntity
  8
___SYMBOL
100
AcDbLine
 62
2
  6
CONTINUOUS
 10
8.9517836841
 20
16.2721861931
 11
8.9517836841
 21
16.1651094339
  0
LINE
  5
3C3
100
AcDbEntity
  8
___SYMBOL
100
AcDbLine
 62
2
  6
CONTINUOUS
 10
8.9517836841
 20
16.1651094339
 11
8.8011649622
 21
15.8289605529
  0
SOLID
  5
3C4
100
AcDbEntity
  8
___SYMBOL
100
AcDbTrace
 62
2
  6
CONTINUOUS
 10
8.8011649622
 20
15.8289605529
 11
8.9517836841
 21
16.2721861931
 12
8.9517836841
 22
16.1651094339
 13
8.9517836841
 23
16.1651094339
  0
LINE
  5
3C5
100
AcDbEntity
  8
___SYMBOL
100
AcDbLine
 62
2
  6
CONTINUOUS
 10
8.9517836841
 20
16.2721861931
 11
9.1894618599
 21
16.3213147979
  0
LINE
  5
3C6
100
AcDbEntity
  8
___SYMBOL
100
AcDbLine
 62
2
  6
CONTINUOUS
 10
9.1894618599
 20
16.3213147979
 11
9.2056608898
 21
16.2768143886
  0
LINE
  5
3C7
100
AcDbEntity
  8
___SYMBOL
100
AcDbLine
 62
2
  6
CONTINUOUS
 10
9.2056608898
 20
16.2768143886
 11
8.9517836841
 21
16.2721861931
  0
SOLID
  5
3C8
100
AcDbEntity
  8
___SYMBOL
100
AcDbTrace
 62
2
  6
CONTINUOUS
 10
8.9517836841
 20
16.2721861931
 11
9.1894618599
 21
16.3213147979
 12
9.2056608898
 22
16.2768143886
 13
9.2056608898
 23
16.2768143886
  0
LINE
  5
3C9
100
AcDbEntity
  8
___SYMBOL
100
AcDbLine
 62
2
  6
CONTINUOUS
 10
8.9517836841
 20
16.2721861931
 11
9.1619227699
 21
16.359841328
  0
LINE
  5
3CA
100
AcDbEntity
  8
___SYMBOL
100
AcDbLine
 62
2
  6
CONTINUOUS
 10
9.1619227699
 20
16.359841328
 11
9.1894618599
 21
16.3213147979
  0
LINE
  5
3CB
100
AcDbEntity
  8
___SYMBOL
100
AcDbLine
 62
2
  6
CONTINUOUS
 10
9.1894618599
 20
16.3213147979
 11
8.9517836841
 21
16.2721861931
  0
SOLID
  5
3CC
100
AcDbEntity
  8
___SYMBOL
100
AcDbTrace
 62
2
  6
CONTINUOUS
 10
8.9517836841
 20
16.2721861931
 11
9.1619227699
 21
16.359841328
 12
9.1894618599
 22
16.3213147979
 13
9.1894618599
 23
16.3213147979
  0
LINE
  5
3CD
100
AcDbEntity
  8
___SYMBOL
100
AcDbLine
 62
2
  6
CONTINUOUS
 10
8.9517836841
 20
16.2721861931
 11
9.1250609414
 21
16.3895717938
  0
LINE
  5
3CE
100
AcDbEntity
  8
___SYMBOL
100
AcDbLine
 62
2
  6
CONTINUOUS
 10
9.1250609414
 20
16.3895717938
 11
9.1619227699
 21
16.359841328
  0
LINE
  5
3CF
100
AcDbEntity
  8
___SYMBOL
100
AcDbLine
 62
2
  6
CONTINUOUS
 10
9.1619227699
 20
16.359841328
 11
8.9517836841
 21
16.2721861931
  0
SOLID
  5
3D0
100
AcDbEntity
  8
___SYMBOL
100
AcDbTrace
 62
2
  6
CONTINUOUS
 10
8.9517836841
 20
16.2721861931
 11
9.1250609414
 21
16.3895717938
 12
9.1619227699
 22
16.359841328
 13
9.1619227699
 23
16.359841328
  0
LINE
  5
3D1
100
AcDbEntity
  8
___SYMBOL
100
AcDbLine
 62
2
  6
CONTINUOUS
 10
8.9517836841
 20
16.2721861931
 11
9.081576615
 21
16.4083283489
  0
LINE
  5
3D2
100
AcDbEntity
  8
___SYMBOL
100
AcDbLine
 62
2
  6
CONTINUOUS
 10
9.081576615
 20
16.4083283489
 11
9.1250609414
 21
16.3895717938
  0
LINE
  5
3D3
100
AcDbEntity
  8
___SYMBOL
100
AcDbLine
 62
2
  6
CONTINUOUS
 10
9.1250609414
 20
16.3895717938
 11
8.9517836841
 21
16.2721861931
  0
SOLID
  5
3D4
100
AcDbEntity
  8
___SYMBOL
100
AcDbTrace
 62
2
  6
CONTINUOUS
 10
8.9517836841
 20
16.2721861931
 11
9.081576615
 21
16.4083283489
 12
9.1250609414
 22
16.3895717938
 13
9.1250609414
 23
16.3895717938
  0
LINE
  5
3D5
100
AcDbEntity
  8
___SYMBOL
100
AcDbLine
 62
2
  6
CONTINUOUS
 10
8.9517836841
 20
16.2721861931
 11
8.8011649622
 21
16.4147299148
  0
LINE
  5
3D6
100
AcDbEntity
  8
___SYMBOL
100
AcDbLine
 62
2
  6
CONTINUOUS
 10
8.8011649622
 20
16.4147299148
 11
9.081576615
 21
16.4083283489
  0
LINE
  5
3D7
100
AcDbEntity
  8
___SYMBOL
100
AcDbLine
 62
2
  6
CONTINUOUS
 10
9.081576615
 20
16.4083283489
 11
8.9517836841
 21
16.2721861931
  0
SOLID
  5
3D8
100
AcDbEntity
  8
___SYMBOL
100
AcDbTrace
 62
2
  6
CONTINUOUS
 10
8.9517836841
 20
16.2721861931
 11
8.8011649622
 21
16.4147299148
 12
9.081576615
 22
16.4083283489
 13
9.081576615
 23
16.4083283489
  0
LINE
  5
3D9
100
AcDbEntity
  8
___SYMBOL
100
AcDbLine
 62
2
  6
CONTINUOUS
 10
8.8011649622
 20
16.4147299148
 11
8.9517836841
 21
16.2721861931
  0
LINE
  5
3DA
100
AcDbEntity
  8
___SYMBOL
100
AcDbLine
 62
2
  6
CONTINUOUS
 10
8.9517836841
 20
16.2721861931
 11
8.8011649622
 21
15.8289605529
  0
LINE
  5
3DB
100
AcDbEntity
  8
___SYMBOL
100
AcDbLine
 62
2
  6
CONTINUOUS
 10
8.8011649622
 20
15.8289605529
 11
8.8011649622
 21
16.4147299148
  0
SOLID
  5
3DC
100
AcDbEntity
  8
___SYMBOL
100
AcDbTrace
 62
2
  6
CONTINUOUS
 10
8.8011649622
 20
16.4147299148
 11
8.9517836841
 21
16.2721861931
 12
8.8011649622
 22
15.8289605529
 13
8.8011649622
 23
15.8289605529
  0
LINE
  5
3DD
100
AcDbEntity
  8
___SYMBOL
100
AcDbLine
 62
2
  6
CONTINUOUS
 10
8.9517836841
 20
15.8289605529
 11
8.8011649622
 21
15.8289605529
  0
LINE
  5
3DE
100
AcDbEntity
  8
___SYMBOL
100
AcDbLine
 62
2
  6
CONTINUOUS
 10
8.8011649622
 20
15.8289605529
 11
8.9517836841
 21
16.0258684212
  0
LINE
  5
3DF
100
AcDbEntity
  8
___SYMBOL
100
AcDbLine
 62
2
  6
CONTINUOUS
 10
8.9517836841
 20
16.0258684212
 11
8.9517836841
 21
15.8289605529
  0
SOLID
  5
3E0
100
AcDbEntity
  8
___SYMBOL
100
AcDbTrace
 62
2
  6
CONTINUOUS
 10
8.9517836841
 20
15.8289605529
 11
8.8011649622
 21
15.8289605529
 12
8.9517836841
 22
16.0258684212
 13
8.9517836841
 23
16.0258684212
  0
LINE
  5
3E1
100
AcDbEntity
  8
___SYMBOL
100
AcDbLine
 62
2
  6
CONTINUOUS
 10
9.107076558
 20
16.0804811393
 11
9.0765763742
 21
15.8289605529
  0
LINE
  5
3E2
100
AcDbEntity
  8
___SYMBOL
100
AcDbLine
 62
2
  6
CONTINUOUS
 10
9.0765763742
 20
15.8289605529
 11
8.9517836841
 21
16.0258684212
  0
LINE
  5
3E3
100
AcDbEntity
  8
___SYMBOL
100
AcDbLine
 62
2
  6
CONTINUOUS
 10
8.9517836841
 20
16.0258684212
 11
9.107076558
 21
16.0804811393
  0
SOLID
  5
3E4
100
AcDbEntity
  8
___SYMBOL
100
AcDbTrace
 62
2
  6
CONTINUOUS
 10
9.107076558
 20
16.0804811393
 11
9.0765763742
 21
15.8289605529
 12
8.9517836841
 22
16.0258684212
 13
8.9517836841
 23
16.0258684212
  0
LINE
  5
3E5
100
AcDbEntity
  8
___SYMBOL
100
AcDbLine
 62
2
  6
CONTINUOUS
 10
9.2664805363
 20
15.8289605529
 11
9.0765763742
 21
15.8289605529
  0
LINE
  5
3E6
100
AcDbEntity
  8
___SYMBOL
100
AcDbLine
 62
2
  6
CONTINUOUS
 10
9.0765763742
 20
15.8289605529
 11
9.107076558
 21
16.0804811393
  0
LINE
  5
3E7
100
AcDbEntity
  8
___SYMBOL
100
AcDbLine
 62
2
  6
CONTINUOUS
 10
9.107076558
 20
16.0804811393
 11
9.2664805363
 21
15.8289605529
  0
SOLID
  5
3E8
100
AcDbEntity
  8
___SYMBOL
100
AcDbTrace
 62
2
  6
CONTINUOUS
 10
9.2664805363
 20
15.8289605529
 11
9.0765763742
 21
15.8289605529
 12
9.107076558
 22
16.0804811393
 13
9.107076558
 23
16.0804811393
  0
LINE
  5
3E9
100
AcDbEntity
  8
___SYMBOL
100
AcDbLine
 62
2
  6
CONTINUOUS
 10
6.7216548764
 20
16.0304107655
 11
6.6558313445
 21
15.8500125767
  0
LINE
  5
3EA
100
AcDbEntity
  8
___SYMBOL
100
AcDbLine
 62
2
  6
CONTINUOUS
 10
6.8593851172
 20
16.4147299148
 11
6.7216548764
 21
16.2509490678
  0
LINE
  5
3EB
100
AcDbEntity
  8
___SYMBOL
100
AcDbLine
 62
2
  6
CONTINUOUS
 10
7.0513996321
 20
16.4147299148
 11
6.8381487084
 21
16.1611441055
  0
LINE
  5
3EC
100
AcDbEntity
  8
___SYMBOL
100
AcDbLine
 62
2
  6
CONTINUOUS
 10
6.5471976219
 20
16.4147299148
 11
6.5653990219
 21
16.0520694178
  0
LINE
  5
3ED
100
AcDbEntity
  8
___SYMBOL
100
AcDbLine
 62
2
  6
CONTINUOUS
 10
6.7216548764
 20
16.4147299148
 11
6.7216548764
 21
16.2509490678
  0
LINE
  5
3EE
100
AcDbEntity
  8
___SYMBOL
100
AcDbLine
 62
2
  6
CONTINUOUS
 10
7.5831537076
 20
16.4147299148
 11
7.5831537076
 21
15.8289605529
  0
LINE
  5
3EF
100
AcDbEntity
  8
___SYMBOL
100
AcDbLine
 62
2
  6
CONTINUOUS
 10
7.7478468201
 20
16.4147299148
 11
7.7478468201
 21
16.1944004271
  0
LINE
  5
3F0
100
AcDbEntity
  8
___SYMBOL
100
AcDbLine
 62
2
  6
CONTINUOUS
 10
7.7478468201
 20
16.0572289354
 11
7.7478468201
 21
15.8289605529
  0
LINE
  5
3F1
100
AcDbEntity
  8
___SYMBOL
100
AcDbLine
 62
2
  6
CONTINUOUS
 10
7.8958071854
 20
16.4147299148
 11
7.8958071854
 21
16.1944004271
  0
LINE
  5
3F2
100
AcDbEntity
  8
___SYMBOL
100
AcDbLine
 62
2
  6
CONTINUOUS
 10
7.8958071854
 20
16.0572289354
 11
7.8958071854
 21
15.8289605529
  0
LINE
  5
3F3
100
AcDbEntity
  8
___SYMBOL
100
AcDbLine
 62
2
  6
CONTINUOUS
 10
8.0605002978
 20
16.4147299148
 11
8.0605002978
 21
15.8289605529
  0
LINE
  5
3F4
100
AcDbEntity
  8
___SYMBOL
100
AcDbLine
 62
2
  6
CONTINUOUS
 10
8.1055340493
 20
15.8289605529
 11
8.1055340493
 21
16.4147299148
  0
LINE
  5
3F5
100
AcDbEntity
  8
___SYMBOL
100
AcDbLine
 62
2
  6
CONTINUOUS
 10
6.6991807013
 20
15.8760221908
 11
6.5471976219
 21
15.8289365553
  0
LINE
  5
3F6
100
AcDbEntity
  8
___SYMBOL
100
AcDbLine
 62
2
  6
CONTINUOUS
 10
8.2555431617
 20
16.4147299148
 11
8.2555431617
 21
15.9701525315
  0
LINE
  5
3F7
100
AcDbEntity
  8
___SYMBOL
100
AcDbLine
 62
2
  6
CONTINUOUS
 10
8.4181871689
 20
15.9701525315
 11
8.4181871689
 21
15.8289605529
  0
LINE
  5
3F8
100
AcDbEntity
  8
___SYMBOL
100
AcDbLine
 62
2
  6
CONTINUOUS
 10
8.4473277297
 20
15.8289605529
 11
8.4473277297
 21
16.4147299148
  0
LINE
  5
3F9
100
AcDbEntity
  8
___SYMBOL
100
AcDbLine
 62
2
  6
CONTINUOUS
 10
8.6055354118
 20
16.2720056741
 11
8.6055354118
 21
16.1944004271
  0
LINE
  5
3FA
100
AcDbEntity
  8
___SYMBOL
100
AcDbLine
 62
2
  6
CONTINUOUS
 10
8.6055354118
 20
16.0500543809
 11
8.6055354118
 21
15.9701525315
  0
LINE
  5
3FB
100
AcDbEntity
  8
___SYMBOL
100
AcDbLine
 62
2
  6
CONTINUOUS
 10
8.7563557849
 20
15.8289605529
 11
8.7563557849
 21
15.9701525315
  0
LINE
  5
3FC
100
AcDbEntity
  8
___SYMBOL
100
AcDbLine
 62
2
  6
CONTINUOUS
 10
8.7563557849
 20
16.0500543809
 11
8.7563557849
 21
16.1944004271
  0
LINE
  5
3FD
100
AcDbEntity
  8
___SYMBOL
100
AcDbLine
 62
2
  6
CONTINUOUS
 10
8.7563557849
 20
16.2720056741
 11
8.7563557849
 21
16.4147299148
  0
LINE
  5
3FE
100
AcDbEntity
  8
___SYMBOL
100
AcDbLine
 62
2
  6
CONTINUOUS
 10
8.8011649622
 20
15.8289605529
 11
8.8011649622
 21
16.4147299148
  0
LINE
  5
3FF
100
AcDbEntity
  8
___SYMBOL
100
AcDbLine
 62
2
  6
CONTINUOUS
 10
8.9517836841
 20
16.2721861931
 11
8.9517836841
 21
16.1651094339
  0
LINE
  5
400
100
AcDbEntity
  8
___SYMBOL
100
AcDbLine
 62
2
  6
CONTINUOUS
 10
8.9517836841
 20
16.0258684212
 11
8.9517836841
 21
15.8289605529
  0
LINE
  5
401
100
AcDbEntity
  8
___SYMBOL
100
AcDbLine
 62
2
  6
CONTINUOUS
 10
9.3913337576
 20
15.7961279495
 11
9.3913337576
 21
15.8620779035
  0
LINE
  5
402
100
AcDbEntity
  8
___SYMBOL
100
AcDbLine
 62
2
  6
CONTINUOUS
 10
6.8753549568
 20
15.8289605529
 11
6.7216548764
 21
16.0304107655
  0
LINE
  5
403
100
AcDbEntity
  8
___SYMBOL
100
AcDbLine
 62
2
  6
CONTINUOUS
 10
7.0915941142
 20
15.8289605529
 11
6.8381487084
 21
16.1611441055
  0
LINE
  5
404
100
AcDbEntity
  8
___SYMBOL
100
AcDbLine
 62
2
  6
CONTINUOUS
 10
9.0765763742
 20
15.8289605529
 11
8.9517836841
 21
16.0258684212
  0
LINE
  5
405
100
AcDbEntity
  8
___SYMBOL
100
AcDbLine
 62
2
  6
CONTINUOUS
 10
9.2664805363
 20
15.8289605529
 11
9.107076558
 21
16.0804811393
  0
LINE
  5
406
100
AcDbEntity
  8
___SYMBOL
100
AcDbLine
 62
2
  6
CONTINUOUS
 10
9.4029288776
 20
15.8284229359
 11
9.4347890425
 21
15.7961279495
  0
LINE
  5
407
100
AcDbEntity
  8
___SYMBOL
100
AcDbLine
 62
2
  6
CONTINUOUS
 10
7.6693519549
 20
16.1124097037
 11
7.8958071854
 21
16.0572289354
  0
LINE
  5
408
100
AcDbEntity
  8
___SYMBOL
100
AcDbLine
 62
2
  6
CONTINUOUS
 10
9.4156071115
 20
15.8284229359
 11
9.3913337576
 21
15.8284229359
  0
LINE
  5
409
100
AcDbEntity
  8
___SYMBOL
100
AcDbLine
 62
2
  6
CONTINUOUS
 10
8.0605002978
 20
15.8289605529
 11
7.8958071854
 21
15.8289605529
  0
LINE
  5
40A
100
AcDbEntity
  8
___SYMBOL
100
AcDbLine
 62
2
  6
CONTINUOUS
 10
7.7478468201
 20
15.8289605529
 11
7.5831537076
 21
15.8289605529
  0
LINE
  5
40B
100
AcDbEntity
  8
___SYMBOL
100
AcDbLine
 62
2
  6
CONTINUOUS
 10
6.8753549568
 20
15.8289605529
 11
7.0915941142
 21
15.8289605529
  0
LINE
  5
40C
100
AcDbEntity
  8
___SYMBOL
100
AcDbLine
 62
2
  6
CONTINUOUS
 10
8.1055340493
 20
15.8289605529
 11
8.4181871689
 21
15.8289605529
  0
LINE
  5
40D
100
AcDbEntity
  8
___SYMBOL
100
AcDbLine
 62
2
  6
CONTINUOUS
 10
8.4473277297
 20
15.8289605529
 11
8.7563557849
 21
15.8289605529
  0
LINE
  5
40E
100
AcDbEntity
  8
___SYMBOL
100
AcDbLine
 62
2
  6
CONTINUOUS
 10
8.8011649622
 20
15.8289605529
 11
8.9517836841
 21
15.8289605529
  0
LINE
  5
40F
100
AcDbEntity
  8
___SYMBOL
100
AcDbLine
 62
2
  6
CONTINUOUS
 10
9.0765763742
 20
15.8289605529
 11
9.2664805363
 21
15.8289605529
  0
LINE
  5
410
100
AcDbEntity
  8
___SYMBOL
100
AcDbLine
 62
2
  6
CONTINUOUS
 10
9.3913337576
 20
15.8620779035
 11
9.4156071115
 21
15.8620779035
  0
LINE
  5
411
100
AcDbEntity
  8
___SYMBOL
100
AcDbLine
 62
2
  6
CONTINUOUS
 10
8.2555431617
 20
15.9701525315
 11
8.4181871689
 21
15.9701525315
  0
LINE
  5
412
100
AcDbEntity
  8
___SYMBOL
100
AcDbLine
 62
2
  6
CONTINUOUS
 10
8.6055354118
 20
15.9701525315
 11
8.7563557849
 21
15.9701525315
  0
LINE
  5
413
100
AcDbEntity
  8
___SYMBOL
100
AcDbLine
 62
2
  6
CONTINUOUS
 10
8.6055354118
 20
16.0500543809
 11
8.7563557849
 21
16.0500543809
  0
LINE
  5
414
100
AcDbEntity
  8
___SYMBOL
100
AcDbLine
 62
2
  6
CONTINUOUS
 10
8.9517836841
 20
16.1651094339
 11
9.0041105451
 21
16.1651094339
  0
LINE
  5
415
100
AcDbEntity
  8
___SYMBOL
100
AcDbLine
 62
2
  6
CONTINUOUS
 10
7.7478468201
 20
16.1944004271
 11
7.8958071854
 21
16.1944004271
  0
LINE
  5
416
100
AcDbEntity
  8
___SYMBOL
100
AcDbLine
 62
2
  6
CONTINUOUS
 10
8.6055354118
 20
16.1944004271
 11
8.7563557849
 21
16.1944004271
  0
LINE
  5
417
100
AcDbEntity
  8
___SYMBOL
100
AcDbLine
 62
2
  6
CONTINUOUS
 10
8.6055354118
 20
16.2720056741
 11
8.7563557849
 21
16.2720056741
  0
LINE
  5
418
100
AcDbEntity
  8
___SYMBOL
100
AcDbLine
 62
2
  6
CONTINUOUS
 10
9.0076997923
 20
16.2721861931
 11
8.9517836841
 21
16.2721861931
  0
LINE
  5
419
100
AcDbEntity
  8
___SYMBOL
100
AcDbLine
 62
2
  6
CONTINUOUS
 10
6.5471976219
 20
16.4147299148
 11
6.7216548764
 21
16.4147299148
  0
LINE
  5
41A
100
AcDbEntity
  8
___SYMBOL
100
AcDbLine
 62
2
  6
CONTINUOUS
 10
6.8593851172
 20
16.4147299148
 11
7.0513996321
 21
16.4147299148
  0
LINE
  5
41B
100
AcDbEntity
  8
___SYMBOL
100
AcDbLine
 62
2
  6
CONTINUOUS
 10
7.5831537076
 20
16.4147299148
 11
7.7478468201
 21
16.4147299148
  0
LINE
  5
41C
100
AcDbEntity
  8
___SYMBOL
100
AcDbLine
 62
2
  6
CONTINUOUS
 10
7.8958071854
 20
16.4147299148
 11
8.0605002978
 21
16.4147299148
  0
LINE
  5
41D
100
AcDbEntity
  8
___SYMBOL
100
AcDbLine
 62
2
  6
CONTINUOUS
 10
8.1055340493
 20
16.4147299148
 11
8.2555431617
 21
16.4147299148
  0
LINE
  5
41E
100
AcDbEntity
  8
___SYMBOL
100
AcDbLine
 62
2
  6
CONTINUOUS
 10
8.4473277297
 20
16.4147299148
 11
8.7563557849
 21
16.4147299148
  0
LINE
  5
41F
100
AcDbEntity
  8
___SYMBOL
100
AcDbLine
 62
2
  6
CONTINUOUS
 10
8.8011649622
 20
16.4147299148
 11
9.0346551492
 21
16.4147299148
  0
CIRCLE
  5
420
100
AcDbEntity
  8
___SYMBOL
100
AcDbCircle
 62
2
  6
CONTINUOUS
 10
7.2680594836
 20
16.1207242582
 40
0.2979831914
  0
ARC
  5
421
100
AcDbEntity
  8
___SYMBOL
100
AcDbCircle
 62
2
  6
CONTINUOUS
 10
9.0346551492
 20
16.2397635021
 40
0.1749735166
100
AcDbArc
 50
294.4500166359
 51
90.0
  0
CIRCLE
  5
422
100
AcDbEntity
  8
___SYMBOL
100
AcDbCircle
 62
2
  6
CONTINUOUS
 10
7.2680594836
 20
16.1207242582
 40
0.1373499095
  0
CIRCLE
  5
423
100
AcDbEntity
  8
___SYMBOL
100
AcDbCircle
 62
2
  6
CONTINUOUS
 10
9.4072158449
 20
15.8289605529
 40
0.065341777
  0
ARC
  5
424
100
AcDbEntity
  8
___SYMBOL
100
AcDbCircle
 62
2
  6
CONTINUOUS
 10
9.0076996903
 20
16.2185876605
 40
0.0535985325
100
AcDbArc
 50
266.1604009902
 51
89.9998910512
  0
ARC
  5
425
100
AcDbEntity
  8
___SYMBOL
100
AcDbCircle
 62
2
  6
CONTINUOUS
 10
9.4156071115
 20
15.8452505988
 40
0.0168273047
100
AcDbArc
 50
270.0
 51
90.0
  0
ENDBLK
  5
426
100
AcDbEntity
  8
0
  6
BYBLOCK
 62
0
100
AcDbBlockEnd
  0
BLOCK
  5
427
100
AcDbEntity
  8
___SYMBOL
100
AcDbBlockBegin
 62
2
  6
CONTINUOUS
  2
SCISSORS_BL0
 70
64
 10
20.3034676183
 20
6.6523715771
  3
SCISSORS_BL0
  1

  0
LINE
  5
428
100
AcDbEntity
  8
___SYMBOL
100
AcDbLine
 62
7
  6
CONTINUOUS
 10
20.264289525
 20
6.7085369278
 11
20.3781098738
 21
7.1806002531
  0
LINE
  5
429
100
AcDbEntity
  8
___SYMBOL
100
AcDbLine
 62
7
  6
CONTINUOUS
 10
20.2158802569
 20
6.7031291044
 11
20.3781098738
 21
7.1806002531
  0
LINE
  5
42A
100
AcDbEntity
  8
___SYMBOL
100
AcDbLine
 62
7
  6
CONTINUOUS
 10
20.2507677084
 20
6.6240870721
 11
20.2680210555
 21
6.6642755845
  0
LINE
  5
42B
100
AcDbEntity
  8
___SYMBOL
100
AcDbLine
 62
7
  6
CONTINUOUS
 10
20.2810276744
 20
6.6588554608
 11
20.2636556065
 21
6.61839041
  0
LINE
  5
42C
100
AcDbEntity
  8
___SYMBOL
100
AcDbLine
 62
7
  6
CONTINUOUS
 10
20.3408539425
 20
6.7991909272
 11
20.6363045419
 21
7.0509681087
  0
LINE
  5
42D
100
AcDbEntity
  8
___SYMBOL
100
AcDbLine
 62
7
  6
CONTINUOUS
 10
20.158126209
 20
6.6394320047
 11
20.205779773
 21
6.6754599077
  0
LINE
  5
42E
100
AcDbEntity
  8
___SYMBOL
100
AcDbLine
 62
7
  6
CONTINUOUS
 10
20.323977685
 20
6.6264194585
 11
20.5580271422
 21
6.8831016833
  0
LINE
  5
42F
100
AcDbEntity
  8
___SYMBOL
100
AcDbLine
 62
7
  6
CONTINUOUS
 10
20.3313589605
 20
6.7019856085
 11
20.264289525
 21
6.7085369278
  0
LINE
  5
430
100
AcDbEntity
  8
___SYMBOL
100
AcDbLine
 62
7
  6
CONTINUOUS
 10
20.3177918937
 20
6.5630921324
 11
20.2229303088
 21
6.4761844828
  0
LINE
  5
431
100
AcDbEntity
  8
___SYMBOL
100
AcDbLine
 62
7
  6
CONTINUOUS
 10
20.150759414
 20
6.5141175344
 11
20.2017377517
 21
6.5337859691
  0
LINE
  5
432
100
AcDbEntity
  8
___SYMBOL
100
AcDbLine
 62
7
  6
CONTINUOUS
 10
20.3781098738
 20
7.1806002531
 11
20.3177918937
 21
6.5630921324
  0
LINE
  5
433
100
AcDbEntity
  8
___SYMBOL
100
AcDbLine
 62
7
  6
CONTINUOUS
 10
20.150759414
 20
6.5141175344
 11
20.158126209
 21
6.6394320047
  0
ARC
  5
434
100
AcDbEntity
  8
___SYMBOL
100
AcDbCircle
 62
7
  6
CONTINUOUS
 10
20.3286674496
 20
7.0922377526
 40
0.3103929189
100
AcDbArc
 50
317.6406360869
 51
352.3593639131
  0
ARC
  5
435
100
AcDbEntity
  8
___SYMBOL
100
AcDbCircle
 62
7
  6
CONTINUOUS
 10
20.4630434124
 20
6.5972254305
 40
0.2688962877
100
AcDbArc
 50
156.8059909349
 51
206.752660067
  0
CIRCLE
  5
436
100
AcDbEntity
  8
___SYMBOL
100
AcDbCircle
 62
7
  6
CONTINUOUS
 10
20.2660833445
 20
6.641309687
 40
0.0230474981
  0
ARC
  5
437
100
AcDbEntity
  8
___SYMBOL
100
AcDbCircle
 62
7
  6
CONTINUOUS
 10
20.2550540757
 20
6.293313697
 40
0.0125581039
100
AcDbArc
 50
160.3133793157
 51
289.0675041521
  0
ARC
  5
438
100
AcDbEntity
  8
___SYMBOL
100
AcDbCircle
 62
7
  6
CONTINUOUS
 10
19.9915928467
 20
6.4090345111
 40
0.0125580003
100
AcDbArc
 50
208.3109272841
 51
334.4467240969
  0
SPLINE
  5
439
100
AcDbEntity
  8
___SYMBOL
100
AcDbSpline
 62
7
  6
CONTINUOUS
 70
0
 71
3
 72
12
 73
8
 74
0
 42
0.0000001
 43
0.0000001
 44
0.0000000001
 40
0.0
 40
0.0
 40
0.0
 40
0.0
 40
0.4884256058
 40
0.6683914397
 40
0.8669439281
 40
0.9099489479
 40
1.0
 40
1.0
 40
1.0
 40
1.0
 10
20.1403685602
 20
6.1241429012
 30
0.0
 10
20.1469913537
 20
6.1855929291
 30
0.0
 10
20.1798209179
 20
6.2661048136
 30
0.0
 10
20.2271528329
 20
6.3643715858
 30
0.0
 10
20.2461689155
 20
6.4150859407
 30
0.0
 10
20.2483926669
 20
6.4575770906
 30
0.0
 10
20.2339198354
 20
6.4731712064
 30
0.0
 10
20.2229303088
 20
6.4761844828
 30
0.0
  0
SPLINE
  5
43A
100
AcDbEntity
  8
___SYMBOL
100
AcDbSpline
 62
7
  6
CONTINUOUS
 70
0
 71
3
 72
14
 73
10
 74
0
 42
0.0000001
 43
0.0000001
 44
0.0000000001
 40
0.0
 40
0.0
 40
0.0
 40
0.0
 40
0.0469735811
 40
0.2606095073
 40
0.5805460666
 40
0.7382389988
 40
0.8401572415
 40
0.925087268
 40
1.0
 40
1.0
 40
1.0
 40
1.0
 10
20.2432300026
 20
6.2975442134
 30
0.0
 10
20.2447135416
 20
6.301690628
 30
0.0
 10
20.2535082866
 20
6.3245346615
 30
0.0
 10
20.278319932
 20
6.3722839413
 30
0.0
 10
20.3117472944
 20
6.4320857134
 30
0.0
 10
20.3050582743
 20
6.4868018718
 30
0.0
 10
20.3003191133
 20
6.5194212032
 30
0.0
 10
20.3096085669
 20
6.5427666904
 30
0.0
 10
20.3158172679
 20
6.556352294
 30
0.0
 10
20.3177918937
 20
6.5630921324
 30
0.0
  0
SPLINE
  5
43B
100
AcDbEntity
  8
___SYMBOL
100
AcDbSpline
 62
7
  6
CONTINUOUS
 70
0
 71
3
 72
12
 73
8
 74
0
 42
0.0000001
 43
0.0000001
 44
0.0000000001
 40
0.0
 40
0.0
 40
0.0
 40
0.0
 40
0.2870411994
 40
0.5613888029
 40
0.7613462239
 40
0.9013972407
 40
1.0
 40
1.0
 40
1.0
 40
1.0
 10
19.9678748681
 20
6.2412433621
 30
0.0
 10
19.9883717445
 20
6.2664828536
 30
0.0
 10
20.018476125
 20
6.323291824
 30
0.0
 10
20.0501387754
 20
6.4039997324
 30
0.0
 10
20.0848721882
 20
6.4630603373
 30
0.0
 10
20.1101654096
 20
6.5090110151
 30
0.0
 10
20.1397254736
 20
6.5158491568
 30
0.0
 10
20.150759414
 20
6.5141175344
 30
0.0
  0
SPLINE
  5
43C
100
AcDbEntity
  8
___SYMBOL
100
AcDbSpline
 62
7
  6
CONTINUOUS
 70
0
 71
3
 72
13
 73
9
 74
0
 42
0.0000001
 43
0.0000001
 44
0.0000000001
 40
0.0
 40
0.0
 40
0.0
 40
0.0
 40
0.0902051637
 40
0.4170421866
 40
0.6587388922
 40
0.9356437381
 40
0.9595034934
 40
1.0
 40
1.0
 40
1.0
 40
1.0
 10
20.002922481
 20
6.4036176155
 30
0.0
 10
20.0066220929
 20
6.4113554884
 30
0.0
 10
20.0231336347
 20
6.4473439082
 30
0.0
 10
20.0482754897
 20
6.5055772467
 30
0.0
 10
20.0930959861
 20
6.5703953453
 30
0.0
 10
20.149019172
 20
6.5996768174
 30
0.0
 10
20.1499322828
 20
6.6324145492
 30
0.0
 10
20.154476654
 20
6.638204498
 30
0.0
 10
20.158126209
 20
6.6394320047
 30
0.0
  0
ELLIPSE
  5
43D
100
AcDbEntity
  8
___SYMBOL
100
AcDbEllipse
 62
7
  6
CONTINUOUS
 10
20.2597340435
 20
6.1367888255
 30
0.0
 11
-0.0402346841
 21
-0.0986234265
 31
0.0
 40
0.774293327
 41
0.0
 42
6.2831853072
  0
ELLIPSE
  5
43E
100
AcDbEntity
  8
___SYMBOL
100
AcDbEllipse
 62
7
  6
CONTINUOUS
 10
20.2597340435
 20
6.1367888255
 30
0.0
 11
-0.0693641181
 21
-0.1425818973
 31
0.0
 40
0.700902774
 41
5.1250505418
 42
10.0362700851
  0
ELLIPSE
  5
43F
100
AcDbEntity
  8
___SYMBOL
100
AcDbEllipse
 62
7
  6
CONTINUOUS
 10
19.8814842049
 20
6.3253608231
 30
0.0
 11
-0.0328144222
 21
-0.1012204252
 31
0.0
 40
0.7501188416
 41
0.0
 42
6.2831853072
  0
ELLIPSE
  5
440
100
AcDbEntity
  8
___SYMBOL
100
AcDbEllipse
 62
7
  6
CONTINUOUS
 10
19.8758181993
 20
6.3085825846
 30
0.0
 11
-0.061316421
 21
-0.1361209396
 31
0.0
 40
0.7569683881
 41
2.6163261196
 42
7.6953125801
  0
LINE
  5
441
100
AcDbEntity
  8
___SYMBOL
100
AcDbLine
 62
7
  6
CONTINUOUS
 10
20.259394382
 20
6.6441813283
 11
20.2658680112
 21
6.6414021318
  0
ENDBLK
  5
442
100
AcDbEntity
  8
0
  6
BYBLOCK
 62
0
100
AcDbBlockEnd
  0
BLOCK
  5
443
100
AcDbEntity
  8
0
100
AcDbBlockBegin
  2
_FILLED
 70
64
 10
0.0
 20
0.0
  3
_FILLED
  1

  0
SOLID
  5
444
100
AcDbEntity
  8
0
  6
BYBLOCK
 62
0
100
AcDbTrace
 10
0.0
 20
0.0
 11
-1.0
 21
0.1666666667
 12
-1.0
 22
-0.1666666667
 13
-1.0
 23
-0.1666666667
  0
ENDBLK
  5
445
100
AcDbEntity
  8
0
  6
BYBLOCK
 62
0
100
AcDbBlockEnd
  0
BLOCK
  5
446
100
AcDbEntity
  8
0
100
AcDbBlockBegin
 62
2
  6
CONTINUOUS
  2
*D0
 70
65
 10
0.0
 20
0.0
  3
*D0
  1

  0
MTEXT
  5
447
100
AcDbEntity
  8
0
100
AcDbMText
 62
2
  6
CONTINUOUS
  7
STANDARD
 71
2
 72
1
 10
11.597532967
 20
13.8728503865
 30
0.0
 11
1.0
 21
0.0
 31
0.0
 73
2
 44
0.9
  1
15-9/16\P[395]
 40
0.15625
 41
0.875
  0
LINE
  5
448
100
AcDbEntity
  8
0
100
AcDbLine
 62
2
  6
CONTINUOUS
 10
11.9210815682
 20
19.1912062762
 11
11.472532967
 21
19.1912062762
  0
LINE
  5
449
100
AcDbEntity
  8
0
100
AcDbLine
 62
2
  6
CONTINUOUS
 10
11.8328762367
 20
3.6483966165
 11
11.472532967
 21
3.6483966165
  0
LINE
  5
44A
100
AcDbEntity
  8
0
100
AcDbLine
 62
2
  6
CONTINUOUS
 10
11.597532967
 20
19.1912062762
 11
11.597532967
 21
13.9509753865
  0
LINE
  5
44B
100
AcDbEntity
  8
0
100
AcDbLine
 62
2
  6
CONTINUOUS
 10
11.597532967
 20
3.6483966165
 11
11.597532967
 21
13.4041001587
  0
INSERT
  5
44C
100
AcDbEntity
  8
0
100
AcDbBlockReference
 62
2
  6
CONTINUOUS
  2
_FILLED
 10
11.597532967
 20
19.1912062762
 41
0.1875
 42
0.1875
 43
0.1875
 50
90.0
  0
INSERT
  5
44D
100
AcDbEntity
  8
0
100
AcDbBlockReference
 62
2
  6
CONTINUOUS
  2
_FILLED
 10
11.597532967
 20
3.6483966165
 41
0.1875
 42
0.1875
 43
0.1875
 50
270.0
  0
ENDBLK
  5
44E
100
AcDbEntity
  8
0
  6
BYBLOCK
 62
0
100
AcDbBlockEnd
  0
BLOCK
  5
44F
100
AcDbEntity
  8
0
100
AcDbBlockBegin
 62
2
  6
CONTINUOUS
  2
*D1
 70
65
 10
0.0
 20
0.0
  3
*D1
  1

  0
MTEXT
  5
450
100
AcDbEntity
  8
0
100
AcDbMText
 62
2
  6
CONTINUOUS
  7
STANDARD
 71
2
 72
1
 10
8.1256517524
 20
12.7030683179
 30
0.0
 11
1.0
 21
0.0
 31
0.0
 73
2
 44
0.9
  1
18-11/16\P[475]
 40
0.15625
 41
1.0
  0
LINE
  5
451
100
AcDbEntity
  8
0
100
AcDbLine
 62
2
  6
CONTINUOUS
 10
22.11507711
 20
12.1297810396
 11
22.11507711
 21
12.7499433179
  0
LINE
  5
452
100
AcDbEntity
  8
0
100
AcDbLine
 62
2
  6
CONTINUOUS
 10
3.4173497925
 20
12.1545652824
 11
3.4173497925
 21
12.7499433179
  0
LINE
  5
453
100
AcDbEntity
  8
0
100
AcDbLine
 62
2
  6
CONTINUOUS
 10
22.11507711
 20
12.6249433179
 11
8.7037767524
 21
12.6249433179
  0
LINE
  5
454
100
AcDbEntity
  8
0
100
AcDbLine
 62
2
  6
CONTINUOUS
 10
3.4173497925
 20
12.6249433179
 11
7.5475267524
 21
12.6249433179
  0
INSERT
  5
455
100
AcDbEntity
  8
0
100
AcDbBlockReference
 62
2
  6
CONTINUOUS
  2
_FILLED
 10
22.11507711
 20
12.6249433179
 41
0.1875
 42
0.1875
 43
0.1875
  0
INSERT
  5
456
100
AcDbEntity
  8
0
100
AcDbBlockReference
 62
2
  6
CONTINUOUS
  2
_FILLED
 10
3.4173497925
 20
12.6249433179
 41
0.1875
 42
0.1875
 43
0.1875
 50
180.0
  0
ENDBLK
  5
457
100
AcDbEntity
  8
0
  6
BYBLOCK
 62
0
100
AcDbBlockEnd
  0
ENDSEC
  0
SECTION
  2
ENTITIES
  0
DIMENSION
  5
458
100
AcDbEntity
  8
0
100
AcDbDimension
 62
2
  6
CONTINUOUS
  2
*D0
 10
11.597532967
 20
3.6483966165
 11
11.597532967
 21
13.6775378865
 70
160
 71
2
 72
2
 41
0.9
 42
15.5428096597
  1
<>\P[]
  3
DIMSTYLE_1
100
AcDbAlignedDimension
 13
11.9835815682
 23
19.1912062762
 14
11.8953762367
 24
3.6483966165
 50
270.0
100
AcDbRotatedDimension
  0
DIMENSION
  5
459
100
AcDbEntity
  8
0
100
AcDbDimension
 62
2
  6
CONTINUOUS
  2
*D1
 10
3.4173497925
 20
12.6249433179
 11
8.1256517524
 21
12.5077558179
 70
160
 71
2
 72
2
 41
0.9
 42
18.6977273175
  1
<>\P[]
  3
DIMSTYLE_2
100
AcDbAlignedDimension
 13
22.11507711
 23
12.0672810396
 14
3.4173497925
 24
12.0920652824
 50
180.0
100
AcDbRotatedDimension
  0
MTEXT
  5
45A
100
AcDbEntity
  8
___NOTE
100
AcDbMText
 62
2
  6
CONTINUOUS
  7
STANDARD
 71
1
 72
1
 10
4.5838117637
 20
8.3287068093
 30
0.0
 11
1.0
 21
0.0
 31
0.0
 73
2
 44
0.9
  3
WHEN PLOTTING TEMPLATE FULL SIZE:\P Make sure horizontal and vertical dimensions match \P  the dimensions labeled on the template.\P \P      LORS DU TRACÉ DU GABARIT À L'ÉCHELLE:  \P       S'assurer que les dimensions horizontales \P        et vertic
  3
ales correspondent à celles marquées \P          sur le gabarit.\P \P              AL TRAZAR LA PLANTILLA A ESCALA COMPLETA: \P                 Asegúrese de que las dimensiones \P                   horizontal y vertical sean iguales \P               
  1
       a las indicadas en la plantilla.
 40
0.15625
 41
7.0
  0
MTEXT
  5
45B
100
AcDbEntity
  8
___NOTE
100
AcDbMText
 62
2
  6
CONTINUOUS
  7
STANDARD
 71
1
 72
1
 10
6.4876833699
 20
15.6623598786
 30
0.0
 11
1.0
 21
0.0
 31
0.0
 73
2
 44
0.9
  1
CUT-OUT TEMPLATE\PGABARIT DE DÉCOUPAGE\PPLANTILLA DE CORTE\P21782
 40
0.25
 41
4.0
  0
MTEXT
  5
45C
100
AcDbEntity
  8
___NOTE
100
AcDbMText
 62
2
  6
CONTINUOUS
  7
STANDARD
 71
1
 72
1
 10
17.3676101713
 20
14.469543927
 30
0.0
 11
1.0
 21
0.0
 31
0.0
 73
2
 44
0.9
  1
WOOD
 40
0.15625
 41
0.5
  0
MTEXT
  5
45D
100
AcDbEntity
  8
___NOTE
100
AcDbMText
 62
2
  6
CONTINUOUS
  7
STANDARD
 71
1
 72
1
 10
17.3676101713
 20
14.235168927
 30
0.0
 11
1.0
 21
0.0
 31
0.0
 73
2
 44
0.9
  1
BOIS
 40
0.15625
 41
0.5
  0
MTEXT
  5
45E
100
AcDbEntity
  8
___NOTE
100
AcDbMText
 62
2
  6
CONTINUOUS
  7
STANDARD
 71
1
 72
1
 10
17.2426101713
 20
14.000793927
 30
0.0
 11
1.0
 21
0.0
 31
0.0
 73
2
 44
0.9
  1
MADERA
 40
0.15625
 41
0.75
  0
MTEXT
  5
45F
100
AcDbEntity
  8
___NOTE
100
AcDbMText
 62
2
  6
CONTINUOUS
  7
STANDARD
 71
1
 72
1
 10
15.0879285961
 20
15.2561656195
 30
0.0
 11
1.0
 21
0.0
 31
0.0
 73
2
 44
0.9
  1
20/32"
 40
0.15625
 41
0.75
  0
MTEXT
  5
460
100
AcDbEntity
  8
___NOTE
100
AcDbMText
 62
2
  6
CONTINUOUS
  7
STANDARD
 71
1
 72
1
 10
15.0879285961
 20
15.0217906195
 30
0.0
 11
1.0
 21
0.0
 31
0.0
 73
2
 44
0.9
  1
16mm
 40
0.15625
 41
0.5
  0
MTEXT
  5
461
100
AcDbEntity
  8
___NOTE
100
AcDbMText
 62
2
  6
CONTINUOUS
  7
STANDARD
 71
1
 72
1
 10
14.1521423127
 20
14.4552010799
 30
0.0
 11
1.0
 21
0.0
 31
0.0
 73
2
 44
0.9
  1
MARBLE
 40
0.15625
 41
0.75
  0
MTEXT
  5
462
100
AcDbEntity
  8
___NOTE
100
AcDbMText
 62
2
  6
CONTINUOUS
  7
STANDARD
 71
1
 72
1
 10
14.1521423127
 20
14.2208260799
 30
0.0
 11
1.0
 21
0.0
 31
0.0
 73
2
 44
0.9
  1
MARBRE 
 40
0.15625
 41
0.875
  0
MTEXT
  5
463
100
AcDbEntity
  8
___NOTE
100
AcDbMText
 62
2
  6
CONTINUOUS
  7
STANDARD
 71
1
 72
1
 10
14.1521423127
 20
13.9864510799
 30
0.0
 11
1.0
 21
0.0
 31
0.0
 73
2
 44
0.9
  1
MÁRMOL
 40
0.15625
 41
0.75
  0
MTEXT
  5
464
100
AcDbEntity
  8
___NOTE
100
AcDbMText
 62
2
  6
CONTINUOUS
  7
STANDARD
 71
1
 72
1
 10
15.2804341736
 20
13.8925805712
 30
0.0
 11
1.0
 21
0.0
 31
0.0
 73
2
 44
0.9
  1
INSTALLATION
 40
0.15625
 41
1.5
  0
MTEXT
  5
465
100
AcDbEntity
  8
___NOTE
100
AcDbMText
 62
2
  6
CONTINUOUS
  7
STANDARD
 71
1
 72
1
 10
15.2804341736
 20
13.6582055712
 30
0.0
 11
1.0
 21
0.0
 31
0.0
 73
2
 44
0.9
  1
INSTALLATION
 40
0.15625
 41
1.5
  0
MTEXT
  5
466
100
AcDbEntity
  8
___NOTE
100
AcDbMText
 62
2
  6
CONTINUOUS
  7
STANDARD
 71
1
 72
1
 10
15.2804341736
 20
13.4238305712
 30
0.0
 11
1.0
 21
0.0
 31
0.0
 73
2
 44
0.9
  1
INSTALACIÓN
 40
0.15625
 41
1.375
  0
MTEXT
  5
467
100
AcDbEntity
  8
___NOTE
100
AcDbMText
 62
2
  6
CONTINUOUS
  7
STANDARD
 71
1
 72
1
 10
17.5096354742
 20
16.970389982
 30
0.0
 11
1.0
 21
0.0
 31
0.0
 73
2
 44
0.9
  1
SEALANT\PMASTIC \PD'ÉCHANTÉITÉ \PSELLADOR
 40
0.15625
 41
1.625
  0
MTEXT
  5
468
100
AcDbEntity
  8
___NOTE
100
AcDbMText
 62
2
  6
CONTINUOUS
  7
STANDARD
 71
1
 72
1
 10
13.7149134518
 20
16.9605803206
 30
0.0
 11
1.0
 21
0.0
 31
0.0
 73
2
 44
0.9
  1
SEALANT
 40
0.15625
 41
0.875
  0
MTEXT
  5
469
100
AcDbEntity
  8
___NOTE
100
AcDbMText
 62
2
  6
CONTINUOUS
  7
STANDARD
 71
1
 72
1
 10
13.7149134518
 20
16.7262053206
 30
0.0
 11
1.0
 21
0.0
 31
0.0
 73
2
 44
0.9
  1
MASTIC D'ÉCHANTÉITÉ
 40
0.15625
 41
2.375
  0
MTEXT
  5
46A
100
AcDbEntity
  8
___NOTE
100
AcDbMText
 62
2
  6
CONTINUOUS
  7
STANDARD
 71
1
 72
1
 10
13.7149134518
 20
16.4918303206
 30
0.0
 11
1.0
 21
0.0
 31
0.0
 73
2
 44
0.9
  1
SELLADOR
 40
0.15625
 41
1.0
  0
MTEXT
  5
46B
100
AcDbEntity
  8
___NOTE
100
AcDbMText
 62
2
  6
CONTINUOUS
  7
TEXTSTYLE_2
 71
1
 72
1
 10
15.3468193089
 20
15.9627591512
 30
0.0
 11
1.0
 21
0.0
 31
0.0
 73
2
 44
0.9
  1
{\fgdt;n}\ftxt;{\W0.8;12/32"}
 40
0.15625
 41
0.9583333333
  0
MTEXT
  5
46C
100
AcDbEntity
  8
___NOTE
100
AcDbMText
 62
2
  6
CONTINUOUS
  7
TEXTSTYLE_2
 71
1
 72
1
 10
15.3468193089
 20
15.7283841512
 30
0.0
 11
1.0
 21
0.0
 31
0.0
 73
2
 44
0.9
  1
{\fgdt;n}\ftxt;{\W0.8;10mm}
 40
0.15625
 41
0.7083333333
  0
LEADER
  5
46D
100
AcDbEntity
  8
___NOTE
100
AcDbLeader
 62
2
  6
CONTINUOUS
  3
STANDARD
 71
1
 72
0
 73
0
 75
0
 40
0.15625
 41
3.625
 76
3
 10
21.0865461143
 20
7.8663889988
 30
0.0
 10
19.5164547263
 20
8.8329571147
 30
0.0
 10
19.2664547263
 20
8.8329571147
 30
0.0
340
46E
1001
ACAD
1000
DSTYLE
1002
{
1070
77
1070
0
1002
}
  0
MTEXT
  5
46E
102
{ACAD_REACTORS
330
46D
102
}
100
AcDbEntity
  8
___NOTE
100
AcDbMText
 62
2
  6
CONTINUOUS
  7
STANDARD
 71
3
 72
1
 10
19.2664547263
 20
8.9110821147
 30
0.0
 11
1.0
 21
0.0
 31
0.0
 73
2
 44
0.9
  1
FOR UNDERCOUNTER INSTALLATION\PCUT ALONG THIS LINE\PPOUR INSTALLATION SOUS COMPTOIR\PDÉCOUPER LE LONG DE CETTE LIGNE\PEN INSTALACIONES BAJO CUBIERTA,\P CORTE A LO LARGO DE ESTA LÍNEA
 40
0.15625
 41
3.875
  0
LEADER
  5
46F
100
AcDbEntity
  8
___NOTE
100
AcDbLeader
 62
2
  6
CONTINUOUS
  3
STANDARD
 71
1
 72
0
 73
0
 75
0
 40
0.15625
 41
1.25
 76
3
 10
22.8652123022
 20
8.6783277526
 30
0.0
 10
19.8240218168
 20
10.4720870441
 30
0.0
 10
19.5740218168
 20
10.4720870441
 30
0.0
340
470
1001
ACAD
1000
DSTYLE
1002
{
1070
77
1070
0
1002
}
  0
MTEXT
  5
470
102
{ACAD_REACTORS
330
46F
102
}
100
AcDbEntity
  8
___NOTE
100
AcDbMText
 62
2
  6
CONTINUOUS
  7
STANDARD
 71
3
 72
1
 10
19.5740218168
 20
10.5502120441
 30
0.0
 11
1.0
 21
0.0
 31
0.0
 73
2
 44
0.9
  1
RIM OF LAV\PREBORD DU LAVABO\PBORDE DEL LAVABO
 40
0.15625
 41
2.0
  0
INSERT
  5
471
100
AcDbEntity
  8
___SYMBOL
100
AcDbBlockReference
 62
2
  6
CONTINUOUS
  2
SCISSORS_BL0
 10
20.3034676183
 20
6.6523715771
  0
INSERT
  5
472
100
AcDbEntity
  8
___SYMBOL
100
AcDbBlockReference
 62
2
  6
CONTINUOUS
  2
KOHLER_BL1
 10
8.0098776219
 20
16.0911631127
  0
INSERT
  5
473
100
AcDbEntity
  8
___SYMBOL
100
AcDbBlockReference
 62
2
  6
CONTINUOUS
  2
COPYRIGHT_YEAR_BL2
 10
15.136619468
 20
4.5697541538
  0
INSERT
  5
474
100
AcDbEntity
  8
___SYMBOL
100
AcDbBlockReference
 62
2
  6
CONTINUOUS
  2
TEMPLATE_NUMBER_BL3
 10
15.5000486262
 20
5.0155123034
  0
INSERT
  5
475
100
AcDbEntity
  8
___SYMBOL
100
AcDbBlockReference
 62
2
  6
CONTINUOUS
  2
TEMPLATE_NUMBER_BL4
 10
15.2879609408
 20
2.2144225471
  0
LINE
  5
476
100
AcDbEntity
  8
0
100
AcDbLine
 62
2
  6
CONTINUOUS
 10
13.5224855319
 20
16.8847975378
 11
13.2012507261
 21
16.1294616432
  0
LINE
  5
477
100
AcDbEntity
  8
0
100
AcDbLine
 62
2
  6
CONTINUOUS
 10
14.1957947693
 20
14.6998711929
 11
14.2662747693
 21
14.7588311929
  0
LINE
  5
478
100
AcDbEntity
  8
0
100
AcDbLine
 62
2
  6
CONTINUOUS
 10
13.8785347693
 20
14.4584111929
 11
13.8757747693
 21
14.4474311929
  0
LINE
  5
479
100
AcDbEntity
  8
0
100
AcDbLine
 62
2
  6
CONTINUOUS
 10
14.5558947693
 20
15.2297711929
 11
14.5697547693
 21
15.2767711929
  0
LINE
  5
47A
100
AcDbEntity
  8
0
100
AcDbLine
 62
2
  6
CONTINUOUS
 10
13.9766314857
 20
14.9157246257
 11
13.9659705932
 21
14.8864306978
  0
LINE
  5
47B
100
AcDbEntity
  8
0
100
AcDbLine
 62
2
  6
CONTINUOUS
 10
13.974220233
 20
14.9048119471
 11
13.8154484141
 21
14.4695311929
  0
LINE
  5
47C
100
AcDbEntity
  8
DEFAULT_3
100
AcDbLine
 62
2
  6
PHANTOM
 10
13.9559108211
 20
14.3672867409
 11
14.083876616
 21
14.7178142104
  0
LINE
  5
47D
100
AcDbEntity
  8
0
100
AcDbLine
 62
2
  6
CONTINUOUS
 10
14.8876747693
 20
15.2823911929
 11
14.9097747693
 21
15.3403711929
  0
LINE
  5
47E
100
AcDbEntity
  8
0
100
AcDbLine
 62
2
  6
CONTINUOUS
 10
14.8655947693
 20
15.2159911929
 11
14.8876747693
 21
15.2712711929
  0
LINE
  5
47F
100
AcDbEntity
  8
0
100
AcDbLine
 62
2
  6
CONTINUOUS
 10
14.9125947693
 20
15.4647711929
 11
14.9236347693
 21
15.4869711929
  0
LINE
  5
480
100
AcDbEntity
  8
0
100
AcDbLine
 62
2
  6
CONTINUOUS
 10
13.9338347693
 20
14.4142311929
 11
13.9282747693
 21
14.4031111929
  0
LINE
  5
481
100
AcDbEntity
  8
0
100
AcDbLine
 62
2
  6
CONTINUOUS
 10
14.9236347693
 20
15.5035711929
 11
14.9291347693
 21
15.5145711929
  0
LINE
  5
482
100
AcDbEntity
  8
DEFAULT_3
100
AcDbLine
 62
2
  6
PHANTOM
 10
14.4130510936
 20
14.9402082744
 11
14.338912196
 21
14.7928453559
  0
LINE
  5
483
100
AcDbEntity
  8
0
100
AcDbLine
 62
2
  6
CONTINUOUS
 10
14.4238747693
 20
14.7015711929
 11
14.4922947693
 21
14.7588311929
  0
LINE
  5
484
100
AcDbEntity
  8
0
100
AcDbLine
 62
2
  6
CONTINUOUS
 10
14.6609347693
 20
14.7134111929
 11
14.7107347693
 21
14.7550511929
  0
LINE
  5
485
100
AcDbEntity
  8
0
100
AcDbLine
 62
2
  6
CONTINUOUS
 10
14.7639747693
 20
14.7043911929
 11
14.8635147693
 21
14.7876311929
  0
LINE
  5
486
100
AcDbEntity
  8
0
100
AcDbLine
 62
2
  6
CONTINUOUS
 10
14.3160347693
 20
14.7009711929
 11
14.3865747693
 21
14.7599311929
  0
LINE
  5
487
100
AcDbEntity
  8
0
100
AcDbLine
 62
2
  6
CONTINUOUS
 10
14.8047347693
 20
14.9287511929
 11
14.8655947693
 21
14.9795311929
  0
LINE
  5
488
100
AcDbEntity
  8
0
100
AcDbLine
 62
2
  6
CONTINUOUS
 10
14.8047347693
 20
14.8336511929
 11
14.8655947693
 21
14.8844311929
  0
LINE
  5
489
100
AcDbEntity
  8
0
100
AcDbLine
 62
2
  6
CONTINUOUS
 10
13.9117347693
 20
14.4308311929
 11
13.9227747693
 21
14.4363111929
  0
LINE
  5
48A
100
AcDbEntity
  8
0
100
AcDbLine
 62
2
  6
CONTINUOUS
 10
13.7845347693
 20
15.4545711929
 11
13.7845347693
 21
15.0464911929
  0
LINE
  5
48B
100
AcDbEntity
  8
0
100
AcDbLine
 62
2
  6
CONTINUOUS
 10
13.8757747693
 20
14.4474311929
 11
13.8757747693
 21
14.4363111929
  0
LINE
  5
48C
100
AcDbEntity
  8
0
100
AcDbLine
 62
2
  6
CONTINUOUS
 10
13.9338347693
 20
14.4335111929
 11
13.9338347693
 21
14.4142311929
  0
LINE
  5
48D
100
AcDbEntity
  8
0
100
AcDbLine
 62
2
  6
CONTINUOUS
 10
14.1522747693
 20
14.6990111929
 11
14.1522747693
 21
14.7598111929
  0
LINE
  5
48E
100
AcDbEntity
  8
0
100
AcDbLine
 62
2
  6
CONTINUOUS
 10
14.4951147693
 20
15.6666711929
 11
14.4951147693
 21
15.3072911929
  0
LINE
  5
48F
100
AcDbEntity
  8
0
100
AcDbLine
 62
2
  6
CONTINUOUS
 10
14.4951147693
 20
15.2767711929
 11
14.4951147693
 21
14.9864911929
  0
LINE
  5
490
100
AcDbEntity
  8
0
100
AcDbLine
 62
2
  6
CONTINUOUS
 10
14.5337947693
 20
14.7598111929
 11
14.5337947693
 21
14.6990111929
  0
LINE
  5
491
100
AcDbEntity
  8
0
100
AcDbLine
 62
2
  6
CONTINUOUS
 10
14.5558947693
 20
14.6990111929
 11
14.5558947693
 21
15.2297711929
  0
LINE
  5
492
100
AcDbEntity
  8
0
100
AcDbLine
 62
2
  6
CONTINUOUS
 10
14.5874021999
 20
14.6727899154
 11
14.5874021999
 21
14.6585588767
  0
LINE
  5
493
100
AcDbEntity
  8
DEFAULT_1
100
AcDbLine
 62
2
  6
CENTER
 10
14.5959947693
 20
15.3286511929
 11
14.5959947693
 21
14.5124709343
  0
LINE
  5
494
100
AcDbEntity
  8
0
100
AcDbLine
 62
2
  6
CONTINUOUS
 10
14.6045873388
 20
14.6586951294
 11
14.6045873388
 21
14.6727899154
  0
LINE
  5
495
100
AcDbEntity
  8
0
100
AcDbLine
 62
2
  6
CONTINUOUS
 10
14.6388347693
 20
14.6990111929
 11
14.6388347693
 21
15.2297711929
  0
LINE
  5
496
100
AcDbEntity
  8
0
100
AcDbLine
 62
2
  6
CONTINUOUS
 10
14.6609347693
 20
14.7598111929
 11
14.6609347693
 21
14.6990111929
  0
LINE
  5
497
100
AcDbEntity
  8
0
100
AcDbLine
 62
2
  6
CONTINUOUS
 10
14.6913947693
 20
15.6666711929
 11
14.6913947693
 21
15.3072911929
  0
LINE
  5
498
100
AcDbEntity
  8
0
100
AcDbLine
 62
2
  6
CONTINUOUS
 10
14.6913947693
 20
14.9864911929
 11
14.6913947693
 21
15.2767711929
  0
LINE
  5
499
100
AcDbEntity
  8
0
100
AcDbLine
 62
2
  6
CONTINUOUS
 10
14.8600347693
 20
15.1744711929
 11
14.8655947693
 21
15.2159911929
  0
LINE
  5
49A
100
AcDbEntity
  8
0
100
AcDbLine
 62
2
  6
CONTINUOUS
 10
14.9097747693
 20
15.4537711929
 11
14.9125947693
 21
15.4647711929
  0
LINE
  5
49B
100
AcDbEntity
  8
0
100
AcDbLine
 62
2
  6
CONTINUOUS
 10
17.4945487413
 20
15.2662404847
 11
17.5354287413
 21
15.3132404847
  0
LINE
  5
49C
100
AcDbEntity
  8
0
100
AcDbLine
 62
2
  6
CONTINUOUS
 10
17.3625287413
 20
14.7380404847
 11
17.4309487413
 21
14.7953004847
  0
LINE
  5
49D
100
AcDbEntity
  8
0
100
AcDbLine
 62
2
  6
CONTINUOUS
 10
17.1344287413
 20
14.7363404847
 11
17.2049287413
 21
14.7953004847
  0
LINE
  5
49E
100
AcDbEntity
  8
0
100
AcDbLine
 62
2
  6
CONTINUOUS
 10
17.2546687413
 20
14.7374404847
 11
17.3251687413
 21
14.7964004847
  0
LINE
  5
49F
100
AcDbEntity
  8
0
100
AcDbLine
 62
2
  6
CONTINUOUS
 10
17.5995887413
 20
14.7498804847
 11
17.6493887413
 21
14.7915204847
  0
LINE
  5
4A0
100
AcDbEntity
  8
0
100
AcDbLine
 62
2
  6
CONTINUOUS
 10
17.7026087413
 20
14.7408604847
 11
17.8021487413
 21
14.8241004847
  0
LINE
  5
4A1
100
AcDbEntity
  8
0
100
AcDbLine
 62
2
  6
CONTINUOUS
 10
17.7433887413
 20
14.9652204847
 11
17.8041687413
 21
15.0160004847
  0
LINE
  5
4A2
100
AcDbEntity
  8
0
100
AcDbLine
 62
2
  6
CONTINUOUS
 10
17.7433887413
 20
14.8701204847
 11
17.8041687413
 21
14.9209004847
  0
LINE
  5
4A3
100
AcDbEntity
  8
0
100
AcDbLine
 62
2
  6
CONTINUOUS
 10
16.8503087413
 20
14.4673004847
 11
16.8614287413
 21
14.4727804847
  0
LINE
  5
4A4
100
AcDbEntity
  8
0
100
AcDbLine
 62
2
  6
CONTINUOUS
 10
14.8047347693
 20
14.8098111929
 11
14.8047347693
 21
14.9864911929
  0
LINE
  5
4A5
100
AcDbEntity
  8
0
100
AcDbLine
 62
2
  6
CONTINUOUS
 10
14.8655947693
 20
14.9864911929
 11
14.8655947693
 21
14.7990111929
  0
LINE
  5
4A6
100
AcDbEntity
  8
0
100
AcDbLine
 62
2
  6
CONTINUOUS
 10
14.8876747693
 20
15.2712711929
 11
14.8876747693
 21
15.2823911929
  0
LINE
  5
4A7
100
AcDbEntity
  8
0
100
AcDbLine
 62
2
  6
CONTINUOUS
 10
14.8904347693
 20
15.0777911929
 11
14.8904347693
 21
15.0887911929
  0
LINE
  5
4A8
100
AcDbEntity
  8
0
100
AcDbLine
 62
2
  6
CONTINUOUS
 10
14.9097747693
 20
15.3403711929
 11
14.9097747693
 21
15.4537711929
  0
LINE
  5
4A9
100
AcDbEntity
  8
0
100
AcDbLine
 62
2
  6
CONTINUOUS
 10
14.9236347693
 20
15.4869711929
 11
14.9236347693
 21
15.5035711929
  0
LINE
  5
4AA
100
AcDbEntity
  8
0
100
AcDbLine
 62
2
  6
CONTINUOUS
 10
15.0093347693
 20
15.2795911929
 11
15.0093347693
 21
14.9892911929
  0
LINE
  5
4AB
100
AcDbEntity
  8
DEFAULT_3
100
AcDbLine
 62
2
  6
PHANTOM
 10
16.9175087413
 20
14.9566804847
 11
16.9016487413
 21
14.9131004847
  0
LINE
  5
4AC
100
AcDbEntity
  8
DEFAULT_3
100
AcDbLine
 62
2
  6
PHANTOM
 10
16.9116753809
 20
14.9379946037
 11
16.7591287413
 21
14.5197804847
  0
LINE
  5
4AD
100
AcDbEntity
  8
DEFAULT_3
100
AcDbLine
 62
2
  6
PHANTOM
 10
16.8945687413
 20
14.4037004847
 11
17.0222016577
 21
14.7535573216
  0
LINE
  5
4AE
100
AcDbEntity
  8
0
100
AcDbLine
 62
2
  6
CONTINUOUS
 10
17.8512287413
 20
15.5012404847
 11
17.8622687413
 21
15.5234404847
  0
LINE
  5
4AF
100
AcDbEntity
  8
0
100
AcDbLine
 62
2
  6
CONTINUOUS
 10
16.8724687413
 20
14.4507004847
 11
16.8669087413
 21
14.4395804847
  0
LINE
  5
4B0
100
AcDbEntity
  8
DEFAULT_3
100
AcDbLine
 62
2
  6
PHANTOM
 10
17.8622687413
 20
15.5400404847
 11
17.8677687413
 21
15.5510404847
  0
LINE
  5
4B1
100
AcDbEntity
  8
DEFAULT_3
100
AcDbLine
 62
2
  6
PHANTOM
 10
17.3517050656
 20
14.9766775662
 11
17.277566168
 21
14.8293146477
  0
LINE
  5
4B2
100
AcDbEntity
  8
0
100
AcDbLine
 62
2
  6
CONTINUOUS
 10
14.6388347693
 20
15.2297711929
 11
14.6250547693
 21
15.2767711929
  0
LINE
  5
4B3
100
AcDbEntity
  8
0
100
AcDbLine
 62
2
  6
CONTINUOUS
 10
13.9282712511
 20
14.4031308794
 11
13.9310712511
 21
14.3921508794
  0
LINE
  5
4B4
100
AcDbEntity
  8
0
100
AcDbLine
 62
2
  6
CONTINUOUS
 10
13.9531708211
 20
14.3782531382
 11
13.9559108211
 21
14.3672731382
  0
LINE
  5
4B5
100
AcDbEntity
  8
0
100
AcDbLine
 62
2
  6
CONTINUOUS
 10
13.8757747693
 20
14.4695311929
 11
13.8785347693
 21
14.4584111929
  0
LINE
  5
4B6
100
AcDbEntity
  8
0
100
AcDbLine
 62
2
  6
CONTINUOUS
 10
14.9014747693
 20
15.0308111929
 11
14.8904347693
 21
15.0777911929
  0
LINE
  5
4B7
100
AcDbEntity
  8
0
100
AcDbLine
 62
2
  6
CONTINUOUS
 10
14.8793747693
 20
15.1302911929
 11
14.8766347693
 21
15.1440911929
  0
LINE
  5
4B8
100
AcDbEntity
  8
0
100
AcDbLine
 62
2
  6
CONTINUOUS
 10
14.8904347693
 20
15.0887911929
 11
14.8849347693
 21
15.1191911929
  0
LINE
  5
4B9
100
AcDbEntity
  8
DEFAULT_3
100
AcDbLine
 62
2
  6
PHANTOM
 10
16.7231687413
 20
15.5510404847
 11
16.7231687413
 21
15.0229604847
  0
LINE
  5
4BA
100
AcDbEntity
  8
0
100
AcDbLine
 62
2
  6
CONTINUOUS
 10
16.8144287413
 20
14.4839004847
 11
16.8144287413
 21
14.4727804847
  0
LINE
  5
4BB
100
AcDbEntity
  8
0
100
AcDbLine
 62
2
  6
CONTINUOUS
 10
16.8724687413
 20
14.4699804847
 11
16.8724687413
 21
14.4507004847
  0
LINE
  5
4BC
100
AcDbEntity
  8
0
100
AcDbLine
 62
2
  6
CONTINUOUS
 10
17.0908487413
 20
14.7962804847
 11
17.0908487413
 21
14.7354804847
  0
LINE
  5
4BD
100
AcDbEntity
  8
0
100
AcDbLine
 62
2
  6
CONTINUOUS
 10
17.3512571353
 20
16.8847975378
 11
17.1428886126
 21
15.0181628558
  0
LINE
  5
4BE
100
AcDbEntity
  8
0
100
AcDbLine
 62
2
  6
CONTINUOUS
 10
16.8171687413
 20
14.4948804847
 11
16.8144287413
 21
14.4839004847
  0
LINE
  5
4BF
100
AcDbEntity
  8
0
100
AcDbLine
 62
2
  6
CONTINUOUS
 10
17.8484287413
 20
15.4459404847
 11
17.8512287413
 21
15.4570404847
  0
LINE
  5
4C0
100
AcDbEntity
  8
0
100
AcDbLine
 62
2
  6
CONTINUOUS
 10
17.8484287413
 20
15.4902404847
 11
17.8512287413
 21
15.5012404847
  0
LINE
  5
4C1
100
AcDbEntity
  8
0
100
AcDbLine
 62
2
  6
CONTINUOUS
 10
17.7986687413
 20
15.2109404847
 11
17.8263287413
 21
15.3188604847
  0
LINE
  5
4C2
100
AcDbEntity
  8
0
100
AcDbLine
 62
2
  6
CONTINUOUS
 10
17.8263287413
 20
15.3188604847
 11
17.8484287413
 21
15.3768404847
  0
LINE
  5
4C3
100
AcDbEntity
  8
0
100
AcDbLine
 62
2
  6
CONTINUOUS
 10
14.8849347693
 20
15.1191911929
 11
14.8793747693
 21
15.1302911929
  0
LINE
  5
4C4
100
AcDbEntity
  8
0
100
AcDbLine
 62
2
  6
CONTINUOUS
 10
14.8683347693
 20
15.1523911929
 11
14.8600347693
 21
15.1744711929
  0
LINE
  5
4C5
100
AcDbEntity
  8
0
100
AcDbLine
 62
2
  6
CONTINUOUS
 10
17.4724487413
 20
14.7962804847
 11
17.4724487413
 21
14.7354804847
  0
LINE
  5
4C6
100
AcDbEntity
  8
0
100
AcDbLine
 62
2
  6
CONTINUOUS
 10
17.4945487413
 20
14.7354804847
 11
17.4945487413
 21
15.2662404847
  0
LINE
  5
4C7
100
AcDbEntity
  8
0
100
AcDbLine
 62
2
  6
CONTINUOUS
 10
17.5260561719
 20
14.7091885782
 11
17.5260561719
 21
14.6949575394
  0
LINE
  5
4C8
100
AcDbEntity
  8
DEFAULT_1
100
AcDbLine
 62
2
  6
CENTER
 10
17.5346487413
 20
15.4363084949
 11
17.5346487413
 21
14.5563061452
  0
LINE
  5
4C9
100
AcDbEntity
  8
0
100
AcDbLine
 62
2
  6
CONTINUOUS
 10
17.5432413108
 20
14.6950937921
 11
17.5432413108
 21
14.7091885782
  0
LINE
  5
4CA
100
AcDbEntity
  8
0
100
AcDbLine
 62
2
  6
CONTINUOUS
 10
17.5774887413
 20
15.2662404847
 11
17.5774887413
 21
14.7354804847
  0
LINE
  5
4CB
100
AcDbEntity
  8
0
100
AcDbLine
 62
2
  6
CONTINUOUS
 10
17.5995887413
 20
14.7962804847
 11
17.5995887413
 21
14.7354804847
  0
LINE
  5
4CC
100
AcDbEntity
  8
0
100
AcDbLine
 62
2
  6
CONTINUOUS
 10
17.7433887413
 20
15.0229604847
 11
17.7433887413
 21
14.8462804847
  0
LINE
  5
4CD
100
AcDbEntity
  8
0
100
AcDbLine
 62
2
  6
CONTINUOUS
 10
17.8041687413
 20
14.8454804847
 11
17.8041687413
 21
15.0229604847
  0
LINE
  5
4CE
100
AcDbEntity
  8
0
100
AcDbLine
 62
2
  6
CONTINUOUS
 10
17.8290687413
 20
15.1142604847
 11
17.8290687413
 21
15.1252604847
  0
LINE
  5
4CF
100
AcDbEntity
  8
0
100
AcDbLine
 62
2
  6
CONTINUOUS
 10
17.8484287413
 20
15.3768404847
 11
17.8484287413
 21
15.4459404847
  0
LINE
  5
4D0
100
AcDbEntity
  8
0
100
AcDbLine
 62
2
  6
CONTINUOUS
 10
17.8484287413
 20
15.4681604847
 11
17.8484287413
 21
15.4902404847
  0
LINE
  5
4D1
100
AcDbEntity
  8
0
100
AcDbLine
 62
2
  6
CONTINUOUS
 10
17.8622687413
 20
15.5234404847
 11
17.8622687413
 21
15.5400404847
  0
LINE
  5
4D2
100
AcDbEntity
  8
0
100
AcDbLine
 62
2
  6
CONTINUOUS
 10
13.9310844238
 20
14.3921459328
 11
13.9393844238
 21
14.3838459328
  0
LINE
  5
4D3
100
AcDbEntity
  8
0
100
AcDbLine
 62
2
  6
CONTINUOUS
 10
13.8204747693
 20
14.4833111929
 11
13.8315347693
 21
14.4722111929
  0
LINE
  5
4D4
100
AcDbEntity
  8
0
100
AcDbLine
 62
2
  6
CONTINUOUS
 10
13.2012507261
 20
16.1294616432
 11
14.1215450344
 21
15.0007988123
  0
LINE
  5
4D5
100
AcDbEntity
  8
0
100
AcDbLine
 62
2
  6
CONTINUOUS
 10
14.9291347693
 20
14.9864911929
 11
14.9014747693
 21
15.0308111929
  0
LINE
  5
4D6
100
AcDbEntity
  8
0
100
AcDbLine
 62
2
  6
CONTINUOUS
 10
16.8669087413
 20
14.4395804847
 11
16.8697287413
 21
14.4286004847
  0
LINE
  5
4D7
100
AcDbEntity
  8
0
100
AcDbLine
 62
2
  6
CONTINUOUS
 10
16.8918087413
 20
14.4146804847
 11
16.8945687413
 21
14.4037004847
  0
LINE
  5
4D8
100
AcDbEntity
  8
0
100
AcDbLine
 62
2
  6
CONTINUOUS
 10
16.8144287413
 20
14.5060004847
 11
16.8171687413
 21
14.4948804847
  0
LINE
  5
4D9
100
AcDbEntity
  8
0
100
AcDbLine
 62
2
  6
CONTINUOUS
 10
13.9393844238
 20
14.3838459328
 11
13.9531844238
 21
14.3782259328
  0
LINE
  5
4DA
100
AcDbEntity
  8
0
100
AcDbLine
 62
2
  6
CONTINUOUS
 10
13.8757747693
 20
14.4363111929
 11
13.8868347693
 21
14.4308311929
  0
LINE
  5
4DB
100
AcDbEntity
  8
0
100
AcDbLine
 62
2
  6
CONTINUOUS
 10
14.8766347693
 20
15.1440911929
 11
14.8683347693
 21
15.1523911929
  0
LINE
  5
4DC
100
AcDbEntity
  8
0
100
AcDbLine
 62
2
  6
CONTINUOUS
 10
16.7591287413
 20
14.5197804847
 11
16.7701687413
 21
14.5086804847
  0
LINE
  5
4DD
100
AcDbEntity
  8
0
100
AcDbLine
 62
2
  6
CONTINUOUS
 10
16.8697287413
 20
14.4286004847
 11
16.8779687413
 21
14.4203004847
  0
LINE
  5
4DE
100
AcDbEntity
  8
0
100
AcDbLine
 62
2
  6
CONTINUOUS
 10
17.8069687413
 20
15.1888604847
 11
17.7986687413
 21
15.2109404847
  0
LINE
  5
4DF
100
AcDbEntity
  8
0
100
AcDbLine
 62
2
  6
CONTINUOUS
 10
17.8512287413
 20
15.4570404847
 11
17.8484287413
 21
15.4681604847
  0
LINE
  5
4E0
100
AcDbEntity
  8
0
100
AcDbLine
 62
2
  6
CONTINUOUS
 10
17.8401287413
 20
15.0672804847
 11
17.8290687413
 21
15.1142604847
  0
LINE
  5
4E1
100
AcDbEntity
  8
0
100
AcDbLine
 62
2
  6
CONTINUOUS
 10
17.8180287413
 20
15.1667604847
 11
17.8152887413
 21
15.1805604847
  0
LINE
  5
4E2
100
AcDbEntity
  8
0
100
AcDbLine
 62
2
  6
CONTINUOUS
 10
17.8290687413
 20
15.1252604847
 11
17.8235887413
 21
15.1556604847
  0
LINE
  5
4E3
100
AcDbEntity
  8
0
100
AcDbLine
 62
2
  6
CONTINUOUS
 10
13.8868347693
 20
14.4308311929
 11
13.9117347693
 21
14.4308311929
  0
LINE
  5
4E4
100
AcDbEntity
  8
0
100
AcDbLine
 62
2
  6
CONTINUOUS
 10
16.8254687413
 20
14.4673004847
 11
16.8503087413
 21
14.4673004847
  0
LINE
  5
4E5
100
AcDbEntity
  8
0
100
AcDbLine
 62
2
  6
CONTINUOUS
 10
13.8453147693
 20
14.4695311929
 11
13.8757747693
 21
14.4695311929
  0
LINE
  5
4E6
100
AcDbEntity
  8
0
100
AcDbLine
 62
2
  6
CONTINUOUS
 10
16.7839687413
 20
14.5060004847
 11
16.8144287413
 21
14.5060004847
  0
LINE
  5
4E7
100
AcDbEntity
  8
0
100
AcDbLine
 62
2
  6
CONTINUOUS
 10
14.5874021999
 20
14.6727899154
 11
14.6045873388
 21
14.6727899154
  0
LINE
  5
4E8
100
AcDbEntity
  8
0
100
AcDbLine
 62
2
  6
CONTINUOUS
 10
14.7655947693
 20
14.6990111929
 11
14.1522747693
 21
14.6990111929
  0
LINE
  5
4E9
100
AcDbEntity
  8
0
100
AcDbLine
 62
2
  6
CONTINUOUS
 10
14.5710947693
 20
14.7058511929
 11
14.6222347693
 21
14.7058511929
  0
LINE
  5
4EA
100
AcDbEntity
  8
0
100
AcDbLine
 62
2
  6
CONTINUOUS
 10
17.5260561719
 20
14.7091885782
 11
17.5432413108
 21
14.7091885782
  0
LINE
  5
4EB
100
AcDbEntity
  8
0
100
AcDbLine
 62
2
  6
CONTINUOUS
 10
16.7701687413
 20
14.5086804847
 11
16.7839687413
 21
14.5060004847
  0
LINE
  5
4EC
100
AcDbEntity
  8
0
100
AcDbLine
 62
2
  6
CONTINUOUS
 10
13.8315347693
 20
14.4722111929
 11
13.8453147693
 21
14.4695311929
  0
LINE
  5
4ED
100
AcDbEntity
  8
0
100
AcDbLine
 62
2
  6
CONTINUOUS
 10
13.9227747693
 20
14.4363111929
 11
13.9338347693
 21
14.4335111929
  0
LINE
  5
4EE
100
AcDbEntity
  8
0
100
AcDbLine
 62
2
  6
CONTINUOUS
 10
16.8614287413
 20
14.4727804847
 11
16.8724687413
 21
14.4699804847
  0
LINE
  5
4EF
100
AcDbEntity
  8
0
100
AcDbLine
 62
2
  6
CONTINUOUS
 10
16.8779687413
 20
14.4203004847
 11
16.8918087413
 21
14.4146804847
  0
LINE
  5
4F0
100
AcDbEntity
  8
0
100
AcDbLine
 62
2
  6
CONTINUOUS
 10
16.8144287413
 20
14.4727804847
 11
16.8254687413
 21
14.4673004847
  0
LINE
  5
4F1
100
AcDbEntity
  8
0
100
AcDbLine
 62
2
  6
CONTINUOUS
 10
17.8152887413
 20
15.1805604847
 11
17.8069687413
 21
15.1888604847
  0
LINE
  5
4F2
100
AcDbEntity
  8
0
100
AcDbLine
 62
2
  6
CONTINUOUS
 10
17.5354287413
 20
15.3132404847
 11
17.5774887413
 21
15.2662404847
  0
LINE
  5
4F3
100
AcDbEntity
  8
0
100
AcDbLine
 62
2
  6
CONTINUOUS
 10
17.8677687413
 20
15.0229604847
 11
17.8401287413
 21
15.0672804847
  0
LINE
  5
4F4
100
AcDbEntity
  8
0
100
AcDbLine
 62
2
  6
CONTINUOUS
 10
17.8235887413
 20
15.1556604847
 11
17.8180287413
 21
15.1667604847
  0
LINE
  5
4F5
100
AcDbEntity
  8
0
100
AcDbLine
 62
2
  6
CONTINUOUS
 10
14.5558947693
 20
14.7224511929
 11
14.6388347693
 21
14.7224511929
  0
LINE
  5
4F6
100
AcDbEntity
  8
0
100
AcDbLine
 62
2
  6
CONTINUOUS
 10
17.0908487413
 20
14.7354804847
 11
17.6941687413
 21
14.7354804847
  0
LINE
  5
4F7
100
AcDbEntity
  8
0
100
AcDbLine
 62
2
  6
CONTINUOUS
 10
14.5710947693
 20
14.7403911929
 11
14.6222347693
 21
14.7403911929
  0
LINE
  5
4F8
100
AcDbEntity
  8
0
100
AcDbLine
 62
2
  6
CONTINUOUS
 10
14.1439996841
 20
14.7598111929
 11
14.7547347693
 21
14.7598111929
  0
LINE
  5
4F9
100
AcDbEntity
  8
0
100
AcDbLine
 62
2
  6
CONTINUOUS
 10
14.5710947693
 20
14.7764111929
 11
14.6222347693
 21
14.7764111929
  0
LINE
  5
4FA
100
AcDbEntity
  8
0
100
AcDbLine
 62
2
  6
CONTINUOUS
 10
14.6388347693
 20
14.7956911929
 11
14.5558947693
 21
14.7956911929
  0
LINE
  5
4FB
100
AcDbEntity
  8
0
100
AcDbLine
 62
2
  6
CONTINUOUS
 10
17.6933887413
 20
14.7962804847
 11
17.5774887413
 21
14.7962804847
  0
LINE
  5
4FC
100
AcDbEntity
  8
DEFAULT_3
100
AcDbLine
 62
2
  6
PHANTOM
 10
17.0832650882
 20
14.7962804847
 11
17.2239672535
 21
14.7962804847
  0
LINE
  5
4FD
100
AcDbEntity
  8
0
100
AcDbLine
 62
2
  6
CONTINUOUS
 10
17.2239672535
 20
14.7962804847
 11
17.4945487413
 21
14.7962804847
  0
LINE
  5
4FE
100
AcDbEntity
  8
0
100
AcDbLine
 62
2
  6
CONTINUOUS
 10
14.5710947693
 20
14.8122911929
 11
14.6222347693
 21
14.8122911929
  0
LINE
  5
4FF
100
AcDbEntity
  8
0
100
AcDbLine
 62
2
  6
CONTINUOUS
 10
14.5558947693
 20
14.8302311929
 11
14.6388347693
 21
14.8302311929
  0
LINE
  5
500
100
AcDbEntity
  8
0
100
AcDbLine
 62
2
  6
CONTINUOUS
 10
14.5710947693
 20
14.8483111929
 11
14.6222347693
 21
14.8483111929
  0
LINE
  5
501
100
AcDbEntity
  8
0
100
AcDbLine
 62
2
  6
CONTINUOUS
 10
14.5558947693
 20
14.8662511929
 11
14.6388347693
 21
14.8662511929
  0
LINE
  5
502
100
AcDbEntity
  8
0
100
AcDbLine
 62
2
  6
CONTINUOUS
 10
14.5710947693
 20
14.8828511929
 11
14.6222347693
 21
14.8828511929
  0
LINE
  5
503
100
AcDbEntity
  8
0
100
AcDbLine
 62
2
  6
CONTINUOUS
 10
17.4945487413
 20
14.9027204847
 11
17.5774887413
 21
14.9027204847
  0
LINE
  5
504
100
AcDbEntity
  8
0
100
AcDbLine
 62
2
  6
CONTINUOUS
 10
14.5558947693
 20
14.9036111929
 11
14.6388347693
 21
14.9036111929
  0
LINE
  5
505
100
AcDbEntity
  8
0
100
AcDbLine
 62
2
  6
CONTINUOUS
 10
17.5097287413
 20
14.9193204847
 11
17.5608887413
 21
14.9193204847
  0
LINE
  5
506
100
AcDbEntity
  8
0
100
AcDbLine
 62
2
  6
CONTINUOUS
 10
14.5710947693
 20
14.9202111929
 11
14.6222347693
 21
14.9202111929
  0
LINE
  5
507
100
AcDbEntity
  8
0
100
AcDbLine
 62
2
  6
CONTINUOUS
 10
14.5558947693
 20
14.9394911929
 11
14.6388347693
 21
14.9394911929
  0
LINE
  5
508
100
AcDbEntity
  8
0
100
AcDbLine
 62
2
  6
CONTINUOUS
 10
17.4945487413
 20
14.9400804847
 11
17.5774887413
 21
14.9400804847
  0
LINE
  5
509
100
AcDbEntity
  8
0
100
AcDbLine
 62
2
  6
CONTINUOUS
 10
14.5710947693
 20
14.9560911929
 11
14.6222347693
 21
14.9560911929
  0
LINE
  5
50A
100
AcDbEntity
  8
0
100
AcDbLine
 62
2
  6
CONTINUOUS
 10
17.5097287413
 20
14.9566804847
 11
17.5608887413
 21
14.9566804847
  0
LINE
  5
50B
100
AcDbEntity
  8
0
100
AcDbLine
 62
2
  6
CONTINUOUS
 10
14.5558947693
 20
14.9755111929
 11
14.6388347693
 21
14.9755111929
  0
LINE
  5
50C
100
AcDbEntity
  8
0
100
AcDbLine
 62
2
  6
CONTINUOUS
 10
17.4945487413
 20
14.9759604847
 11
17.5774887413
 21
14.9759604847
  0
LINE
  5
50D
100
AcDbEntity
  8
DEFAULT_3
100
AcDbLine
 62
2
  6
PHANTOM
 10
13.9144747693
 20
14.9836911929
 11
14.5558947693
 21
14.9836911929
  0
LINE
  5
50E
100
AcDbEntity
  8
0
100
AcDbLine
 62
2
  6
CONTINUOUS
 10
14.6388347693
 20
14.9864911929
 11
14.9291347693
 21
14.9864911929
  0
LINE
  5
50F
100
AcDbEntity
  8
0
100
AcDbLine
 62
2
  6
CONTINUOUS
 10
14.9484747693
 20
14.9892911929
 11
15.0563147693
 21
14.9892911929
  0
LINE
  5
510
100
AcDbEntity
  8
0
100
AcDbLine
 62
2
  6
CONTINUOUS
 10
17.5097287413
 20
14.9925604847
 11
17.5608887413
 21
14.9925604847
  0
LINE
  5
511
100
AcDbEntity
  8
0
100
AcDbLine
 62
2
  6
CONTINUOUS
 10
14.5710947693
 20
14.9934511929
 11
14.6222347693
 21
14.9934511929
  0
LINE
  5
512
100
AcDbEntity
  8
0
100
AcDbLine
 62
2
  6
CONTINUOUS
 10
14.5558947693
 20
15.0113911929
 11
14.6388347693
 21
15.0113911929
  0
LINE
  5
513
100
AcDbEntity
  8
0
100
AcDbLine
 62
2
  6
CONTINUOUS
 10
17.4945487413
 20
15.0119804847
 11
17.5774887413
 21
15.0119804847
  0
LINE
  5
514
100
AcDbEntity
  8
DEFAULT_3
100
AcDbLine
 62
2
  6
PHANTOM
 10
16.8539087413
 20
15.0201604847
 11
17.0280487413
 21
15.0201604847
  0
LINE
  5
515
100
AcDbEntity
  8
DEFAULT_3
100
AcDbLine
 62
2
  6
PHANTOM
 10
17.029107226
 20
15.0201604847
 11
17.3249056084
 21
15.0201604847
  0
LINE
  5
516
100
AcDbEntity
  8
DEFAULT_3
100
AcDbLine
 62
2
  6
PHANTOM
 10
16.7231687413
 20
15.0229604847
 11
17.4945487413
 21
15.0229604847
  0
LINE
  5
517
100
AcDbEntity
  8
DEFAULT_3
100
AcDbLine
 62
2
  6
PHANTOM
 10
17.5774887413
 20
15.0229604847
 11
17.8677687413
 21
15.0229604847
  0
LINE
  5
518
100
AcDbEntity
  8
0
100
AcDbLine
 62
2
  6
CONTINUOUS
 10
17.5097287413
 20
15.0299204847
 11
17.5608887413
 21
15.0299204847
  0
LINE
  5
519
100
AcDbEntity
  8
0
100
AcDbLine
 62
2
  6
CONTINUOUS
 10
14.5710947693
 20
15.0308111929
 11
14.6222347693
 21
15.0308111929
  0
LINE
  5
51A
100
AcDbEntity
  8
0
100
AcDbLine
 62
2
  6
CONTINUOUS
 10
17.4945487413
 20
15.0478604847
 11
17.5774887413
 21
15.0478604847
  0
LINE
  5
51B
100
AcDbEntity
  8
0
100
AcDbLine
 62
2
  6
CONTINUOUS
 10
14.5558947693
 20
15.0500911929
 11
14.6388347693
 21
15.0500911929
  0
LINE
  5
51C
100
AcDbEntity
  8
0
100
AcDbLine
 62
2
  6
CONTINUOUS
 10
14.5710947693
 20
15.0666911929
 11
14.6222347693
 21
15.0666911929
  0
LINE
  5
51D
100
AcDbEntity
  8
0
100
AcDbLine
 62
2
  6
CONTINUOUS
 10
17.5097287413
 20
15.0672804847
 11
17.5608887413
 21
15.0672804847
  0
LINE
  5
51E
100
AcDbEntity
  8
0
100
AcDbLine
 62
2
  6
CONTINUOUS
 10
14.5558947693
 20
15.0860911929
 11
14.6388347693
 21
15.0860911929
  0
LINE
  5
51F
100
AcDbEntity
  8
0
100
AcDbLine
 62
2
  6
CONTINUOUS
 10
17.4945487413
 20
15.0865604847
 11
17.5774887413
 21
15.0865604847
  0
LINE
  5
520
100
AcDbEntity
  8
0
100
AcDbLine
 62
2
  6
CONTINUOUS
 10
14.5710947693
 20
15.1025711929
 11
14.6222347693
 21
15.1025711929
  0
LINE
  5
521
100
AcDbEntity
  8
0
100
AcDbLine
 62
2
  6
CONTINUOUS
 10
17.5097287413
 20
15.1031604847
 11
17.5608887413
 21
15.1031604847
  0
LINE
  5
522
100
AcDbEntity
  8
0
100
AcDbLine
 62
2
  6
CONTINUOUS
 10
14.5558947693
 20
15.1206511929
 11
14.6388347693
 21
15.1206511929
  0
LINE
  5
523
100
AcDbEntity
  8
0
100
AcDbLine
 62
2
  6
CONTINUOUS
 10
17.4945487413
 20
15.1225604847
 11
17.5774887413
 21
15.1225604847
  0
LINE
  5
524
100
AcDbEntity
  8
0
100
AcDbLine
 62
2
  6
CONTINUOUS
 10
14.5710947693
 20
15.1385911929
 11
14.6222347693
 21
15.1385911929
  0
LINE
  5
525
100
AcDbEntity
  8
0
100
AcDbLine
 62
2
  6
CONTINUOUS
 10
17.5097287413
 20
15.1390404847
 11
17.5608887413
 21
15.1390404847
  0
LINE
  5
526
100
AcDbEntity
  8
0
100
AcDbLine
 62
2
  6
CONTINUOUS
 10
14.5558947693
 20
15.1565311929
 11
14.6388347693
 21
15.1565311929
  0
LINE
  5
527
100
AcDbEntity
  8
0
100
AcDbLine
 62
2
  6
CONTINUOUS
 10
17.4945487413
 20
15.1571204847
 11
17.5774887413
 21
15.1571204847
  0
LINE
  5
528
100
AcDbEntity
  8
0
100
AcDbLine
 62
2
  6
CONTINUOUS
 10
14.5710947693
 20
15.1744711929
 11
14.6222347693
 21
15.1744711929
  0
LINE
  5
529
100
AcDbEntity
  8
0
100
AcDbLine
 62
2
  6
CONTINUOUS
 10
17.5097287413
 20
15.1750604847
 11
17.5608887413
 21
15.1750604847
  0
LINE
  5
52A
100
AcDbEntity
  8
0
100
AcDbLine
 62
2
  6
CONTINUOUS
 10
17.4945487413
 20
15.1930004847
 11
17.5774887413
 21
15.1930004847
  0
LINE
  5
52B
100
AcDbEntity
  8
0
100
AcDbLine
 62
2
  6
CONTINUOUS
 10
14.5558947693
 20
15.1938911929
 11
14.6388347693
 21
15.1938911929
  0
LINE
  5
52C
100
AcDbEntity
  8
0
100
AcDbLine
 62
2
  6
CONTINUOUS
 10
17.5097287413
 20
15.2109404847
 11
17.5608887413
 21
15.2109404847
  0
LINE
  5
52D
100
AcDbEntity
  8
0
100
AcDbLine
 62
2
  6
CONTINUOUS
 10
14.5710947693
 20
15.2118311929
 11
14.6222347693
 21
15.2118311929
  0
LINE
  5
52E
100
AcDbEntity
  8
0
100
AcDbLine
 62
2
  6
CONTINUOUS
 10
14.6388347693
 20
15.2297711929
 11
14.5558947693
 21
15.2297711929
  0
LINE
  5
52F
100
AcDbEntity
  8
0
100
AcDbLine
 62
2
  6
CONTINUOUS
 10
17.4945487413
 20
15.2303604847
 11
17.5774887413
 21
15.2303604847
  0
LINE
  5
530
100
AcDbEntity
  8
0
100
AcDbLine
 62
2
  6
CONTINUOUS
 10
17.5097287413
 20
15.2483004847
 11
17.5608887413
 21
15.2483004847
  0
LINE
  5
531
100
AcDbEntity
  8
0
100
AcDbLine
 62
2
  6
CONTINUOUS
 10
17.5774887413
 20
15.2662404847
 11
17.4945487413
 21
15.2662404847
  0
LINE
  5
532
100
AcDbEntity
  8
0
100
AcDbLine
 62
2
  6
CONTINUOUS
 10
14.6913947693
 20
15.2767711929
 11
14.4951147693
 21
15.2767711929
  0
LINE
  5
533
100
AcDbEntity
  8
0
100
AcDbLine
 62
2
  6
CONTINUOUS
 10
14.7245347693
 20
15.2795911929
 11
15.0618747693
 21
15.2795911929
  0
LINE
  5
534
100
AcDbEntity
  8
DEFAULT_3
100
AcDbLine
 62
2
  6
PHANTOM
 10
14.9291347693
 20
15.5145711929
 11
13.8445347693
 21
15.5145711929
  0
LINE
  5
535
100
AcDbEntity
  8
DEFAULT_3
100
AcDbLine
 62
2
  6
PHANTOM
 10
17.8677687413
 20
15.5510404847
 11
16.7231687413
 21
15.5510404847
  0
LINE
  5
536
100
AcDbEntity
  8
0
100
AcDbLine
 62
2
  6
CONTINUOUS
 10
14.4978547693
 20
15.6251711929
 11
15.2975947693
 21
15.6251711929
  0
LINE
  5
537
100
AcDbEntity
  8
0
100
AcDbLine
 62
2
  6
CONTINUOUS
 10
17.4901694837
 20
16.8847975378
 11
17.3512571353
 21
16.8847975378
  0
LINE
  5
538
100
AcDbEntity
  8
0
100
AcDbLine
 62
2
  6
CONTINUOUS
 10
13.6613978803
 20
16.8847975378
 11
13.5224855319
 21
16.8847975378
  0
LINE
  5
539
100
AcDbEntity
  8
DEFAULT_3
100
AcDbLine
 62
8
  6
PHANTOM
 10
8.8336674038
 20
19.8130767393
 11
8.2019777195
 21
19.566119306
  0
LINE
  5
53A
100
AcDbEntity
  8
DEFAULT_3
100
AcDbLine
 62
8
  6
PHANTOM
 10
8.8784017785
 20
3.0140930774
 11
8.3875205513
 21
3.2011721591
  0
LINE
  5
53B
100
AcDbEntity
  8
DATUM_AXIS
100
AcDbLine
 62
7
  6
CENTER
 10
12.7662144082
 20
20.1867305314
 11
12.7662144082
 21
2.5703228606
  0
LINE
  5
53C
100
AcDbEntity
  8
DATUM_AXIS
100
AcDbLine
 62
7
  6
CENTER
 10
1.8733793741
 20
11.4202756678
 11
23.6589566028
 21
11.4202756678
  0
LINE
  5
53D
100
AcDbEntity
  8
DEFAULT_3
100
AcDbLine
 62
8
  6
PHANTOM
 10
16.6992052698
 20
3.0262375906
 11
17.2148273932
 21
3.2278187139
  0
LINE
  5
53E
100
AcDbEntity
  8
DEFAULT_3
100
AcDbLine
 62
8
  6
PHANTOM
 10
16.667561197
 20
19.8218845128
 11
17.1442109178
 21
19.6387027001
  0
ARC
  5
53F
100
AcDbEntity
  8
DEFAULT_3
100
AcDbCircle
 62
2
  6
PHANTOM
 10
17.029107226
 20
14.8951604847
 40
0.125
100
AcDbArc
 50
90.0
 51
159.9601913116
  0
ARC
  5
540
100
AcDbEntity
  8
0
100
AcDbCircle
 62
2
  6
CONTINUOUS
 10
14.0869548043
 20
14.8636911929
 40
0.12
100
AcDbArc
 50
90.0
 51
159.9601913116
  0
ARC
  5
541
100
AcDbEntity
  8
0
100
AcDbCircle
 62
2
  6
CONTINUOUS
 10
17.6941687413
 20
14.8454804847
 40
0.11
100
AcDbArc
 50
270.0
 51
360.0
  0
ARC
  5
542
100
AcDbEntity
  8
0
100
AcDbCircle
 62
2
  6
CONTINUOUS
 10
14.7655947693
 20
14.7990111929
 40
0.1
100
AcDbArc
 50
270.0
 51
360.0
  0
ARC
  5
543
100
AcDbEntity
  8
0
100
AcDbCircle
 62
2
  6
CONTINUOUS
 10
14.5952961863
 20
14.7467371468
 40
0.0885309118
100
AcDbArc
 50
212.3058638362
 51
264.8843450297
  0
ARC
  5
544
100
AcDbEntity
  8
0
100
AcDbCircle
 62
2
  6
CONTINUOUS
 10
14.5952961863
 20
14.7467371468
 40
0.0885309118
100
AcDbArc
 50
276.0241773206
 51
327.6941361638
  0
ARC
  5
545
100
AcDbEntity
  8
0
100
AcDbCircle
 62
2
  6
CONTINUOUS
 10
17.5339501583
 20
14.7831358095
 40
0.0885309118
100
AcDbArc
 50
212.3058638362
 51
264.8843450297
  0
ARC
  5
546
100
AcDbEntity
  8
0
100
AcDbCircle
 62
2
  6
CONTINUOUS
 10
17.5339501583
 20
14.7831358095
 40
0.0885309118
100
AcDbArc
 50
276.0241773206
 51
327.6941361638
  0
ARC
  5
547
100
AcDbEntity
  8
0
100
AcDbCircle
 62
2
  6
CONTINUOUS
 10
13.8961939244
 20
14.9118244097
 40
0.0741554031
100
AcDbArc
 50
340.0021161874
 51
75.728277399
  0
ARC
  5
548
100
AcDbEntity
  8
DEFAULT_3
100
AcDbCircle
 62
2
  6
PHANTOM
 10
16.8367216797
 20
14.9489264595
 40
0.0741554031
100
AcDbArc
 50
331.1106122188
 51
75.728277399
  0
ARC
  5
549
100
AcDbEntity
  8
0
100
AcDbCircle
 62
2
  6
CONTINUOUS
 10
17.0832650882
 20
14.7312804847
 40
0.065
100
AcDbArc
 50
90.0
 51
159.9572872547
  0
ARC
  5
54A
100
AcDbEntity
  8
0
100
AcDbCircle
 62
2
  6
CONTINUOUS
 10
14.1439996841
 20
14.6958111929
 40
0.064
100
AcDbArc
 50
90.0
 51
159.9445616853
  0
ARC
  5
54B
100
AcDbEntity
  8
0
100
AcDbCircle
 62
2
  6
CONTINUOUS
 10
17.2239672535
 20
14.8562804847
 40
0.06
100
AcDbArc
 50
270.0
 51
333.2928412651
  0
ARC
  5
54C
100
AcDbEntity
  8
0
100
AcDbCircle
 62
2
  6
CONTINUOUS
 10
14.2853132815
 20
14.8198111929
 40
0.06
100
AcDbArc
 50
270.0
 51
333.2928412651
  0
ARC
  5
54D
100
AcDbEntity
  8
0
100
AcDbCircle
 62
2
  6
CONTINUOUS
 10
13.8445347693
 20
15.4545711929
 40
0.06
100
AcDbArc
 50
90.0
 51
180.0
  0
ARC
  5
54E
100
AcDbEntity
  8
0
100
AcDbCircle
 62
2
  6
CONTINUOUS
 10
13.8445347693
 20
15.0464911929
 40
0.06
100
AcDbArc
 50
180.0
 51
270.0
  0
ARC
  5
54F
100
AcDbEntity
  8
0
100
AcDbCircle
 62
2
  6
CONTINUOUS
 10
17.6933887413
 20
14.8462804847
 40
0.05
100
AcDbArc
 50
270.0
 51
360.0
  0
ARC
  5
550
100
AcDbEntity
  8
0
100
AcDbCircle
 62
2
  6
CONTINUOUS
 10
14.7547347693
 20
14.8098111929
 40
0.05
100
AcDbArc
 50
270.0
 51
360.0
  0
ARC
  5
551
100
AcDbEntity
  8
0
100
AcDbCircle
 62
2
  6
CONTINUOUS
 10
17.3249056084
 20
14.9901604847
 40
0.03
100
AcDbArc
 50
333.2928412651
 51
90.0
  0
ARC
  5
552
100
AcDbEntity
  8
0
100
AcDbCircle
 62
2
  6
CONTINUOUS
 10
14.3862516364
 20
14.9536911929
 40
0.03
100
AcDbArc
 50
333.2928412651
 51
90.0
  0
CIRCLE
  5
553
100
AcDbEntity
  8
0
100
AcDbCircle
 62
7
  6
CONTINUOUS
 10
14.4951147693
 20
15.6251711929
 40
0.0298681023
  0
CIRCLE
  5
554
100
AcDbEntity
  8
0
100
AcDbCircle
 62
7
  6
CONTINUOUS
 10
14.6913947693
 20
15.6251711929
 40
0.0298681023
  0
CIRCLE
  5
555
100
AcDbEntity
  8
0
100
AcDbCircle
 62
7
  6
CONTINUOUS
 10
15.0093347693
 20
15.2795911929
 40
0.0298681023
  0
CIRCLE
  5
556
100
AcDbEntity
  8
0
100
AcDbCircle
 62
7
  6
CONTINUOUS
 10
15.0093347693
 20
14.9892911929
 40
0.0298681023
  0
ARC
  5
557
100
AcDbEntity
  8
DEFAULT_3
100
AcDbCircle
 62
8
  6
PHANTOM
 10
10.2804602121
 20
6.6929873608
 40
3.937007874
100
AcDbArc
 50
249.137723521
 51
269.9265661099
  0
ARC
  5
558
100
AcDbEntity
  8
DEFAULT_3
100
AcDbCircle
 62
8
  6
PHANTOM
 10
15.2656973092
 20
6.6929917311
 40
3.937007874
100
AcDbArc
 50
270.07628522
 51
291.3528837192
  0
ARC
  5
559
100
AcDbEntity
  8
DEFAULT_3
100
AcDbCircle
 62
8
  6
PHANTOM
 10
15.2552316874
 20
16.1469210632
 40
3.937007874
100
AcDbArc
 50
68.9776744854
 51
90.0053838182
  0
ARC
  5
55A
100
AcDbEntity
  8
DEFAULT_3
100
AcDbCircle
 62
8
  6
PHANTOM
 10
10.2671753644
 20
16.1463225988
 40
3.937007874
100
AcDbArc
 50
89.7367827428
 51
111.3528837192
  0
CIRCLE
  5
55B
100
AcDbEntity
  8
DEFAULT_3
100
AcDbCircle
 62
8
  6
PHANTOM
 10
12.7662144082
 20
11.4202756678
 40
0.8858267717
  0
LINE
  5
55C
100
AcDbEntity
  8
DEFAULT_3
100
AcDbLine
 62
8
  6
PHANTOM
 10
10.2754142955
 20
2.7559827204
 11
15.2709391512
 21
2.7559873466
  0
SPLINE
  5
55D
100
AcDbEntity
  8
DEFAULT_3
100
AcDbSpline
 62
8
  6
PHANTOM
 70
0
 71
3
 72
62
 73
58
 74
0
 42
0.0000001
 43
0.0000001
 44
0.0000000001
 40
0.0
 40
0.0
 40
0.0
 40
0.0
 40
0.0066886361
 40
0.0135769425
 40
0.0204652488
 40
0.0357992448
 40
0.0526653705
 40
0.0710401561
 40
0.0908813529
 40
0.1118315639
 40
0.133287563
 40
0.1546410967
 40
0.1753573303
 40
0.1953929882
 40
0.2149157626
 40
0.2340946064
 40
0.2530650655
 40
0.2718484421
 40
0.2904266391
 40
0.308784783
 40
0.3269272663
 40
0.3448748989
 40
0.3626481039
 40
0.3802542363
 40
0.3977050066
 40
0.4150061744
 40
0.4321949877
 40
0.4493171932
 40
0.4663999831
 40
0.4834612164
 40
0.5005143365
 40
0.5175664933
 40
0.5346273832
 40
0.5517428761
 40
0.5689382103
 40
0.5862251748
 40
0.6036127671
 40
0.6211175735
 40
0.6387608359
 40
0.6565519595
 40
0.6745123233
 40
0.6926686941
 40
0.7110546296
 40
0.7297067853
 40
0.748648252
 40
0.7678820762
 40
0.7874065976
 40
0.8072196312
 40
0.8273276012
 40
0.8477360551
 40
0.8684428852
 40
0.8894982783
 40
0.9109106484
 40
0.9326589393
 40
0.9547211651
 40
0.9771473217
 40
1.0
 40
1.0
 40
1.0
 40
1.0
 10
17.2148273932
 20
3.2278187139
 30
0.0
 10
17.2599402667
 20
3.245455474
 30
0.0
 10
17.3517444982
 20
3.2824369084
 30
0.0
 10
17.4909931915
 20
3.3400339293
 30
0.0
 10
17.6865852338
 20
3.4236443964
 30
0.0
 10
17.9467066087
 20
3.5420193728
 30
0.0
 10
18.278586971
 20
3.7055633879
 30
0.0
 10
18.6332683017
 20
3.8961691696
 30
0.0
 10
19.0060756533
 20
4.1154055991
 30
0.0
 10
19.3880961129
 20
4.36223398
 30
0.0
 10
19.7676392977
 20
4.6321392736
 30
0.0
 10
20.1328778293
 20
4.9180112384
 30
0.0
 10
20.4765123587
 20
5.2135569364
 30
0.0
 10
20.796433488
 20
5.5151937505
 30
0.0
 10
21.0944096344
 20
5.822813596
 30
0.0
 10
21.3728500327
 20
6.1376771306
 30
0.0
 10
21.6331840671
 20
6.460594537
 30
0.0
 10
21.8757587511
 20
6.7914415034
 30
0.0
 10
22.1001692824
 20
7.1292954978
 30
0.0
 10
22.3060836699
 20
7.4731322936
 30
0.0
 10
22.4934499681
 20
7.8220789085
 30
0.0
 10
22.6623260806
 20
8.1754712276
 30
0.0
 10
22.8127664215
 20
8.5327273407
 30
0.0
 10
22.9448468448
 20
8.8932158143
 30
0.0
 10
23.058649157
 20
9.2562131754
 30
0.0
 10
23.1543398694
 20
9.6211613112
 30
0.0
 10
23.2320256774
 20
9.9878085511
 30
0.0
 10
23.2918512293
 20
10.3561381036
 30
0.0
 10
23.3339253985
 20
10.7259796381
 30
0.0
 10
23.358289129
 20
11.0968807494
 30
0.0
 10
23.3648766189
 20
11.4682625321
 30
0.0
 10
23.3536593617
 20
11.8395258805
 30
0.0
 10
23.3246440105
 20
12.2103162398
 30
0.0
 10
23.2778412095
 20
12.5803734957
 30
0.0
 10
23.2131265667
 20
12.9494025344
 30
0.0
 10
23.1303715099
 20
13.3168820068
 30
0.0
 10
23.0295308932
 20
13.6822536693
 30
0.0
 10
22.9106150962
 20
14.0449926321
 30
0.0
 10
22.7735926398
 20
14.4045199185
 30
0.0
 10
22.61836676
 20
14.7602732399
 30
0.0
 10
22.4448079844
 20
15.1117641452
 30
0.0
 10
22.2527922623
 20
15.4586852382
 30
0.0
 10
22.0421330893
 20
15.8007263452
 30
0.0
 10
21.8125396073
 20
16.1374461676
 30
0.0
 10
21.5637517203
 20
16.4681860078
 30
0.0
 10
21.2957490587
 20
16.7920780925
 30
0.0
 10
21.0086962885
 20
17.108128663
 30
0.0
 10
20.7028763208
 20
17.4154009998
 30
0.0
 10
20.3785311955
 20
17.7129473175
 30
0.0
 10
20.0359548453
 20
17.9998605854
 30
0.0
 10
19.6752001176
 20
18.2754049536
 30
0.0
 10
19.2963331988
 20
18.5388701243
 30
0.0
 10
18.8995387755
 20
18.7894032089
 30
0.0
 10
18.485523937
 20
19.0259016966
 30
0.0
 10
18.0547400547
 20
19.2474632498
 30
0.0
 10
17.6072854613
 20
19.4534268242
 30
0.0
 10
17.3004184171
 20
19.578670413
 30
0.0
 10
17.1442109177
 20
19.6387027001
 30
0.0
  0
SPLINE
  5
55E
100
AcDbEntity
  8
DEFAULT_3
100
AcDbSpline
 62
8
  6
PHANTOM
 70
0
 71
3
 72
18
 73
14
 74
0
 42
0.0000001
 43
0.0000001
 44
0.0000000001
 40
0.0
 40
0.0
 40
0.0
 40
0.0
 40
0.0303594179
 40
0.0947010885
 40
0.1641097159
 40
0.2368119362
 40
0.3148650572
 40
0.4008282315
 40
0.4972603707
 40
0.6067198832
 40
0.7317650524
 40
0.8726744337
 40
1.0
 40
1.0
 40
1.0
 40
1.0
 10
15.2548617451
 20
20.0839289198
 30
0.0
 10
15.2045699511
 20
20.0839241941
 30
0.0
 10
15.0476921762
 20
20.0838710725
 30
0.0
 10
14.7758383956
 20
20.0838854821
 30
0.0
 10
14.433840667
 20
20.0838921349
 30
0.0
 10
14.0691297618
 20
20.0838852029
 30
0.0
 10
13.6769954532
 20
20.0838874878
 30
0.0
 10
13.2455514065
 20
20.0838908675
 30
0.0
 10
12.7620820054
 20
20.0838779984
 30
0.0
 10
12.2138685347
 20
20.0839333438
 30
0.0
 10
11.5919906097
 20
20.0836851787
 30
0.0
 10
10.940457723
 20
20.0847038194
 30
0.0
 10
10.4962270674
 20
20.0823197456
 30
0.0
 10
10.2852619456
 20
20.0832889278
 30
0.0
  0
SPLINE
  5
55F
100
AcDbEntity
  8
DEFAULT_3
100
AcDbSpline
 62
8
  6
PHANTOM
 70
0
 71
3
 72
59
 73
55
 74
0
 42
0.0000001
 43
0.0000001
 44
0.0000000001
 40
0.0
 40
0.0
 40
0.0
 40
0.0
 40
0.0209728096
 40
0.0441104983
 40
0.0664155478
 40
0.0881937545
 40
0.1095374862
 40
0.1305403431
 40
0.1512690484
 40
0.1717179509
 40
0.1918723966
 40
0.2117152705
 40
0.2312402751
 40
0.2504656681
 40
0.269405945
 40
0.288080213
 40
0.3065124794
 40
0.3247291171
 40
0.3427551452
 40
0.3606046604
 40
0.3782917794
 40
0.3958242205
 40
0.4132318394
 40
0.430545259
 40
0.447787992
 40
0.4649789887
 40
0.4821361679
 40
0.4992742969
 40
0.5164116811
 40
0.5335834683
 40
0.5508301276
 40
0.5681683955
 40
0.5855944096
 40
0.6031083663
 40
0.6207351241
 40
0.638507388
 40
0.6564526532
 40
0.6745893603
 40
0.692941135
 40
0.7115225322
 40
0.7303493085
 40
0.7494396115
 40
0.7688086105
 40
0.7884713653
 40
0.8084398646
 40
0.8287242345
 40
0.8493366866
 40
0.8702873297
 40
0.8915690205
 40
0.9131430505
 40
0.9350869632
 40
0.9575026759
 40
0.9796046941
 40
1.0
 40
1.0
 40
1.0
 40
1.0
 10
8.2019777195
 20
19.566119306
 30
0.0
 10
8.0611915981
 20
19.5098112876
 30
0.0
 10
7.7666495797
 20
19.3825580898
 30
0.0
 10
7.329784857
 20
19.1745383399
 30
0.0
 10
6.8991044754
 20
18.9443357338
 30
0.0
 10
6.4898035657
 20
18.701924683
 30
0.0
 10
6.0998936359
 20
18.4470098527
 30
0.0
 10
5.7279506384
 20
18.1795907863
 30
0.0
 10
5.3735931164
 20
17.8999758866
 30
0.0
 10
5.0369549508
 20
17.6088314528
 30
0.0
 10
4.7186469438
 20
17.3073139262
 30
0.0
 10
4.4192451262
 20
16.9965391105
 30
0.0
 10
4.1389747279
 20
16.6775356638
 30
0.0
 10
3.877882017
 20
16.3512121911
 30
0.0
 10
3.6358897601
 20
16.0182921793
 30
0.0
 10
3.412875397
 20
15.679421335
 30
0.0
 10
3.2086512561
 20
15.3351529919
 30
0.0
 10
3.0230396282
 20
14.9859787051
 30
0.0
 10
2.8559307385
 20
14.6323938399
 30
0.0
 10
2.7072254248
 20
14.2749497525
 30
0.0
 10
2.5768208514
 20
13.914292824
 30
0.0
 10
2.4645526343
 20
13.5510316943
 30
0.0
 10
2.3703907043
 20
13.1856038845
 30
0.0
 10
2.2942641894
 20
12.8182174112
 30
0.0
 10
2.2360321139
 20
12.4491490109
 30
0.0
 10
2.195536106
 20
12.0788547581
 30
0.0
 10
2.1727780222
 20
11.707868969
 30
0.0
 10
2.1678329752
 20
11.336682545
 30
0.0
 10
2.1807692588
 20
10.9655639372
 30
0.0
 10
2.2114964734
 20
10.594611393
 30
0.0
 10
2.2600380237
 20
10.224069573
 30
0.0
 10
2.3265575816
 20
9.8544799683
 30
0.0
 10
2.4112107184
 20
9.4866092239
 30
0.0
 10
2.5139910094
 20
9.1210847565
 30
0.0
 10
2.6348215529
 20
8.7583399397
 30
0.0
 10
2.7737984704
 20
8.398726895
 30
0.0
 10
2.9311517702
 20
8.0426647373
 30
0.0
 10
3.1071211015
 20
7.6905840706
 30
0.0
 10
3.3017803508
 20
7.3430062619
 30
0.0
 10
3.5152175319
 20
7.0005357202
 30
0.0
 10
3.747465829
 20
6.6638321548
 30
0.0
 10
3.9986402609
 20
6.3336339563
 30
0.0
 10
4.2688288726
 20
6.0106327547
 30
0.0
 10
4.5580282753
 20
5.6955682638
 30
0.0
 10
4.8661600398
 20
5.3892209047
 30
0.0
 10
5.1931229181
 20
5.0924225917
 30
0.0
 10
5.5387832732
 20
4.8060321573
 30
0.0
 10
5.9028954893
 20
4.5310281074
 30
0.0
 10
6.2848940183
 20
4.2685431705
 30
0.0
 10
6.6844225745
 20
4.0193738181
 30
0.0
 10
7.1020133083
 20
3.7839491605
 30
0.0
 10
7.5328425637
 20
3.5654347919
 30
0.0
 10
7.9635024857
 20
3.3704098407
 30
0.0
 10
8.2495537362
 20
3.2535003592
 30
0.0
 10
8.3875205513
 20
3.2011721591
 30
0.0
  0
SPLINE
  5
560
100
AcDbEntity
  8
0
100
AcDbSpline
 62
7
  6
CONTINUOUS
 70
0
 71
3
 72
60
 73
56
 74
0
 42
0.0000001
 43
0.0000001
 44
0.0000000001
 40
0.0
 40
0.0
 40
0.0
 40
0.0
 40
0.0159172032
 40
0.0297592601
 40
0.0484303218
 40
0.0656777348
 40
0.0898664429
 40
0.1093614971
 40
0.1256764391
 40
0.1408417515
 40
0.1526922115
 40
0.1651125788
 40
0.1823266743
 40
0.2015293118
 40
0.2225306628
 40
0.2445602806
 40
0.2770404725
 40
0.2969899461
 40
0.3175803328
 40
0.3503555403
 40
0.3723065174
 40
0.3958418877
 40
0.4180510622
 40
0.4427587479
 40
0.473977993
 40
0.4920294887
 40
0.5232852635
 40
0.5691610563
 40
0.595681289
 40
0.6119357384
 40
0.630180887
 40
0.6476775836
 40
0.6623357049
 40
0.6804924589
 40
0.6988955706
 40
0.7164497584
 40
0.7343262321
 40
0.7501682789
 40
0.7622518969
 40
0.7750898496
 40
0.7929376871
 40
0.8119098261
 40
0.8237951012
 40
0.8347609995
 40
0.8491787718
 40
0.8720318955
 40
0.8825746456
 40
0.9004706324
 40
0.9174289929
 40
0.9361156025
 40
0.947697388
 40
0.9610401303
 40
0.9773314776
 40
0.9949117002
 40
1.0
 40
1.0
 40
1.0
 40
1.0
 10
22.11507711
 20
11.4197132977
 30
0.0
 10
22.1150719492
 20
11.2789419948
 30
0.0
 10
22.106506668
 20
11.0158332641
 30
0.0
 10
22.0667045774
 20
10.5890208769
 30
0.0
 10
21.9970333477
 20
10.1540083865
 30
0.0
 10
21.8749327761
 20
9.6356203665
 30
0.0
 10
21.7081871569
 20
9.1209702372
 30
0.0
 10
21.5015740681
 20
8.6295622757
 30
0.0
 10
21.2977169639
 20
8.2241572142
 30
0.0
 10
21.1045584636
 20
7.8900984692
 30
0.0
 10
20.9137729121
 20
7.5946184651
 30
0.0
 10
20.6994800426
 20
7.2923748014
 30
0.0
 10
20.4287796406
 20
6.9495480816
 30
0.0
 10
20.0857013685
 20
6.5664568043
 30
0.0
 10
19.6860346419
 20
6.175716416
 30
0.0
 10
19.1691931407
 20
5.735280183
 30
0.0
 10
18.6232090182
 20
5.343676642
 30
0.0
 10
18.0596755942
 20
5.0014188957
 30
0.0
 10
17.4739078468
 20
4.6901361819
 30
0.0
 10
16.8493491069
 20
4.4148902151
 30
0.0
 10
16.180406201
 20
4.1758676444
 30
0.0
 10
15.5904296128
 20
4.0031780258
 30
0.0
 10
14.9664577767
 20
3.8589374443
 30
0.0
 10
14.2659024446
 20
3.7394398007
 30
0.0
 10
13.5959220054
 20
3.6719254903
 30
0.0
 10
12.8638035885
 20
3.6420059879
 30
0.0
 10
11.997128242
 20
3.6579665342
 30
0.0
 10
11.058635397
 20
3.7630441068
 30
0.0
 10
10.268729537
 20
3.9235296395
 30
0.0
 10
9.7323572594
 20
4.0628932359
 30
0.0
 10
9.2811686081
 20
4.2015209619
 30
0.0
 10
8.8506750524
 20
4.3558301521
 30
0.0
 10
8.4281742558
 20
4.527598928
 30
0.0
 10
8.0063967149
 20
4.7209946306
 30
0.0
 10
7.5722733082
 20
4.9470032014
 30
0.0
 10
7.1528071057
 20
5.193093811
 30
0.0
 10
6.7662627789
 20
5.4472915919
 30
0.0
 10
6.433255768
 20
5.6909978268
 30
0.0
 10
6.146703701
 20
5.9200306468
 30
0.0
 10
5.8558011459
 20
6.1715823018
 30
0.0
 10
5.5331272368
 20
6.4791951253
 30
0.0
 10
5.2357113509
 20
6.7989177547
 30
0.0
 10
4.9954123368
 20
7.0858063423
 30
0.0
 10
4.7917164544
 20
7.3494050289
 30
0.0
 10
4.5437734505
 20
7.7015600091
 30
0.0
 10
4.3219356946
 20
8.0658619599
 30
0.0
 10
4.109016778
 20
8.469629501
 30
0.0
 10
3.9401793498
 20
8.8361040197
 30
0.0
 10
3.7705512333
 20
9.2803207363
 30
0.0
 10
3.6484748388
 20
9.6812318065
 30
0.0
 10
3.5584342039
 20
10.0567677586
 30
0.0
 10
3.491299782
 20
10.4153835649
 30
0.0
 10
3.439035045
 20
10.8302790468
 30
0.0
 10
3.4194294096
 20
11.174528926
 30
0.0
 10
3.4173481589
 20
11.3748626935
 30
0.0
 10
3.4173497925
 20
11.4198374941
 30
0.0
  0
SPLINE
  5
561
100
AcDbEntity
  8
0
100
AcDbSpline
 62
7
  6
CONTINUOUS
 70
0
 71
3
 72
59
 73
55
 74
0
 42
0.0000001
 43
0.0000001
 44
0.0000000001
 40
0.0
 40
0.0
 40
0.0
 40
0.0
 40
0.0103008215
 40
0.0331170448
 40
0.0480366221
 40
0.059173442
 40
0.0714702047
 40
0.084344302
 40
0.1053728614
 40
0.1252281178
 40
0.1505795125
 40
0.1619217093
 40
0.1791275535
 40
0.2065058061
 40
0.2169677701
 40
0.2360258601
 40
0.2517351409
 40
0.2635543268
 40
0.2791606826
 40
0.3047876708
 40
0.3295747059
 40
0.3515921748
 40
0.3706661015
 40
0.3921207528
 40
0.4329872556
 40
0.4721013051
 40
0.4891884518
 40
0.5083835751
 40
0.5315115866
 40
0.556544746
 40
0.5899307381
 40
0.6103856616
 40
0.6299212737
 40
0.655721915
 40
0.6770853426
 40
0.6912023284
 40
0.7124891247
 40
0.7337011489
 40
0.7495306242
 40
0.7653102186
 40
0.7863833879
 40
0.8077166832
 40
0.8218661805
 40
0.8347323539
 40
0.849785248
 40
0.8702643556
 40
0.8875195116
 40
0.9037911744
 40
0.9193960891
 40
0.9444934066
 40
0.9623557409
 40
0.9786998288
 40
0.99125789
 40
1.0
 40
1.0
 40
1.0
 40
1.0
 10
3.4173497925
 20
11.4198374941
 30
0.0
 10
3.4173530994
 20
11.5108850762
 30
0.0
 10
3.4235400555
 20
11.803613485
 30
0.0
 10
3.4612549688
 20
12.227684778
 30
0.0
 10
3.5321568463
 20
12.6544162235
 30
0.0
 10
3.6053594329
 20
12.9860436415
 30
0.0
 10
3.6893604001
 20
13.2965322497
 30
0.0
 10
3.8159188106
 20
13.6865321222
 30
0.0
 10
3.9928694557
 20
14.1300894063
 30
0.0
 10
4.2532635754
 20
14.6588114709
 30
0.0
 10
4.5132500914
 20
15.0910106295
 30
0.0
 10
4.7877557139
 20
15.4860804128
 30
0.0
 10
5.0932884605
 20
15.8818694956
 30
0.0
 10
5.4237321275
 20
16.2485039843
 30
0.0
 10
5.7883952116
 20
16.6058388706
 30
0.0
 10
6.0919329313
 20
16.8763501277
 30
0.0
 10
6.4194736309
 20
17.1379484402
 30
0.0
 10
6.7330290262
 20
17.3675895368
 30
0.0
 10
7.1304041153
 20
17.634414155
 30
0.0
 10
7.6446520941
 20
17.9367696831
 30
0.0
 10
8.2318839888
 20
18.2284004797
 30
0.0
 10
8.7824359431
 20
18.4596844676
 30
0.0
 10
9.316780059
 20
18.6509467212
 30
0.0
 10
10.0246163978
 20
18.8633975097
 30
0.0
 10
10.9269442588
 20
19.0584774195
 30
0.0
 10
11.804777329
 20
19.1595634808
 30
0.0
 10
12.4902718086
 20
19.1914818135
 30
0.0
 10
13.0308949445
 20
19.193013328
 30
0.0
 10
13.6434838978
 20
19.1635308552
 30
0.0
 10
14.3811620046
 20
19.084792815
 30
0.0
 10
15.0876657492
 20
18.9579664497
 30
0.0
 10
15.7343498263
 20
18.7963642859
 30
0.0
 10
16.3056819985
 20
18.6223053509
 30
0.0
 10
16.8734152031
 20
18.4123231871
 30
0.0
 10
17.3812563553
 20
18.1877448768
 30
0.0
 10
17.8403710541
 20
17.957569083
 30
0.0
 10
18.2860632066
 20
17.7059490841
 30
0.0
 10
18.7279254778
 20
17.4196296471
 30
0.0
 10
19.1124889295
 20
17.1393134375
 30
0.0
 10
19.4817459107
 20
16.8419617575
 30
0.0
 10
19.8695275646
 20
16.4911327991
 30
0.0
 10
20.221658052
 20
16.1258272885
 30
0.0
 10
20.5030234751
 20
15.7969573069
 30
0.0
 10
20.7339428807
 20
15.5002239541
 30
0.0
 10
20.9823703819
 20
15.1465681012
 30
0.0
 10
21.2280124395
 20
14.7449000334
 30
0.0
 10
21.4498020444
 20
14.3184551061
 30
0.0
 10
21.6262655494
 20
13.9190860975
 30
0.0
 10
21.8019047243
 20
13.4447835429
 30
0.0
 10
21.9431564488
 20
12.9445320284
 30
0.0
 10
22.0417792215
 20
12.4289482097
 30
0.0
 10
22.0913349007
 20
12.0177658322
 30
0.0
 10
22.1117230329
 20
11.6854633464
 30
0.0
 10
22.1150799444
 20
11.4970282758
 30
0.0
 10
22.11507711
 20
11.4197132977
 30
0.0
  0
ENDSEC
  0
SECTION
  2
OBJECTS
  0
DICTIONARY
  5
C
100
AcDbDictionary
280
0
281
1
  3
ACAD_GROUP
350
D
  3
ACAD_MLINESTYLE
350
17
  3
ACAD_LAYOUT
350
1A
  3
ACAD_PLOTSETTINGS
350
19
  3
ACAD_PLOTSTYLENAME
350
E
  0
DICTIONARY
  5
D
102
{ACAD_REACTORS
330
C
102
}
100
AcDbDictionary
280
0
281
1
  0
ACDBDICTIONARYWDFLT
  5
E
102
{ACAD_REACTORS
330
C
102
}
100
AcDbDictionary
281
1
  3
Normal
350
F
100
AcDbDictionaryWithDefault
340
F
  0
DICTIONARY
  5
17
102
{ACAD_REACTORS
330
C
102
}
100
AcDbDictionary
280
0
281
1
  3
Standard
350
18
  0
DICTIONARY
  5
19
102
{ACAD_REACTORS
330
C
102
}
100
AcDbDictionary
281
1
  0
DICTIONARY
  5
1A
102
{ACAD_REACTORS
330
C
102
}
100
AcDbDictionary
281
1
  3
Model
350
562
  3
Layout1
350
563
  0
ACDBPLACEHOLDER
  5
F
102
{ACAD_REACTORS
330
E
102
}
  0
MLINESTYLE
  5
18
102
{ACAD_REACTORS
330
17
102
}
100
AcDbMlineStyle
  2
STANDARD
 70
0
  3

 62
256
 51
90.0
 52
90.0
 71
2
 49
0.5
 62
256
  6
BYLAYER
 49
-0.5
 62
256
  6
BYLAYER
  0
LAYOUT
  5
562
102
{ACAD_REACTORS
330
1A
102
}
100
AcDbPlotSettings
  1

  2
none_device
  4
ANSI_D_(34.00_x_22.00_Inches)
  6

 40
0.0
 41
0.0
 42
0.0
 43
0.0
 44
863.6
 45
558.8
 46
0.0
 47
0.0
 48
0.0
 49
0.0
140
0.0
141
0.0
142
1.0
143
1.0
 70
1024
 72
0
 73
0
 74
0
  7

 75
0
147
1.0
148
0.0
149
0.0
100
AcDbLayout
  1
Model
 70
0
 71
0
 10
0.0
 20
0.0
 11
34.0
 21
22.0
 12
0.0
 22
0.0
 32
0.0
 14
0.0
 24
0.0
 34
0.0
 15
0.0
 25
0.0
 35
0.0
146
0.0
 13
0.0
 23
0.0
 33
0.0
 16
1.0
 26
0.0
 36
0.0
 17
0.0
 27
1.0
 37
0.0
 76
0
330
20E
345
0
346
0
  0
LAYOUT
  5
563
102
{ACAD_REACTORS
330
1A
102
}
100
AcDbPlotSettings
  1

  2
none_device
  4
ANSI_D_(34.00_x_22.00_Inches)
  6

 40
0.0
 41
0.0
 42
0.0
 43
0.0
 44
863.6
 45
558.8
 46
0.0
 47
0.0
 48
0.0
 49
0.0
140
0.0
141
0.0
142
1.0
143
1.0
 70
0
 72
0
 73
0
 74
0
  7

 75
0
147
1.0
148
0.0
149
0.0
100
AcDbLayout
  1
Layout1
 70
0
 71
1
 10
0.0
 20
0.0
 11
34.0
 21
22.0
 12
0.0
 22
0.0
 32
0.0
 14
0.0
 24
0.0
 34
0.0
 15
0.0
 25
0.0
 35
0.0
146
0.0
 13
0.0
 23
0.0
 33
0.0
 16
1.0
 26
0.0
 36
0.0
 17
0.0
 27
1.0
 37
0.0
 76
0
330
20F
345
0
346
0
  0
ENDSEC
  0
EOF
