999
DXF file: 1551951-7_B.dxf
999
Pro/ENGINEER 2021304 by Parametric Technology Corporation
  0
SECTION
  2
HEADER
  9
$ACADVER
  1
AC1015
  9
$DWGCODEPAGE
  3
ANSI_1252
  9
$EXTMAX
 10
34.0
 20
22.0
 30
0.0
  9
$EXTMIN
 10
0.0
 20
0.0
 30
0.0
  9
$LIMMIN
 10
0.0
 20
0.0
  9
$LIMMAX
 10
34.0
 20
22.0
  9
$VIEWCTR
 10
17.0
 20
11.0
  9
$VIEWSIZE
 40
22.0
  9
$CLAYER
  8
0
  9
$LTSCALE
 40
1.87
  9
$CELTYPE
  6
BYLAYER
  9
$DIMSCALE
 40
1.0
  9
$DIMASZ
 40
0.1875
  9
$DIMEXO
 40
0.0625
  9
$DIMDLI
 40
1.292
  9
$DIMEXE
 40
0.125
  9
$DIMCEN
 40
0.306
  9
$DIMLFAC
 40
1.0
  9
$DIMBLK
  1
_FILLED
  9
$DIMALT
 70
1
  9
$DIMALTD
 70
2
  9
$DIMALTTD
 70
2
  9
$DIMALTF
 40
25.4
  9
$DIMTXT
 40
0.15625
  9
$DIMTOL
 70
1
  9
$DIMLIM
 70
0
  9
$DIMTFAC
 40
1.0
  9
$DIMTP
 40
0.01
  9
$DIMTM
 40
0.01
  9
$DIMGAP
 40
0.09
  9
$DIMDSEP
 70
46
  9
$AUNITS
 70
0
  9
$PDMODE
 70
3
  9
$PDSIZE
 40
0.3125
  9
$HANDSEED
  5
56B
  9
$TILEMODE
 70
1
  9
$MEASUREMENT
 70
0
  9
$INSUNITS
 70
1
  0
ENDSEC
  0
SECTION
  2
CLASSES
  0
CLASS
  1
ACDBDICTIONARYWDFLT
  2
AcDbDictionaryWithDefault
  3
AutoCAD 2000
 90
0
280
0
281
0
  0
CLASS
  1
ACDBPLACEHOLDER
  2
AcDbPlaceHolder
  3
AutoCAD 2000
 90
0
280
0
281
0
  0
CLASS
  1
LAYOUT
  2
AcDbLayout
  3
AutoCAD 2000
 90
0
280
0
281
0
  0
ENDSEC
  0
SECTION
  2
TABLES
  0
TABLE
  2
VPORT
  5
8
100
AcDbSymbolTable
 70
2
  0
VPORT
  5
1F4
100
AcDbSymbolTableRecord
100
AcDbViewportTableRecord
  2
*ACTIVE
 70
0
 10
0.0
 20
0.0
 11
1.0
 21
1.0
 12
17.0
 22
11.0
 13
0.0
 23
0.0
 14
1.0
 24
1.0
 15
0.0
 25
0.0
 16
0.0
 26
0.0
 36
1.0
 17
0.0
 27
0.0
 37
0.0
 40
22.0
 41
1.5454545455
 42
50.0
 43
0.0
 44
0.0
 50
0.0
 51
0.0
 71
0
 72
100
 73
1
 74
1
 75
0
 76
0
 77
0
 78
0
  0
ENDTAB
  0
TABLE
  2
LTYPE
  5
5
100
AcDbSymbolTable
 70
6
  0
LTYPE
  5
14
100
AcDbSymbolTableRecord
100
AcDbLinetypeTableRecord
  2
BYBLOCK
 70
0
  3

 72
65
 73
0
 40
0.0
  0
LTYPE
  5
15
100
AcDbSymbolTableRecord
100
AcDbLinetypeTableRecord
  2
BYLAYER
 70
0
  3

 72
65
 73
0
 40
0.0
  0
LTYPE
  5
16
100
AcDbSymbolTableRecord
100
AcDbLinetypeTableRecord
  2
CONTINUOUS
 70
64
  3
Solid line
 72
65
 73
0
 40
0.0
  0
LTYPE
  5
1F5
100
AcDbSymbolTableRecord
100
AcDbLinetypeTableRecord
  2
CENTER
 70
64
  3
____ _ ____ _ ____ _ ____ _ ____ _ ____ _ ____
 72
65
 73
4
 40
0.6
 49
0.375
 74
0
 49
-0.075
 74
0
 49
0.075
 74
0
 49
-0.075
 74
0
  0
LTYPE
  5
1F6
100
AcDbSymbolTableRecord
100
AcDbLinetypeTableRecord
  2
HIDDEN
 70
64
  3
- - - - - - - - - - - - - - - - - - - -
 72
65
 73
2
 40
0.2
 49
0.1
 74
0
 49
-0.1
 74
0
  0
LTYPE
  5
1F7
100
AcDbSymbolTableRecord
100
AcDbLinetypeTableRecord
  2
PHANTOM
 70
64
  3
_____ _ _ _____ _ _ _____ _ _ _____
 72
65
 73
6
 40
0.8
 49
0.45
 74
0
 49
-0.05
 74
0
 49
0.1
 74
0
 49
-0.05
 74
0
 49
0.1
 74
0
 49
-0.05
 74
0
  0
LTYPE
  5
1F8
100
AcDbSymbolTableRecord
100
AcDbLinetypeTableRecord
  2
DOT
 70
64
  3
. . . . . . . . . . . . . . . . . . . .
 72
65
 73
2
 40
0.2
 49
0.1
 74
0
 49
-0.1
 74
0
  0
LTYPE
  5
1F9
100
AcDbSymbolTableRecord
100
AcDbLinetypeTableRecord
  2
DASHED
 70
64
  3
- - - - - - - - - - - - - - - - - - - -
 72
65
 73
2
 40
0.2
 49
0.1
 74
0
 49
-0.1
 74
0
  0
ENDTAB
  0
TABLE
  2
LAYER
  5
2
100
AcDbSymbolTable
 70
36
  0
LAYER
  5
10
100
AcDbSymbolTableRecord
100
AcDbLayerTableRecord
  2
0
 70
0
 62
7
  6
CONTINUOUS
370
-3
390
F
  0
LAYER
  5
1FA
100
AcDbSymbolTableRecord
100
AcDbLayerTableRecord
  2
DEFAULT_1
 70
0
 62
7
  6
CENTER
370
-3
390
F
  0
LAYER
  5
1FB
100
AcDbSymbolTableRecord
100
AcDbLayerTableRecord
  2
DEFAULT_2
 70
0
 62
8
  6
HIDDEN
370
-3
390
F
  0
LAYER
  5
1FC
100
AcDbSymbolTableRecord
100
AcDbLayerTableRecord
  2
DEFAULT_3
 70
0
 62
7
  6
PHANTOM
370
-3
390
F
  0
LAYER
  5
1FD
100
AcDbSymbolTableRecord
100
AcDbLayerTableRecord
  2
DATUMS
 70
0
 62
7
  6
CONTINUOUS
370
-3
390
F
  0
LAYER
  5
1FE
100
AcDbSymbolTableRecord
100
AcDbLayerTableRecord
  2
DATUM_AXIS
 70
0
 62
7
  6
CONTINUOUS
370
-3
390
F
  0
LAYER
  5
1FF
100
AcDbSymbolTableRecord
100
AcDbLayerTableRecord
  2
DATUM_CSYS
 70
0
 62
7
  6
CONTINUOUS
370
-3
390
F
  0
LAYER
  5
200
100
AcDbSymbolTableRecord
100
AcDbLayerTableRecord
  2
DATUM_PLANE
 70
0
 62
7
  6
CONTINUOUS
370
-3
390
F
  0
LAYER
  5
201
100
AcDbSymbolTableRecord
100
AcDbLayerTableRecord
  2
DATUM_POINT
 70
0
 62
7
  6
CONTINUOUS
370
-3
390
F
  0
LAYER
  5
202
100
AcDbSymbolTableRecord
100
AcDbLayerTableRecord
  2
_CURVE
 70
0
 62
7
  6
CONTINUOUS
370
-3
390
F
  0
LAYER
  5
203
100
AcDbSymbolTableRecord
100
AcDbLayerTableRecord
  2
_SURFACE
 70
0
 62
7
  6
CONTINUOUS
370
-3
390
F
  0
LAYER
  5
204
100
AcDbSymbolTableRecord
100
AcDbLayerTableRecord
  2
_X2_9ED88BA4503C_X0_
 70
0
 62
7
  6
CONTINUOUS
370
-3
390
F
  0
LAYER
  5
205
100
AcDbSymbolTableRecord
100
AcDbLayerTableRecord
  2
__REF_CURVE
 70
0
 62
7
  6
CONTINUOUS
370
-3
390
F
  0
LAYER
  5
206
100
AcDbSymbolTableRecord
100
AcDbLayerTableRecord
  2
__REF_SURFACE
 70
0
 62
7
  6
CONTINUOUS
370
-3
390
F
  0
LAYER
  5
207
100
AcDbSymbolTableRecord
100
AcDbLayerTableRecord
  2
___NOTE
 70
0
 62
7
  6
CONTINUOUS
370
-3
390
F
  0
LAYER
  5
208
100
AcDbSymbolTableRecord
100
AcDbLayerTableRecord
  2
___SYMBOL
 70
0
 62
7
  6
CONTINUOUS
370
-3
390
F
  0
ENDTAB
  0
TABLE
  2
STYLE
  5
3
100
AcDbSymbolTable
 70
1
  0
STYLE
  5
11
100
AcDbSymbolTableRecord
100
AcDbTextStyleTableRecord
  2
STANDARD
 70
0
 40
0.0
 41
0.8
 50
0.0
 71
0
 42
0.2
  3
txt
  4

  0
STYLE
  5
209
100
AcDbSymbolTableRecord
100
AcDbTextStyleTableRecord
  2
TEXTSTYLE_1
 70
0
 40
0.0
 41
0.8
 50
0.0
 71
0
 42
0.2
  3
gdt
  4

  0
STYLE
  5
20A
100
AcDbSymbolTableRecord
100
AcDbTextStyleTableRecord
  2
TEXTSTYLE_2
 70
0
 40
0.0
 41
1.0
 50
0.0
 71
0
 42
0.2
  3
gdt
  4

  0
STYLE
  5
20B
100
AcDbSymbolTableRecord
100
AcDbTextStyleTableRecord
  2
TEXTSTYLE_3
 70
0
 40
0.0
 41
1.0
 50
0.0
 71
0
 42
0.2
  3
txt
  4

  0
ENDTAB
  0
TABLE
  2
VIEW
  5
6
100
AcDbSymbolTable
 70
0
  0
ENDTAB
  0
TABLE
  2
UCS
  5
7
100
AcDbSymbolTable
 70
0
  0
ENDTAB
  0
TABLE
  2
APPID
  5
9
100
AcDbSymbolTable
 70
1
  0
APPID
  5
20C
100
AcDbSymbolTableRecord
100
AcDbRegAppTableRecord
  2
ACAD
 70
0
  0
ENDTAB
  0
TABLE
  2
BLOCK_RECORD
  5
1
100
AcDbSymbolTable
 70
0
  0
BLOCK_RECORD
  5
20D
100
AcDbSymbolTableRecord
100
AcDbBlockTableRecord
  2
*Model_Space
  0
BLOCK_RECORD
  5
20E
100
AcDbSymbolTableRecord
100
AcDbBlockTableRecord
  2
*Paper_Space
  0
BLOCK_RECORD
  5
20F
100
AcDbSymbolTableRecord
100
AcDbBlockTableRecord
  2
_FILLED
  0
BLOCK_RECORD
  5
210
100
AcDbSymbolTableRecord
100
AcDbBlockTableRecord
  2
*D0
  0
BLOCK_RECORD
  5
211
100
AcDbSymbolTableRecord
100
AcDbBlockTableRecord
  2
*D1
  0
BLOCK_RECORD
  5
212
100
AcDbSymbolTableRecord
100
AcDbBlockTableRecord
  2
TEMPLATE_NUMBER_BL4
  0
BLOCK_RECORD
  5
213
100
AcDbSymbolTableRecord
100
AcDbBlockTableRecord
  2
TEMPLATE_NUMBER_BL3
  0
BLOCK_RECORD
  5
214
100
AcDbSymbolTableRecord
100
AcDbBlockTableRecord
  2
COPYRIGHT_YEAR_BL2
  0
BLOCK_RECORD
  5
215
100
AcDbSymbolTableRecord
100
AcDbBlockTableRecord
  2
KOHLER_BL1
  0
BLOCK_RECORD
  5
216
100
AcDbSymbolTableRecord
100
AcDbBlockTableRecord
  2
SCISSORS_BL0
  0
ENDTAB
  0
TABLE
  2
DIMSTYLE
  5
A
100
AcDbSymbolTable
 70
1
100
AcDbDimStyleTable
 71
0
  0
DIMSTYLE
105
217
100
AcDbSymbolTableRecord
100
AcDbDimStyleTableRecord
  2
STANDARD
 70
0
  3

  4

 40
1.0
 41
0.1875
 42
0.0625
 43
0.38
 44
0.125
 45
0.0
 46
0.0
 47
0.01
 48
0.01
140
0.15625
141
0.09
142
0.0
143
25.4
144
1.0
145
0.0
146
1.0
147
0.09
 71
1
 72
0
 73
1
 74
1
 75
0
 76
0
 77
0
 78
4
 79
1
170
1
171
2
172
0
173
0
174
0
175
0
176
0
177
0
178
0
270
2
179
3
271
3
272
3
273
2
274
2
275
0
280
0
281
0
282
0
283
1
284
4
285
0
286
0
287
3
288
0
340
11
278
46
341
20F
342
20F
343
20F
344
20F
  0
DIMSTYLE
105
218
100
AcDbSymbolTableRecord
100
AcDbDimStyleTableRecord
  2
DIMSTYLE_1
 70
0
  3

  4

 40
1.0
 41
0.1875
 42
0.0625
 43
0.38
 44
0.125
 45
0.0
 46
0.0
 47
0.0000000001
 48
0.0000000001
140
0.15625
141
0.09
142
0.0
143
25.4
144
1.0
145
0.0
146
1.0
147
0.078125
 71
0
 72
0
 73
1
 74
1
 75
0
 76
0
 77
0
 78
4
 79
1
170
1
171
0
172
0
173
0
174
0
175
0
176
0
177
0
178
0
270
2
179
3
271
5
272
1
273
2
274
1
275
0
280
0
281
0
282
0
283
1
284
4
285
0
286
0
287
3
288
0
340
11
278
46
341
20F
342
20F
343
20F
344
20F
  0
DIMSTYLE
105
219
100
AcDbSymbolTableRecord
100
AcDbDimStyleTableRecord
  2
DIMSTYLE_2
 70
0
  3

  4

 40
1.0
 41
0.1875
 42
0.0625
 43
0.38
 44
0.125
 45
0.0
 46
0.0
 47
0.0000000001
 48
0.0000000001
140
0.15625
141
0.09
142
0.0
143
25.4
144
1.0
145
0.0
146
1.0
147
0.078125
 71
0
 72
0
 73
1
 74
1
 75
0
 76
0
 77
0
 78
4
 79
1
170
1
171
0
172
0
173
0
174
0
175
0
176
0
177
0
178
0
270
2
179
3
271
4
272
16
273
2
274
0
275
0
280
0
281
0
282
0
283
1
284
4
285
0
286
0
287
3
288
0
340
11
278
46
341
20F
342
20F
343
20F
344
20F
  0
ENDTAB
  0
ENDSEC
  0
SECTION
  2
BLOCKS
  0
BLOCK
  5
20
100
AcDbEntity
  8
0
100
AcDbBlockBegin
  2
*Model_Space
 70
0
 10
0.0
 20
0.0
 30
0.0
  3
*Model_Space
  1

  0
ENDBLK
  5
21
100
AcDbEntity
  8
0
100
AcDbBlockEnd
  0
BLOCK
  5
1C
100
AcDbEntity
  8
0
100
AcDbBlockBegin
  2
*Paper_Space
 70
0
 10
0.0
 20
0.0
 30
0.0
  3
*Paper_Space
  1

  0
ENDBLK
  5
1D
100
AcDbEntity
  8
0
100
AcDbBlockEnd
  0
BLOCK
  5
21A
100
AcDbEntity
  8
___SYMBOL
100
AcDbBlockBegin
 62
2
  6
CONTINUOUS
  2
TEMPLATE_NUMBER_BL4
 70
64
 10
20.3995691989
 20
3.2720111923
  3
TEMPLATE_NUMBER_BL4
  1

  0
TEXT
  5
21B
100
AcDbEntity
  8
___SYMBOL
100
AcDbText
 62
2
  6
CONTINUOUS
 10
19.7120691989
 20
3.1938861923
  7
STANDARD
 40
0.15625
  1
1551951-7
 41
0.8
 72
0
100
AcDbText
  0
TEXT
  5
21C
100
AcDbEntity
  8
___SYMBOL
100
AcDbText
 62
2
  6
CONTINUOUS
 10
20.8370691989
 20
3.1938861923
  7
STANDARD
 40
0.15625
  1
-B
 41
0.8
 72
0
100
AcDbText
  0
ENDBLK
  5
21D
100
AcDbEntity
  8
0
  6
BYBLOCK
 62
0
100
AcDbBlockEnd
  0
BLOCK
  5
21E
100
AcDbEntity
  8
___SYMBOL
100
AcDbBlockBegin
 62
2
  6
CONTINUOUS
  2
TEMPLATE_NUMBER_BL3
 70
64
 10
20.4470933746
 20
5.8516648712
  3
TEMPLATE_NUMBER_BL3
  1

  0
TEXT
  5
21F
100
AcDbEntity
  8
___SYMBOL
100
AcDbText
 62
2
  6
CONTINUOUS
 10
19.7595933746
 20
5.7735398712
  7
STANDARD
 40
0.15625
  1
1551951-7
 41
0.8
 72
0
100
AcDbText
  0
TEXT
  5
220
100
AcDbEntity
  8
___SYMBOL
100
AcDbText
 62
2
  6
CONTINUOUS
 10
20.8845933746
 20
5.7735398712
  7
STANDARD
 40
0.15625
  1
-B
 41
0.8
 72
0
100
AcDbText
  0
ENDBLK
  5
221
100
AcDbEntity
  8
0
  6
BYBLOCK
 62
0
100
AcDbBlockEnd
  0
BLOCK
  5
222
100
AcDbEntity
  8
___SYMBOL
100
AcDbBlockBegin
 62
2
  6
CONTINUOUS
  2
COPYRIGHT_YEAR_BL2
 70
64
 10
20.1496768307
 20
5.5033908063
  3
COPYRIGHT_YEAR_BL2
  1

  0
TEXT
  5
223
100
AcDbEntity
  8
___SYMBOL
100
AcDbText
 62
2
  6
CONTINUOUS
 10
19.3676886396
 20
5.4233028574
  7
STANDARD
 40
0.15625
  1
2023 KOHLER CO.
 41
0.8
 72
0
100
AcDbText
  0
TEXT
  5
224
100
AcDbEntity
  8
___SYMBOL
100
AcDbText
 62
7
  6
CONTINUOUS
 10
19.1103666406
 20
5.4256316074
  7
TEXTSTYLE_3
 40
0.15625
  1
C
 41
1.0
 72
0
100
AcDbText
  0
CIRCLE
  5
225
100
AcDbEntity
  8
___SYMBOL
100
AcDbCircle
 62
7
  6
CONTINUOUS
 10
19.1890220588
 20
5.5033908063
 40
0.1323570371
  0
ENDBLK
  5
226
100
AcDbEntity
  8
0
  6
BYBLOCK
 62
0
100
AcDbBlockEnd
  0
BLOCK
  5
227
100
AcDbEntity
  8
___SYMBOL
100
AcDbBlockBegin
 62
2
  6
CONTINUOUS
  2
KOHLER_BL1
 70
64
 10
4.7107369768
 20
18.4625644031
  3
KOHLER_BL1
  1

  0
LINE
  5
228
100
AcDbEntity
  8
___SYMBOL
100
AcDbLine
 62
2
  6
CONTINUOUS
 10
3.5602444721
 20
18.7861312052
 11
3.7522589869
 21
18.7861312052
  0
LINE
  5
229
100
AcDbEntity
  8
___SYMBOL
100
AcDbLine
 62
2
  6
CONTINUOUS
 10
3.7522589869
 20
18.7861312052
 11
3.4225142313
 21
18.6223503582
  0
LINE
  5
22A
100
AcDbEntity
  8
___SYMBOL
100
AcDbLine
 62
2
  6
CONTINUOUS
 10
3.4225142313
 20
18.6223503582
 11
3.5602444721
 21
18.7861312052
  0
SOLID
  5
22B
100
AcDbEntity
  8
___SYMBOL
100
AcDbTrace
 62
2
  6
CONTINUOUS
 10
3.5602444721
 20
18.7861312052
 11
3.7522589869
 21
18.7861312052
 12
3.4225142313
 22
18.6223503582
 13
3.4225142313
 23
18.6223503582
  0
LINE
  5
22C
100
AcDbEntity
  8
___SYMBOL
100
AcDbLine
 62
2
  6
CONTINUOUS
 10
3.5390080633
 20
18.5325453958
 11
3.4225142313
 21
18.6223503582
  0
LINE
  5
22D
100
AcDbEntity
  8
___SYMBOL
100
AcDbLine
 62
2
  6
CONTINUOUS
 10
3.4225142313
 20
18.6223503582
 11
3.7522589869
 21
18.7861312052
  0
LINE
  5
22E
100
AcDbEntity
  8
___SYMBOL
100
AcDbLine
 62
2
  6
CONTINUOUS
 10
3.7522589869
 20
18.7861312052
 11
3.5390080633
 21
18.5325453958
  0
SOLID
  5
22F
100
AcDbEntity
  8
___SYMBOL
100
AcDbTrace
 62
2
  6
CONTINUOUS
 10
3.5390080633
 20
18.5325453958
 11
3.4225142313
 21
18.6223503582
 12
3.7522589869
 22
18.7861312052
 13
3.7522589869
 23
18.7861312052
  0
LINE
  5
230
100
AcDbEntity
  8
___SYMBOL
100
AcDbLine
 62
2
  6
CONTINUOUS
 10
3.5390080633
 20
18.5325453958
 11
3.5762143117
 21
18.2003618433
  0
LINE
  5
231
100
AcDbEntity
  8
___SYMBOL
100
AcDbLine
 62
2
  6
CONTINUOUS
 10
3.5762143117
 20
18.2003618433
 11
3.4225142313
 21
18.4018120558
  0
LINE
  5
232
100
AcDbEntity
  8
___SYMBOL
100
AcDbLine
 62
2
  6
CONTINUOUS
 10
3.4225142313
 20
18.4018120558
 11
3.5390080633
 21
18.5325453958
  0
SOLID
  5
233
100
AcDbEntity
  8
___SYMBOL
100
AcDbTrace
 62
2
  6
CONTINUOUS
 10
3.5390080633
 20
18.5325453958
 11
3.5762143117
 21
18.2003618433
 12
3.4225142313
 22
18.4018120558
 13
3.4225142313
 23
18.4018120558
  0
LINE
  5
234
100
AcDbEntity
  8
___SYMBOL
100
AcDbLine
 62
2
  6
CONTINUOUS
 10
3.792453469
 20
18.2003618433
 11
3.5762143117
 21
18.2003618433
  0
LINE
  5
235
100
AcDbEntity
  8
___SYMBOL
100
AcDbLine
 62
2
  6
CONTINUOUS
 10
3.5762143117
 20
18.2003618433
 11
3.5390080633
 21
18.5325453958
  0
LINE
  5
236
100
AcDbEntity
  8
___SYMBOL
100
AcDbLine
 62
2
  6
CONTINUOUS
 10
3.5390080633
 20
18.5325453958
 11
3.792453469
 21
18.2003618433
  0
SOLID
  5
237
100
AcDbEntity
  8
___SYMBOL
100
AcDbTrace
 62
2
  6
CONTINUOUS
 10
3.792453469
 20
18.2003618433
 11
3.5762143117
 21
18.2003618433
 12
3.5390080633
 22
18.5325453958
 13
3.5390080633
 23
18.5325453958
  0
LINE
  5
238
100
AcDbEntity
  8
___SYMBOL
100
AcDbLine
 62
2
  6
CONTINUOUS
 10
3.2480569768
 20
18.2003378457
 11
3.4225142313
 21
18.4018120558
  0
LINE
  5
239
100
AcDbEntity
  8
___SYMBOL
100
AcDbLine
 62
2
  6
CONTINUOUS
 10
3.4225142313
 20
18.4018120558
 11
3.4225142313
 21
18.2003618433
  0
LINE
  5
23A
100
AcDbEntity
  8
___SYMBOL
100
AcDbLine
 62
2
  6
CONTINUOUS
 10
3.4225142313
 20
18.2003618433
 11
3.2480569768
 21
18.2003378457
  0
SOLID
  5
23B
100
AcDbEntity
  8
___SYMBOL
100
AcDbTrace
 62
2
  6
CONTINUOUS
 10
3.2480569768
 20
18.2003378457
 11
3.4225142313
 21
18.4018120558
 12
3.4225142313
 22
18.2003618433
 13
3.4225142313
 23
18.2003618433
  0
LINE
  5
23C
100
AcDbEntity
  8
___SYMBOL
100
AcDbLine
 62
2
  6
CONTINUOUS
 10
3.4225142313
 20
18.4018120558
 11
3.4225142313
 21
18.6223503582
  0
LINE
  5
23D
100
AcDbEntity
  8
___SYMBOL
100
AcDbLine
 62
2
  6
CONTINUOUS
 10
3.4225142313
 20
18.6223503582
 11
3.5390080633
 21
18.5325453958
  0
LINE
  5
23E
100
AcDbEntity
  8
___SYMBOL
100
AcDbLine
 62
2
  6
CONTINUOUS
 10
3.5390080633
 20
18.5325453958
 11
3.4225142313
 21
18.4018120558
  0
SOLID
  5
23F
100
AcDbEntity
  8
___SYMBOL
100
AcDbTrace
 62
2
  6
CONTINUOUS
 10
3.4225142313
 20
18.4018120558
 11
3.4225142313
 21
18.6223503582
 12
3.5390080633
 22
18.5325453958
 13
3.5390080633
 23
18.5325453958
  0
LINE
  5
240
100
AcDbEntity
  8
___SYMBOL
100
AcDbLine
 62
2
  6
CONTINUOUS
 10
3.2480569768
 20
18.2003378457
 11
3.4225142313
 21
18.6223503582
  0
LINE
  5
241
100
AcDbEntity
  8
___SYMBOL
100
AcDbLine
 62
2
  6
CONTINUOUS
 10
3.4225142313
 20
18.6223503582
 11
3.4225142313
 21
18.4018120558
  0
LINE
  5
242
100
AcDbEntity
  8
___SYMBOL
100
AcDbLine
 62
2
  6
CONTINUOUS
 10
3.4225142313
 20
18.4018120558
 11
3.2480569768
 21
18.2003378457
  0
SOLID
  5
243
100
AcDbEntity
  8
___SYMBOL
100
AcDbTrace
 62
2
  6
CONTINUOUS
 10
3.2480569768
 20
18.2003378457
 11
3.4225142313
 21
18.6223503582
 12
3.4225142313
 22
18.4018120558
 13
3.4225142313
 23
18.4018120558
  0
LINE
  5
244
100
AcDbEntity
  8
___SYMBOL
100
AcDbLine
 62
2
  6
CONTINUOUS
 10
3.2480569768
 20
18.2003378457
 11
3.4225142313
 21
18.7861312052
  0
LINE
  5
245
100
AcDbEntity
  8
___SYMBOL
100
AcDbLine
 62
2
  6
CONTINUOUS
 10
3.4225142313
 20
18.7861312052
 11
3.4225142313
 21
18.6223503582
  0
LINE
  5
246
100
AcDbEntity
  8
___SYMBOL
100
AcDbLine
 62
2
  6
CONTINUOUS
 10
3.4225142313
 20
18.6223503582
 11
3.2480569768
 21
18.2003378457
  0
SOLID
  5
247
100
AcDbEntity
  8
___SYMBOL
100
AcDbTrace
 62
2
  6
CONTINUOUS
 10
3.2480569768
 20
18.2003378457
 11
3.4225142313
 21
18.7861312052
 12
3.4225142313
 22
18.6223503582
 13
3.4225142313
 23
18.6223503582
  0
LINE
  5
248
100
AcDbEntity
  8
___SYMBOL
100
AcDbLine
 62
2
  6
CONTINUOUS
 10
3.2480569768
 20
18.7861312052
 11
3.4225142313
 21
18.7861312052
  0
LINE
  5
249
100
AcDbEntity
  8
___SYMBOL
100
AcDbLine
 62
2
  6
CONTINUOUS
 10
3.4225142313
 20
18.7861312052
 11
3.2480569768
 21
18.2003378457
  0
LINE
  5
24A
100
AcDbEntity
  8
___SYMBOL
100
AcDbLine
 62
2
  6
CONTINUOUS
 10
3.2480569768
 20
18.2003378457
 11
3.2480569768
 21
18.7861312052
  0
SOLID
  5
24B
100
AcDbEntity
  8
___SYMBOL
100
AcDbTrace
 62
2
  6
CONTINUOUS
 10
3.2480569768
 20
18.7861312052
 11
3.4225142313
 21
18.7861312052
 12
3.2480569768
 22
18.2003378457
 13
3.2480569768
 23
18.2003378457
  0
LINE
  5
24C
100
AcDbEntity
  8
___SYMBOL
100
AcDbLine
 62
2
  6
CONTINUOUS
 10
3.9377711134
 20
18.7884763568
 11
4.0000665636
 21
18.7884763568
  0
LINE
  5
24D
100
AcDbEntity
  8
___SYMBOL
100
AcDbLine
 62
2
  6
CONTINUOUS
 10
4.0000665636
 20
18.7884763568
 11
3.8768369682
 21
18.7755244044
  0
LINE
  5
24E
100
AcDbEntity
  8
___SYMBOL
100
AcDbLine
 62
2
  6
CONTINUOUS
 10
3.8768369682
 20
18.7755244044
 11
3.9377711134
 21
18.7884763568
  0
SOLID
  5
24F
100
AcDbEntity
  8
___SYMBOL
100
AcDbTrace
 62
2
  6
CONTINUOUS
 10
3.9377711134
 20
18.7884763568
 11
4.0000665636
 21
18.7884763568
 12
3.8768369682
 22
18.7755244044
 13
3.8768369682
 23
18.7755244044
  0
LINE
  5
250
100
AcDbEntity
  8
___SYMBOL
100
AcDbLine
 62
2
  6
CONTINUOUS
 10
4.0610007086
 20
18.7755244044
 11
3.8768369682
 21
18.7755244044
  0
LINE
  5
251
100
AcDbEntity
  8
___SYMBOL
100
AcDbLine
 62
2
  6
CONTINUOUS
 10
3.8768369682
 20
18.7755244044
 11
4.0000665636
 21
18.7884763568
  0
LINE
  5
252
100
AcDbEntity
  8
___SYMBOL
100
AcDbLine
 62
2
  6
CONTINUOUS
 10
4.0000665636
 20
18.7884763568
 11
4.0610007086
 21
18.7755244044
  0
SOLID
  5
253
100
AcDbEntity
  8
___SYMBOL
100
AcDbTrace
 62
2
  6
CONTINUOUS
 10
4.0610007086
 20
18.7755244044
 11
3.8768369682
 21
18.7755244044
 12
4.0000665636
 22
18.7884763568
 13
4.0000665636
 23
18.7884763568
  0
LINE
  5
254
100
AcDbEntity
  8
___SYMBOL
100
AcDbLine
 62
2
  6
CONTINUOUS
 10
3.8768369682
 20
18.7755244044
 11
4.0610007086
 21
18.7755244044
  0
LINE
  5
255
100
AcDbEntity
  8
___SYMBOL
100
AcDbLine
 62
2
  6
CONTINUOUS
 10
4.0610007086
 20
18.7755244044
 11
3.8199272427
 21
18.7501865621
  0
LINE
  5
256
100
AcDbEntity
  8
___SYMBOL
100
AcDbLine
 62
2
  6
CONTINUOUS
 10
3.8199272427
 20
18.7501865621
 11
3.8768369682
 21
18.7755244044
  0
SOLID
  5
257
100
AcDbEntity
  8
___SYMBOL
100
AcDbTrace
 62
2
  6
CONTINUOUS
 10
3.8768369682
 20
18.7755244044
 11
4.0610007086
 21
18.7755244044
 12
3.8199272427
 22
18.7501865621
 13
3.8199272427
 23
18.7501865621
  0
LINE
  5
258
100
AcDbEntity
  8
___SYMBOL
100
AcDbLine
 62
2
  6
CONTINUOUS
 10
4.1179104342
 20
18.7501865621
 11
3.8199272427
 21
18.7501865621
  0
LINE
  5
259
100
AcDbEntity
  8
___SYMBOL
100
AcDbLine
 62
2
  6
CONTINUOUS
 10
3.8199272427
 20
18.7501865621
 11
4.0610007086
 21
18.7755244044
  0
LINE
  5
25A
100
AcDbEntity
  8
___SYMBOL
100
AcDbLine
 62
2
  6
CONTINUOUS
 10
4.0610007086
 20
18.7755244044
 11
4.1179104342
 21
18.7501865621
  0
SOLID
  5
25B
100
AcDbEntity
  8
___SYMBOL
100
AcDbTrace
 62
2
  6
CONTINUOUS
 10
4.1179104342
 20
18.7501865621
 11
3.8199272427
 21
18.7501865621
 12
4.0610007086
 22
18.7755244044
 13
4.0610007086
 23
18.7755244044
  0
LINE
  5
25C
100
AcDbEntity
  8
___SYMBOL
100
AcDbLine
 62
2
  6
CONTINUOUS
 10
3.8199272427
 20
18.7501865621
 11
4.1179104342
 21
18.7501865621
  0
LINE
  5
25D
100
AcDbEntity
  8
___SYMBOL
100
AcDbLine
 62
2
  6
CONTINUOUS
 10
4.1179104342
 20
18.7501865621
 11
3.7695291649
 21
18.7135702153
  0
LINE
  5
25E
100
AcDbEntity
  8
___SYMBOL
100
AcDbLine
 62
2
  6
CONTINUOUS
 10
3.7695291649
 20
18.7135702153
 11
3.8199272427
 21
18.7501865621
  0
SOLID
  5
25F
100
AcDbEntity
  8
___SYMBOL
100
AcDbTrace
 62
2
  6
CONTINUOUS
 10
3.8199272427
 20
18.7501865621
 11
4.1179104342
 21
18.7501865621
 12
3.7695291649
 22
18.7135702153
 13
3.7695291649
 23
18.7135702153
  0
LINE
  5
260
100
AcDbEntity
  8
___SYMBOL
100
AcDbLine
 62
2
  6
CONTINUOUS
 10
4.168308512
 20
18.7135702153
 11
3.7695291649
 21
18.7135702153
  0
LINE
  5
261
100
AcDbEntity
  8
___SYMBOL
100
AcDbLine
 62
2
  6
CONTINUOUS
 10
3.7695291649
 20
18.7135702153
 11
4.1179104342
 21
18.7501865621
  0
LINE
  5
262
100
AcDbEntity
  8
___SYMBOL
100
AcDbLine
 62
2
  6
CONTINUOUS
 10
4.1179104342
 20
18.7501865621
 11
4.168308512
 21
18.7135702153
  0
SOLID
  5
263
100
AcDbEntity
  8
___SYMBOL
100
AcDbTrace
 62
2
  6
CONTINUOUS
 10
4.168308512
 20
18.7135702153
 11
3.7695291649
 21
18.7135702153
 12
4.1179104342
 22
18.7501865621
 13
4.1179104342
 23
18.7501865621
  0
LINE
  5
264
100
AcDbEntity
  8
___SYMBOL
100
AcDbLine
 62
2
  6
CONTINUOUS
 10
3.7695291649
 20
18.7135702153
 11
4.168308512
 21
18.7135702153
  0
LINE
  5
265
100
AcDbEntity
  8
___SYMBOL
100
AcDbLine
 62
2
  6
CONTINUOUS
 10
4.168308512
 20
18.7135702153
 11
3.7278453725
 21
18.6672756738
  0
LINE
  5
266
100
AcDbEntity
  8
___SYMBOL
100
AcDbLine
 62
2
  6
CONTINUOUS
 10
3.7278453725
 20
18.6672756738
 11
3.7695291649
 21
18.7135702153
  0
SOLID
  5
267
100
AcDbEntity
  8
___SYMBOL
100
AcDbTrace
 62
2
  6
CONTINUOUS
 10
3.7695291649
 20
18.7135702153
 11
4.168308512
 21
18.7135702153
 12
3.7278453725
 22
18.6672756738
 13
3.7278453725
 23
18.6672756738
  0
LINE
  5
268
100
AcDbEntity
  8
___SYMBOL
100
AcDbLine
 62
2
  6
CONTINUOUS
 10
4.2099923043
 20
18.6672756738
 11
3.7278453725
 21
18.6672756738
  0
LINE
  5
269
100
AcDbEntity
  8
___SYMBOL
100
AcDbLine
 62
2
  6
CONTINUOUS
 10
3.7278453725
 20
18.6672756738
 11
4.168308512
 21
18.7135702153
  0
LINE
  5
26A
100
AcDbEntity
  8
___SYMBOL
100
AcDbLine
 62
2
  6
CONTINUOUS
 10
4.168308512
 20
18.7135702153
 11
4.2099923043
 21
18.6672756738
  0
SOLID
  5
26B
100
AcDbEntity
  8
___SYMBOL
100
AcDbTrace
 62
2
  6
CONTINUOUS
 10
4.2099923043
 20
18.6672756738
 11
3.7278453725
 21
18.6672756738
 12
4.168308512
 22
18.7135702153
 13
4.168308512
 23
18.7135702153
  0
LINE
  5
26C
100
AcDbEntity
  8
___SYMBOL
100
AcDbLine
 62
2
  6
CONTINUOUS
 10
3.6966976475
 20
18.6133262314
 11
4.2099923043
 21
18.6672756738
  0
LINE
  5
26D
100
AcDbEntity
  8
___SYMBOL
100
AcDbLine
 62
2
  6
CONTINUOUS
 10
4.2099923043
 20
18.6672756738
 11
3.9689188384
 21
18.6168642378
  0
LINE
  5
26E
100
AcDbEntity
  8
___SYMBOL
100
AcDbLine
 62
2
  6
CONTINUOUS
 10
3.9689188384
 20
18.6168642378
 11
3.6966976475
 21
18.6133262314
  0
SOLID
  5
26F
100
AcDbEntity
  8
___SYMBOL
100
AcDbTrace
 62
2
  6
CONTINUOUS
 10
3.6966976475
 20
18.6133262314
 11
4.2099923043
 21
18.6672756738
 12
3.9689188384
 22
18.6168642378
 13
3.9689188384
 23
18.6168642378
  0
LINE
  5
270
100
AcDbEntity
  8
___SYMBOL
100
AcDbLine
 62
2
  6
CONTINUOUS
 10
3.7278453725
 20
18.6672756738
 11
4.2099923043
 21
18.6672756738
  0
LINE
  5
271
100
AcDbEntity
  8
___SYMBOL
100
AcDbLine
 62
2
  6
CONTINUOUS
 10
4.2099923043
 20
18.6672756738
 11
3.6966976475
 21
18.6133262314
  0
LINE
  5
272
100
AcDbEntity
  8
___SYMBOL
100
AcDbLine
 62
2
  6
CONTINUOUS
 10
3.6966976475
 20
18.6133262314
 11
3.7278453725
 21
18.6672756738
  0
SOLID
  5
273
100
AcDbEntity
  8
___SYMBOL
100
AcDbTrace
 62
2
  6
CONTINUOUS
 10
3.7278453725
 20
18.6672756738
 11
4.2099923043
 21
18.6672756738
 12
3.6966976475
 22
18.6133262314
 13
3.6966976475
 23
18.6133262314
  0
LINE
  5
274
100
AcDbEntity
  8
___SYMBOL
100
AcDbLine
 62
2
  6
CONTINUOUS
 10
4.2411400295
 20
18.6133262314
 11
3.9689188384
 21
18.6168642378
  0
LINE
  5
275
100
AcDbEntity
  8
___SYMBOL
100
AcDbLine
 62
2
  6
CONTINUOUS
 10
3.9689188384
 20
18.6168642378
 11
4.2099923043
 21
18.6672756738
  0
LINE
  5
276
100
AcDbEntity
  8
___SYMBOL
100
AcDbLine
 62
2
  6
CONTINUOUS
 10
4.2099923043
 20
18.6672756738
 11
4.2411400295
 21
18.6133262314
  0
SOLID
  5
277
100
AcDbEntity
  8
___SYMBOL
100
AcDbTrace
 62
2
  6
CONTINUOUS
 10
4.2411400295
 20
18.6133262314
 11
3.9689188384
 21
18.6168642378
 12
4.2099923043
 22
18.6672756738
 13
4.2099923043
 23
18.6672756738
  0
LINE
  5
278
100
AcDbEntity
  8
___SYMBOL
100
AcDbLine
 62
2
  6
CONTINUOUS
 10
3.9303724636
 20
18.6107590917
 11
3.6966976475
 21
18.6133262314
  0
LINE
  5
279
100
AcDbEntity
  8
___SYMBOL
100
AcDbLine
 62
2
  6
CONTINUOUS
 10
3.6966976475
 20
18.6133262314
 11
3.9689188384
 21
18.6168642378
  0
LINE
  5
27A
100
AcDbEntity
  8
___SYMBOL
100
AcDbLine
 62
2
  6
CONTINUOUS
 10
3.9689188384
 20
18.6168642378
 11
3.9303724636
 21
18.6107590917
  0
SOLID
  5
27B
100
AcDbEntity
  8
___SYMBOL
100
AcDbTrace
 62
2
  6
CONTINUOUS
 10
3.9303724636
 20
18.6107590917
 11
3.6966976475
 21
18.6133262314
 12
3.9689188384
 22
18.6168642378
 13
3.9689188384
 23
18.6168642378
  0
LINE
  5
27C
100
AcDbEntity
  8
___SYMBOL
100
AcDbLine
 62
2
  6
CONTINUOUS
 10
3.9689188384
 20
18.6168642378
 11
4.2411400295
 21
18.6133262314
  0
LINE
  5
27D
100
AcDbEntity
  8
___SYMBOL
100
AcDbLine
 62
2
  6
CONTINUOUS
 10
4.2411400295
 20
18.6133262314
 11
4.0074652133
 21
18.6107590917
  0
LINE
  5
27E
100
AcDbEntity
  8
___SYMBOL
100
AcDbLine
 62
2
  6
CONTINUOUS
 10
4.0074652133
 20
18.6107590917
 11
3.9689188384
 21
18.6168642378
  0
SOLID
  5
27F
100
AcDbEntity
  8
___SYMBOL
100
AcDbTrace
 62
2
  6
CONTINUOUS
 10
3.9689188384
 20
18.6168642378
 11
4.2411400295
 21
18.6133262314
 12
4.0074652133
 22
18.6107590917
 13
4.0074652133
 23
18.6107590917
  0
LINE
  5
280
100
AcDbEntity
  8
___SYMBOL
100
AcDbLine
 62
2
  6
CONTINUOUS
 10
3.6774472947
 20
18.5540797377
 11
3.8955992765
 21
18.593041268
  0
LINE
  5
281
100
AcDbEntity
  8
___SYMBOL
100
AcDbLine
 62
2
  6
CONTINUOUS
 10
3.8955992765
 20
18.593041268
 11
3.868003119
 21
18.5654451104
  0
LINE
  5
282
100
AcDbEntity
  8
___SYMBOL
100
AcDbLine
 62
2
  6
CONTINUOUS
 10
3.868003119
 20
18.5654451104
 11
3.6774472947
 21
18.5540797377
  0
SOLID
  5
283
100
AcDbEntity
  8
___SYMBOL
100
AcDbTrace
 62
2
  6
CONTINUOUS
 10
3.6774472947
 20
18.5540797377
 11
3.8955992765
 21
18.593041268
 12
3.868003119
 22
18.5654451104
 13
3.868003119
 23
18.5654451104
  0
LINE
  5
284
100
AcDbEntity
  8
___SYMBOL
100
AcDbLine
 62
2
  6
CONTINUOUS
 10
3.6774472947
 20
18.5540797377
 11
3.9303724636
 21
18.6107590917
  0
LINE
  5
285
100
AcDbEntity
  8
___SYMBOL
100
AcDbLine
 62
2
  6
CONTINUOUS
 10
3.9303724636
 20
18.6107590917
 11
3.8955992765
 21
18.593041268
  0
LINE
  5
286
100
AcDbEntity
  8
___SYMBOL
100
AcDbLine
 62
2
  6
CONTINUOUS
 10
3.8955992765
 20
18.593041268
 11
3.6774472947
 21
18.5540797377
  0
SOLID
  5
287
100
AcDbEntity
  8
___SYMBOL
100
AcDbTrace
 62
2
  6
CONTINUOUS
 10
3.6774472947
 20
18.5540797377
 11
3.9303724636
 21
18.6107590917
 12
3.8955992765
 22
18.593041268
 13
3.8955992765
 23
18.593041268
  0
LINE
  5
288
100
AcDbEntity
  8
___SYMBOL
100
AcDbLine
 62
2
  6
CONTINUOUS
 10
3.6966976475
 20
18.6133262314
 11
3.9303724636
 21
18.6107590917
  0
LINE
  5
289
100
AcDbEntity
  8
___SYMBOL
100
AcDbLine
 62
2
  6
CONTINUOUS
 10
3.9303724636
 20
18.6107590917
 11
3.6774472947
 21
18.5540797377
  0
LINE
  5
28A
100
AcDbEntity
  8
___SYMBOL
100
AcDbLine
 62
2
  6
CONTINUOUS
 10
3.6774472947
 20
18.5540797377
 11
3.6966976475
 21
18.6133262314
  0
SOLID
  5
28B
100
AcDbEntity
  8
___SYMBOL
100
AcDbTrace
 62
2
  6
CONTINUOUS
 10
3.6966976475
 20
18.6133262314
 11
3.9303724636
 21
18.6107590917
 12
3.6774472947
 22
18.5540797377
 13
3.6774472947
 23
18.5540797377
  0
LINE
  5
28C
100
AcDbEntity
  8
___SYMBOL
100
AcDbLine
 62
2
  6
CONTINUOUS
 10
4.2411400295
 20
18.6133262314
 11
4.0422384005
 21
18.593041268
  0
LINE
  5
28D
100
AcDbEntity
  8
___SYMBOL
100
AcDbLine
 62
2
  6
CONTINUOUS
 10
4.0422384005
 20
18.593041268
 11
4.0074652133
 21
18.6107590917
  0
LINE
  5
28E
100
AcDbEntity
  8
___SYMBOL
100
AcDbLine
 62
2
  6
CONTINUOUS
 10
4.0074652133
 20
18.6107590917
 11
4.2411400295
 21
18.6133262314
  0
SOLID
  5
28F
100
AcDbEntity
  8
___SYMBOL
100
AcDbTrace
 62
2
  6
CONTINUOUS
 10
4.2411400295
 20
18.6133262314
 11
4.0422384005
 21
18.593041268
 12
4.0074652133
 22
18.6107590917
 13
4.0074652133
 23
18.6107590917
  0
LINE
  5
290
100
AcDbEntity
  8
___SYMBOL
100
AcDbLine
 62
2
  6
CONTINUOUS
 10
4.2411400295
 20
18.6133262314
 11
4.069834558
 21
18.5654451104
  0
LINE
  5
291
100
AcDbEntity
  8
___SYMBOL
100
AcDbLine
 62
2
  6
CONTINUOUS
 10
4.069834558
 20
18.5654451104
 11
4.0422384005
 21
18.593041268
  0
LINE
  5
292
100
AcDbEntity
  8
___SYMBOL
100
AcDbLine
 62
2
  6
CONTINUOUS
 10
4.0422384005
 20
18.593041268
 11
4.2411400295
 21
18.6133262314
  0
SOLID
  5
293
100
AcDbEntity
  8
___SYMBOL
100
AcDbTrace
 62
2
  6
CONTINUOUS
 10
4.2411400295
 20
18.6133262314
 11
4.069834558
 21
18.5654451104
 12
4.0422384005
 22
18.593041268
 13
4.0422384005
 23
18.593041268
  0
LINE
  5
294
100
AcDbEntity
  8
___SYMBOL
100
AcDbLine
 62
2
  6
CONTINUOUS
 10
4.2603903822
 20
18.5540797377
 11
4.069834558
 21
18.5654451104
  0
LINE
  5
295
100
AcDbEntity
  8
___SYMBOL
100
AcDbLine
 62
2
  6
CONTINUOUS
 10
4.069834558
 20
18.5654451104
 11
4.2411400295
 21
18.6133262314
  0
LINE
  5
296
100
AcDbEntity
  8
___SYMBOL
100
AcDbLine
 62
2
  6
CONTINUOUS
 10
4.2411400295
 20
18.6133262314
 11
4.2603903822
 21
18.5540797377
  0
SOLID
  5
297
100
AcDbEntity
  8
___SYMBOL
100
AcDbTrace
 62
2
  6
CONTINUOUS
 10
4.2603903822
 20
18.5540797377
 11
4.069834558
 21
18.5654451104
 12
4.2411400295
 22
18.6133262314
 13
4.2411400295
 23
18.6133262314
  0
LINE
  5
298
100
AcDbEntity
  8
___SYMBOL
100
AcDbLine
 62
2
  6
CONTINUOUS
 10
3.8502852952
 20
18.5306719233
 11
3.6774472947
 21
18.5540797377
  0
LINE
  5
299
100
AcDbEntity
  8
___SYMBOL
100
AcDbLine
 62
2
  6
CONTINUOUS
 10
3.6774472947
 20
18.5540797377
 11
3.868003119
 21
18.5654451104
  0
LINE
  5
29A
100
AcDbEntity
  8
___SYMBOL
100
AcDbLine
 62
2
  6
CONTINUOUS
 10
3.868003119
 20
18.5654451104
 11
3.8502852952
 21
18.5306719233
  0
SOLID
  5
29B
100
AcDbEntity
  8
___SYMBOL
100
AcDbTrace
 62
2
  6
CONTINUOUS
 10
3.8502852952
 20
18.5306719233
 11
3.6774472947
 21
18.5540797377
 12
3.868003119
 22
18.5654451104
 13
3.868003119
 23
18.5654451104
  0
LINE
  5
29C
100
AcDbEntity
  8
___SYMBOL
100
AcDbLine
 62
2
  6
CONTINUOUS
 10
4.069834558
 20
18.5654451104
 11
4.2603903822
 21
18.5540797377
  0
LINE
  5
29D
100
AcDbEntity
  8
___SYMBOL
100
AcDbLine
 62
2
  6
CONTINUOUS
 10
4.2603903822
 20
18.5540797377
 11
4.0875523818
 21
18.5306719233
  0
LINE
  5
29E
100
AcDbEntity
  8
___SYMBOL
100
AcDbLine
 62
2
  6
CONTINUOUS
 10
4.0875523818
 20
18.5306719233
 11
4.069834558
 21
18.5654451104
  0
SOLID
  5
29F
100
AcDbEntity
  8
___SYMBOL
100
AcDbTrace
 62
2
  6
CONTINUOUS
 10
4.069834558
 20
18.5654451104
 11
4.2603903822
 21
18.5540797377
 12
4.0875523818
 22
18.5306719233
 13
4.0875523818
 23
18.5306719233
  0
LINE
  5
2A0
100
AcDbEntity
  8
___SYMBOL
100
AcDbLine
 62
2
  6
CONTINUOUS
 10
3.6774472947
 20
18.5540797377
 11
3.8502852952
 21
18.5306719233
  0
LINE
  5
2A1
100
AcDbEntity
  8
___SYMBOL
100
AcDbLine
 62
2
  6
CONTINUOUS
 10
3.8502852952
 20
18.5306719233
 11
3.670935647
 21
18.4921255485
  0
LINE
  5
2A2
100
AcDbEntity
  8
___SYMBOL
100
AcDbLine
 62
2
  6
CONTINUOUS
 10
3.670935647
 20
18.4921255485
 11
3.6774472947
 21
18.5540797377
  0
SOLID
  5
2A3
100
AcDbEntity
  8
___SYMBOL
100
AcDbTrace
 62
2
  6
CONTINUOUS
 10
3.6774472947
 20
18.5540797377
 11
3.8502852952
 21
18.5306719233
 12
3.670935647
 22
18.4921255485
 13
3.670935647
 23
18.4921255485
  0
LINE
  5
2A4
100
AcDbEntity
  8
___SYMBOL
100
AcDbLine
 62
2
  6
CONTINUOUS
 10
3.8441801492
 20
18.4921255485
 11
3.670935647
 21
18.4921255485
  0
LINE
  5
2A5
100
AcDbEntity
  8
___SYMBOL
100
AcDbLine
 62
2
  6
CONTINUOUS
 10
3.670935647
 20
18.4921255485
 11
3.8502852952
 21
18.5306719233
  0
LINE
  5
2A6
100
AcDbEntity
  8
___SYMBOL
100
AcDbLine
 62
2
  6
CONTINUOUS
 10
3.8502852952
 20
18.5306719233
 11
3.8441801492
 21
18.4921255485
  0
SOLID
  5
2A7
100
AcDbEntity
  8
___SYMBOL
100
AcDbTrace
 62
2
  6
CONTINUOUS
 10
3.8441801492
 20
18.4921255485
 11
3.670935647
 21
18.4921255485
 12
3.8502852952
 22
18.5306719233
 13
3.8502852952
 23
18.5306719233
  0
LINE
  5
2A8
100
AcDbEntity
  8
___SYMBOL
100
AcDbLine
 62
2
  6
CONTINUOUS
 10
4.2603903822
 20
18.5540797377
 11
4.0936575278
 21
18.4921255485
  0
LINE
  5
2A9
100
AcDbEntity
  8
___SYMBOL
100
AcDbLine
 62
2
  6
CONTINUOUS
 10
4.0936575278
 20
18.4921255485
 11
4.0875523818
 21
18.5306719233
  0
LINE
  5
2AA
100
AcDbEntity
  8
___SYMBOL
100
AcDbLine
 62
2
  6
CONTINUOUS
 10
4.0875523818
 20
18.5306719233
 11
4.2603903822
 21
18.5540797377
  0
SOLID
  5
2AB
100
AcDbEntity
  8
___SYMBOL
100
AcDbTrace
 62
2
  6
CONTINUOUS
 10
4.2603903822
 20
18.5540797377
 11
4.0936575278
 21
18.4921255485
 12
4.0875523818
 22
18.5306719233
 13
4.0875523818
 23
18.5306719233
  0
LINE
  5
2AC
100
AcDbEntity
  8
___SYMBOL
100
AcDbLine
 62
2
  6
CONTINUOUS
 10
4.2669020299
 20
18.4921255485
 11
4.0936575278
 21
18.4921255485
  0
LINE
  5
2AD
100
AcDbEntity
  8
___SYMBOL
100
AcDbLine
 62
2
  6
CONTINUOUS
 10
4.0936575278
 20
18.4921255485
 11
4.2603903822
 21
18.5540797377
  0
LINE
  5
2AE
100
AcDbEntity
  8
___SYMBOL
100
AcDbLine
 62
2
  6
CONTINUOUS
 10
4.2603903822
 20
18.5540797377
 11
4.2669020299
 21
18.4921255485
  0
SOLID
  5
2AF
100
AcDbEntity
  8
___SYMBOL
100
AcDbTrace
 62
2
  6
CONTINUOUS
 10
4.2669020299
 20
18.4921255485
 11
4.0936575278
 21
18.4921255485
 12
4.2603903822
 22
18.5540797377
 13
4.2603903822
 23
18.5540797377
  0
LINE
  5
2B0
100
AcDbEntity
  8
___SYMBOL
100
AcDbLine
 62
2
  6
CONTINUOUS
 10
4.0936575278
 20
18.4921255485
 11
4.2669020299
 21
18.4921255485
  0
LINE
  5
2B1
100
AcDbEntity
  8
___SYMBOL
100
AcDbLine
 62
2
  6
CONTINUOUS
 10
4.2669020299
 20
18.4921255485
 11
4.0875523818
 21
18.4535791736
  0
LINE
  5
2B2
100
AcDbEntity
  8
___SYMBOL
100
AcDbLine
 62
2
  6
CONTINUOUS
 10
4.0875523818
 20
18.4535791736
 11
4.0936575278
 21
18.4921255485
  0
SOLID
  5
2B3
100
AcDbEntity
  8
___SYMBOL
100
AcDbTrace
 62
2
  6
CONTINUOUS
 10
4.0936575278
 20
18.4921255485
 11
4.2669020299
 21
18.4921255485
 12
4.0875523818
 22
18.4535791736
 13
4.0875523818
 23
18.4535791736
  0
LINE
  5
2B4
100
AcDbEntity
  8
___SYMBOL
100
AcDbLine
 62
2
  6
CONTINUOUS
 10
3.6774472947
 20
18.4301713593
 11
3.8441801492
 21
18.4921255485
  0
LINE
  5
2B5
100
AcDbEntity
  8
___SYMBOL
100
AcDbLine
 62
2
  6
CONTINUOUS
 10
3.8441801492
 20
18.4921255485
 11
3.8502852952
 21
18.4535791736
  0
LINE
  5
2B6
100
AcDbEntity
  8
___SYMBOL
100
AcDbLine
 62
2
  6
CONTINUOUS
 10
3.8502852952
 20
18.4535791736
 11
3.6774472947
 21
18.4301713593
  0
SOLID
  5
2B7
100
AcDbEntity
  8
___SYMBOL
100
AcDbTrace
 62
2
  6
CONTINUOUS
 10
3.6774472947
 20
18.4301713593
 11
3.8441801492
 21
18.4921255485
 12
3.8502852952
 22
18.4535791736
 13
3.8502852952
 23
18.4535791736
  0
LINE
  5
2B8
100
AcDbEntity
  8
___SYMBOL
100
AcDbLine
 62
2
  6
CONTINUOUS
 10
3.670935647
 20
18.4921255485
 11
3.8441801492
 21
18.4921255485
  0
LINE
  5
2B9
100
AcDbEntity
  8
___SYMBOL
100
AcDbLine
 62
2
  6
CONTINUOUS
 10
3.8441801492
 20
18.4921255485
 11
3.6774472947
 21
18.4301713593
  0
LINE
  5
2BA
100
AcDbEntity
  8
___SYMBOL
100
AcDbLine
 62
2
  6
CONTINUOUS
 10
3.6774472947
 20
18.4301713593
 11
3.670935647
 21
18.4921255485
  0
SOLID
  5
2BB
100
AcDbEntity
  8
___SYMBOL
100
AcDbTrace
 62
2
  6
CONTINUOUS
 10
3.670935647
 20
18.4921255485
 11
3.8441801492
 21
18.4921255485
 12
3.6774472947
 22
18.4301713593
 13
3.6774472947
 23
18.4301713593
  0
LINE
  5
2BC
100
AcDbEntity
  8
___SYMBOL
100
AcDbLine
 62
2
  6
CONTINUOUS
 10
4.2603903822
 20
18.4301713593
 11
4.0875523818
 21
18.4535791736
  0
LINE
  5
2BD
100
AcDbEntity
  8
___SYMBOL
100
AcDbLine
 62
2
  6
CONTINUOUS
 10
4.0875523818
 20
18.4535791736
 11
4.2669020299
 21
18.4921255485
  0
LINE
  5
2BE
100
AcDbEntity
  8
___SYMBOL
100
AcDbLine
 62
2
  6
CONTINUOUS
 10
4.2669020299
 20
18.4921255485
 11
4.2603903822
 21
18.4301713593
  0
SOLID
  5
2BF
100
AcDbEntity
  8
___SYMBOL
100
AcDbTrace
 62
2
  6
CONTINUOUS
 10
4.2603903822
 20
18.4301713593
 11
4.0875523818
 21
18.4535791736
 12
4.2669020299
 22
18.4921255485
 13
4.2669020299
 23
18.4921255485
  0
LINE
  5
2C0
100
AcDbEntity
  8
___SYMBOL
100
AcDbLine
 62
2
  6
CONTINUOUS
 10
3.868003119
 20
18.4188059865
 11
3.6774472947
 21
18.4301713593
  0
LINE
  5
2C1
100
AcDbEntity
  8
___SYMBOL
100
AcDbLine
 62
2
  6
CONTINUOUS
 10
3.6774472947
 20
18.4301713593
 11
3.8502852952
 21
18.4535791736
  0
LINE
  5
2C2
100
AcDbEntity
  8
___SYMBOL
100
AcDbLine
 62
2
  6
CONTINUOUS
 10
3.8502852952
 20
18.4535791736
 11
3.868003119
 21
18.4188059865
  0
SOLID
  5
2C3
100
AcDbEntity
  8
___SYMBOL
100
AcDbTrace
 62
2
  6
CONTINUOUS
 10
3.868003119
 20
18.4188059865
 11
3.6774472947
 21
18.4301713593
 12
3.8502852952
 22
18.4535791736
 13
3.8502852952
 23
18.4535791736
  0
LINE
  5
2C4
100
AcDbEntity
  8
___SYMBOL
100
AcDbLine
 62
2
  6
CONTINUOUS
 10
4.0875523818
 20
18.4535791736
 11
4.2603903822
 21
18.4301713593
  0
LINE
  5
2C5
100
AcDbEntity
  8
___SYMBOL
100
AcDbLine
 62
2
  6
CONTINUOUS
 10
4.2603903822
 20
18.4301713593
 11
4.069834558
 21
18.4188059865
  0
LINE
  5
2C6
100
AcDbEntity
  8
___SYMBOL
100
AcDbLine
 62
2
  6
CONTINUOUS
 10
4.069834558
 20
18.4188059865
 11
4.0875523818
 21
18.4535791736
  0
SOLID
  5
2C7
100
AcDbEntity
  8
___SYMBOL
100
AcDbTrace
 62
2
  6
CONTINUOUS
 10
4.0875523818
 20
18.4535791736
 11
4.2603903822
 21
18.4301713593
 12
4.069834558
 22
18.4188059865
 13
4.069834558
 23
18.4188059865
  0
LINE
  5
2C8
100
AcDbEntity
  8
___SYMBOL
100
AcDbLine
 62
2
  6
CONTINUOUS
 10
3.6966976475
 20
18.3709248655
 11
3.8955992765
 21
18.391209829
  0
LINE
  5
2C9
100
AcDbEntity
  8
___SYMBOL
100
AcDbLine
 62
2
  6
CONTINUOUS
 10
3.8955992765
 20
18.391209829
 11
3.9303724636
 21
18.3734920051
  0
LINE
  5
2CA
100
AcDbEntity
  8
___SYMBOL
100
AcDbLine
 62
2
  6
CONTINUOUS
 10
3.9303724636
 20
18.3734920051
 11
3.6966976475
 21
18.3709248655
  0
SOLID
  5
2CB
100
AcDbEntity
  8
___SYMBOL
100
AcDbTrace
 62
2
  6
CONTINUOUS
 10
3.6966976475
 20
18.3709248655
 11
3.8955992765
 21
18.391209829
 12
3.9303724636
 22
18.3734920051
 13
3.9303724636
 23
18.3734920051
  0
LINE
  5
2CC
100
AcDbEntity
  8
___SYMBOL
100
AcDbLine
 62
2
  6
CONTINUOUS
 10
3.6966976475
 20
18.3709248655
 11
3.868003119
 21
18.4188059865
  0
LINE
  5
2CD
100
AcDbEntity
  8
___SYMBOL
100
AcDbLine
 62
2
  6
CONTINUOUS
 10
3.868003119
 20
18.4188059865
 11
3.8955992765
 21
18.391209829
  0
LINE
  5
2CE
100
AcDbEntity
  8
___SYMBOL
100
AcDbLine
 62
2
  6
CONTINUOUS
 10
3.8955992765
 20
18.391209829
 11
3.6966976475
 21
18.3709248655
  0
SOLID
  5
2CF
100
AcDbEntity
  8
___SYMBOL
100
AcDbTrace
 62
2
  6
CONTINUOUS
 10
3.6966976475
 20
18.3709248655
 11
3.868003119
 21
18.4188059865
 12
3.8955992765
 22
18.391209829
 13
3.8955992765
 23
18.391209829
  0
LINE
  5
2D0
100
AcDbEntity
  8
___SYMBOL
100
AcDbLine
 62
2
  6
CONTINUOUS
 10
3.6774472947
 20
18.4301713593
 11
3.868003119
 21
18.4188059865
  0
LINE
  5
2D1
100
AcDbEntity
  8
___SYMBOL
100
AcDbLine
 62
2
  6
CONTINUOUS
 10
3.868003119
 20
18.4188059865
 11
3.6966976475
 21
18.3709248655
  0
LINE
  5
2D2
100
AcDbEntity
  8
___SYMBOL
100
AcDbLine
 62
2
  6
CONTINUOUS
 10
3.6966976475
 20
18.3709248655
 11
3.6774472947
 21
18.4301713593
  0
SOLID
  5
2D3
100
AcDbEntity
  8
___SYMBOL
100
AcDbTrace
 62
2
  6
CONTINUOUS
 10
3.6774472947
 20
18.4301713593
 11
3.868003119
 21
18.4188059865
 12
3.6966976475
 22
18.3709248655
 13
3.6966976475
 23
18.3709248655
  0
LINE
  5
2D4
100
AcDbEntity
  8
___SYMBOL
100
AcDbLine
 62
2
  6
CONTINUOUS
 10
4.2603903822
 20
18.4301713593
 11
4.0422384005
 21
18.391209829
  0
LINE
  5
2D5
100
AcDbEntity
  8
___SYMBOL
100
AcDbLine
 62
2
  6
CONTINUOUS
 10
4.0422384005
 20
18.391209829
 11
4.069834558
 21
18.4188059865
  0
LINE
  5
2D6
100
AcDbEntity
  8
___SYMBOL
100
AcDbLine
 62
2
  6
CONTINUOUS
 10
4.069834558
 20
18.4188059865
 11
4.2603903822
 21
18.4301713593
  0
SOLID
  5
2D7
100
AcDbEntity
  8
___SYMBOL
100
AcDbTrace
 62
2
  6
CONTINUOUS
 10
4.2603903822
 20
18.4301713593
 11
4.0422384005
 21
18.391209829
 12
4.069834558
 22
18.4188059865
 13
4.069834558
 23
18.4188059865
  0
LINE
  5
2D8
100
AcDbEntity
  8
___SYMBOL
100
AcDbLine
 62
2
  6
CONTINUOUS
 10
4.2603903822
 20
18.4301713593
 11
4.0074652133
 21
18.3734920051
  0
LINE
  5
2D9
100
AcDbEntity
  8
___SYMBOL
100
AcDbLine
 62
2
  6
CONTINUOUS
 10
4.0074652133
 20
18.3734920051
 11
4.0422384005
 21
18.391209829
  0
LINE
  5
2DA
100
AcDbEntity
  8
___SYMBOL
100
AcDbLine
 62
2
  6
CONTINUOUS
 10
4.0422384005
 20
18.391209829
 11
4.2603903822
 21
18.4301713593
  0
SOLID
  5
2DB
100
AcDbEntity
  8
___SYMBOL
100
AcDbTrace
 62
2
  6
CONTINUOUS
 10
4.2603903822
 20
18.4301713593
 11
4.0074652133
 21
18.3734920051
 12
4.0422384005
 22
18.391209829
 13
4.0422384005
 23
18.391209829
  0
LINE
  5
2DC
100
AcDbEntity
  8
___SYMBOL
100
AcDbLine
 62
2
  6
CONTINUOUS
 10
4.2411400295
 20
18.3709248655
 11
4.0074652133
 21
18.3734920051
  0
LINE
  5
2DD
100
AcDbEntity
  8
___SYMBOL
100
AcDbLine
 62
2
  6
CONTINUOUS
 10
4.0074652133
 20
18.3734920051
 11
4.2603903822
 21
18.4301713593
  0
LINE
  5
2DE
100
AcDbEntity
  8
___SYMBOL
100
AcDbLine
 62
2
  6
CONTINUOUS
 10
4.2603903822
 20
18.4301713593
 11
4.2411400295
 21
18.3709248655
  0
SOLID
  5
2DF
100
AcDbEntity
  8
___SYMBOL
100
AcDbTrace
 62
2
  6
CONTINUOUS
 10
4.2411400295
 20
18.3709248655
 11
4.0074652133
 21
18.3734920051
 12
4.2603903822
 22
18.4301713593
 13
4.2603903822
 23
18.4301713593
  0
LINE
  5
2E0
100
AcDbEntity
  8
___SYMBOL
100
AcDbLine
 62
2
  6
CONTINUOUS
 10
3.9689188384
 20
18.3673868592
 11
3.6966976475
 21
18.3709248655
  0
LINE
  5
2E1
100
AcDbEntity
  8
___SYMBOL
100
AcDbLine
 62
2
  6
CONTINUOUS
 10
3.6966976475
 20
18.3709248655
 11
3.9303724636
 21
18.3734920051
  0
LINE
  5
2E2
100
AcDbEntity
  8
___SYMBOL
100
AcDbLine
 62
2
  6
CONTINUOUS
 10
3.9303724636
 20
18.3734920051
 11
3.9689188384
 21
18.3673868592
  0
SOLID
  5
2E3
100
AcDbEntity
  8
___SYMBOL
100
AcDbTrace
 62
2
  6
CONTINUOUS
 10
3.9689188384
 20
18.3673868592
 11
3.6966976475
 21
18.3709248655
 12
3.9303724636
 22
18.3734920051
 13
3.9303724636
 23
18.3734920051
  0
LINE
  5
2E4
100
AcDbEntity
  8
___SYMBOL
100
AcDbLine
 62
2
  6
CONTINUOUS
 10
4.0074652133
 20
18.3734920051
 11
4.2411400295
 21
18.3709248655
  0
LINE
  5
2E5
100
AcDbEntity
  8
___SYMBOL
100
AcDbLine
 62
2
  6
CONTINUOUS
 10
4.2411400295
 20
18.3709248655
 11
3.9689188384
 21
18.3673868592
  0
LINE
  5
2E6
100
AcDbEntity
  8
___SYMBOL
100
AcDbLine
 62
2
  6
CONTINUOUS
 10
3.9689188384
 20
18.3673868592
 11
4.0074652133
 21
18.3734920051
  0
SOLID
  5
2E7
100
AcDbEntity
  8
___SYMBOL
100
AcDbTrace
 62
2
  6
CONTINUOUS
 10
4.0074652133
 20
18.3734920051
 11
4.2411400295
 21
18.3709248655
 12
3.9689188384
 22
18.3673868592
 13
3.9689188384
 23
18.3673868592
  0
LINE
  5
2E8
100
AcDbEntity
  8
___SYMBOL
100
AcDbLine
 62
2
  6
CONTINUOUS
 10
3.6966976475
 20
18.3709248655
 11
3.9689188384
 21
18.3673868592
  0
LINE
  5
2E9
100
AcDbEntity
  8
___SYMBOL
100
AcDbLine
 62
2
  6
CONTINUOUS
 10
3.9689188384
 20
18.3673868592
 11
3.7278453725
 21
18.3169754232
  0
LINE
  5
2EA
100
AcDbEntity
  8
___SYMBOL
100
AcDbLine
 62
2
  6
CONTINUOUS
 10
3.7278453725
 20
18.3169754232
 11
3.6966976475
 21
18.3709248655
  0
SOLID
  5
2EB
100
AcDbEntity
  8
___SYMBOL
100
AcDbTrace
 62
2
  6
CONTINUOUS
 10
3.6966976475
 20
18.3709248655
 11
3.9689188384
 21
18.3673868592
 12
3.7278453725
 22
18.3169754232
 13
3.7278453725
 23
18.3169754232
  0
LINE
  5
2EC
100
AcDbEntity
  8
___SYMBOL
100
AcDbLine
 62
2
  6
CONTINUOUS
 10
4.2411400295
 20
18.3709248655
 11
3.7278453725
 21
18.3169754232
  0
LINE
  5
2ED
100
AcDbEntity
  8
___SYMBOL
100
AcDbLine
 62
2
  6
CONTINUOUS
 10
3.7278453725
 20
18.3169754232
 11
3.9689188384
 21
18.3673868592
  0
LINE
  5
2EE
100
AcDbEntity
  8
___SYMBOL
100
AcDbLine
 62
2
  6
CONTINUOUS
 10
3.9689188384
 20
18.3673868592
 11
4.2411400295
 21
18.3709248655
  0
SOLID
  5
2EF
100
AcDbEntity
  8
___SYMBOL
100
AcDbTrace
 62
2
  6
CONTINUOUS
 10
4.2411400295
 20
18.3709248655
 11
3.7278453725
 21
18.3169754232
 12
3.9689188384
 22
18.3673868592
 13
3.9689188384
 23
18.3673868592
  0
LINE
  5
2F0
100
AcDbEntity
  8
___SYMBOL
100
AcDbLine
 62
2
  6
CONTINUOUS
 10
4.2099923043
 20
18.3169754232
 11
3.7278453725
 21
18.3169754232
  0
LINE
  5
2F1
100
AcDbEntity
  8
___SYMBOL
100
AcDbLine
 62
2
  6
CONTINUOUS
 10
3.7278453725
 20
18.3169754232
 11
4.2411400295
 21
18.3709248655
  0
LINE
  5
2F2
100
AcDbEntity
  8
___SYMBOL
100
AcDbLine
 62
2
  6
CONTINUOUS
 10
4.2411400295
 20
18.3709248655
 11
4.2099923043
 21
18.3169754232
  0
SOLID
  5
2F3
100
AcDbEntity
  8
___SYMBOL
100
AcDbTrace
 62
2
  6
CONTINUOUS
 10
4.2099923043
 20
18.3169754232
 11
3.7278453725
 21
18.3169754232
 12
4.2411400295
 22
18.3709248655
 13
4.2411400295
 23
18.3709248655
  0
LINE
  5
2F4
100
AcDbEntity
  8
___SYMBOL
100
AcDbLine
 62
2
  6
CONTINUOUS
 10
3.7278453725
 20
18.3169754232
 11
4.2099923043
 21
18.3169754232
  0
LINE
  5
2F5
100
AcDbEntity
  8
___SYMBOL
100
AcDbLine
 62
2
  6
CONTINUOUS
 10
4.2099923043
 20
18.3169754232
 11
3.7695291649
 21
18.2706808817
  0
LINE
  5
2F6
100
AcDbEntity
  8
___SYMBOL
100
AcDbLine
 62
2
  6
CONTINUOUS
 10
3.7695291649
 20
18.2706808817
 11
3.7278453725
 21
18.3169754232
  0
SOLID
  5
2F7
100
AcDbEntity
  8
___SYMBOL
100
AcDbTrace
 62
2
  6
CONTINUOUS
 10
3.7278453725
 20
18.3169754232
 11
4.2099923043
 21
18.3169754232
 12
3.7695291649
 22
18.2706808817
 13
3.7695291649
 23
18.2706808817
  0
LINE
  5
2F8
100
AcDbEntity
  8
___SYMBOL
100
AcDbLine
 62
2
  6
CONTINUOUS
 10
4.168308512
 20
18.2706808817
 11
3.7695291649
 21
18.2706808817
  0
LINE
  5
2F9
100
AcDbEntity
  8
___SYMBOL
100
AcDbLine
 62
2
  6
CONTINUOUS
 10
3.7695291649
 20
18.2706808817
 11
4.2099923043
 21
18.3169754232
  0
LINE
  5
2FA
100
AcDbEntity
  8
___SYMBOL
100
AcDbLine
 62
2
  6
CONTINUOUS
 10
4.2099923043
 20
18.3169754232
 11
4.168308512
 21
18.2706808817
  0
SOLID
  5
2FB
100
AcDbEntity
  8
___SYMBOL
100
AcDbTrace
 62
2
  6
CONTINUOUS
 10
4.168308512
 20
18.2706808817
 11
3.7695291649
 21
18.2706808817
 12
4.2099923043
 22
18.3169754232
 13
4.2099923043
 23
18.3169754232
  0
LINE
  5
2FC
100
AcDbEntity
  8
___SYMBOL
100
AcDbLine
 62
2
  6
CONTINUOUS
 10
3.7695291649
 20
18.2706808817
 11
4.168308512
 21
18.2706808817
  0
LINE
  5
2FD
100
AcDbEntity
  8
___SYMBOL
100
AcDbLine
 62
2
  6
CONTINUOUS
 10
4.168308512
 20
18.2706808817
 11
3.8199272427
 21
18.2340645348
  0
LINE
  5
2FE
100
AcDbEntity
  8
___SYMBOL
100
AcDbLine
 62
2
  6
CONTINUOUS
 10
3.8199272427
 20
18.2340645348
 11
3.7695291649
 21
18.2706808817
  0
SOLID
  5
2FF
100
AcDbEntity
  8
___SYMBOL
100
AcDbTrace
 62
2
  6
CONTINUOUS
 10
3.7695291649
 20
18.2706808817
 11
4.168308512
 21
18.2706808817
 12
3.8199272427
 22
18.2340645348
 13
3.8199272427
 23
18.2340645348
  0
LINE
  5
300
100
AcDbEntity
  8
___SYMBOL
100
AcDbLine
 62
2
  6
CONTINUOUS
 10
4.1179104342
 20
18.2340645348
 11
3.8199272427
 21
18.2340645348
  0
LINE
  5
301
100
AcDbEntity
  8
___SYMBOL
100
AcDbLine
 62
2
  6
CONTINUOUS
 10
3.8199272427
 20
18.2340645348
 11
4.168308512
 21
18.2706808817
  0
LINE
  5
302
100
AcDbEntity
  8
___SYMBOL
100
AcDbLine
 62
2
  6
CONTINUOUS
 10
4.168308512
 20
18.2706808817
 11
4.1179104342
 21
18.2340645348
  0
SOLID
  5
303
100
AcDbEntity
  8
___SYMBOL
100
AcDbTrace
 62
2
  6
CONTINUOUS
 10
4.1179104342
 20
18.2340645348
 11
3.8199272427
 21
18.2340645348
 12
4.168308512
 22
18.2706808817
 13
4.168308512
 23
18.2706808817
  0
LINE
  5
304
100
AcDbEntity
  8
___SYMBOL
100
AcDbLine
 62
2
  6
CONTINUOUS
 10
3.8199272427
 20
18.2340645348
 11
4.1179104342
 21
18.2340645348
  0
LINE
  5
305
100
AcDbEntity
  8
___SYMBOL
100
AcDbLine
 62
2
  6
CONTINUOUS
 10
4.1179104342
 20
18.2340645348
 11
3.8768369682
 21
18.2087266925
  0
LINE
  5
306
100
AcDbEntity
  8
___SYMBOL
100
AcDbLine
 62
2
  6
CONTINUOUS
 10
3.8768369682
 20
18.2087266925
 11
3.8199272427
 21
18.2340645348
  0
SOLID
  5
307
100
AcDbEntity
  8
___SYMBOL
100
AcDbTrace
 62
2
  6
CONTINUOUS
 10
3.8199272427
 20
18.2340645348
 11
4.1179104342
 21
18.2340645348
 12
3.8768369682
 22
18.2087266925
 13
3.8768369682
 23
18.2087266925
  0
LINE
  5
308
100
AcDbEntity
  8
___SYMBOL
100
AcDbLine
 62
2
  6
CONTINUOUS
 10
4.0610007086
 20
18.2087266925
 11
3.8768369682
 21
18.2087266925
  0
LINE
  5
309
100
AcDbEntity
  8
___SYMBOL
100
AcDbLine
 62
2
  6
CONTINUOUS
 10
3.8768369682
 20
18.2087266925
 11
4.1179104342
 21
18.2340645348
  0
LINE
  5
30A
100
AcDbEntity
  8
___SYMBOL
100
AcDbLine
 62
2
  6
CONTINUOUS
 10
4.1179104342
 20
18.2340645348
 11
4.0610007086
 21
18.2087266925
  0
SOLID
  5
30B
100
AcDbEntity
  8
___SYMBOL
100
AcDbTrace
 62
2
  6
CONTINUOUS
 10
4.0610007086
 20
18.2087266925
 11
3.8768369682
 21
18.2087266925
 12
4.1179104342
 22
18.2340645348
 13
4.1179104342
 23
18.2340645348
  0
LINE
  5
30C
100
AcDbEntity
  8
___SYMBOL
100
AcDbLine
 62
2
  6
CONTINUOUS
 10
3.8768369682
 20
18.2087266925
 11
4.0610007086
 21
18.2087266925
  0
LINE
  5
30D
100
AcDbEntity
  8
___SYMBOL
100
AcDbLine
 62
2
  6
CONTINUOUS
 10
4.0610007086
 20
18.2087266925
 11
3.9377711134
 21
18.1957747402
  0
LINE
  5
30E
100
AcDbEntity
  8
___SYMBOL
100
AcDbLine
 62
2
  6
CONTINUOUS
 10
3.9377711134
 20
18.1957747402
 11
3.8768369682
 21
18.2087266925
  0
SOLID
  5
30F
100
AcDbEntity
  8
___SYMBOL
100
AcDbTrace
 62
2
  6
CONTINUOUS
 10
3.8768369682
 20
18.2087266925
 11
4.0610007086
 21
18.2087266925
 12
3.9377711134
 22
18.1957747402
 13
3.9377711134
 23
18.1957747402
  0
LINE
  5
310
100
AcDbEntity
  8
___SYMBOL
100
AcDbLine
 62
2
  6
CONTINUOUS
 10
4.0000665636
 20
18.1957747402
 11
3.9377711134
 21
18.1957747402
  0
LINE
  5
311
100
AcDbEntity
  8
___SYMBOL
100
AcDbLine
 62
2
  6
CONTINUOUS
 10
3.9377711134
 20
18.1957747402
 11
4.0610007086
 21
18.2087266925
  0
LINE
  5
312
100
AcDbEntity
  8
___SYMBOL
100
AcDbLine
 62
2
  6
CONTINUOUS
 10
4.0610007086
 20
18.2087266925
 11
4.0000665636
 21
18.1957747402
  0
SOLID
  5
313
100
AcDbEntity
  8
___SYMBOL
100
AcDbTrace
 62
2
  6
CONTINUOUS
 10
4.0000665636
 20
18.1957747402
 11
3.9377711134
 21
18.1957747402
 12
4.0610007086
 22
18.2087266925
 13
4.0610007086
 23
18.2087266925
  0
LINE
  5
314
100
AcDbEntity
  8
___SYMBOL
100
AcDbLine
 62
2
  6
CONTINUOUS
 10
4.5966665403
 20
18.7861312052
 11
4.7613596527
 21
18.7861312052
  0
LINE
  5
315
100
AcDbEntity
  8
___SYMBOL
100
AcDbLine
 62
2
  6
CONTINUOUS
 10
4.7613596527
 20
18.7861312052
 11
4.5966665403
 21
18.5658017174
  0
LINE
  5
316
100
AcDbEntity
  8
___SYMBOL
100
AcDbLine
 62
2
  6
CONTINUOUS
 10
4.5966665403
 20
18.5658017174
 11
4.5966665403
 21
18.7861312052
  0
SOLID
  5
317
100
AcDbEntity
  8
___SYMBOL
100
AcDbTrace
 62
2
  6
CONTINUOUS
 10
4.5966665403
 20
18.7861312052
 11
4.7613596527
 21
18.7861312052
 12
4.5966665403
 22
18.5658017174
 13
4.5966665403
 23
18.5658017174
  0
LINE
  5
318
100
AcDbEntity
  8
___SYMBOL
100
AcDbLine
 62
2
  6
CONTINUOUS
 10
4.448706175
 20
18.4286302257
 11
4.448706175
 21
18.5658017174
  0
LINE
  5
319
100
AcDbEntity
  8
___SYMBOL
100
AcDbLine
 62
2
  6
CONTINUOUS
 10
4.448706175
 20
18.5658017174
 11
4.5966665403
 21
18.5658017174
  0
LINE
  5
31A
100
AcDbEntity
  8
___SYMBOL
100
AcDbLine
 62
2
  6
CONTINUOUS
 10
4.5966665403
 20
18.5658017174
 11
4.448706175
 21
18.4286302257
  0
SOLID
  5
31B
100
AcDbEntity
  8
___SYMBOL
100
AcDbTrace
 62
2
  6
CONTINUOUS
 10
4.448706175
 20
18.4286302257
 11
4.448706175
 21
18.5658017174
 12
4.5966665403
 22
18.5658017174
 13
4.5966665403
 23
18.5658017174
  0
LINE
  5
31C
100
AcDbEntity
  8
___SYMBOL
100
AcDbLine
 62
2
  6
CONTINUOUS
 10
4.2840130625
 20
18.2003618433
 11
4.448706175
 21
18.5658017174
  0
LINE
  5
31D
100
AcDbEntity
  8
___SYMBOL
100
AcDbLine
 62
2
  6
CONTINUOUS
 10
4.448706175
 20
18.5658017174
 11
4.448706175
 21
18.4286302257
  0
LINE
  5
31E
100
AcDbEntity
  8
___SYMBOL
100
AcDbLine
 62
2
  6
CONTINUOUS
 10
4.448706175
 20
18.4286302257
 11
4.2840130625
 21
18.2003618433
  0
SOLID
  5
31F
100
AcDbEntity
  8
___SYMBOL
100
AcDbTrace
 62
2
  6
CONTINUOUS
 10
4.2840130625
 20
18.2003618433
 11
4.448706175
 21
18.5658017174
 12
4.448706175
 22
18.4286302257
 13
4.448706175
 23
18.4286302257
  0
LINE
  5
320
100
AcDbEntity
  8
___SYMBOL
100
AcDbLine
 62
2
  6
CONTINUOUS
 10
4.2840130625
 20
18.2003618433
 11
4.448706175
 21
18.7861312052
  0
LINE
  5
321
100
AcDbEntity
  8
___SYMBOL
100
AcDbLine
 62
2
  6
CONTINUOUS
 10
4.448706175
 20
18.7861312052
 11
4.448706175
 21
18.5658017174
  0
LINE
  5
322
100
AcDbEntity
  8
___SYMBOL
100
AcDbLine
 62
2
  6
CONTINUOUS
 10
4.448706175
 20
18.5658017174
 11
4.2840130625
 21
18.2003618433
  0
SOLID
  5
323
100
AcDbEntity
  8
___SYMBOL
100
AcDbTrace
 62
2
  6
CONTINUOUS
 10
4.2840130625
 20
18.2003618433
 11
4.448706175
 21
18.7861312052
 12
4.448706175
 22
18.5658017174
 13
4.448706175
 23
18.5658017174
  0
LINE
  5
324
100
AcDbEntity
  8
___SYMBOL
100
AcDbLine
 62
2
  6
CONTINUOUS
 10
4.2840130625
 20
18.7861312052
 11
4.448706175
 21
18.7861312052
  0
LINE
  5
325
100
AcDbEntity
  8
___SYMBOL
100
AcDbLine
 62
2
  6
CONTINUOUS
 10
4.448706175
 20
18.7861312052
 11
4.2840130625
 21
18.2003618433
  0
LINE
  5
326
100
AcDbEntity
  8
___SYMBOL
100
AcDbLine
 62
2
  6
CONTINUOUS
 10
4.2840130625
 20
18.2003618433
 11
4.2840130625
 21
18.7861312052
  0
SOLID
  5
327
100
AcDbEntity
  8
___SYMBOL
100
AcDbTrace
 62
2
  6
CONTINUOUS
 10
4.2840130625
 20
18.7861312052
 11
4.448706175
 21
18.7861312052
 12
4.2840130625
 22
18.2003618433
 13
4.2840130625
 23
18.2003618433
  0
LINE
  5
328
100
AcDbEntity
  8
___SYMBOL
100
AcDbLine
 62
2
  6
CONTINUOUS
 10
4.448706175
 20
18.2003618433
 11
4.2840130625
 21
18.2003618433
  0
LINE
  5
329
100
AcDbEntity
  8
___SYMBOL
100
AcDbLine
 62
2
  6
CONTINUOUS
 10
4.2840130625
 20
18.2003618433
 11
4.448706175
 21
18.4286302257
  0
LINE
  5
32A
100
AcDbEntity
  8
___SYMBOL
100
AcDbLine
 62
2
  6
CONTINUOUS
 10
4.448706175
 20
18.4286302257
 11
4.448706175
 21
18.2003618433
  0
SOLID
  5
32B
100
AcDbEntity
  8
___SYMBOL
100
AcDbTrace
 62
2
  6
CONTINUOUS
 10
4.448706175
 20
18.2003618433
 11
4.2840130625
 21
18.2003618433
 12
4.448706175
 22
18.4286302257
 13
4.448706175
 23
18.4286302257
  0
LINE
  5
32C
100
AcDbEntity
  8
___SYMBOL
100
AcDbLine
 62
2
  6
CONTINUOUS
 10
4.5966665403
 20
18.5658017174
 11
4.5966665403
 21
18.4286302257
  0
LINE
  5
32D
100
AcDbEntity
  8
___SYMBOL
100
AcDbLine
 62
2
  6
CONTINUOUS
 10
4.5966665403
 20
18.4286302257
 11
4.448706175
 21
18.4286302257
  0
LINE
  5
32E
100
AcDbEntity
  8
___SYMBOL
100
AcDbLine
 62
2
  6
CONTINUOUS
 10
4.448706175
 20
18.4286302257
 11
4.5966665403
 21
18.5658017174
  0
SOLID
  5
32F
100
AcDbEntity
  8
___SYMBOL
100
AcDbTrace
 62
2
  6
CONTINUOUS
 10
4.5966665403
 20
18.5658017174
 11
4.5966665403
 21
18.4286302257
 12
4.448706175
 22
18.4286302257
 13
4.448706175
 23
18.4286302257
  0
LINE
  5
330
100
AcDbEntity
  8
___SYMBOL
100
AcDbLine
 62
2
  6
CONTINUOUS
 10
4.7613596527
 20
18.7861312052
 11
4.5966665403
 21
18.4286302257
  0
LINE
  5
331
100
AcDbEntity
  8
___SYMBOL
100
AcDbLine
 62
2
  6
CONTINUOUS
 10
4.5966665403
 20
18.4286302257
 11
4.5966665403
 21
18.5658017174
  0
LINE
  5
332
100
AcDbEntity
  8
___SYMBOL
100
AcDbLine
 62
2
  6
CONTINUOUS
 10
4.5966665403
 20
18.5658017174
 11
4.7613596527
 21
18.7861312052
  0
SOLID
  5
333
100
AcDbEntity
  8
___SYMBOL
100
AcDbTrace
 62
2
  6
CONTINUOUS
 10
4.7613596527
 20
18.7861312052
 11
4.5966665403
 21
18.4286302257
 12
4.5966665403
 22
18.5658017174
 13
4.5966665403
 23
18.5658017174
  0
LINE
  5
334
100
AcDbEntity
  8
___SYMBOL
100
AcDbLine
 62
2
  6
CONTINUOUS
 10
4.7613596527
 20
18.7861312052
 11
4.5966665403
 21
18.2003618433
  0
LINE
  5
335
100
AcDbEntity
  8
___SYMBOL
100
AcDbLine
 62
2
  6
CONTINUOUS
 10
4.5966665403
 20
18.2003618433
 11
4.5966665403
 21
18.4286302257
  0
LINE
  5
336
100
AcDbEntity
  8
___SYMBOL
100
AcDbLine
 62
2
  6
CONTINUOUS
 10
4.5966665403
 20
18.4286302257
 11
4.7613596527
 21
18.7861312052
  0
SOLID
  5
337
100
AcDbEntity
  8
___SYMBOL
100
AcDbTrace
 62
2
  6
CONTINUOUS
 10
4.7613596527
 20
18.7861312052
 11
4.5966665403
 21
18.2003618433
 12
4.5966665403
 22
18.4286302257
 13
4.5966665403
 23
18.4286302257
  0
LINE
  5
338
100
AcDbEntity
  8
___SYMBOL
100
AcDbLine
 62
2
  6
CONTINUOUS
 10
4.7613596527
 20
18.2003618433
 11
4.5966665403
 21
18.2003618433
  0
LINE
  5
339
100
AcDbEntity
  8
___SYMBOL
100
AcDbLine
 62
2
  6
CONTINUOUS
 10
4.5966665403
 20
18.2003618433
 11
4.7613596527
 21
18.7861312052
  0
LINE
  5
33A
100
AcDbEntity
  8
___SYMBOL
100
AcDbLine
 62
2
  6
CONTINUOUS
 10
4.7613596527
 20
18.7861312052
 11
4.7613596527
 21
18.2003618433
  0
SOLID
  5
33B
100
AcDbEntity
  8
___SYMBOL
100
AcDbTrace
 62
2
  6
CONTINUOUS
 10
4.7613596527
 20
18.2003618433
 11
4.5966665403
 21
18.2003618433
 12
4.7613596527
 22
18.7861312052
 13
4.7613596527
 23
18.7861312052
  0
LINE
  5
33C
100
AcDbEntity
  8
___SYMBOL
100
AcDbLine
 62
2
  6
CONTINUOUS
 10
4.8063934041
 20
18.2003618433
 11
4.9564025165
 21
18.3415538218
  0
LINE
  5
33D
100
AcDbEntity
  8
___SYMBOL
100
AcDbLine
 62
2
  6
CONTINUOUS
 10
4.9564025165
 20
18.3415538218
 11
5.1190465237
 21
18.3415538218
  0
LINE
  5
33E
100
AcDbEntity
  8
___SYMBOL
100
AcDbLine
 62
2
  6
CONTINUOUS
 10
5.1190465237
 20
18.3415538218
 11
4.8063934041
 21
18.2003618433
  0
SOLID
  5
33F
100
AcDbEntity
  8
___SYMBOL
100
AcDbTrace
 62
2
  6
CONTINUOUS
 10
4.8063934041
 20
18.2003618433
 11
4.9564025165
 21
18.3415538218
 12
5.1190465237
 22
18.3415538218
 13
5.1190465237
 23
18.3415538218
  0
LINE
  5
340
100
AcDbEntity
  8
___SYMBOL
100
AcDbLine
 62
2
  6
CONTINUOUS
 10
4.8063934041
 20
18.2003618433
 11
4.9564025165
 21
18.7861312052
  0
LINE
  5
341
100
AcDbEntity
  8
___SYMBOL
100
AcDbLine
 62
2
  6
CONTINUOUS
 10
4.9564025165
 20
18.7861312052
 11
4.9564025165
 21
18.3415538218
  0
LINE
  5
342
100
AcDbEntity
  8
___SYMBOL
100
AcDbLine
 62
2
  6
CONTINUOUS
 10
4.9564025165
 20
18.3415538218
 11
4.8063934041
 21
18.2003618433
  0
SOLID
  5
343
100
AcDbEntity
  8
___SYMBOL
100
AcDbTrace
 62
2
  6
CONTINUOUS
 10
4.8063934041
 20
18.2003618433
 11
4.9564025165
 21
18.7861312052
 12
4.9564025165
 22
18.3415538218
 13
4.9564025165
 23
18.3415538218
  0
LINE
  5
344
100
AcDbEntity
  8
___SYMBOL
100
AcDbLine
 62
2
  6
CONTINUOUS
 10
4.8063934041
 20
18.7861312052
 11
4.9564025165
 21
18.7861312052
  0
LINE
  5
345
100
AcDbEntity
  8
___SYMBOL
100
AcDbLine
 62
2
  6
CONTINUOUS
 10
4.9564025165
 20
18.7861312052
 11
4.8063934041
 21
18.2003618433
  0
LINE
  5
346
100
AcDbEntity
  8
___SYMBOL
100
AcDbLine
 62
2
  6
CONTINUOUS
 10
4.8063934041
 20
18.2003618433
 11
4.8063934041
 21
18.7861312052
  0
SOLID
  5
347
100
AcDbEntity
  8
___SYMBOL
100
AcDbTrace
 62
2
  6
CONTINUOUS
 10
4.8063934041
 20
18.7861312052
 11
4.9564025165
 21
18.7861312052
 12
4.8063934041
 22
18.2003618433
 13
4.8063934041
 23
18.2003618433
  0
LINE
  5
348
100
AcDbEntity
  8
___SYMBOL
100
AcDbLine
 62
2
  6
CONTINUOUS
 10
5.1190465237
 20
18.3415538218
 11
4.9564025165
 21
18.2003618433
  0
LINE
  5
349
100
AcDbEntity
  8
___SYMBOL
100
AcDbLine
 62
2
  6
CONTINUOUS
 10
4.9564025165
 20
18.2003618433
 11
4.8063934041
 21
18.2003618433
  0
LINE
  5
34A
100
AcDbEntity
  8
___SYMBOL
100
AcDbLine
 62
2
  6
CONTINUOUS
 10
4.8063934041
 20
18.2003618433
 11
5.1190465237
 21
18.3415538218
  0
SOLID
  5
34B
100
AcDbEntity
  8
___SYMBOL
100
AcDbTrace
 62
2
  6
CONTINUOUS
 10
5.1190465237
 20
18.3415538218
 11
4.9564025165
 21
18.2003618433
 12
4.8063934041
 22
18.2003618433
 13
4.8063934041
 23
18.2003618433
  0
LINE
  5
34C
100
AcDbEntity
  8
___SYMBOL
100
AcDbLine
 62
2
  6
CONTINUOUS
 10
5.1190465237
 20
18.2003618433
 11
4.9564025165
 21
18.2003618433
  0
LINE
  5
34D
100
AcDbEntity
  8
___SYMBOL
100
AcDbLine
 62
2
  6
CONTINUOUS
 10
4.9564025165
 20
18.2003618433
 11
5.1190465237
 21
18.3415538218
  0
LINE
  5
34E
100
AcDbEntity
  8
___SYMBOL
100
AcDbLine
 62
2
  6
CONTINUOUS
 10
5.1190465237
 20
18.3415538218
 11
5.1190465237
 21
18.2003618433
  0
SOLID
  5
34F
100
AcDbEntity
  8
___SYMBOL
100
AcDbTrace
 62
2
  6
CONTINUOUS
 10
5.1190465237
 20
18.2003618433
 11
4.9564025165
 21
18.2003618433
 12
5.1190465237
 22
18.3415538218
 13
5.1190465237
 23
18.3415538218
  0
LINE
  5
350
100
AcDbEntity
  8
___SYMBOL
100
AcDbLine
 62
2
  6
CONTINUOUS
 10
5.4572151397
 20
18.6434069645
 11
5.3063947666
 21
18.6434069645
  0
LINE
  5
351
100
AcDbEntity
  8
___SYMBOL
100
AcDbLine
 62
2
  6
CONTINUOUS
 10
5.3063947666
 20
18.6434069645
 11
5.4572151397
 21
18.7861312052
  0
LINE
  5
352
100
AcDbEntity
  8
___SYMBOL
100
AcDbLine
 62
2
  6
CONTINUOUS
 10
5.4572151397
 20
18.7861312052
 11
5.4572151397
 21
18.6434069645
  0
SOLID
  5
353
100
AcDbEntity
  8
___SYMBOL
100
AcDbTrace
 62
2
  6
CONTINUOUS
 10
5.4572151397
 20
18.6434069645
 11
5.3063947666
 21
18.6434069645
 12
5.4572151397
 22
18.7861312052
 13
5.4572151397
 23
18.7861312052
  0
LINE
  5
354
100
AcDbEntity
  8
___SYMBOL
100
AcDbLine
 62
2
  6
CONTINUOUS
 10
5.4572151397
 20
18.4214556713
 11
5.3063947666
 21
18.4214556713
  0
LINE
  5
355
100
AcDbEntity
  8
___SYMBOL
100
AcDbLine
 62
2
  6
CONTINUOUS
 10
5.3063947666
 20
18.4214556713
 11
5.4572151397
 21
18.5658017174
  0
LINE
  5
356
100
AcDbEntity
  8
___SYMBOL
100
AcDbLine
 62
2
  6
CONTINUOUS
 10
5.4572151397
 20
18.5658017174
 11
5.4572151397
 21
18.4214556713
  0
SOLID
  5
357
100
AcDbEntity
  8
___SYMBOL
100
AcDbTrace
 62
2
  6
CONTINUOUS
 10
5.4572151397
 20
18.4214556713
 11
5.3063947666
 21
18.4214556713
 12
5.4572151397
 22
18.5658017174
 13
5.4572151397
 23
18.5658017174
  0
LINE
  5
358
100
AcDbEntity
  8
___SYMBOL
100
AcDbLine
 62
2
  6
CONTINUOUS
 10
5.1481870845
 20
18.2003618433
 11
5.3063947666
 21
18.3415538218
  0
LINE
  5
359
100
AcDbEntity
  8
___SYMBOL
100
AcDbLine
 62
2
  6
CONTINUOUS
 10
5.3063947666
 20
18.3415538218
 11
5.4572151397
 21
18.3415538218
  0
LINE
  5
35A
100
AcDbEntity
  8
___SYMBOL
100
AcDbLine
 62
2
  6
CONTINUOUS
 10
5.4572151397
 20
18.3415538218
 11
5.1481870845
 21
18.2003618433
  0
SOLID
  5
35B
100
AcDbEntity
  8
___SYMBOL
100
AcDbTrace
 62
2
  6
CONTINUOUS
 10
5.1481870845
 20
18.2003618433
 11
5.3063947666
 21
18.3415538218
 12
5.4572151397
 22
18.3415538218
 13
5.4572151397
 23
18.3415538218
  0
LINE
  5
35C
100
AcDbEntity
  8
___SYMBOL
100
AcDbLine
 62
2
  6
CONTINUOUS
 10
5.1481870845
 20
18.2003618433
 11
5.3063947666
 21
18.4214556713
  0
LINE
  5
35D
100
AcDbEntity
  8
___SYMBOL
100
AcDbLine
 62
2
  6
CONTINUOUS
 10
5.3063947666
 20
18.4214556713
 11
5.3063947666
 21
18.3415538218
  0
LINE
  5
35E
100
AcDbEntity
  8
___SYMBOL
100
AcDbLine
 62
2
  6
CONTINUOUS
 10
5.3063947666
 20
18.3415538218
 11
5.1481870845
 21
18.2003618433
  0
SOLID
  5
35F
100
AcDbEntity
  8
___SYMBOL
100
AcDbTrace
 62
2
  6
CONTINUOUS
 10
5.1481870845
 20
18.2003618433
 11
5.3063947666
 21
18.4214556713
 12
5.3063947666
 22
18.3415538218
 13
5.3063947666
 23
18.3415538218
  0
LINE
  5
360
100
AcDbEntity
  8
___SYMBOL
100
AcDbLine
 62
2
  6
CONTINUOUS
 10
5.3063947666
 20
18.4214556713
 11
5.3063947666
 21
18.5658017174
  0
LINE
  5
361
100
AcDbEntity
  8
___SYMBOL
100
AcDbLine
 62
2
  6
CONTINUOUS
 10
5.3063947666
 20
18.5658017174
 11
5.4572151397
 21
18.5658017174
  0
LINE
  5
362
100
AcDbEntity
  8
___SYMBOL
100
AcDbLine
 62
2
  6
CONTINUOUS
 10
5.4572151397
 20
18.5658017174
 11
5.3063947666
 21
18.4214556713
  0
SOLID
  5
363
100
AcDbEntity
  8
___SYMBOL
100
AcDbTrace
 62
2
  6
CONTINUOUS
 10
5.3063947666
 20
18.4214556713
 11
5.3063947666
 21
18.5658017174
 12
5.4572151397
 22
18.5658017174
 13
5.4572151397
 23
18.5658017174
  0
LINE
  5
364
100
AcDbEntity
  8
___SYMBOL
100
AcDbLine
 62
2
  6
CONTINUOUS
 10
5.1481870845
 20
18.2003618433
 11
5.3063947666
 21
18.5658017174
  0
LINE
  5
365
100
AcDbEntity
  8
___SYMBOL
100
AcDbLine
 62
2
  6
CONTINUOUS
 10
5.3063947666
 20
18.5658017174
 11
5.3063947666
 21
18.4214556713
  0
LINE
  5
366
100
AcDbEntity
  8
___SYMBOL
100
AcDbLine
 62
2
  6
CONTINUOUS
 10
5.3063947666
 20
18.4214556713
 11
5.1481870845
 21
18.2003618433
  0
SOLID
  5
367
100
AcDbEntity
  8
___SYMBOL
100
AcDbTrace
 62
2
  6
CONTINUOUS
 10
5.1481870845
 20
18.2003618433
 11
5.3063947666
 21
18.5658017174
 12
5.3063947666
 22
18.4214556713
 13
5.3063947666
 23
18.4214556713
  0
LINE
  5
368
100
AcDbEntity
  8
___SYMBOL
100
AcDbLine
 62
2
  6
CONTINUOUS
 10
5.1481870845
 20
18.2003618433
 11
5.3063947666
 21
18.6434069645
  0
LINE
  5
369
100
AcDbEntity
  8
___SYMBOL
100
AcDbLine
 62
2
  6
CONTINUOUS
 10
5.3063947666
 20
18.6434069645
 11
5.3063947666
 21
18.5658017174
  0
LINE
  5
36A
100
AcDbEntity
  8
___SYMBOL
100
AcDbLine
 62
2
  6
CONTINUOUS
 10
5.3063947666
 20
18.5658017174
 11
5.1481870845
 21
18.2003618433
  0
SOLID
  5
36B
100
AcDbEntity
  8
___SYMBOL
100
AcDbTrace
 62
2
  6
CONTINUOUS
 10
5.1481870845
 20
18.2003618433
 11
5.3063947666
 21
18.6434069645
 12
5.3063947666
 22
18.5658017174
 13
5.3063947666
 23
18.5658017174
  0
LINE
  5
36C
100
AcDbEntity
  8
___SYMBOL
100
AcDbLine
 62
2
  6
CONTINUOUS
 10
5.3063947666
 20
18.6434069645
 11
5.3205955919
 21
18.7861312052
  0
LINE
  5
36D
100
AcDbEntity
  8
___SYMBOL
100
AcDbLine
 62
2
  6
CONTINUOUS
 10
5.3205955919
 20
18.7861312052
 11
5.4572151397
 21
18.7861312052
  0
LINE
  5
36E
100
AcDbEntity
  8
___SYMBOL
100
AcDbLine
 62
2
  6
CONTINUOUS
 10
5.4572151397
 20
18.7861312052
 11
5.3063947666
 21
18.6434069645
  0
SOLID
  5
36F
100
AcDbEntity
  8
___SYMBOL
100
AcDbTrace
 62
2
  6
CONTINUOUS
 10
5.3063947666
 20
18.6434069645
 11
5.3205955919
 21
18.7861312052
 12
5.4572151397
 22
18.7861312052
 13
5.4572151397
 23
18.7861312052
  0
LINE
  5
370
100
AcDbEntity
  8
___SYMBOL
100
AcDbLine
 62
2
  6
CONTINUOUS
 10
5.1481870845
 20
18.2003618433
 11
5.3205955919
 21
18.7861312052
  0
LINE
  5
371
100
AcDbEntity
  8
___SYMBOL
100
AcDbLine
 62
2
  6
CONTINUOUS
 10
5.3205955919
 20
18.7861312052
 11
5.3063947666
 21
18.6434069645
  0
LINE
  5
372
100
AcDbEntity
  8
___SYMBOL
100
AcDbLine
 62
2
  6
CONTINUOUS
 10
5.3063947666
 20
18.6434069645
 11
5.1481870845
 21
18.2003618433
  0
SOLID
  5
373
100
AcDbEntity
  8
___SYMBOL
100
AcDbTrace
 62
2
  6
CONTINUOUS
 10
5.1481870845
 20
18.2003618433
 11
5.3205955919
 21
18.7861312052
 12
5.3063947666
 22
18.6434069645
 13
5.3063947666
 23
18.6434069645
  0
LINE
  5
374
100
AcDbEntity
  8
___SYMBOL
100
AcDbLine
 62
2
  6
CONTINUOUS
 10
5.1481870845
 20
18.7861312052
 11
5.3205955919
 21
18.7861312052
  0
LINE
  5
375
100
AcDbEntity
  8
___SYMBOL
100
AcDbLine
 62
2
  6
CONTINUOUS
 10
5.3205955919
 20
18.7861312052
 11
5.1481870845
 21
18.2003618433
  0
LINE
  5
376
100
AcDbEntity
  8
___SYMBOL
100
AcDbLine
 62
2
  6
CONTINUOUS
 10
5.1481870845
 20
18.2003618433
 11
5.1481870845
 21
18.7861312052
  0
SOLID
  5
377
100
AcDbEntity
  8
___SYMBOL
100
AcDbTrace
 62
2
  6
CONTINUOUS
 10
5.1481870845
 20
18.7861312052
 11
5.3205955919
 21
18.7861312052
 12
5.1481870845
 22
18.2003618433
 13
5.1481870845
 23
18.2003618433
  0
LINE
  5
378
100
AcDbEntity
  8
___SYMBOL
100
AcDbLine
 62
2
  6
CONTINUOUS
 10
5.4572151397
 20
18.2003618433
 11
5.1481870845
 21
18.2003618433
  0
LINE
  5
379
100
AcDbEntity
  8
___SYMBOL
100
AcDbLine
 62
2
  6
CONTINUOUS
 10
5.1481870845
 20
18.2003618433
 11
5.4572151397
 21
18.3415538218
  0
LINE
  5
37A
100
AcDbEntity
  8
___SYMBOL
100
AcDbLine
 62
2
  6
CONTINUOUS
 10
5.4572151397
 20
18.3415538218
 11
5.4572151397
 21
18.2003618433
  0
SOLID
  5
37B
100
AcDbEntity
  8
___SYMBOL
100
AcDbTrace
 62
2
  6
CONTINUOUS
 10
5.4572151397
 20
18.2003618433
 11
5.1481870845
 21
18.2003618433
 12
5.4572151397
 22
18.3415538218
 13
5.4572151397
 23
18.3415538218
  0
LINE
  5
37C
100
AcDbEntity
  8
___SYMBOL
100
AcDbLine
 62
2
  6
CONTINUOUS
 10
5.7824359699
 20
18.7797296392
 11
5.502024317
 21
18.7861312052
  0
LINE
  5
37D
100
AcDbEntity
  8
___SYMBOL
100
AcDbLine
 62
2
  6
CONTINUOUS
 10
5.502024317
 20
18.7861312052
 11
5.735514504
 21
18.786138309
  0
LINE
  5
37E
100
AcDbEntity
  8
___SYMBOL
100
AcDbLine
 62
2
  6
CONTINUOUS
 10
5.735514504
 20
18.786138309
 11
5.7824359699
 21
18.7797296392
  0
SOLID
  5
37F
100
AcDbEntity
  8
___SYMBOL
100
AcDbTrace
 62
2
  6
CONTINUOUS
 10
5.7824359699
 20
18.7797296392
 11
5.502024317
 21
18.7861312052
 12
5.735514504
 22
18.786138309
 13
5.735514504
 23
18.786138309
  0
LINE
  5
380
100
AcDbEntity
  8
___SYMBOL
100
AcDbLine
 62
2
  6
CONTINUOUS
 10
5.9065202447
 20
18.6482156789
 11
5.7085591471
 21
18.6435874834
  0
LINE
  5
381
100
AcDbEntity
  8
___SYMBOL
100
AcDbLine
 62
2
  6
CONTINUOUS
 10
5.7085591471
 20
18.6435874834
 11
5.6526430389
 21
18.6435874834
  0
LINE
  5
382
100
AcDbEntity
  8
___SYMBOL
100
AcDbLine
 62
2
  6
CONTINUOUS
 10
5.6526430389
 20
18.6435874834
 11
5.9065202447
 21
18.6482156789
  0
SOLID
  5
383
100
AcDbEntity
  8
___SYMBOL
100
AcDbTrace
 62
2
  6
CONTINUOUS
 10
5.9065202447
 20
18.6482156789
 11
5.7085591471
 21
18.6435874834
 12
5.6526430389
 22
18.6435874834
 13
5.6526430389
 23
18.6435874834
  0
LINE
  5
384
100
AcDbEntity
  8
___SYMBOL
100
AcDbLine
 62
2
  6
CONTINUOUS
 10
5.9065202447
 20
18.6482156789
 11
5.7322758868
 21
18.6380546778
  0
LINE
  5
385
100
AcDbEntity
  8
___SYMBOL
100
AcDbLine
 62
2
  6
CONTINUOUS
 10
5.7322758868
 20
18.6380546778
 11
5.7085591471
 21
18.6435874834
  0
LINE
  5
386
100
AcDbEntity
  8
___SYMBOL
100
AcDbLine
 62
2
  6
CONTINUOUS
 10
5.7085591471
 20
18.6435874834
 11
5.9065202447
 21
18.6482156789
  0
SOLID
  5
387
100
AcDbEntity
  8
___SYMBOL
100
AcDbTrace
 62
2
  6
CONTINUOUS
 10
5.9065202447
 20
18.6482156789
 11
5.7322758868
 21
18.6380546778
 12
5.7085591471
 22
18.6435874834
 13
5.7085591471
 23
18.6435874834
  0
LINE
  5
388
100
AcDbEntity
  8
___SYMBOL
100
AcDbLine
 62
2
  6
CONTINUOUS
 10
5.9065202447
 20
18.6482156789
 11
5.7510962385
 21
18.62259861
  0
LINE
  5
389
100
AcDbEntity
  8
___SYMBOL
100
AcDbLine
 62
2
  6
CONTINUOUS
 10
5.7510962385
 20
18.62259861
 11
5.7322758868
 21
18.6380546778
  0
LINE
  5
38A
100
AcDbEntity
  8
___SYMBOL
100
AcDbLine
 62
2
  6
CONTINUOUS
 10
5.7322758868
 20
18.6380546778
 11
5.9065202447
 21
18.6482156789
  0
SOLID
  5
38B
100
AcDbEntity
  8
___SYMBOL
100
AcDbTrace
 62
2
  6
CONTINUOUS
 10
5.9065202447
 20
18.6482156789
 11
5.7510962385
 21
18.62259861
 12
5.7322758868
 22
18.6380546778
 13
5.7322758868
 23
18.6380546778
  0
LINE
  5
38C
100
AcDbEntity
  8
___SYMBOL
100
AcDbLine
 62
2
  6
CONTINUOUS
 10
5.9101925865
 20
18.60100118
 11
5.7510962385
 21
18.62259861
  0
LINE
  5
38D
100
AcDbEntity
  8
___SYMBOL
100
AcDbLine
 62
2
  6
CONTINUOUS
 10
5.7510962385
 20
18.62259861
 11
5.9065202447
 21
18.6482156789
  0
LINE
  5
38E
100
AcDbEntity
  8
___SYMBOL
100
AcDbLine
 62
2
  6
CONTINUOUS
 10
5.9065202447
 20
18.6482156789
 11
5.9101925865
 21
18.60100118
  0
SOLID
  5
38F
100
AcDbEntity
  8
___SYMBOL
100
AcDbTrace
 62
2
  6
CONTINUOUS
 10
5.9101925865
 20
18.60100118
 11
5.7510962385
 21
18.62259861
 12
5.9065202447
 22
18.6482156789
 13
5.9065202447
 23
18.6482156789
  0
LINE
  5
390
100
AcDbEntity
  8
___SYMBOL
100
AcDbLine
 62
2
  6
CONTINUOUS
 10
5.7510962385
 20
18.62259861
 11
5.9101925865
 21
18.60100118
  0
LINE
  5
391
100
AcDbEntity
  8
___SYMBOL
100
AcDbLine
 62
2
  6
CONTINUOUS
 10
5.9101925865
 20
18.60100118
 11
5.7611347044
 21
18.6004102149
  0
LINE
  5
392
100
AcDbEntity
  8
___SYMBOL
100
AcDbLine
 62
2
  6
CONTINUOUS
 10
5.7611347044
 20
18.6004102149
 11
5.7510962385
 21
18.62259861
  0
SOLID
  5
393
100
AcDbEntity
  8
___SYMBOL
100
AcDbTrace
 62
2
  6
CONTINUOUS
 10
5.7510962385
 20
18.62259861
 11
5.9101925865
 21
18.60100118
 12
5.7611347044
 22
18.6004102149
 13
5.7611347044
 23
18.6004102149
  0
LINE
  5
394
100
AcDbEntity
  8
___SYMBOL
100
AcDbLine
 62
2
  6
CONTINUOUS
 10
5.9101925865
 20
18.60100118
 11
5.7603188237
 21
18.5760703296
  0
LINE
  5
395
100
AcDbEntity
  8
___SYMBOL
100
AcDbLine
 62
2
  6
CONTINUOUS
 10
5.7603188237
 20
18.5760703296
 11
5.7611347044
 21
18.6004102149
  0
LINE
  5
396
100
AcDbEntity
  8
___SYMBOL
100
AcDbLine
 62
2
  6
CONTINUOUS
 10
5.7611347044
 20
18.6004102149
 11
5.9101925865
 21
18.60100118
  0
SOLID
  5
397
100
AcDbEntity
  8
___SYMBOL
100
AcDbTrace
 62
2
  6
CONTINUOUS
 10
5.9101925865
 20
18.60100118
 11
5.7603188237
 21
18.5760703296
 12
5.7611347044
 22
18.6004102149
 13
5.7611347044
 23
18.6004102149
  0
LINE
  5
398
100
AcDbEntity
  8
___SYMBOL
100
AcDbLine
 62
2
  6
CONTINUOUS
 10
5.9101925865
 20
18.60100118
 11
5.7488170365
 21
18.5546039706
  0
LINE
  5
399
100
AcDbEntity
  8
___SYMBOL
100
AcDbLine
 62
2
  6
CONTINUOUS
 10
5.7488170365
 20
18.5546039706
 11
5.7603188237
 21
18.5760703296
  0
LINE
  5
39A
100
AcDbEntity
  8
___SYMBOL
100
AcDbLine
 62
2
  6
CONTINUOUS
 10
5.7603188237
 20
18.5760703296
 11
5.9101925865
 21
18.60100118
  0
SOLID
  5
39B
100
AcDbEntity
  8
___SYMBOL
100
AcDbTrace
 62
2
  6
CONTINUOUS
 10
5.9101925865
 20
18.60100118
 11
5.7488170365
 21
18.5546039706
 12
5.7603188237
 22
18.5760703296
 13
5.7603188237
 23
18.5760703296
  0
LINE
  5
39C
100
AcDbEntity
  8
___SYMBOL
100
AcDbLine
 62
2
  6
CONTINUOUS
 10
5.9010692302
 20
18.5545311964
 11
5.7488170365
 21
18.5546039706
  0
LINE
  5
39D
100
AcDbEntity
  8
___SYMBOL
100
AcDbLine
 62
2
  6
CONTINUOUS
 10
5.7488170365
 20
18.5546039706
 11
5.9101925865
 21
18.60100118
  0
LINE
  5
39E
100
AcDbEntity
  8
___SYMBOL
100
AcDbLine
 62
2
  6
CONTINUOUS
 10
5.9101925865
 20
18.60100118
 11
5.9010692302
 21
18.5545311964
  0
SOLID
  5
39F
100
AcDbEntity
  8
___SYMBOL
100
AcDbTrace
 62
2
  6
CONTINUOUS
 10
5.9010692302
 20
18.5545311964
 11
5.7488170365
 21
18.5546039706
 12
5.9101925865
 22
18.60100118
 13
5.9101925865
 23
18.60100118
  0
LINE
  5
3A0
100
AcDbEntity
  8
___SYMBOL
100
AcDbLine
 62
2
  6
CONTINUOUS
 10
5.7488170365
 20
18.5546039706
 11
5.9010692302
 21
18.5545311964
  0
LINE
  5
3A1
100
AcDbEntity
  8
___SYMBOL
100
AcDbLine
 62
2
  6
CONTINUOUS
 10
5.9010692302
 20
18.5545311964
 11
5.7290039091
 21
18.5404429093
  0
LINE
  5
3A2
100
AcDbEntity
  8
___SYMBOL
100
AcDbLine
 62
2
  6
CONTINUOUS
 10
5.7290039091
 20
18.5404429093
 11
5.7488170365
 21
18.5546039706
  0
SOLID
  5
3A3
100
AcDbEntity
  8
___SYMBOL
100
AcDbTrace
 62
2
  6
CONTINUOUS
 10
5.7488170365
 20
18.5546039706
 11
5.9010692302
 21
18.5545311964
 12
5.7290039091
 22
18.5404429093
 13
5.7290039091
 23
18.5404429093
  0
LINE
  5
3A4
100
AcDbEntity
  8
___SYMBOL
100
AcDbLine
 62
2
  6
CONTINUOUS
 10
5.9010692302
 20
18.5545311964
 11
5.7049698999
 21
18.5365107242
  0
LINE
  5
3A5
100
AcDbEntity
  8
___SYMBOL
100
AcDbLine
 62
2
  6
CONTINUOUS
 10
5.7049698999
 20
18.5365107242
 11
5.7290039091
 21
18.5404429093
  0
LINE
  5
3A6
100
AcDbEntity
  8
___SYMBOL
100
AcDbLine
 62
2
  6
CONTINUOUS
 10
5.7290039091
 20
18.5404429093
 11
5.9010692302
 21
18.5545311964
  0
SOLID
  5
3A7
100
AcDbEntity
  8
___SYMBOL
100
AcDbTrace
 62
2
  6
CONTINUOUS
 10
5.9010692302
 20
18.5545311964
 11
5.7049698999
 21
18.5365107242
 12
5.7290039091
 22
18.5404429093
 13
5.7290039091
 23
18.5404429093
  0
LINE
  5
3A8
100
AcDbEntity
  8
___SYMBOL
100
AcDbLine
 62
2
  6
CONTINUOUS
 10
5.879818489
 20
18.5122097953
 11
5.7049698999
 21
18.5365107242
  0
LINE
  5
3A9
100
AcDbEntity
  8
___SYMBOL
100
AcDbLine
 62
2
  6
CONTINUOUS
 10
5.7049698999
 20
18.5365107242
 11
5.9010692302
 21
18.5545311964
  0
LINE
  5
3AA
100
AcDbEntity
  8
___SYMBOL
100
AcDbLine
 62
2
  6
CONTINUOUS
 10
5.9010692302
 20
18.5545311964
 11
5.879818489
 21
18.5122097953
  0
SOLID
  5
3AB
100
AcDbEntity
  8
___SYMBOL
100
AcDbTrace
 62
2
  6
CONTINUOUS
 10
5.879818489
 20
18.5122097953
 11
5.7049698999
 21
18.5365107242
 12
5.9010692302
 22
18.5545311964
 13
5.9010692302
 23
18.5545311964
  0
LINE
  5
3AC
100
AcDbEntity
  8
___SYMBOL
100
AcDbLine
 62
2
  6
CONTINUOUS
 10
5.6526430389
 20
18.3972697115
 11
5.8479970442
 21
18.4771371471
  0
LINE
  5
3AD
100
AcDbEntity
  8
___SYMBOL
100
AcDbLine
 62
2
  6
CONTINUOUS
 10
5.8479970442
 20
18.4771371471
 11
5.8079359128
 21
18.4518824296
  0
LINE
  5
3AE
100
AcDbEntity
  8
___SYMBOL
100
AcDbLine
 62
2
  6
CONTINUOUS
 10
5.8079359128
 20
18.4518824296
 11
5.6526430389
 21
18.3972697115
  0
SOLID
  5
3AF
100
AcDbEntity
  8
___SYMBOL
100
AcDbTrace
 62
2
  6
CONTINUOUS
 10
5.6526430389
 20
18.3972697115
 11
5.8479970442
 21
18.4771371471
 12
5.8079359128
 22
18.4518824296
 13
5.8079359128
 23
18.4518824296
  0
LINE
  5
3B0
100
AcDbEntity
  8
___SYMBOL
100
AcDbLine
 62
2
  6
CONTINUOUS
 10
5.6526430389
 20
18.3972697115
 11
5.879818489
 21
18.5122097953
  0
LINE
  5
3B1
100
AcDbEntity
  8
___SYMBOL
100
AcDbLine
 62
2
  6
CONTINUOUS
 10
5.879818489
 20
18.5122097953
 11
5.8479970442
 21
18.4771371471
  0
LINE
  5
3B2
100
AcDbEntity
  8
___SYMBOL
100
AcDbLine
 62
2
  6
CONTINUOUS
 10
5.8479970442
 20
18.4771371471
 11
5.6526430389
 21
18.3972697115
  0
SOLID
  5
3B3
100
AcDbEntity
  8
___SYMBOL
100
AcDbTrace
 62
2
  6
CONTINUOUS
 10
5.6526430389
 20
18.3972697115
 11
5.879818489
 21
18.5122097953
 12
5.8479970442
 22
18.4771371471
 13
5.8479970442
 23
18.4771371471
  0
LINE
  5
3B4
100
AcDbEntity
  8
___SYMBOL
100
AcDbLine
 62
2
  6
CONTINUOUS
 10
5.6526430389
 20
18.3972697115
 11
5.7049698999
 21
18.5365107242
  0
LINE
  5
3B5
100
AcDbEntity
  8
___SYMBOL
100
AcDbLine
 62
2
  6
CONTINUOUS
 10
5.7049698999
 20
18.5365107242
 11
5.879818489
 21
18.5122097953
  0
LINE
  5
3B6
100
AcDbEntity
  8
___SYMBOL
100
AcDbLine
 62
2
  6
CONTINUOUS
 10
5.879818489
 20
18.5122097953
 11
5.6526430389
 21
18.3972697115
  0
SOLID
  5
3B7
100
AcDbEntity
  8
___SYMBOL
100
AcDbTrace
 62
2
  6
CONTINUOUS
 10
5.6526430389
 20
18.3972697115
 11
5.7049698999
 21
18.5365107242
 12
5.879818489
 22
18.5122097953
 13
5.879818489
 23
18.5122097953
  0
LINE
  5
3B8
100
AcDbEntity
  8
___SYMBOL
100
AcDbLine
 62
2
  6
CONTINUOUS
 10
5.502024317
 20
18.2003618433
 11
5.7049698999
 21
18.5365107242
  0
LINE
  5
3B9
100
AcDbEntity
  8
___SYMBOL
100
AcDbLine
 62
2
  6
CONTINUOUS
 10
5.7049698999
 20
18.5365107242
 11
5.6526430389
 21
18.3972697115
  0
LINE
  5
3BA
100
AcDbEntity
  8
___SYMBOL
100
AcDbLine
 62
2
  6
CONTINUOUS
 10
5.6526430389
 20
18.3972697115
 11
5.502024317
 21
18.2003618433
  0
SOLID
  5
3BB
100
AcDbEntity
  8
___SYMBOL
100
AcDbTrace
 62
2
  6
CONTINUOUS
 10
5.502024317
 20
18.2003618433
 11
5.7049698999
 21
18.5365107242
 12
5.6526430389
 22
18.3972697115
 13
5.6526430389
 23
18.3972697115
  0
LINE
  5
3BC
100
AcDbEntity
  8
___SYMBOL
100
AcDbLine
 62
2
  6
CONTINUOUS
 10
5.502024317
 20
18.2003618433
 11
5.6526430389
 21
18.5365107242
  0
LINE
  5
3BD
100
AcDbEntity
  8
___SYMBOL
100
AcDbLine
 62
2
  6
CONTINUOUS
 10
5.6526430389
 20
18.5365107242
 11
5.7049698999
 21
18.5365107242
  0
LINE
  5
3BE
100
AcDbEntity
  8
___SYMBOL
100
AcDbLine
 62
2
  6
CONTINUOUS
 10
5.7049698999
 20
18.5365107242
 11
5.502024317
 21
18.2003618433
  0
SOLID
  5
3BF
100
AcDbEntity
  8
___SYMBOL
100
AcDbTrace
 62
2
  6
CONTINUOUS
 10
5.502024317
 20
18.2003618433
 11
5.6526430389
 21
18.5365107242
 12
5.7049698999
 22
18.5365107242
 13
5.7049698999
 23
18.5365107242
  0
LINE
  5
3C0
100
AcDbEntity
  8
___SYMBOL
100
AcDbLine
 62
2
  6
CONTINUOUS
 10
5.502024317
 20
18.2003618433
 11
5.6526430389
 21
18.6435874834
  0
LINE
  5
3C1
100
AcDbEntity
  8
___SYMBOL
100
AcDbLine
 62
2
  6
CONTINUOUS
 10
5.6526430389
 20
18.6435874834
 11
5.6526430389
 21
18.5365107242
  0
LINE
  5
3C2
100
AcDbEntity
  8
___SYMBOL
100
AcDbLine
 62
2
  6
CONTINUOUS
 10
5.6526430389
 20
18.5365107242
 11
5.502024317
 21
18.2003618433
  0
SOLID
  5
3C3
100
AcDbEntity
  8
___SYMBOL
100
AcDbTrace
 62
2
  6
CONTINUOUS
 10
5.502024317
 20
18.2003618433
 11
5.6526430389
 21
18.6435874834
 12
5.6526430389
 22
18.5365107242
 13
5.6526430389
 23
18.5365107242
  0
LINE
  5
3C4
100
AcDbEntity
  8
___SYMBOL
100
AcDbLine
 62
2
  6
CONTINUOUS
 10
5.6526430389
 20
18.6435874834
 11
5.8903212148
 21
18.6927160882
  0
LINE
  5
3C5
100
AcDbEntity
  8
___SYMBOL
100
AcDbLine
 62
2
  6
CONTINUOUS
 10
5.8903212148
 20
18.6927160882
 11
5.9065202447
 21
18.6482156789
  0
LINE
  5
3C6
100
AcDbEntity
  8
___SYMBOL
100
AcDbLine
 62
2
  6
CONTINUOUS
 10
5.9065202447
 20
18.6482156789
 11
5.6526430389
 21
18.6435874834
  0
SOLID
  5
3C7
100
AcDbEntity
  8
___SYMBOL
100
AcDbTrace
 62
2
  6
CONTINUOUS
 10
5.6526430389
 20
18.6435874834
 11
5.8903212148
 21
18.6927160882
 12
5.9065202447
 22
18.6482156789
 13
5.9065202447
 23
18.6482156789
  0
LINE
  5
3C8
100
AcDbEntity
  8
___SYMBOL
100
AcDbLine
 62
2
  6
CONTINUOUS
 10
5.6526430389
 20
18.6435874834
 11
5.8627821247
 21
18.7312426183
  0
LINE
  5
3C9
100
AcDbEntity
  8
___SYMBOL
100
AcDbLine
 62
2
  6
CONTINUOUS
 10
5.8627821247
 20
18.7312426183
 11
5.8903212148
 21
18.6927160882
  0
LINE
  5
3CA
100
AcDbEntity
  8
___SYMBOL
100
AcDbLine
 62
2
  6
CONTINUOUS
 10
5.8903212148
 20
18.6927160882
 11
5.6526430389
 21
18.6435874834
  0
SOLID
  5
3CB
100
AcDbEntity
  8
___SYMBOL
100
AcDbTrace
 62
2
  6
CONTINUOUS
 10
5.6526430389
 20
18.6435874834
 11
5.8627821247
 21
18.7312426183
 12
5.8903212148
 22
18.6927160882
 13
5.8903212148
 23
18.6927160882
  0
LINE
  5
3CC
100
AcDbEntity
  8
___SYMBOL
100
AcDbLine
 62
2
  6
CONTINUOUS
 10
5.6526430389
 20
18.6435874834
 11
5.8259202963
 21
18.7609730841
  0
LINE
  5
3CD
100
AcDbEntity
  8
___SYMBOL
100
AcDbLine
 62
2
  6
CONTINUOUS
 10
5.8259202963
 20
18.7609730841
 11
5.8627821247
 21
18.7312426183
  0
LINE
  5
3CE
100
AcDbEntity
  8
___SYMBOL
100
AcDbLine
 62
2
  6
CONTINUOUS
 10
5.8627821247
 20
18.7312426183
 11
5.6526430389
 21
18.6435874834
  0
SOLID
  5
3CF
100
AcDbEntity
  8
___SYMBOL
100
AcDbTrace
 62
2
  6
CONTINUOUS
 10
5.6526430389
 20
18.6435874834
 11
5.8259202963
 21
18.7609730841
 12
5.8627821247
 22
18.7312426183
 13
5.8627821247
 23
18.7312426183
  0
LINE
  5
3D0
100
AcDbEntity
  8
___SYMBOL
100
AcDbLine
 62
2
  6
CONTINUOUS
 10
5.6526430389
 20
18.6435874834
 11
5.7824359699
 21
18.7797296392
  0
LINE
  5
3D1
100
AcDbEntity
  8
___SYMBOL
100
AcDbLine
 62
2
  6
CONTINUOUS
 10
5.7824359699
 20
18.7797296392
 11
5.8259202963
 21
18.7609730841
  0
LINE
  5
3D2
100
AcDbEntity
  8
___SYMBOL
100
AcDbLine
 62
2
  6
CONTINUOUS
 10
5.8259202963
 20
18.7609730841
 11
5.6526430389
 21
18.6435874834
  0
SOLID
  5
3D3
100
AcDbEntity
  8
___SYMBOL
100
AcDbTrace
 62
2
  6
CONTINUOUS
 10
5.6526430389
 20
18.6435874834
 11
5.7824359699
 21
18.7797296392
 12
5.8259202963
 22
18.7609730841
 13
5.8259202963
 23
18.7609730841
  0
LINE
  5
3D4
100
AcDbEntity
  8
___SYMBOL
100
AcDbLine
 62
2
  6
CONTINUOUS
 10
5.6526430389
 20
18.6435874834
 11
5.502024317
 21
18.7861312052
  0
LINE
  5
3D5
100
AcDbEntity
  8
___SYMBOL
100
AcDbLine
 62
2
  6
CONTINUOUS
 10
5.502024317
 20
18.7861312052
 11
5.7824359699
 21
18.7797296392
  0
LINE
  5
3D6
100
AcDbEntity
  8
___SYMBOL
100
AcDbLine
 62
2
  6
CONTINUOUS
 10
5.7824359699
 20
18.7797296392
 11
5.6526430389
 21
18.6435874834
  0
SOLID
  5
3D7
100
AcDbEntity
  8
___SYMBOL
100
AcDbTrace
 62
2
  6
CONTINUOUS
 10
5.6526430389
 20
18.6435874834
 11
5.502024317
 21
18.7861312052
 12
5.7824359699
 22
18.7797296392
 13
5.7824359699
 23
18.7797296392
  0
LINE
  5
3D8
100
AcDbEntity
  8
___SYMBOL
100
AcDbLine
 62
2
  6
CONTINUOUS
 10
5.502024317
 20
18.7861312052
 11
5.6526430389
 21
18.6435874834
  0
LINE
  5
3D9
100
AcDbEntity
  8
___SYMBOL
100
AcDbLine
 62
2
  6
CONTINUOUS
 10
5.6526430389
 20
18.6435874834
 11
5.502024317
 21
18.2003618433
  0
LINE
  5
3DA
100
AcDbEntity
  8
___SYMBOL
100
AcDbLine
 62
2
  6
CONTINUOUS
 10
5.502024317
 20
18.2003618433
 11
5.502024317
 21
18.7861312052
  0
SOLID
  5
3DB
100
AcDbEntity
  8
___SYMBOL
100
AcDbTrace
 62
2
  6
CONTINUOUS
 10
5.502024317
 20
18.7861312052
 11
5.6526430389
 21
18.6435874834
 12
5.502024317
 22
18.2003618433
 13
5.502024317
 23
18.2003618433
  0
LINE
  5
3DC
100
AcDbEntity
  8
___SYMBOL
100
AcDbLine
 62
2
  6
CONTINUOUS
 10
5.6526430389
 20
18.2003618433
 11
5.502024317
 21
18.2003618433
  0
LINE
  5
3DD
100
AcDbEntity
  8
___SYMBOL
100
AcDbLine
 62
2
  6
CONTINUOUS
 10
5.502024317
 20
18.2003618433
 11
5.6526430389
 21
18.3972697115
  0
LINE
  5
3DE
100
AcDbEntity
  8
___SYMBOL
100
AcDbLine
 62
2
  6
CONTINUOUS
 10
5.6526430389
 20
18.3972697115
 11
5.6526430389
 21
18.2003618433
  0
SOLID
  5
3DF
100
AcDbEntity
  8
___SYMBOL
100
AcDbTrace
 62
2
  6
CONTINUOUS
 10
5.6526430389
 20
18.2003618433
 11
5.502024317
 21
18.2003618433
 12
5.6526430389
 22
18.3972697115
 13
5.6526430389
 23
18.3972697115
  0
LINE
  5
3E0
100
AcDbEntity
  8
___SYMBOL
100
AcDbLine
 62
2
  6
CONTINUOUS
 10
5.8079359128
 20
18.4518824296
 11
5.777435729
 21
18.2003618433
  0
LINE
  5
3E1
100
AcDbEntity
  8
___SYMBOL
100
AcDbLine
 62
2
  6
CONTINUOUS
 10
5.777435729
 20
18.2003618433
 11
5.6526430389
 21
18.3972697115
  0
LINE
  5
3E2
100
AcDbEntity
  8
___SYMBOL
100
AcDbLine
 62
2
  6
CONTINUOUS
 10
5.6526430389
 20
18.3972697115
 11
5.8079359128
 21
18.4518824296
  0
SOLID
  5
3E3
100
AcDbEntity
  8
___SYMBOL
100
AcDbTrace
 62
2
  6
CONTINUOUS
 10
5.8079359128
 20
18.4518824296
 11
5.777435729
 21
18.2003618433
 12
5.6526430389
 22
18.3972697115
 13
5.6526430389
 23
18.3972697115
  0
LINE
  5
3E4
100
AcDbEntity
  8
___SYMBOL
100
AcDbLine
 62
2
  6
CONTINUOUS
 10
5.9673398911
 20
18.2003618433
 11
5.777435729
 21
18.2003618433
  0
LINE
  5
3E5
100
AcDbEntity
  8
___SYMBOL
100
AcDbLine
 62
2
  6
CONTINUOUS
 10
5.777435729
 20
18.2003618433
 11
5.8079359128
 21
18.4518824296
  0
LINE
  5
3E6
100
AcDbEntity
  8
___SYMBOL
100
AcDbLine
 62
2
  6
CONTINUOUS
 10
5.8079359128
 20
18.4518824296
 11
5.9673398911
 21
18.2003618433
  0
SOLID
  5
3E7
100
AcDbEntity
  8
___SYMBOL
100
AcDbTrace
 62
2
  6
CONTINUOUS
 10
5.9673398911
 20
18.2003618433
 11
5.777435729
 21
18.2003618433
 12
5.8079359128
 22
18.4518824296
 13
5.8079359128
 23
18.4518824296
  0
LINE
  5
3E8
100
AcDbEntity
  8
___SYMBOL
100
AcDbLine
 62
2
  6
CONTINUOUS
 10
3.4225142313
 20
18.4018120558
 11
3.3566906994
 21
18.221413867
  0
LINE
  5
3E9
100
AcDbEntity
  8
___SYMBOL
100
AcDbLine
 62
2
  6
CONTINUOUS
 10
3.5602444721
 20
18.7861312052
 11
3.4225142313
 21
18.6223503582
  0
LINE
  5
3EA
100
AcDbEntity
  8
___SYMBOL
100
AcDbLine
 62
2
  6
CONTINUOUS
 10
3.7522589869
 20
18.7861312052
 11
3.5390080633
 21
18.5325453958
  0
LINE
  5
3EB
100
AcDbEntity
  8
___SYMBOL
100
AcDbLine
 62
2
  6
CONTINUOUS
 10
3.2480569768
 20
18.7861312052
 11
3.2662583768
 21
18.4234707081
  0
LINE
  5
3EC
100
AcDbEntity
  8
___SYMBOL
100
AcDbLine
 62
2
  6
CONTINUOUS
 10
3.4225142313
 20
18.7861312052
 11
3.4225142313
 21
18.6223503582
  0
LINE
  5
3ED
100
AcDbEntity
  8
___SYMBOL
100
AcDbLine
 62
2
  6
CONTINUOUS
 10
4.2840130625
 20
18.7861312052
 11
4.2840130625
 21
18.2003618433
  0
LINE
  5
3EE
100
AcDbEntity
  8
___SYMBOL
100
AcDbLine
 62
2
  6
CONTINUOUS
 10
4.448706175
 20
18.7861312052
 11
4.448706175
 21
18.5658017174
  0
LINE
  5
3EF
100
AcDbEntity
  8
___SYMBOL
100
AcDbLine
 62
2
  6
CONTINUOUS
 10
4.448706175
 20
18.4286302257
 11
4.448706175
 21
18.2003618433
  0
LINE
  5
3F0
100
AcDbEntity
  8
___SYMBOL
100
AcDbLine
 62
2
  6
CONTINUOUS
 10
4.5966665403
 20
18.7861312052
 11
4.5966665403
 21
18.5658017174
  0
LINE
  5
3F1
100
AcDbEntity
  8
___SYMBOL
100
AcDbLine
 62
2
  6
CONTINUOUS
 10
4.5966665403
 20
18.4286302257
 11
4.5966665403
 21
18.2003618433
  0
LINE
  5
3F2
100
AcDbEntity
  8
___SYMBOL
100
AcDbLine
 62
2
  6
CONTINUOUS
 10
4.7613596527
 20
18.7861312052
 11
4.7613596527
 21
18.2003618433
  0
LINE
  5
3F3
100
AcDbEntity
  8
___SYMBOL
100
AcDbLine
 62
2
  6
CONTINUOUS
 10
4.8063934041
 20
18.2003618433
 11
4.8063934041
 21
18.7861312052
  0
LINE
  5
3F4
100
AcDbEntity
  8
___SYMBOL
100
AcDbLine
 62
2
  6
CONTINUOUS
 10
3.4000400561
 20
18.2474234811
 11
3.2480569768
 21
18.2003378457
  0
LINE
  5
3F5
100
AcDbEntity
  8
___SYMBOL
100
AcDbLine
 62
2
  6
CONTINUOUS
 10
4.9564025165
 20
18.7861312052
 11
4.9564025165
 21
18.3415538218
  0
LINE
  5
3F6
100
AcDbEntity
  8
___SYMBOL
100
AcDbLine
 62
2
  6
CONTINUOUS
 10
5.1190465237
 20
18.3415538218
 11
5.1190465237
 21
18.2003618433
  0
LINE
  5
3F7
100
AcDbEntity
  8
___SYMBOL
100
AcDbLine
 62
2
  6
CONTINUOUS
 10
5.1481870845
 20
18.2003618433
 11
5.1481870845
 21
18.7861312052
  0
LINE
  5
3F8
100
AcDbEntity
  8
___SYMBOL
100
AcDbLine
 62
2
  6
CONTINUOUS
 10
5.3063947666
 20
18.6434069645
 11
5.3063947666
 21
18.5658017174
  0
LINE
  5
3F9
100
AcDbEntity
  8
___SYMBOL
100
AcDbLine
 62
2
  6
CONTINUOUS
 10
5.3063947666
 20
18.4214556713
 11
5.3063947666
 21
18.3415538218
  0
LINE
  5
3FA
100
AcDbEntity
  8
___SYMBOL
100
AcDbLine
 62
2
  6
CONTINUOUS
 10
5.4572151397
 20
18.2003618433
 11
5.4572151397
 21
18.3415538218
  0
LINE
  5
3FB
100
AcDbEntity
  8
___SYMBOL
100
AcDbLine
 62
2
  6
CONTINUOUS
 10
5.4572151397
 20
18.4214556713
 11
5.4572151397
 21
18.5658017174
  0
LINE
  5
3FC
100
AcDbEntity
  8
___SYMBOL
100
AcDbLine
 62
2
  6
CONTINUOUS
 10
5.4572151397
 20
18.6434069645
 11
5.4572151397
 21
18.7861312052
  0
LINE
  5
3FD
100
AcDbEntity
  8
___SYMBOL
100
AcDbLine
 62
2
  6
CONTINUOUS
 10
5.502024317
 20
18.2003618433
 11
5.502024317
 21
18.7861312052
  0
LINE
  5
3FE
100
AcDbEntity
  8
___SYMBOL
100
AcDbLine
 62
2
  6
CONTINUOUS
 10
5.6526430389
 20
18.6435874834
 11
5.6526430389
 21
18.5365107242
  0
LINE
  5
3FF
100
AcDbEntity
  8
___SYMBOL
100
AcDbLine
 62
2
  6
CONTINUOUS
 10
5.6526430389
 20
18.3972697115
 11
5.6526430389
 21
18.2003618433
  0
LINE
  5
400
100
AcDbEntity
  8
___SYMBOL
100
AcDbLine
 62
2
  6
CONTINUOUS
 10
6.0921931124
 20
18.1675292398
 11
6.0921931124
 21
18.2334791939
  0
LINE
  5
401
100
AcDbEntity
  8
___SYMBOL
100
AcDbLine
 62
2
  6
CONTINUOUS
 10
3.5762143117
 20
18.2003618433
 11
3.4225142313
 21
18.4018120558
  0
LINE
  5
402
100
AcDbEntity
  8
___SYMBOL
100
AcDbLine
 62
2
  6
CONTINUOUS
 10
3.792453469
 20
18.2003618433
 11
3.5390080633
 21
18.5325453958
  0
LINE
  5
403
100
AcDbEntity
  8
___SYMBOL
100
AcDbLine
 62
2
  6
CONTINUOUS
 10
5.777435729
 20
18.2003618433
 11
5.6526430389
 21
18.3972697115
  0
LINE
  5
404
100
AcDbEntity
  8
___SYMBOL
100
AcDbLine
 62
2
  6
CONTINUOUS
 10
5.9673398911
 20
18.2003618433
 11
5.8079359128
 21
18.4518824296
  0
LINE
  5
405
100
AcDbEntity
  8
___SYMBOL
100
AcDbLine
 62
2
  6
CONTINUOUS
 10
6.1037882324
 20
18.1998242262
 11
6.1356483974
 21
18.1675292398
  0
LINE
  5
406
100
AcDbEntity
  8
___SYMBOL
100
AcDbLine
 62
2
  6
CONTINUOUS
 10
4.3702113097
 20
18.483810994
 11
4.5966665403
 21
18.4286302257
  0
LINE
  5
407
100
AcDbEntity
  8
___SYMBOL
100
AcDbLine
 62
2
  6
CONTINUOUS
 10
6.1164664663
 20
18.1998242262
 11
6.0921931124
 21
18.1998242262
  0
LINE
  5
408
100
AcDbEntity
  8
___SYMBOL
100
AcDbLine
 62
2
  6
CONTINUOUS
 10
4.7613596527
 20
18.2003618433
 11
4.5966665403
 21
18.2003618433
  0
LINE
  5
409
100
AcDbEntity
  8
___SYMBOL
100
AcDbLine
 62
2
  6
CONTINUOUS
 10
4.448706175
 20
18.2003618433
 11
4.2840130625
 21
18.2003618433
  0
LINE
  5
40A
100
AcDbEntity
  8
___SYMBOL
100
AcDbLine
 62
2
  6
CONTINUOUS
 10
3.5762143117
 20
18.2003618433
 11
3.792453469
 21
18.2003618433
  0
LINE
  5
40B
100
AcDbEntity
  8
___SYMBOL
100
AcDbLine
 62
2
  6
CONTINUOUS
 10
4.8063934041
 20
18.2003618433
 11
5.1190465237
 21
18.2003618433
  0
LINE
  5
40C
100
AcDbEntity
  8
___SYMBOL
100
AcDbLine
 62
2
  6
CONTINUOUS
 10
5.1481870845
 20
18.2003618433
 11
5.4572151397
 21
18.2003618433
  0
LINE
  5
40D
100
AcDbEntity
  8
___SYMBOL
100
AcDbLine
 62
2
  6
CONTINUOUS
 10
5.502024317
 20
18.2003618433
 11
5.6526430389
 21
18.2003618433
  0
LINE
  5
40E
100
AcDbEntity
  8
___SYMBOL
100
AcDbLine
 62
2
  6
CONTINUOUS
 10
5.777435729
 20
18.2003618433
 11
5.9673398911
 21
18.2003618433
  0
LINE
  5
40F
100
AcDbEntity
  8
___SYMBOL
100
AcDbLine
 62
2
  6
CONTINUOUS
 10
6.0921931124
 20
18.2334791939
 11
6.1164664663
 21
18.2334791939
  0
LINE
  5
410
100
AcDbEntity
  8
___SYMBOL
100
AcDbLine
 62
2
  6
CONTINUOUS
 10
4.9564025165
 20
18.3415538218
 11
5.1190465237
 21
18.3415538218
  0
LINE
  5
411
100
AcDbEntity
  8
___SYMBOL
100
AcDbLine
 62
2
  6
CONTINUOUS
 10
5.3063947666
 20
18.3415538218
 11
5.4572151397
 21
18.3415538218
  0
LINE
  5
412
100
AcDbEntity
  8
___SYMBOL
100
AcDbLine
 62
2
  6
CONTINUOUS
 10
5.3063947666
 20
18.4214556713
 11
5.4572151397
 21
18.4214556713
  0
LINE
  5
413
100
AcDbEntity
  8
___SYMBOL
100
AcDbLine
 62
2
  6
CONTINUOUS
 10
5.6526430389
 20
18.5365107242
 11
5.7049698999
 21
18.5365107242
  0
LINE
  5
414
100
AcDbEntity
  8
___SYMBOL
100
AcDbLine
 62
2
  6
CONTINUOUS
 10
4.448706175
 20
18.5658017174
 11
4.5966665403
 21
18.5658017174
  0
LINE
  5
415
100
AcDbEntity
  8
___SYMBOL
100
AcDbLine
 62
2
  6
CONTINUOUS
 10
5.3063947666
 20
18.5658017174
 11
5.4572151397
 21
18.5658017174
  0
LINE
  5
416
100
AcDbEntity
  8
___SYMBOL
100
AcDbLine
 62
2
  6
CONTINUOUS
 10
5.3063947666
 20
18.6434069645
 11
5.4572151397
 21
18.6434069645
  0
LINE
  5
417
100
AcDbEntity
  8
___SYMBOL
100
AcDbLine
 62
2
  6
CONTINUOUS
 10
5.7085591471
 20
18.6435874834
 11
5.6526430389
 21
18.6435874834
  0
LINE
  5
418
100
AcDbEntity
  8
___SYMBOL
100
AcDbLine
 62
2
  6
CONTINUOUS
 10
3.2480569768
 20
18.7861312052
 11
3.4225142313
 21
18.7861312052
  0
LINE
  5
419
100
AcDbEntity
  8
___SYMBOL
100
AcDbLine
 62
2
  6
CONTINUOUS
 10
3.5602444721
 20
18.7861312052
 11
3.7522589869
 21
18.7861312052
  0
LINE
  5
41A
100
AcDbEntity
  8
___SYMBOL
100
AcDbLine
 62
2
  6
CONTINUOUS
 10
4.2840130625
 20
18.7861312052
 11
4.448706175
 21
18.7861312052
  0
LINE
  5
41B
100
AcDbEntity
  8
___SYMBOL
100
AcDbLine
 62
2
  6
CONTINUOUS
 10
4.5966665403
 20
18.7861312052
 11
4.7613596527
 21
18.7861312052
  0
LINE
  5
41C
100
AcDbEntity
  8
___SYMBOL
100
AcDbLine
 62
2
  6
CONTINUOUS
 10
4.8063934041
 20
18.7861312052
 11
4.9564025165
 21
18.7861312052
  0
LINE
  5
41D
100
AcDbEntity
  8
___SYMBOL
100
AcDbLine
 62
2
  6
CONTINUOUS
 10
5.1481870845
 20
18.7861312052
 11
5.4572151397
 21
18.7861312052
  0
LINE
  5
41E
100
AcDbEntity
  8
___SYMBOL
100
AcDbLine
 62
2
  6
CONTINUOUS
 10
5.502024317
 20
18.7861312052
 11
5.735514504
 21
18.7861312052
  0
CIRCLE
  5
41F
100
AcDbEntity
  8
___SYMBOL
100
AcDbCircle
 62
2
  6
CONTINUOUS
 10
3.9689188384
 20
18.4921255485
 40
0.2979831914
  0
ARC
  5
420
100
AcDbEntity
  8
___SYMBOL
100
AcDbCircle
 62
2
  6
CONTINUOUS
 10
5.735514504
 20
18.6111647924
 40
0.1749735166
100
AcDbArc
 50
294.4500166359
 51
90.0
  0
CIRCLE
  5
421
100
AcDbEntity
  8
___SYMBOL
100
AcDbCircle
 62
2
  6
CONTINUOUS
 10
3.9689188384
 20
18.4921255485
 40
0.1373499095
  0
CIRCLE
  5
422
100
AcDbEntity
  8
___SYMBOL
100
AcDbCircle
 62
2
  6
CONTINUOUS
 10
6.1080751997
 20
18.2003618433
 40
0.065341777
  0
ARC
  5
423
100
AcDbEntity
  8
___SYMBOL
100
AcDbCircle
 62
2
  6
CONTINUOUS
 10
5.7085590451
 20
18.5899889509
 40
0.0535985325
100
AcDbArc
 50
266.1604009902
 51
89.9998910512
  0
ARC
  5
424
100
AcDbEntity
  8
___SYMBOL
100
AcDbCircle
 62
2
  6
CONTINUOUS
 10
6.1164664663
 20
18.2166518891
 40
0.0168273047
100
AcDbArc
 50
270.0
 51
90.0
  0
ENDBLK
  5
425
100
AcDbEntity
  8
0
  6
BYBLOCK
 62
0
100
AcDbBlockEnd
  0
BLOCK
  5
426
100
AcDbEntity
  8
___SYMBOL
100
AcDbBlockBegin
 62
2
  6
CONTINUOUS
  2
SCISSORS_BL0
 70
64
 10
21.4496166422
 20
7.635031089
  3
SCISSORS_BL0
  1

  0
LINE
  5
427
100
AcDbEntity
  8
___SYMBOL
100
AcDbLine
 62
7
  6
CONTINUOUS
 10
21.4000669028
 20
7.6880685361
 11
21.3037205893
 21
8.1640057618
  0
LINE
  5
428
100
AcDbEntity
  8
___SYMBOL
100
AcDbLine
 62
7
  6
CONTINUOUS
 10
21.3584786512
 20
7.6627087429
 11
21.3037205893
 21
8.1640057618
  0
LINE
  5
429
100
AcDbEntity
  8
___SYMBOL
100
AcDbLine
 62
7
  6
CONTINUOUS
 10
21.4235020264
 20
7.6058164077
 11
21.42215447
 21
7.6495311489
  0
LINE
  5
42A
100
AcDbEntity
  8
___SYMBOL
100
AcDbLine
 62
7
  6
CONTINUOUS
 10
21.4362331132
 20
7.6501156832
 11
21.4375899422
 21
7.6061001395
  0
LINE
  5
42B
100
AcDbEntity
  8
___SYMBOL
100
AcDbLine
 62
7
  6
CONTINUOUS
 10
21.431145795
 20
7.8025864827
 11
21.5925093391
 21
8.1556369216
  0
LINE
  5
42C
100
AcDbEntity
  8
___SYMBOL
100
AcDbLine
 62
7
  6
CONTINUOUS
 10
21.3330552653
 20
7.5805716501
 11
21.3610180118
 21
7.6333632855
  0
LINE
  5
42D
100
AcDbEntity
  8
___SYMBOL
100
AcDbLine
 62
7
  6
CONTINUOUS
 10
21.4888670892
 20
7.6388701407
 11
21.5925093391
 21
7.9704168145
  0
LINE
  5
42E
100
AcDbEntity
  8
___SYMBOL
100
AcDbLine
 62
7
  6
CONTINUOUS
 10
21.4636211617
 20
7.7104757926
 11
21.4000669028
 21
7.6880685361
  0
LINE
  5
42F
100
AcDbEntity
  8
___SYMBOL
100
AcDbLine
 62
7
  6
CONTINUOUS
 10
21.5100241428
 20
7.5788618635
 11
21.4607791096
 21
7.4600065458
  0
LINE
  5
430
100
AcDbEntity
  8
___SYMBOL
100
AcDbLine
 62
7
  6
CONTINUOUS
 10
21.3793388652
 20
7.4638848277
 11
21.41722869
 21
7.5032548598
  0
LINE
  5
431
100
AcDbEntity
  8
___SYMBOL
100
AcDbLine
 62
7
  6
CONTINUOUS
 10
21.3037205893
 20
8.1640057618
 11
21.5100241428
 21
7.5788618635
  0
LINE
  5
432
100
AcDbEntity
  8
___SYMBOL
100
AcDbLine
 62
7
  6
CONTINUOUS
 10
21.3793388652
 20
7.4638848277
 11
21.3330552653
 21
7.5805716501
  0
ARC
  5
433
100
AcDbEntity
  8
___SYMBOL
100
AcDbCircle
 62
7
  6
CONTINUOUS
 10
21.2962541416
 20
8.0630268681
 40
0.3103929189
100
AcDbArc
 50
342.6406360869
 51
17.3593639131
  0
ARC
  5
434
100
AcDbEntity
  8
___SYMBOL
100
AcDbCircle
 62
7
  6
CONTINUOUS
 10
21.6272413702
 20
7.6711830817
 40
0.2688962877
100
AcDbArc
 50
181.8059909349
 51
231.752660067
  0
CIRCLE
  5
435
100
AcDbEntity
  8
___SYMBOL
100
AcDbCircle
 62
7
  6
CONTINUOUS
 10
21.4301041151
 20
7.6278980651
 40
0.0230474981
  0
ARC
  5
436
100
AcDbEntity
  8
___SYMBOL
100
AcDbCircle
 62
7
  6
CONTINUOUS
 10
21.5671776633
 20
7.3078454192
 40
0.0125581039
100
AcDbArc
 50
185.3133793157
 51
314.0675041521
  0
ARC
  5
437
100
AcDbEntity
  8
___SYMBOL
100
AcDbCircle
 62
7
  6
CONTINUOUS
 10
21.2794949705
 20
7.3013805674
 40
0.0125580003
100
AcDbArc
 50
233.3109272841
 51
359.4467240969
  0
SPLINE
  5
438
100
AcDbEntity
  8
___SYMBOL
100
AcDbSpline
 62
7
  6
CONTINUOUS
 70
0
 71
3
 72
12
 73
8
 74
0
 42
0.0000001
 43
0.0000001
 44
0.0000000001
 40
0.0
 40
0.0
 40
0.0
 40
0.0
 40
0.4884256058
 40
0.6683914397
 40
0.8669439281
 40
0.9099489479
 40
1.0
 40
1.0
 40
1.0
 40
1.0
 10
21.5347319552
 20
7.1060564163
 30
0.0
 10
21.5147643405
 20
7.1645479686
 30
0.0
 10
21.5104922376
 20
7.2513908899
 30
0.0
 10
21.5118601882
 20
7.3604541623
 30
0.0
 10
21.5076617994
 20
7.4144535209
 30
0.0
 10
21.4917196667
 20
7.4539033789
 30
0.0
 10
21.4720124687
 20
7.4619199646
 30
0.0
 10
21.4607791096
 20
7.4600065458
 30
0.0
  0
SPLINE
  5
439
100
AcDbEntity
  8
___SYMBOL
100
AcDbSpline
 62
7
  6
CONTINUOUS
 70
0
 71
3
 72
14
 73
10
 74
0
 42
0.0000001
 43
0.0000001
 44
0.0000000001
 40
0.0
 40
0.0
 40
0.0
 40
0.0
 40
0.0469735811
 40
0.2606095073
 40
0.5805460666
 40
0.7382389988
 40
0.8401572415
 40
0.925087268
 40
1.0
 40
1.0
 40
1.0
 40
1.0
 10
21.5546735202
 20
7.3066824999
 30
0.0
 10
21.5542657127
 20
7.3110673984
 30
0.0
 10
21.5525821528
 20
7.3354879437
 30
0.0
 10
21.5548894227
 20
7.3892493422
 30
0.0
 10
21.5599115805
 20
7.4575751677
 30
0.0
 10
21.5307252217
 20
7.5043379462
 30
0.0
 10
21.5126445581
 20
7.5318982442
 30
0.0
 10
21.511197433
 20
7.5569823338
 30
0.0
 10
21.5110829029
 20
7.5719189825
 30
0.0
 10
21.5100241428
 20
7.5788618635
 30
0.0
  0
SPLINE
  5
43A
100
AcDbEntity
  8
___SYMBOL
100
AcDbSpline
 62
7
  6
CONTINUOUS
 70
0
 71
3
 72
12
 73
8
 74
0
 42
0.0000001
 43
0.0000001
 44
0.0000000001
 40
0.0
 40
0.0
 40
0.0
 40
0.0
 40
0.2870411994
 40
0.5613888029
 40
0.7613462239
 40
0.9013972407
 40
1.0
 40
1.0
 40
1.0
 40
1.0
 10
21.3289107855
 20
7.1392864916
 30
0.0
 10
21.3368205942
 20
7.1708235935
 30
0.0
 10
21.3400959204
 20
7.2350326668
 30
0.0
 10
21.334683391
 20
7.3215600869
 30
0.0
 10
21.3412024633
 20
7.3897661476
 30
0.0
 10
21.3447063113
 20
7.442100982
 30
0.0
 10
21.3686069039
 20
7.4607910659
 30
0.0
 10
21.3793388652
 20
7.4638848277
 30
0.0
  0
SPLINE
  5
43B
100
AcDbEntity
  8
___SYMBOL
100
AcDbSpline
 62
7
  6
CONTINUOUS
 70
0
 71
3
 72
13
 73
9
 74
0
 42
0.0000001
 43
0.0000001
 44
0.0000000001
 40
0.0
 40
0.0
 40
0.0
 40
0.0
 40
0.0902051637
 40
0.4170421866
 40
0.6587388922
 40
0.9356437381
 40
0.9595034934
 40
1.0
 40
1.0
 40
1.0
 40
1.0
 10
21.2920523853
 20
7.3012593031
 30
0.0
 10
21.292135206
 20
7.3098357211
 30
0.0
 10
21.2918903815
 20
7.3494303854
 30
0.0
 10
21.2900661682
 20
7.4128331205
 30
0.0
 10
21.303294021
 20
7.4905202283
 30
0.0
 10
21.3416027549
 20
7.5406924141
 30
0.0
 10
21.328594751
 20
7.5707487727
 30
0.0
 10
21.3302664119
 20
7.5779167827
 30
0.0
 10
21.3330552653
 20
7.5805716501
 30
0.0
  0
ELLIPSE
  5
43C
100
AcDbEntity
  8
___SYMBOL
100
AcDbEllipse
 62
7
  6
CONTINUOUS
 10
21.6375694236
 20
7.1679635491
 30
0.0
 11
0.0052150535
 21
-0.1063870917
 31
0.0
 40
0.774293327
 41
0.0
 42
6.2831853072
  0
ELLIPSE
  5
43D
100
AcDbEntity
  8
___SYMBOL
100
AcDbEllipse
 62
7
  6
CONTINUOUS
 10
21.6375694236
 20
7.1679635491
 30
0.0
 11
-0.0026075268
 21
-0.1585376268
 31
0.0
 40
0.700902774
 41
5.1250505418
 42
10.0362700851
  0
ELLIPSE
  5
43E
100
AcDbEntity
  8
___SYMBOL
100
AcDbEllipse
 62
7
  6
CONTINUOUS
 10
21.2150646796
 20
7.1790125296
 30
0.0
 11
0.0130376338
 21
-0.1056048336
 31
0.0
 40
0.7501188416
 41
0.0
 42
6.2831853072
  0
ELLIPSE
  5
43F
100
AcDbEntity
  8
___SYMBOL
100
AcDbEllipse
 62
7
  6
CONTINUOUS
 10
21.2170203247
 20
7.161411724
 30
0.0
 11
0.0019556451
 21
-0.1492809068
 31
0.0
 40
0.7569683881
 41
2.6163261196
 42
7.6953125801
  0
LINE
  5
440
100
AcDbEntity
  8
___SYMBOL
100
AcDbLine
 62
7
  6
CONTINUOUS
 10
21.4228282482
 20
7.6276737783
 11
21.4298698879
 21
7.6278908448
  0
ENDBLK
  5
441
100
AcDbEntity
  8
0
  6
BYBLOCK
 62
0
100
AcDbBlockEnd
  0
BLOCK
  5
442
100
AcDbEntity
  8
0
100
AcDbBlockBegin
  2
_FILLED
 70
64
 10
0.0
 20
0.0
  3
_FILLED
  1

  0
SOLID
  5
443
100
AcDbEntity
  8
0
  6
BYBLOCK
 62
0
100
AcDbTrace
 10
0.0
 20
0.0
 11
-1.0
 21
0.1666666667
 12
-1.0
 22
-0.1666666667
 13
-1.0
 23
-0.1666666667
  0
ENDBLK
  5
444
100
AcDbEntity
  8
0
  6
BYBLOCK
 62
0
100
AcDbBlockEnd
  0
BLOCK
  5
445
100
AcDbEntity
  8
0
100
AcDbBlockBegin
 62
2
  6
CONTINUOUS
  2
*D0
 70
65
 10
0.0
 20
0.0
  3
*D0
  1

  0
MTEXT
  5
446
100
AcDbEntity
  8
0
100
AcDbMText
 62
2
  6
CONTINUOUS
  7
STANDARD
 71
2
 72
1
 10
9.9066666313
 20
14.7823710251
 30
0.0
 11
1.0
 21
0.0
 31
0.0
 73
2
 44
0.9
  1
14\P[355]
 40
0.15625
 41
0.625
  0
LINE
  5
447
100
AcDbEntity
  8
0
100
AcDbLine
 62
2
  6
CONTINUOUS
 10
10.0935014755
 20
19.2184395983
 11
10.0941436082
 21
14.8604960251
  0
LINE
  5
448
100
AcDbEntity
  8
0
100
AcDbLine
 62
2
  6
CONTINUOUS
 10
10.095563568
 20
5.223696022
 11
10.094224189
 21
14.3136210251
  0
INSERT
  5
449
100
AcDbEntity
  8
0
100
AcDbBlockReference
 62
2
  6
CONTINUOUS
  2
_FILLED
 10
10.0935014755
 20
19.2184395983
 41
0.1875
 42
0.1875
 43
0.1875
 50
90.0084423981
  0
INSERT
  5
44A
100
AcDbEntity
  8
0
100
AcDbBlockReference
 62
2
  6
CONTINUOUS
  2
_FILLED
 10
10.095563568
 20
5.223696022
 41
0.1875
 42
0.1875
 43
0.1875
 50
270.0084423981
  0
ENDBLK
  5
44B
100
AcDbEntity
  8
0
  6
BYBLOCK
 62
0
100
AcDbBlockEnd
  0
BLOCK
  5
44C
100
AcDbEntity
  8
0
100
AcDbBlockBegin
 62
2
  6
CONTINUOUS
  2
*D1
 70
65
 10
0.0
 20
0.0
  3
*D1
  1

  0
MTEXT
  5
44D
100
AcDbEntity
  8
0
100
AcDbMText
 62
2
  6
CONTINUOUS
  7
STANDARD
 71
2
 72
1
 10
7.5937700637
 20
13.5965064838
 30
0.0
 11
1.0
 21
0.0
 31
0.0
 73
2
 44
0.9
  1
18-3/4\P[476]
 40
0.15625
 41
0.75
  0
LINE
  5
44E
100
AcDbEntity
  8
0
100
AcDbLine
 62
2
  6
CONTINUOUS
 10
2.6819804849
 20
13.5188991536
 11
7.1406450637
 21
13.5184292402
  0
LINE
  5
44F
100
AcDbEntity
  8
0
100
AcDbLine
 62
2
  6
CONTINUOUS
 10
21.4112024265
 20
13.5169252189
 11
8.0468950637
 21
13.5183337275
  0
INSERT
  5
450
100
AcDbEntity
  8
0
100
AcDbBlockReference
 62
2
  6
CONTINUOUS
  2
_FILLED
 10
2.6819804849
 20
13.5188991536
 41
0.1875
 42
0.1875
 43
0.1875
 50
179.993961408
  0
INSERT
  5
451
100
AcDbEntity
  8
0
100
AcDbBlockReference
 62
2
  6
CONTINUOUS
  2
_FILLED
 10
21.4112024265
 20
13.5169252189
 41
0.1875
 42
0.1875
 43
0.1875
 50
359.993961408
  0
ENDBLK
  5
452
100
AcDbEntity
  8
0
  6
BYBLOCK
 62
0
100
AcDbBlockEnd
  0
ENDSEC
  0
SECTION
  2
ENTITIES
  0
DIMENSION
  5
453
100
AcDbEntity
  8
0
100
AcDbDimension
 62
2
  6
CONTINUOUS
  2
*D0
 10
10.095563568
 20
5.223696022
 11
10.0941666313
 21
14.5870585251
 70
160
 71
2
 72
2
 41
0.9
 42
13.9947437283
  1
<>\P[]
  3
DIMSTYLE_1
100
AcDbAlignedDimension
 13
12.0463857026
 23
19.2187273512
 14
12.0465239126
 24
5.2239834914
 50
270.0084423981
100
AcDbRotatedDimension
  0
DIMENSION
  5
454
100
AcDbEntity
  8
0
100
AcDbDimension
 62
2
  6
CONTINUOUS
  2
*D1
 10
21.4112024265
 20
13.5169252189
 11
7.5937700637
 21
13.4011939838
 70
160
 71
2
 72
2
 41
0.9
 42
18.7292220456
  1
<>\P[]
  3
DIMSTYLE_2
100
AcDbAlignedDimension
 13
2.6818437325
 23
12.2213554213
 14
21.4110658873
 24
12.2214048508
 50
359.993961408
100
AcDbRotatedDimension
  0
MTEXT
  5
455
100
AcDbEntity
  8
___NOTE
100
AcDbMText
 62
2
  6
CONTINUOUS
  7
STANDARD
 71
1
 72
1
 10
3.2138124022
 20
17.9326824593
 30
0.0
 11
1.0
 21
0.0
 31
0.0
 73
2
 44
0.9
  1
CUT-OUT TEMPLATE\PGABARIT DE DÉCOUPAGE\PPLANTILLA DE CORTE\P21783
 40
0.25
 41
4.0
  0
MTEXT
  5
456
100
AcDbEntity
  8
___NOTE
100
AcDbMText
 62
2
  6
CONTINUOUS
  7
STANDARD
 71
1
 72
1
 10
3.3799676616
 20
9.0746941378
 30
0.0
 11
1.0
 21
0.0
 31
0.0
 73
2
 44
0.9
  3
WHEN PLOTTING TEMPLATE FULL SIZE:\PMake sure horizontal and vertical \Pdimensions match the dimensions labeled \Pon the template.\P \PLORS DU TRACÉ DU GABARIT À L'ÉCHELLE:  \PS'assurer que les dimensions horizontales \Pet verticales correspondent à c
  1
elles marquées \Psur le gabarit.\P \PAL TRAZAR LA PLANTILLA A ESCALA COMPLETA: \PAsegúrese de que las dimensiones \Phorizontal y vertical sean iguales \Pa las indicadas en la plantilla.
 40
0.15625
 41
5.75
  0
MTEXT
  5
457
100
AcDbEntity
  8
___NOTE
100
AcDbMText
 62
2
  6
CONTINUOUS
  7
STANDARD
 71
1
 72
1
 10
18.2501884597
 20
15.3908463935
 30
0.0
 11
1.0
 21
0.0
 31
0.0
 73
2
 44
0.9
  1
WOOD
 40
0.15625
 41
0.5
  0
MTEXT
  5
458
100
AcDbEntity
  8
___NOTE
100
AcDbMText
 62
2
  6
CONTINUOUS
  7
STANDARD
 71
1
 72
1
 10
18.2501884597
 20
15.1564713935
 30
0.0
 11
1.0
 21
0.0
 31
0.0
 73
2
 44
0.9
  1
BOIS
 40
0.15625
 41
0.5
  0
MTEXT
  5
459
100
AcDbEntity
  8
___NOTE
100
AcDbMText
 62
2
  6
CONTINUOUS
  7
STANDARD
 71
1
 72
1
 10
18.1251884597
 20
14.9220963935
 30
0.0
 11
1.0
 21
0.0
 31
0.0
 73
2
 44
0.9
  1
MADERA
 40
0.15625
 41
0.75
  0
MTEXT
  5
45A
100
AcDbEntity
  8
___NOTE
100
AcDbMText
 62
2
  6
CONTINUOUS
  7
STANDARD
 71
1
 72
1
 10
15.9705068846
 20
16.177468086
 30
0.0
 11
1.0
 21
0.0
 31
0.0
 73
2
 44
0.9
  1
20/32"
 40
0.15625
 41
0.75
  0
MTEXT
  5
45B
100
AcDbEntity
  8
___NOTE
100
AcDbMText
 62
2
  6
CONTINUOUS
  7
STANDARD
 71
1
 72
1
 10
15.9705068846
 20
15.943093086
 30
0.0
 11
1.0
 21
0.0
 31
0.0
 73
2
 44
0.9
  1
16mm
 40
0.15625
 41
0.5
  0
MTEXT
  5
45C
100
AcDbEntity
  8
___NOTE
100
AcDbMText
 62
2
  6
CONTINUOUS
  7
STANDARD
 71
1
 72
1
 10
15.0347206012
 20
15.3765035463
 30
0.0
 11
1.0
 21
0.0
 31
0.0
 73
2
 44
0.9
  1
MARBLE
 40
0.15625
 41
0.75
  0
MTEXT
  5
45D
100
AcDbEntity
  8
___NOTE
100
AcDbMText
 62
2
  6
CONTINUOUS
  7
STANDARD
 71
1
 72
1
 10
15.0347206012
 20
15.1421285463
 30
0.0
 11
1.0
 21
0.0
 31
0.0
 73
2
 44
0.9
  1
MARBRE 
 40
0.15625
 41
0.875
  0
MTEXT
  5
45E
100
AcDbEntity
  8
___NOTE
100
AcDbMText
 62
2
  6
CONTINUOUS
  7
STANDARD
 71
1
 72
1
 10
15.0347206012
 20
14.9077535463
 30
0.0
 11
1.0
 21
0.0
 31
0.0
 73
2
 44
0.9
  1
MÁRMOL
 40
0.15625
 41
0.75
  0
MTEXT
  5
45F
100
AcDbEntity
  8
___NOTE
100
AcDbMText
 62
2
  6
CONTINUOUS
  7
STANDARD
 71
1
 72
1
 10
16.1630124621
 20
14.8138830376
 30
0.0
 11
1.0
 21
0.0
 31
0.0
 73
2
 44
0.9
  1
INSTALLATION
 40
0.15625
 41
1.5
  0
MTEXT
  5
460
100
AcDbEntity
  8
___NOTE
100
AcDbMText
 62
2
  6
CONTINUOUS
  7
STANDARD
 71
1
 72
1
 10
16.1630124621
 20
14.5795080376
 30
0.0
 11
1.0
 21
0.0
 31
0.0
 73
2
 44
0.9
  1
INSTALLATION
 40
0.15625
 41
1.5
  0
MTEXT
  5
461
100
AcDbEntity
  8
___NOTE
100
AcDbMText
 62
2
  6
CONTINUOUS
  7
STANDARD
 71
1
 72
1
 10
16.1630124621
 20
14.3451330376
 30
0.0
 11
1.0
 21
0.0
 31
0.0
 73
2
 44
0.9
  1
INSTALACIÓN
 40
0.15625
 41
1.375
  0
MTEXT
  5
462
100
AcDbEntity
  8
___NOTE
100
AcDbMText
 62
2
  6
CONTINUOUS
  7
STANDARD
 71
1
 72
1
 10
18.3922137627
 20
17.8916924484
 30
0.0
 11
1.0
 21
0.0
 31
0.0
 73
2
 44
0.9
  1
SEALANT\PMASTIC \PD'ÉCHANTÉITÉ \PSELLADOR
 40
0.15625
 41
1.625
  0
MTEXT
  5
463
100
AcDbEntity
  8
___NOTE
100
AcDbMText
 62
2
  6
CONTINUOUS
  7
STANDARD
 71
1
 72
1
 10
14.5974917403
 20
17.8818827871
 30
0.0
 11
1.0
 21
0.0
 31
0.0
 73
2
 44
0.9
  1
SEALANT
 40
0.15625
 41
0.875
  0
MTEXT
  5
464
100
AcDbEntity
  8
___NOTE
100
AcDbMText
 62
2
  6
CONTINUOUS
  7
STANDARD
 71
1
 72
1
 10
14.5974917403
 20
17.6475077871
 30
0.0
 11
1.0
 21
0.0
 31
0.0
 73
2
 44
0.9
  1
MASTIC D'ÉCHANTÉITÉ
 40
0.15625
 41
2.375
  0
MTEXT
  5
465
100
AcDbEntity
  8
___NOTE
100
AcDbMText
 62
2
  6
CONTINUOUS
  7
STANDARD
 71
1
 72
1
 10
14.5974917403
 20
17.4131327871
 30
0.0
 11
1.0
 21
0.0
 31
0.0
 73
2
 44
0.9
  1
SELLADOR
 40
0.15625
 41
1.0
  0
MTEXT
  5
466
100
AcDbEntity
  8
___NOTE
100
AcDbMText
 62
2
  6
CONTINUOUS
  7
TEXTSTYLE_2
 71
1
 72
1
 10
16.2293975973
 20
16.8840616176
 30
0.0
 11
1.0
 21
0.0
 31
0.0
 73
2
 44
0.9
  1
{\fgdt;n}\ftxt;{\W0.8;12/32"}
 40
0.15625
 41
0.9583333333
  0
MTEXT
  5
467
100
AcDbEntity
  8
___NOTE
100
AcDbMText
 62
2
  6
CONTINUOUS
  7
TEXTSTYLE_2
 71
1
 72
1
 10
16.2293975973
 20
16.6496866176
 30
0.0
 11
1.0
 21
0.0
 31
0.0
 73
2
 44
0.9
  1
{\fgdt;n}\ftxt;{\W0.8;10mm}
 40
0.15625
 41
0.7083333333
  0
LEADER
  5
468
100
AcDbEntity
  8
___NOTE
100
AcDbLeader
 62
2
  6
CONTINUOUS
  3
STANDARD
 71
1
 72
0
 73
0
 75
0
 40
0.15625
 41
1.25
 76
3
 10
22.6672084356
 20
9.7812070454
 30
0.0
 10
20.0611272448
 20
11.2596751282
 30
0.0
 10
19.8111272448
 20
11.2596751282
 30
0.0
340
469
1001
ACAD
1000
DSTYLE
1002
{
1070
77
1070
0
1002
}
  0
MTEXT
  5
469
102
{ACAD_REACTORS
330
468
102
}
100
AcDbEntity
  8
___NOTE
100
AcDbMText
 62
2
  6
CONTINUOUS
  7
STANDARD
 71
3
 72
1
 10
19.8111272448
 20
11.3378001282
 30
0.0
 11
1.0
 21
0.0
 31
0.0
 73
2
 44
0.9
  1
RIM OF LAV\PREBORD DU LAVABO\PBORDE DEL LAVABO
 40
0.15625
 41
2.0
  0
LEADER
  5
46A
100
AcDbEntity
  8
___NOTE
100
AcDbLeader
 62
2
  6
CONTINUOUS
  3
STANDARD
 71
1
 72
0
 73
0
 75
0
 40
0.15625
 41
3.625
 76
3
 10
21.4107278021
 20
9.0135615223
 30
0.0
 10
20.3319789835
 20
9.6724513551
 30
0.0
 10
20.0819789835
 20
9.6724513551
 30
0.0
340
46B
1001
ACAD
1000
DSTYLE
1002
{
1070
77
1070
0
1002
}
  0
MTEXT
  5
46B
102
{ACAD_REACTORS
330
46A
102
}
100
AcDbEntity
  8
___NOTE
100
AcDbMText
 62
2
  6
CONTINUOUS
  7
STANDARD
 71
3
 72
1
 10
20.0819789835
 20
9.7505763551
 30
0.0
 11
1.0
 21
0.0
 31
0.0
 73
2
 44
0.9
  1
FOR UNDERCOUNTER INSTALLATION\PCUT ALONG THIS LINE\PPOUR INSTALLATION SOUS COMPTOIR\PDÉCOUPER LE LONG DE CETTE LIGNE\PEN INSTALACIONES BAJO CUBIERTA,\P CORTE A LO LARGO DE ESTA LÍNEA
 40
0.15625
 41
3.875
  0
INSERT
  5
46C
100
AcDbEntity
  8
___SYMBOL
100
AcDbBlockReference
 62
2
  6
CONTINUOUS
  2
SCISSORS_BL0
 10
21.4496166422
 20
7.635031089
  0
INSERT
  5
46D
100
AcDbEntity
  8
___SYMBOL
100
AcDbBlockReference
 62
2
  6
CONTINUOUS
  2
KOHLER_BL1
 10
4.7107369768
 20
18.4625644031
  0
INSERT
  5
46E
100
AcDbEntity
  8
___SYMBOL
100
AcDbBlockReference
 62
2
  6
CONTINUOUS
  2
COPYRIGHT_YEAR_BL2
 10
20.1496768307
 20
5.5033908063
  0
INSERT
  5
46F
100
AcDbEntity
  8
___SYMBOL
100
AcDbBlockReference
 62
2
  6
CONTINUOUS
  2
TEMPLATE_NUMBER_BL3
 10
20.4470933746
 20
5.8516648712
  0
INSERT
  5
470
100
AcDbEntity
  8
___SYMBOL
100
AcDbBlockReference
 62
2
  6
CONTINUOUS
  2
TEMPLATE_NUMBER_BL4
 10
20.3995691989
 20
3.2720111923
  0
LINE
  5
471
100
AcDbEntity
  8
0
100
AcDbLine
 62
2
  6
CONTINUOUS
 10
14.4050638203
 20
17.8061000042
 11
14.0838290146
 21
17.0507641097
  0
LINE
  5
472
100
AcDbEntity
  8
0
100
AcDbLine
 62
2
  6
CONTINUOUS
 10
15.3064530577
 20
15.6228736593
 11
15.3748730577
 21
15.6801336593
  0
LINE
  5
473
100
AcDbEntity
  8
0
100
AcDbLine
 62
2
  6
CONTINUOUS
 10
15.0783730577
 20
15.6211736593
 11
15.1488530577
 21
15.6801336593
  0
LINE
  5
474
100
AcDbEntity
  8
0
100
AcDbLine
 62
2
  6
CONTINUOUS
 10
15.1986130577
 20
15.6222736593
 11
15.2691530577
 21
15.6812336593
  0
LINE
  5
475
100
AcDbEntity
  8
0
100
AcDbLine
 62
2
  6
CONTINUOUS
 10
14.7943130577
 20
15.3521336593
 11
14.8053530577
 21
15.3576136593
  0
LINE
  5
476
100
AcDbEntity
  8
0
100
AcDbLine
 62
2
  6
CONTINUOUS
 10
14.8592097741
 20
15.8370270921
 11
14.8485488816
 21
15.8077331642
  0
LINE
  5
477
100
AcDbEntity
  8
0
100
AcDbLine
 62
2
  6
CONTINUOUS
 10
14.8567985214
 20
15.8261144135
 11
14.6980267026
 21
15.3908336593
  0
LINE
  5
478
100
AcDbEntity
  8
DEFAULT_3
100
AcDbLine
 62
2
  6
PHANTOM
 10
14.8384891096
 20
15.2885892074
 11
14.9664549045
 21
15.6391166769
  0
LINE
  5
479
100
AcDbEntity
  8
0
100
AcDbLine
 62
2
  6
CONTINUOUS
 10
15.7951730577
 20
16.3860736593
 11
15.8062130577
 21
16.4082736593
  0
LINE
  5
47A
100
AcDbEntity
  8
0
100
AcDbLine
 62
2
  6
CONTINUOUS
 10
14.8164130577
 20
15.3355336593
 11
14.8108530577
 21
15.3244136593
  0
LINE
  5
47B
100
AcDbEntity
  8
0
100
AcDbLine
 62
2
  6
CONTINUOUS
 10
15.8062130577
 20
16.4248736593
 11
15.8117130577
 21
16.4358736593
  0
LINE
  5
47C
100
AcDbEntity
  8
DEFAULT_3
100
AcDbLine
 62
2
  6
PHANTOM
 10
15.295629382
 20
15.8615107408
 11
15.2214904844
 21
15.7141478223
  0
LINE
  5
47D
100
AcDbEntity
  8
0
100
AcDbLine
 62
2
  6
CONTINUOUS
 10
15.5435130577
 20
15.6347136593
 11
15.5933130577
 21
15.6763536593
  0
LINE
  5
47E
100
AcDbEntity
  8
0
100
AcDbLine
 62
2
  6
CONTINUOUS
 10
15.6465530577
 20
15.6256936593
 11
15.7460930577
 21
15.7089336593
  0
LINE
  5
47F
100
AcDbEntity
  8
0
100
AcDbLine
 62
2
  6
CONTINUOUS
 10
15.6873130577
 20
15.8500536593
 11
15.7481730577
 21
15.9008336593
  0
LINE
  5
480
100
AcDbEntity
  8
0
100
AcDbLine
 62
2
  6
CONTINUOUS
 10
15.6873130577
 20
15.7549536593
 11
15.7481730577
 21
15.8057336593
  0
LINE
  5
481
100
AcDbEntity
  8
0
100
AcDbLine
 62
2
  6
CONTINUOUS
 10
17.7328870298
 20
15.3886029511
 11
17.7440070298
 21
15.3940829511
  0
LINE
  5
482
100
AcDbEntity
  8
0
100
AcDbLine
 62
2
  6
CONTINUOUS
 10
14.6671130577
 20
16.3758736593
 11
14.6671130577
 21
15.9677936593
  0
LINE
  5
483
100
AcDbEntity
  8
0
100
AcDbLine
 62
2
  6
CONTINUOUS
 10
14.7583530577
 20
15.3687336593
 11
14.7583530577
 21
15.3576136593
  0
LINE
  5
484
100
AcDbEntity
  8
0
100
AcDbLine
 62
2
  6
CONTINUOUS
 10
14.7611130577
 20
15.3797136593
 11
14.7583530577
 21
15.3687336593
  0
LINE
  5
485
100
AcDbEntity
  8
0
100
AcDbLine
 62
2
  6
CONTINUOUS
 10
15.7923530577
 20
16.3750736593
 11
15.7951730577
 21
16.3860736593
  0
LINE
  5
486
100
AcDbEntity
  8
0
100
AcDbLine
 62
2
  6
CONTINUOUS
 10
15.4384730577
 20
16.1510736593
 11
15.4523330577
 21
16.1980736593
  0
LINE
  5
487
100
AcDbEntity
  8
0
100
AcDbLine
 62
2
  6
CONTINUOUS
 10
15.7702530577
 20
16.2036936593
 11
15.7923530577
 21
16.2616736593
  0
LINE
  5
488
100
AcDbEntity
  8
0
100
AcDbLine
 62
2
  6
CONTINUOUS
 10
15.7481730577
 20
16.1372936593
 11
15.7702530577
 21
16.1925736593
  0
LINE
  5
489
100
AcDbEntity
  8
0
100
AcDbLine
 62
2
  6
CONTINUOUS
 10
18.3771270298
 20
16.1875429511
 11
18.4180070298
 21
16.2345429511
  0
LINE
  5
48A
100
AcDbEntity
  8
0
100
AcDbLine
 62
2
  6
CONTINUOUS
 10
18.2451070298
 20
15.6593429511
 11
18.3135270298
 21
15.7166029511
  0
LINE
  5
48B
100
AcDbEntity
  8
0
100
AcDbLine
 62
2
  6
CONTINUOUS
 10
18.0170070298
 20
15.6576429511
 11
18.0875070298
 21
15.7166029511
  0
LINE
  5
48C
100
AcDbEntity
  8
0
100
AcDbLine
 62
2
  6
CONTINUOUS
 10
18.1372470298
 20
15.6587429511
 11
18.2077470298
 21
15.7177029511
  0
LINE
  5
48D
100
AcDbEntity
  8
0
100
AcDbLine
 62
2
  6
CONTINUOUS
 10
18.4821670298
 20
15.6711829511
 11
18.5319670298
 21
15.7128229511
  0
LINE
  5
48E
100
AcDbEntity
  8
0
100
AcDbLine
 62
2
  6
CONTINUOUS
 10
18.5851870298
 20
15.6621629511
 11
18.6847270298
 21
15.7454029511
  0
LINE
  5
48F
100
AcDbEntity
  8
0
100
AcDbLine
 62
2
  6
CONTINUOUS
 10
18.6259670298
 20
15.8865229511
 11
18.6867470298
 21
15.9373029511
  0
LINE
  5
490
100
AcDbEntity
  8
0
100
AcDbLine
 62
2
  6
CONTINUOUS
 10
18.6259670298
 20
15.7914229511
 11
18.6867470298
 21
15.8422029511
  0
LINE
  5
491
100
AcDbEntity
  8
0
100
AcDbLine
 62
2
  6
CONTINUOUS
 10
14.8164130577
 20
15.3548136593
 11
14.8164130577
 21
15.3355336593
  0
LINE
  5
492
100
AcDbEntity
  8
0
100
AcDbLine
 62
2
  6
CONTINUOUS
 10
15.0348530577
 20
15.6203136593
 11
15.0348530577
 21
15.6811136593
  0
LINE
  5
493
100
AcDbEntity
  8
0
100
AcDbLine
 62
2
  6
CONTINUOUS
 10
15.3776930577
 20
16.5879736593
 11
15.3776930577
 21
16.2285936593
  0
LINE
  5
494
100
AcDbEntity
  8
0
100
AcDbLine
 62
2
  6
CONTINUOUS
 10
15.3776930577
 20
16.1980736593
 11
15.3776930577
 21
15.9077936593
  0
LINE
  5
495
100
AcDbEntity
  8
0
100
AcDbLine
 62
2
  6
CONTINUOUS
 10
15.4163730577
 20
15.6811136593
 11
15.4163730577
 21
15.6203136593
  0
LINE
  5
496
100
AcDbEntity
  8
0
100
AcDbLine
 62
2
  6
CONTINUOUS
 10
15.4384730577
 20
15.6203136593
 11
15.4384730577
 21
16.1510736593
  0
LINE
  5
497
100
AcDbEntity
  8
0
100
AcDbLine
 62
2
  6
CONTINUOUS
 10
15.4699804883
 20
15.5940923818
 11
15.4699804883
 21
15.5798613431
  0
LINE
  5
498
100
AcDbEntity
  8
DEFAULT_1
100
AcDbLine
 62
2
  6
CENTER
 10
15.4785730577
 20
16.2499536593
 11
15.4785730577
 21
15.4337734007
  0
LINE
  5
499
100
AcDbEntity
  8
0
100
AcDbLine
 62
2
  6
CONTINUOUS
 10
15.4871656272
 20
15.5799975958
 11
15.4871656272
 21
15.5940923818
  0
LINE
  5
49A
100
AcDbEntity
  8
0
100
AcDbLine
 62
2
  6
CONTINUOUS
 10
15.5214130577
 20
15.6203136593
 11
15.5214130577
 21
16.1510736593
  0
LINE
  5
49B
100
AcDbEntity
  8
0
100
AcDbLine
 62
2
  6
CONTINUOUS
 10
15.5435130577
 20
15.6811136593
 11
15.5435130577
 21
15.6203136593
  0
LINE
  5
49C
100
AcDbEntity
  8
0
100
AcDbLine
 62
2
  6
CONTINUOUS
 10
15.5739730577
 20
16.5879736593
 11
15.5739730577
 21
16.2285936593
  0
LINE
  5
49D
100
AcDbEntity
  8
0
100
AcDbLine
 62
2
  6
CONTINUOUS
 10
15.5739730577
 20
15.9077936593
 11
15.5739730577
 21
16.1980736593
  0
LINE
  5
49E
100
AcDbEntity
  8
0
100
AcDbLine
 62
2
  6
CONTINUOUS
 10
15.6873130577
 20
15.7311136593
 11
15.6873130577
 21
15.9077936593
  0
LINE
  5
49F
100
AcDbEntity
  8
0
100
AcDbLine
 62
2
  6
CONTINUOUS
 10
15.7481730577
 20
15.9077936593
 11
15.7481730577
 21
15.7203136593
  0
LINE
  5
4A0
100
AcDbEntity
  8
0
100
AcDbLine
 62
2
  6
CONTINUOUS
 10
15.7702530577
 20
16.1925736593
 11
15.7702530577
 21
16.2036936593
  0
LINE
  5
4A1
100
AcDbEntity
  8
0
100
AcDbLine
 62
2
  6
CONTINUOUS
 10
15.7730130577
 20
15.9990936593
 11
15.7730130577
 21
16.0100936593
  0
LINE
  5
4A2
100
AcDbEntity
  8
0
100
AcDbLine
 62
2
  6
CONTINUOUS
 10
15.7923530577
 20
16.2616736593
 11
15.7923530577
 21
16.3750736593
  0
LINE
  5
4A3
100
AcDbEntity
  8
0
100
AcDbLine
 62
2
  6
CONTINUOUS
 10
15.8062130577
 20
16.4082736593
 11
15.8062130577
 21
16.4248736593
  0
LINE
  5
4A4
100
AcDbEntity
  8
0
100
AcDbLine
 62
2
  6
CONTINUOUS
 10
15.8919130577
 20
16.2008936593
 11
15.8919130577
 21
15.9105936593
  0
LINE
  5
4A5
100
AcDbEntity
  8
0
100
AcDbLine
 62
2
  6
CONTINUOUS
 10
15.7426130577
 20
16.0957736593
 11
15.7481730577
 21
16.1372936593
  0
LINE
  5
4A6
100
AcDbEntity
  8
0
100
AcDbLine
 62
2
  6
CONTINUOUS
 10
17.7550470298
 20
15.3720029511
 11
17.7494870298
 21
15.3608829511
  0
LINE
  5
4A7
100
AcDbEntity
  8
DEFAULT_3
100
AcDbLine
 62
2
  6
PHANTOM
 10
18.2342833541
 20
15.8979800326
 11
18.1601444565
 21
15.7506171141
  0
LINE
  5
4A8
100
AcDbEntity
  8
0
100
AcDbLine
 62
2
  6
CONTINUOUS
 10
14.8108495395
 20
15.3244333459
 11
14.8136495395
 21
15.3134533459
  0
LINE
  5
4A9
100
AcDbEntity
  8
0
100
AcDbLine
 62
2
  6
CONTINUOUS
 10
14.8357491096
 20
15.2995556047
 11
14.8384891096
 21
15.2885756047
  0
LINE
  5
4AA
100
AcDbEntity
  8
0
100
AcDbLine
 62
2
  6
CONTINUOUS
 10
14.7583530577
 20
15.3908336593
 11
14.7611130577
 21
15.3797136593
  0
LINE
  5
4AB
100
AcDbEntity
  8
0
100
AcDbLine
 62
2
  6
CONTINUOUS
 10
17.6997470298
 20
15.4161829511
 11
17.6970070298
 21
15.4052029511
  0
LINE
  5
4AC
100
AcDbEntity
  8
DEFAULT_3
100
AcDbLine
 62
2
  6
PHANTOM
 10
17.8000870298
 20
15.8779829511
 11
17.7842270298
 21
15.8344029511
  0
LINE
  5
4AD
100
AcDbEntity
  8
DEFAULT_3
100
AcDbLine
 62
2
  6
PHANTOM
 10
17.7942536694
 20
15.8592970701
 11
17.6417070298
 21
15.4410829511
  0
LINE
  5
4AE
100
AcDbEntity
  8
DEFAULT_3
100
AcDbLine
 62
2
  6
PHANTOM
 10
17.7771470298
 20
15.3250029511
 11
17.9047799462
 21
15.674859788
  0
LINE
  5
4AF
100
AcDbEntity
  8
0
100
AcDbLine
 62
2
  6
CONTINUOUS
 10
18.7089070298
 20
16.2401629511
 11
18.7310070298
 21
16.2981429511
  0
LINE
  5
4B0
100
AcDbEntity
  8
0
100
AcDbLine
 62
2
  6
CONTINUOUS
 10
18.7338070298
 20
16.4225429511
 11
18.7448470298
 21
16.4447429511
  0
LINE
  5
4B1
100
AcDbEntity
  8
DEFAULT_3
100
AcDbLine
 62
2
  6
PHANTOM
 10
18.7448470298
 20
16.4613429511
 11
18.7503470298
 21
16.4723429511
  0
LINE
  5
4B2
100
AcDbEntity
  8
0
100
AcDbLine
 62
2
  6
CONTINUOUS
 10
15.5214130577
 20
16.1510736593
 11
15.5076330577
 21
16.1980736593
  0
LINE
  5
4B3
100
AcDbEntity
  8
0
100
AcDbLine
 62
2
  6
CONTINUOUS
 10
15.7840530577
 20
15.9521136593
 11
15.7730130577
 21
15.9990936593
  0
LINE
  5
4B4
100
AcDbEntity
  8
0
100
AcDbLine
 62
2
  6
CONTINUOUS
 10
15.7619530577
 20
16.0515936593
 11
15.7592130577
 21
16.0653936593
  0
LINE
  5
4B5
100
AcDbEntity
  8
0
100
AcDbLine
 62
2
  6
CONTINUOUS
 10
15.7730130577
 20
16.0100936593
 11
15.7675130577
 21
16.0404936593
  0
LINE
  5
4B6
100
AcDbEntity
  8
DEFAULT_3
100
AcDbLine
 62
2
  6
PHANTOM
 10
17.6057470298
 20
16.4723429511
 11
17.6057470298
 21
15.9442629511
  0
LINE
  5
4B7
100
AcDbEntity
  8
0
100
AcDbLine
 62
2
  6
CONTINUOUS
 10
17.6970070298
 20
15.4052029511
 11
17.6970070298
 21
15.3940829511
  0
LINE
  5
4B8
100
AcDbEntity
  8
0
100
AcDbLine
 62
2
  6
CONTINUOUS
 10
17.7550470298
 20
15.3912829511
 11
17.7550470298
 21
15.3720029511
  0
LINE
  5
4B9
100
AcDbEntity
  8
0
100
AcDbLine
 62
2
  6
CONTINUOUS
 10
17.9734270298
 20
15.7175829511
 11
17.9734270298
 21
15.6567829511
  0
LINE
  5
4BA
100
AcDbEntity
  8
0
100
AcDbLine
 62
2
  6
CONTINUOUS
 10
18.2338354237
 20
17.8061000042
 11
18.0254669011
 21
15.9394653223
  0
LINE
  5
4BB
100
AcDbEntity
  8
0
100
AcDbLine
 62
2
  6
CONTINUOUS
 10
18.7310070298
 20
16.3672429511
 11
18.7338070298
 21
16.3783429511
  0
LINE
  5
4BC
100
AcDbEntity
  8
0
100
AcDbLine
 62
2
  6
CONTINUOUS
 10
18.7310070298
 20
16.4115429511
 11
18.7338070298
 21
16.4225429511
  0
LINE
  5
4BD
100
AcDbEntity
  8
0
100
AcDbLine
 62
2
  6
CONTINUOUS
 10
18.6812470298
 20
16.1322429511
 11
18.7089070298
 21
16.2401629511
  0
LINE
  5
4BE
100
AcDbEntity
  8
0
100
AcDbLine
 62
2
  6
CONTINUOUS
 10
15.7675130577
 20
16.0404936593
 11
15.7619530577
 21
16.0515936593
  0
LINE
  5
4BF
100
AcDbEntity
  8
0
100
AcDbLine
 62
2
  6
CONTINUOUS
 10
15.7509130577
 20
16.0736936593
 11
15.7426130577
 21
16.0957736593
  0
LINE
  5
4C0
100
AcDbEntity
  8
0
100
AcDbLine
 62
2
  6
CONTINUOUS
 10
18.3550270298
 20
15.7175829511
 11
18.3550270298
 21
15.6567829511
  0
LINE
  5
4C1
100
AcDbEntity
  8
0
100
AcDbLine
 62
2
  6
CONTINUOUS
 10
18.3771270298
 20
15.6567829511
 11
18.3771270298
 21
16.1875429511
  0
LINE
  5
4C2
100
AcDbEntity
  8
0
100
AcDbLine
 62
2
  6
CONTINUOUS
 10
18.4086344604
 20
15.6304910446
 11
18.4086344604
 21
15.6162600058
  0
LINE
  5
4C3
100
AcDbEntity
  8
DEFAULT_1
100
AcDbLine
 62
2
  6
CENTER
 10
18.4172270298
 20
16.3576109613
 11
18.4172270298
 21
15.4776086116
  0
LINE
  5
4C4
100
AcDbEntity
  8
0
100
AcDbLine
 62
2
  6
CONTINUOUS
 10
18.4258195993
 20
15.6163962585
 11
18.4258195993
 21
15.6304910446
  0
LINE
  5
4C5
100
AcDbEntity
  8
0
100
AcDbLine
 62
2
  6
CONTINUOUS
 10
18.4600670298
 20
16.1875429511
 11
18.4600670298
 21
15.6567829511
  0
LINE
  5
4C6
100
AcDbEntity
  8
0
100
AcDbLine
 62
2
  6
CONTINUOUS
 10
18.4821670298
 20
15.7175829511
 11
18.4821670298
 21
15.6567829511
  0
LINE
  5
4C7
100
AcDbEntity
  8
0
100
AcDbLine
 62
2
  6
CONTINUOUS
 10
18.6259670298
 20
15.9442629511
 11
18.6259670298
 21
15.7675829511
  0
LINE
  5
4C8
100
AcDbEntity
  8
0
100
AcDbLine
 62
2
  6
CONTINUOUS
 10
18.6867470298
 20
15.7667829511
 11
18.6867470298
 21
15.9442629511
  0
LINE
  5
4C9
100
AcDbEntity
  8
0
100
AcDbLine
 62
2
  6
CONTINUOUS
 10
18.7116470298
 20
16.0355629511
 11
18.7116470298
 21
16.0465629511
  0
LINE
  5
4CA
100
AcDbEntity
  8
0
100
AcDbLine
 62
2
  6
CONTINUOUS
 10
18.7310070298
 20
16.2981429511
 11
18.7310070298
 21
16.3672429511
  0
LINE
  5
4CB
100
AcDbEntity
  8
0
100
AcDbLine
 62
2
  6
CONTINUOUS
 10
18.7310070298
 20
16.3894629511
 11
18.7310070298
 21
16.4115429511
  0
LINE
  5
4CC
100
AcDbEntity
  8
0
100
AcDbLine
 62
2
  6
CONTINUOUS
 10
18.7448470298
 20
16.4447429511
 11
18.7448470298
 21
16.4613429511
  0
LINE
  5
4CD
100
AcDbEntity
  8
0
100
AcDbLine
 62
2
  6
CONTINUOUS
 10
14.8136627123
 20
15.3134483992
 11
14.8219627123
 21
15.3051483992
  0
LINE
  5
4CE
100
AcDbEntity
  8
0
100
AcDbLine
 62
2
  6
CONTINUOUS
 10
14.7030530577
 20
15.4046136593
 11
14.7141130577
 21
15.3935136593
  0
LINE
  5
4CF
100
AcDbEntity
  8
0
100
AcDbLine
 62
2
  6
CONTINUOUS
 10
14.0838290146
 20
17.0507641097
 11
15.0041233229
 21
15.9221012787
  0
LINE
  5
4D0
100
AcDbEntity
  8
0
100
AcDbLine
 62
2
  6
CONTINUOUS
 10
15.8117130577
 20
15.9077936593
 11
15.7840530577
 21
15.9521136593
  0
LINE
  5
4D1
100
AcDbEntity
  8
0
100
AcDbLine
 62
2
  6
CONTINUOUS
 10
17.7494870298
 20
15.3608829511
 11
17.7523070298
 21
15.3499029511
  0
LINE
  5
4D2
100
AcDbEntity
  8
0
100
AcDbLine
 62
2
  6
CONTINUOUS
 10
17.7743870298
 20
15.3359829511
 11
17.7771470298
 21
15.3250029511
  0
LINE
  5
4D3
100
AcDbEntity
  8
0
100
AcDbLine
 62
2
  6
CONTINUOUS
 10
17.6970070298
 20
15.4273029511
 11
17.6997470298
 21
15.4161829511
  0
LINE
  5
4D4
100
AcDbEntity
  8
0
100
AcDbLine
 62
2
  6
CONTINUOUS
 10
14.8053530577
 20
15.3576136593
 11
14.8164130577
 21
15.3548136593
  0
LINE
  5
4D5
100
AcDbEntity
  8
0
100
AcDbLine
 62
2
  6
CONTINUOUS
 10
14.8219627123
 20
15.3051483992
 11
14.8357627123
 21
15.2995283992
  0
LINE
  5
4D6
100
AcDbEntity
  8
0
100
AcDbLine
 62
2
  6
CONTINUOUS
 10
14.7583530577
 20
15.3576136593
 11
14.7694130577
 21
15.3521336593
  0
LINE
  5
4D7
100
AcDbEntity
  8
0
100
AcDbLine
 62
2
  6
CONTINUOUS
 10
15.7592130577
 20
16.0653936593
 11
15.7509130577
 21
16.0736936593
  0
LINE
  5
4D8
100
AcDbEntity
  8
0
100
AcDbLine
 62
2
  6
CONTINUOUS
 10
17.6417070298
 20
15.4410829511
 11
17.6527470298
 21
15.4299829511
  0
LINE
  5
4D9
100
AcDbEntity
  8
0
100
AcDbLine
 62
2
  6
CONTINUOUS
 10
17.7523070298
 20
15.3499029511
 11
17.7605470298
 21
15.3416029511
  0
LINE
  5
4DA
100
AcDbEntity
  8
0
100
AcDbLine
 62
2
  6
CONTINUOUS
 10
18.6895470298
 20
16.1101629511
 11
18.6812470298
 21
16.1322429511
  0
LINE
  5
4DB
100
AcDbEntity
  8
0
100
AcDbLine
 62
2
  6
CONTINUOUS
 10
18.7338070298
 20
16.3783429511
 11
18.7310070298
 21
16.3894629511
  0
LINE
  5
4DC
100
AcDbEntity
  8
0
100
AcDbLine
 62
2
  6
CONTINUOUS
 10
18.7227070298
 20
15.9885829511
 11
18.7116470298
 21
16.0355629511
  0
LINE
  5
4DD
100
AcDbEntity
  8
0
100
AcDbLine
 62
2
  6
CONTINUOUS
 10
18.7006070298
 20
16.0880629511
 11
18.6978670298
 21
16.1018629511
  0
LINE
  5
4DE
100
AcDbEntity
  8
0
100
AcDbLine
 62
2
  6
CONTINUOUS
 10
18.7116470298
 20
16.0465629511
 11
18.7061670298
 21
16.0769629511
  0
LINE
  5
4DF
100
AcDbEntity
  8
0
100
AcDbLine
 62
2
  6
CONTINUOUS
 10
14.7694130577
 20
15.3521336593
 11
14.7943130577
 21
15.3521336593
  0
LINE
  5
4E0
100
AcDbEntity
  8
0
100
AcDbLine
 62
2
  6
CONTINUOUS
 10
17.7080470298
 20
15.3886029511
 11
17.7328870298
 21
15.3886029511
  0
LINE
  5
4E1
100
AcDbEntity
  8
0
100
AcDbLine
 62
2
  6
CONTINUOUS
 10
14.7278930577
 20
15.3908336593
 11
14.7583530577
 21
15.3908336593
  0
LINE
  5
4E2
100
AcDbEntity
  8
0
100
AcDbLine
 62
2
  6
CONTINUOUS
 10
17.6665470298
 20
15.4273029511
 11
17.6970070298
 21
15.4273029511
  0
LINE
  5
4E3
100
AcDbEntity
  8
0
100
AcDbLine
 62
2
  6
CONTINUOUS
 10
15.4699804883
 20
15.5940923818
 11
15.4871656272
 21
15.5940923818
  0
LINE
  5
4E4
100
AcDbEntity
  8
0
100
AcDbLine
 62
2
  6
CONTINUOUS
 10
15.6481730577
 20
15.6203136593
 11
15.0348530577
 21
15.6203136593
  0
LINE
  5
4E5
100
AcDbEntity
  8
0
100
AcDbLine
 62
2
  6
CONTINUOUS
 10
15.4536730577
 20
15.6271536593
 11
15.5048130577
 21
15.6271536593
  0
LINE
  5
4E6
100
AcDbEntity
  8
0
100
AcDbLine
 62
2
  6
CONTINUOUS
 10
18.4086344604
 20
15.6304910446
 11
18.4258195993
 21
15.6304910446
  0
LINE
  5
4E7
100
AcDbEntity
  8
0
100
AcDbLine
 62
2
  6
CONTINUOUS
 10
15.4384730577
 20
15.6437536593
 11
15.5214130577
 21
15.6437536593
  0
LINE
  5
4E8
100
AcDbEntity
  8
0
100
AcDbLine
 62
2
  6
CONTINUOUS
 10
17.9734270298
 20
15.6567829511
 11
18.5767470298
 21
15.6567829511
  0
LINE
  5
4E9
100
AcDbEntity
  8
0
100
AcDbLine
 62
2
  6
CONTINUOUS
 10
15.4536730577
 20
15.6616936593
 11
15.5048130577
 21
15.6616936593
  0
LINE
  5
4EA
100
AcDbEntity
  8
0
100
AcDbLine
 62
2
  6
CONTINUOUS
 10
15.0265779725
 20
15.6811136593
 11
15.6373130577
 21
15.6811136593
  0
LINE
  5
4EB
100
AcDbEntity
  8
0
100
AcDbLine
 62
2
  6
CONTINUOUS
 10
15.4536730577
 20
15.6977136593
 11
15.5048130577
 21
15.6977136593
  0
LINE
  5
4EC
100
AcDbEntity
  8
0
100
AcDbLine
 62
2
  6
CONTINUOUS
 10
15.5214130577
 20
15.7169936593
 11
15.4384730577
 21
15.7169936593
  0
LINE
  5
4ED
100
AcDbEntity
  8
0
100
AcDbLine
 62
2
  6
CONTINUOUS
 10
18.5759670298
 20
15.7175829511
 11
18.4600670298
 21
15.7175829511
  0
LINE
  5
4EE
100
AcDbEntity
  8
DEFAULT_3
100
AcDbLine
 62
2
  6
PHANTOM
 10
17.9658433767
 20
15.7175829511
 11
18.106545542
 21
15.7175829511
  0
LINE
  5
4EF
100
AcDbEntity
  8
0
100
AcDbLine
 62
2
  6
CONTINUOUS
 10
18.106545542
 20
15.7175829511
 11
18.3771270298
 21
15.7175829511
  0
LINE
  5
4F0
100
AcDbEntity
  8
0
100
AcDbLine
 62
2
  6
CONTINUOUS
 10
15.4536730577
 20
15.7335936593
 11
15.5048130577
 21
15.7335936593
  0
LINE
  5
4F1
100
AcDbEntity
  8
0
100
AcDbLine
 62
2
  6
CONTINUOUS
 10
15.4384730577
 20
15.7515336593
 11
15.5214130577
 21
15.7515336593
  0
LINE
  5
4F2
100
AcDbEntity
  8
0
100
AcDbLine
 62
2
  6
CONTINUOUS
 10
15.4536730577
 20
15.7696136593
 11
15.5048130577
 21
15.7696136593
  0
LINE
  5
4F3
100
AcDbEntity
  8
0
100
AcDbLine
 62
2
  6
CONTINUOUS
 10
15.4384730577
 20
15.7875536593
 11
15.5214130577
 21
15.7875536593
  0
LINE
  5
4F4
100
AcDbEntity
  8
0
100
AcDbLine
 62
2
  6
CONTINUOUS
 10
15.4536730577
 20
15.8041536593
 11
15.5048130577
 21
15.8041536593
  0
LINE
  5
4F5
100
AcDbEntity
  8
0
100
AcDbLine
 62
2
  6
CONTINUOUS
 10
18.3771270298
 20
15.8240229511
 11
18.4600670298
 21
15.8240229511
  0
LINE
  5
4F6
100
AcDbEntity
  8
0
100
AcDbLine
 62
2
  6
CONTINUOUS
 10
15.4384730577
 20
15.8249136593
 11
15.5214130577
 21
15.8249136593
  0
LINE
  5
4F7
100
AcDbEntity
  8
0
100
AcDbLine
 62
2
  6
CONTINUOUS
 10
18.3923070298
 20
15.8406229511
 11
18.4434670298
 21
15.8406229511
  0
LINE
  5
4F8
100
AcDbEntity
  8
0
100
AcDbLine
 62
2
  6
CONTINUOUS
 10
15.4536730577
 20
15.8415136593
 11
15.5048130577
 21
15.8415136593
  0
LINE
  5
4F9
100
AcDbEntity
  8
0
100
AcDbLine
 62
2
  6
CONTINUOUS
 10
15.4384730577
 20
15.8607936593
 11
15.5214130577
 21
15.8607936593
  0
LINE
  5
4FA
100
AcDbEntity
  8
0
100
AcDbLine
 62
2
  6
CONTINUOUS
 10
18.3771270298
 20
15.8613829511
 11
18.4600670298
 21
15.8613829511
  0
LINE
  5
4FB
100
AcDbEntity
  8
0
100
AcDbLine
 62
2
  6
CONTINUOUS
 10
15.4536730577
 20
15.8773936593
 11
15.5048130577
 21
15.8773936593
  0
LINE
  5
4FC
100
AcDbEntity
  8
0
100
AcDbLine
 62
2
  6
CONTINUOUS
 10
18.3923070298
 20
15.8779829511
 11
18.4434670298
 21
15.8779829511
  0
LINE
  5
4FD
100
AcDbEntity
  8
0
100
AcDbLine
 62
2
  6
CONTINUOUS
 10
15.4384730577
 20
15.8968136593
 11
15.5214130577
 21
15.8968136593
  0
LINE
  5
4FE
100
AcDbEntity
  8
0
100
AcDbLine
 62
2
  6
CONTINUOUS
 10
18.3771270298
 20
15.8972629511
 11
18.4600670298
 21
15.8972629511
  0
LINE
  5
4FF
100
AcDbEntity
  8
0
100
AcDbLine
 62
2
  6
CONTINUOUS
 10
17.6527470298
 20
15.4299829511
 11
17.6665470298
 21
15.4273029511
  0
LINE
  5
500
100
AcDbEntity
  8
0
100
AcDbLine
 62
2
  6
CONTINUOUS
 10
14.7141130577
 20
15.3935136593
 11
14.7278930577
 21
15.3908336593
  0
LINE
  5
501
100
AcDbEntity
  8
0
100
AcDbLine
 62
2
  6
CONTINUOUS
 10
17.7440070298
 20
15.3940829511
 11
17.7550470298
 21
15.3912829511
  0
LINE
  5
502
100
AcDbEntity
  8
0
100
AcDbLine
 62
2
  6
CONTINUOUS
 10
17.7605470298
 20
15.3416029511
 11
17.7743870298
 21
15.3359829511
  0
LINE
  5
503
100
AcDbEntity
  8
0
100
AcDbLine
 62
2
  6
CONTINUOUS
 10
17.6970070298
 20
15.3940829511
 11
17.7080470298
 21
15.3886029511
  0
LINE
  5
504
100
AcDbEntity
  8
0
100
AcDbLine
 62
2
  6
CONTINUOUS
 10
18.6978670298
 20
16.1018629511
 11
18.6895470298
 21
16.1101629511
  0
LINE
  5
505
100
AcDbEntity
  8
0
100
AcDbLine
 62
2
  6
CONTINUOUS
 10
18.4180070298
 20
16.2345429511
 11
18.4600670298
 21
16.1875429511
  0
LINE
  5
506
100
AcDbEntity
  8
0
100
AcDbLine
 62
2
  6
CONTINUOUS
 10
18.7503470298
 20
15.9442629511
 11
18.7227070298
 21
15.9885829511
  0
LINE
  5
507
100
AcDbEntity
  8
0
100
AcDbLine
 62
2
  6
CONTINUOUS
 10
18.7061670298
 20
16.0769629511
 11
18.7006070298
 21
16.0880629511
  0
LINE
  5
508
100
AcDbEntity
  8
DEFAULT_3
100
AcDbLine
 62
2
  6
PHANTOM
 10
14.7970530577
 20
15.9049936593
 11
15.4384730577
 21
15.9049936593
  0
LINE
  5
509
100
AcDbEntity
  8
0
100
AcDbLine
 62
2
  6
CONTINUOUS
 10
15.5214130577
 20
15.9077936593
 11
15.8117130577
 21
15.9077936593
  0
LINE
  5
50A
100
AcDbEntity
  8
0
100
AcDbLine
 62
2
  6
CONTINUOUS
 10
15.8310530577
 20
15.9105936593
 11
15.9388930577
 21
15.9105936593
  0
LINE
  5
50B
100
AcDbEntity
  8
0
100
AcDbLine
 62
2
  6
CONTINUOUS
 10
18.3923070298
 20
15.9138629511
 11
18.4434670298
 21
15.9138629511
  0
LINE
  5
50C
100
AcDbEntity
  8
0
100
AcDbLine
 62
2
  6
CONTINUOUS
 10
15.4536730577
 20
15.9147536593
 11
15.5048130577
 21
15.9147536593
  0
LINE
  5
50D
100
AcDbEntity
  8
0
100
AcDbLine
 62
2
  6
CONTINUOUS
 10
15.4384730577
 20
15.9326936593
 11
15.5214130577
 21
15.9326936593
  0
LINE
  5
50E
100
AcDbEntity
  8
0
100
AcDbLine
 62
2
  6
CONTINUOUS
 10
18.3771270298
 20
15.9332829511
 11
18.4600670298
 21
15.9332829511
  0
LINE
  5
50F
100
AcDbEntity
  8
DEFAULT_3
100
AcDbLine
 62
2
  6
PHANTOM
 10
17.7364870298
 20
15.9414629511
 11
17.9106270298
 21
15.9414629511
  0
LINE
  5
510
100
AcDbEntity
  8
DEFAULT_3
100
AcDbLine
 62
2
  6
PHANTOM
 10
17.9116855145
 20
15.9414629511
 11
18.2074838969
 21
15.9414629511
  0
LINE
  5
511
100
AcDbEntity
  8
DEFAULT_3
100
AcDbLine
 62
2
  6
PHANTOM
 10
17.6057470298
 20
15.9442629511
 11
18.3771270298
 21
15.9442629511
  0
LINE
  5
512
100
AcDbEntity
  8
DEFAULT_3
100
AcDbLine
 62
2
  6
PHANTOM
 10
18.4600670298
 20
15.9442629511
 11
18.7503470298
 21
15.9442629511
  0
LINE
  5
513
100
AcDbEntity
  8
0
100
AcDbLine
 62
2
  6
CONTINUOUS
 10
18.3923070298
 20
15.9512229511
 11
18.4434670298
 21
15.9512229511
  0
LINE
  5
514
100
AcDbEntity
  8
0
100
AcDbLine
 62
2
  6
CONTINUOUS
 10
15.4536730577
 20
15.9521136593
 11
15.5048130577
 21
15.9521136593
  0
LINE
  5
515
100
AcDbEntity
  8
0
100
AcDbLine
 62
2
  6
CONTINUOUS
 10
18.3771270298
 20
15.9691629511
 11
18.4600670298
 21
15.9691629511
  0
LINE
  5
516
100
AcDbEntity
  8
0
100
AcDbLine
 62
2
  6
CONTINUOUS
 10
15.4384730577
 20
15.9713936593
 11
15.5214130577
 21
15.9713936593
  0
LINE
  5
517
100
AcDbEntity
  8
0
100
AcDbLine
 62
2
  6
CONTINUOUS
 10
15.4536730577
 20
15.9879936593
 11
15.5048130577
 21
15.9879936593
  0
LINE
  5
518
100
AcDbEntity
  8
0
100
AcDbLine
 62
2
  6
CONTINUOUS
 10
18.3923070298
 20
15.9885829511
 11
18.4434670298
 21
15.9885829511
  0
LINE
  5
519
100
AcDbEntity
  8
0
100
AcDbLine
 62
2
  6
CONTINUOUS
 10
15.4384730577
 20
16.0073936593
 11
15.5214130577
 21
16.0073936593
  0
LINE
  5
51A
100
AcDbEntity
  8
0
100
AcDbLine
 62
2
  6
CONTINUOUS
 10
18.3771270298
 20
16.0078629511
 11
18.4600670298
 21
16.0078629511
  0
LINE
  5
51B
100
AcDbEntity
  8
0
100
AcDbLine
 62
2
  6
CONTINUOUS
 10
15.4536730577
 20
16.0238736593
 11
15.5048130577
 21
16.0238736593
  0
LINE
  5
51C
100
AcDbEntity
  8
0
100
AcDbLine
 62
2
  6
CONTINUOUS
 10
18.3923070298
 20
16.0244629511
 11
18.4434670298
 21
16.0244629511
  0
LINE
  5
51D
100
AcDbEntity
  8
0
100
AcDbLine
 62
2
  6
CONTINUOUS
 10
15.4384730577
 20
16.0419536593
 11
15.5214130577
 21
16.0419536593
  0
LINE
  5
51E
100
AcDbEntity
  8
0
100
AcDbLine
 62
2
  6
CONTINUOUS
 10
18.3771270298
 20
16.0438629511
 11
18.4600670298
 21
16.0438629511
  0
LINE
  5
51F
100
AcDbEntity
  8
0
100
AcDbLine
 62
2
  6
CONTINUOUS
 10
15.4536730577
 20
16.0598936593
 11
15.5048130577
 21
16.0598936593
  0
LINE
  5
520
100
AcDbEntity
  8
0
100
AcDbLine
 62
2
  6
CONTINUOUS
 10
18.3923070298
 20
16.0603429511
 11
18.4434670298
 21
16.0603429511
  0
LINE
  5
521
100
AcDbEntity
  8
0
100
AcDbLine
 62
2
  6
CONTINUOUS
 10
15.4384730577
 20
16.0778336593
 11
15.5214130577
 21
16.0778336593
  0
LINE
  5
522
100
AcDbEntity
  8
0
100
AcDbLine
 62
2
  6
CONTINUOUS
 10
18.3771270298
 20
16.0784229511
 11
18.4600670298
 21
16.0784229511
  0
LINE
  5
523
100
AcDbEntity
  8
0
100
AcDbLine
 62
2
  6
CONTINUOUS
 10
15.4536730577
 20
16.0957736593
 11
15.5048130577
 21
16.0957736593
  0
LINE
  5
524
100
AcDbEntity
  8
0
100
AcDbLine
 62
2
  6
CONTINUOUS
 10
18.3923070298
 20
16.0963629511
 11
18.4434670298
 21
16.0963629511
  0
LINE
  5
525
100
AcDbEntity
  8
0
100
AcDbLine
 62
2
  6
CONTINUOUS
 10
18.3771270298
 20
16.1143029511
 11
18.4600670298
 21
16.1143029511
  0
LINE
  5
526
100
AcDbEntity
  8
0
100
AcDbLine
 62
2
  6
CONTINUOUS
 10
15.4384730577
 20
16.1151936593
 11
15.5214130577
 21
16.1151936593
  0
LINE
  5
527
100
AcDbEntity
  8
0
100
AcDbLine
 62
2
  6
CONTINUOUS
 10
18.3923070298
 20
16.1322429511
 11
18.4434670298
 21
16.1322429511
  0
LINE
  5
528
100
AcDbEntity
  8
0
100
AcDbLine
 62
2
  6
CONTINUOUS
 10
15.4536730577
 20
16.1331336593
 11
15.5048130577
 21
16.1331336593
  0
LINE
  5
529
100
AcDbEntity
  8
0
100
AcDbLine
 62
2
  6
CONTINUOUS
 10
15.5214130577
 20
16.1510736593
 11
15.4384730577
 21
16.1510736593
  0
LINE
  5
52A
100
AcDbEntity
  8
0
100
AcDbLine
 62
2
  6
CONTINUOUS
 10
18.3771270298
 20
16.1516629511
 11
18.4600670298
 21
16.1516629511
  0
LINE
  5
52B
100
AcDbEntity
  8
0
100
AcDbLine
 62
2
  6
CONTINUOUS
 10
18.3923070298
 20
16.1696029511
 11
18.4434670298
 21
16.1696029511
  0
LINE
  5
52C
100
AcDbEntity
  8
0
100
AcDbLine
 62
2
  6
CONTINUOUS
 10
18.4600670298
 20
16.1875429511
 11
18.3771270298
 21
16.1875429511
  0
LINE
  5
52D
100
AcDbEntity
  8
0
100
AcDbLine
 62
2
  6
CONTINUOUS
 10
15.5739730577
 20
16.1980736593
 11
15.3776930577
 21
16.1980736593
  0
LINE
  5
52E
100
AcDbEntity
  8
0
100
AcDbLine
 62
2
  6
CONTINUOUS
 10
15.6071130577
 20
16.2008936593
 11
15.9444530577
 21
16.2008936593
  0
LINE
  5
52F
100
AcDbEntity
  8
DEFAULT_3
100
AcDbLine
 62
2
  6
PHANTOM
 10
15.8117130577
 20
16.4358736593
 11
14.7271130577
 21
16.4358736593
  0
LINE
  5
530
100
AcDbEntity
  8
DEFAULT_3
100
AcDbLine
 62
2
  6
PHANTOM
 10
18.7503470298
 20
16.4723429511
 11
17.6057470298
 21
16.4723429511
  0
LINE
  5
531
100
AcDbEntity
  8
0
100
AcDbLine
 62
2
  6
CONTINUOUS
 10
15.3804330577
 20
16.5464736593
 11
16.1801730577
 21
16.5464736593
  0
LINE
  5
532
100
AcDbEntity
  8
0
100
AcDbLine
 62
2
  6
CONTINUOUS
 10
18.3727477721
 20
17.8061000042
 11
18.2338354237
 21
17.8061000042
  0
LINE
  5
533
100
AcDbEntity
  8
0
100
AcDbLine
 62
2
  6
CONTINUOUS
 10
14.5439761687
 20
17.8061000042
 11
14.4050638203
 21
17.8061000042
  0
LINE
  5
534
100
AcDbEntity
  8
DEFAULT_3
100
AcDbLine
 62
8
  6
PHANTOM
 10
1.4254424745
 20
12.2213554206
 11
1.426192183
 21
5.1499038757
  0
LINE
  5
535
100
AcDbEntity
  8
DEFAULT_3
100
AcDbLine
 62
8
  6
PHANTOM
 10
1.4254424745
 20
12.2213554206
 11
1.4261921843
 21
19.2927553356
  0
LINE
  5
536
100
AcDbEntity
  8
0
100
AcDbLine
 62
7
  6
CONTINUOUS
 10
2.6825415507
 20
5.600268458
 11
2.6818437325
 21
12.2213554213
  0
LINE
  5
537
100
AcDbEntity
  8
0
100
AcDbLine
 62
7
  6
CONTINUOUS
 10
2.6825415507
 20
18.842442405
 11
2.6818437325
 21
12.2213554213
  0
LINE
  5
538
100
AcDbEntity
  8
DEFAULT_3
100
AcDbLine
 62
8
  6
PHANTOM
 10
21.4871918708
 20
3.9689799993
 11
12.0464548104
 21
3.9675870931
  0
LINE
  5
539
100
AcDbEntity
  8
DEFAULT_3
100
AcDbLine
 62
8
  6
PHANTOM
 10
2.6057177438
 20
3.9689799993
 11
12.0464548104
 21
3.9675870931
  0
LINE
  5
53A
100
AcDbEntity
  8
0
100
AcDbLine
 62
7
  6
CONTINUOUS
 10
12.0465239126
 20
5.2239834914
 11
21.0352997354
 21
5.2253079663
  0
LINE
  5
53B
100
AcDbEntity
  8
0
100
AcDbLine
 62
7
  6
CONTINUOUS
 10
12.0465239126
 20
5.2239834914
 11
3.0574862941
 21
5.2253079845
  0
LINE
  5
53C
100
AcDbEntity
  8
DATUM_AXIS
100
AcDbLine
 62
7
  6
CENTER
 10
12.0464548085
 20
12.2213554213
 11
12.0464548085
 21
3.3794430011
  0
LINE
  5
53D
100
AcDbEntity
  8
DATUM_AXIS
100
AcDbLine
 62
7
  6
CENTER
 10
12.0464548085
 20
12.2213554213
 11
12.0464548085
 21
20.7648134648
  0
LINE
  5
53E
100
AcDbEntity
  8
DATUM_AXIS
100
AcDbLine
 62
7
  6
CENTER
 10
12.0464548085
 20
12.2213554213
 11
0.9938561652
 21
12.2213554213
  0
LINE
  5
53F
100
AcDbEntity
  8
DATUM_AXIS
100
AcDbLine
 62
7
  6
CENTER
 10
12.0464548085
 20
12.2213554213
 11
23.3515981007
 21
12.2213554213
  0
LINE
  5
540
100
AcDbEntity
  8
0
100
AcDbLine
 62
7
  6
CONTINUOUS
 10
12.0463857026
 20
19.2187273512
 11
3.0573627077
 21
19.2174028399
  0
LINE
  5
541
100
AcDbEntity
  8
0
100
AcDbLine
 62
7
  6
CONTINUOUS
 10
12.0463857026
 20
19.2187273512
 11
21.0354233309
 21
19.2174028581
  0
LINE
  5
542
100
AcDbEntity
  8
DEFAULT_3
100
AcDbLine
 62
8
  6
PHANTOM
 10
2.6057177438
 20
20.4737308433
 11
12.0464548082
 21
20.4751237495
  0
LINE
  5
543
100
AcDbEntity
  8
DEFAULT_3
100
AcDbLine
 62
8
  6
PHANTOM
 10
21.4871918708
 20
20.4737308433
 11
12.0464548082
 21
20.4751237495
  0
LINE
  5
544
100
AcDbEntity
  8
0
100
AcDbLine
 62
7
  6
CONTINUOUS
 10
21.4103680732
 20
18.8423539861
 11
21.4110658873
 21
12.2214048508
  0
LINE
  5
545
100
AcDbEntity
  8
0
100
AcDbLine
 62
7
  6
CONTINUOUS
 10
21.4103680638
 20
5.6002684376
 11
21.4110658873
 21
12.2214048508
  0
LINE
  5
546
100
AcDbEntity
  8
DEFAULT_3
100
AcDbLine
 62
8
  6
PHANTOM
 10
22.6674671401
 20
12.2213554228
 11
22.6667174316
 21
19.2928069669
  0
LINE
  5
547
100
AcDbEntity
  8
DEFAULT_3
100
AcDbLine
 62
8
  6
PHANTOM
 10
22.6674671401
 20
12.2213554228
 11
22.6667174303
 21
5.149955507
  0
ARC
  5
548
100
AcDbEntity
  8
DEFAULT_3
100
AcDbCircle
 62
2
  6
PHANTOM
 10
17.9116855145
 20
15.8164629511
 40
0.125
100
AcDbArc
 50
90.0
 51
159.9601913116
  0
ARC
  5
549
100
AcDbEntity
  8
0
100
AcDbCircle
 62
2
  6
CONTINUOUS
 10
14.9695330927
 20
15.7849936593
 40
0.12
100
AcDbArc
 50
90.0
 51
159.9601913116
  0
ARC
  5
54A
100
AcDbEntity
  8
0
100
AcDbCircle
 62
2
  6
CONTINUOUS
 10
18.5767470298
 20
15.7667829511
 40
0.11
100
AcDbArc
 50
270.0
 51
360.0
  0
ARC
  5
54B
100
AcDbEntity
  8
0
100
AcDbCircle
 62
2
  6
CONTINUOUS
 10
15.6481730577
 20
15.7203136593
 40
0.1
100
AcDbArc
 50
270.0
 51
360.0
  0
ARC
  5
54C
100
AcDbEntity
  8
0
100
AcDbCircle
 62
2
  6
CONTINUOUS
 10
15.4778744747
 20
15.6680396132
 40
0.0885309118
100
AcDbArc
 50
212.3058638362
 51
264.8843450297
  0
ARC
  5
54D
100
AcDbEntity
  8
0
100
AcDbCircle
 62
2
  6
CONTINUOUS
 10
15.4778744747
 20
15.6680396132
 40
0.0885309118
100
AcDbArc
 50
276.0241773206
 51
327.6941361638
  0
ARC
  5
54E
100
AcDbEntity
  8
0
100
AcDbCircle
 62
2
  6
CONTINUOUS
 10
18.4165284468
 20
15.7044382759
 40
0.0885309118
100
AcDbArc
 50
212.3058638362
 51
264.8843450297
  0
ARC
  5
54F
100
AcDbEntity
  8
0
100
AcDbCircle
 62
2
  6
CONTINUOUS
 10
18.4165284468
 20
15.7044382759
 40
0.0885309118
100
AcDbArc
 50
276.0241773206
 51
327.6941361638
  0
ARC
  5
550
100
AcDbEntity
  8
0
100
AcDbCircle
 62
2
  6
CONTINUOUS
 10
14.7787722128
 20
15.8331268761
 40
0.0741554031
100
AcDbArc
 50
340.0021161874
 51
75.728277399
  0
ARC
  5
551
100
AcDbEntity
  8
DEFAULT_3
100
AcDbCircle
 62
2
  6
PHANTOM
 10
17.7192999682
 20
15.8702289259
 40
0.0741554031
100
AcDbArc
 50
331.1106122188
 51
75.728277399
  0
ARC
  5
552
100
AcDbEntity
  8
0
100
AcDbCircle
 62
2
  6
CONTINUOUS
 10
17.9658433767
 20
15.6525829511
 40
0.065
100
AcDbArc
 50
90.0
 51
159.9572872547
  0
ARC
  5
553
100
AcDbEntity
  8
0
100
AcDbCircle
 62
2
  6
CONTINUOUS
 10
15.0265779725
 20
15.6171136593
 40
0.064
100
AcDbArc
 50
90.0
 51
159.9445616853
  0
ARC
  5
554
100
AcDbEntity
  8
0
100
AcDbCircle
 62
2
  6
CONTINUOUS
 10
18.106545542
 20
15.7775829511
 40
0.06
100
AcDbArc
 50
270.0
 51
333.2928412651
  0
ARC
  5
555
100
AcDbEntity
  8
0
100
AcDbCircle
 62
2
  6
CONTINUOUS
 10
15.1678915699
 20
15.7411136593
 40
0.06
100
AcDbArc
 50
270.0
 51
333.2928412651
  0
ARC
  5
556
100
AcDbEntity
  8
0
100
AcDbCircle
 62
2
  6
CONTINUOUS
 10
14.7271130577
 20
16.3758736593
 40
0.06
100
AcDbArc
 50
90.0
 51
180.0
  0
ARC
  5
557
100
AcDbEntity
  8
0
100
AcDbCircle
 62
2
  6
CONTINUOUS
 10
14.7271130577
 20
15.9677936593
 40
0.06
100
AcDbArc
 50
180.0
 51
270.0
  0
ARC
  5
558
100
AcDbEntity
  8
0
100
AcDbCircle
 62
2
  6
CONTINUOUS
 10
18.5759670298
 20
15.7675829511
 40
0.05
100
AcDbArc
 50
270.0
 51
360.0
  0
ARC
  5
559
100
AcDbEntity
  8
0
100
AcDbCircle
 62
2
  6
CONTINUOUS
 10
15.6373130577
 20
15.7311136593
 40
0.05
100
AcDbArc
 50
270.0
 51
360.0
  0
ARC
  5
55A
100
AcDbEntity
  8
0
100
AcDbCircle
 62
2
  6
CONTINUOUS
 10
18.2074838969
 20
15.9114629511
 40
0.03
100
AcDbArc
 50
333.2928412651
 51
90.0
  0
ARC
  5
55B
100
AcDbEntity
  8
0
100
AcDbCircle
 62
2
  6
CONTINUOUS
 10
15.2688299248
 20
15.8749936593
 40
0.03
100
AcDbArc
 50
333.2928412651
 51
90.0
  0
CIRCLE
  5
55C
100
AcDbEntity
  8
0
100
AcDbCircle
 62
7
  6
CONTINUOUS
 10
15.3776930577
 20
16.5464736593
 40
0.0298681023
  0
CIRCLE
  5
55D
100
AcDbEntity
  8
0
100
AcDbCircle
 62
7
  6
CONTINUOUS
 10
15.5739730577
 20
16.5464736593
 40
0.0298681023
  0
CIRCLE
  5
55E
100
AcDbEntity
  8
0
100
AcDbCircle
 62
7
  6
CONTINUOUS
 10
15.8919130577
 20
16.2008936593
 40
0.0298681023
  0
CIRCLE
  5
55F
100
AcDbEntity
  8
0
100
AcDbCircle
 62
7
  6
CONTINUOUS
 10
15.8919130577
 20
15.9105936593
 40
0.0298681023
  0
ARC
  5
560
100
AcDbEntity
  8
DEFAULT_3
100
AcDbCircle
 62
8
  6
PHANTOM
 10
2.6073154861
 20
5.1501059559
 40
1.1811227902
100
AcDbArc
 50
180.0098028225
 51
269.9224942895
  0
ARC
  5
561
100
AcDbEntity
  8
DEFAULT_3
100
AcDbCircle
 62
8
  6
PHANTOM
 10
21.4855941162
 20
5.1501059271
 40
1.1811227756
100
AcDbArc
 50
270.0775063072
 51
359.9927031872
  0
ARC
  5
562
100
AcDbEntity
  8
DEFAULT_3
100
AcDbCircle
 62
8
  6
PHANTOM
 10
21.4855941091
 20
19.2926049292
 40
1.1811227649
100
AcDbArc
 50
0.0098007643
 51
89.9224933443
  0
ARC
  5
563
100
AcDbEntity
  8
DEFAULT_3
100
AcDbCircle
 62
8
  6
PHANTOM
 10
2.6073155033
 20
19.2926049431
 40
1.1811227544
100
AcDbArc
 50
90.0775065496
 51
179.9927045271
  0
CIRCLE
  5
564
100
AcDbEntity
  8
DEFAULT_3
100
AcDbCircle
 62
8
  6
PHANTOM
 10
12.0464548085
 20
12.2213554213
 40
0.8858267717
  0
ARC
  5
565
100
AcDbEntity
  8
0
100
AcDbCircle
 62
7
  6
CONTINUOUS
 10
3.0575415487
 20
18.8424028825
 40
0.375
100
AcDbArc
 50
90.0273248803
 51
179.993961408
  0
ARC
  5
566
100
AcDbEntity
  8
0
100
AcDbCircle
 62
7
  6
CONTINUOUS
 10
21.0353680763
 20
18.8424028621
 40
0.375
100
AcDbArc
 50
359.9925322914
 51
89.9915577317
  0
ARC
  5
567
100
AcDbEntity
  8
0
100
AcDbCircle
 62
7
  6
CONTINUOUS
 10
21.0353680659
 20
5.6003079601
 40
0.375
100
AcDbArc
 50
269.9895598584
 51
359.993961408
  0
ARC
  5
568
100
AcDbEntity
  8
0
100
AcDbCircle
 62
7
  6
CONTINUOUS
 10
3.0575415487
 20
5.6003079805
 40
0.375
100
AcDbArc
 50
180.006038592
 51
269.9915577317
  0
ENDSEC
  0
SECTION
  2
OBJECTS
  0
DICTIONARY
  5
C
100
AcDbDictionary
280
0
281
1
  3
ACAD_GROUP
350
D
  3
ACAD_MLINESTYLE
350
17
  3
ACAD_LAYOUT
350
1A
  3
ACAD_PLOTSETTINGS
350
19
  3
ACAD_PLOTSTYLENAME
350
E
  0
DICTIONARY
  5
D
102
{ACAD_REACTORS
330
C
102
}
100
AcDbDictionary
280
0
281
1
  0
ACDBDICTIONARYWDFLT
  5
E
102
{ACAD_REACTORS
330
C
102
}
100
AcDbDictionary
281
1
  3
Normal
350
F
100
AcDbDictionaryWithDefault
340
F
  0
DICTIONARY
  5
17
102
{ACAD_REACTORS
330
C
102
}
100
AcDbDictionary
280
0
281
1
  3
Standard
350
18
  0
DICTIONARY
  5
19
102
{ACAD_REACTORS
330
C
102
}
100
AcDbDictionary
281
1
  0
DICTIONARY
  5
1A
102
{ACAD_REACTORS
330
C
102
}
100
AcDbDictionary
281
1
  3
Model
350
569
  3
Layout1
350
56A
  0
ACDBPLACEHOLDER
  5
F
102
{ACAD_REACTORS
330
E
102
}
  0
MLINESTYLE
  5
18
102
{ACAD_REACTORS
330
17
102
}
100
AcDbMlineStyle
  2
STANDARD
 70
0
  3

 62
256
 51
90.0
 52
90.0
 71
2
 49
0.5
 62
256
  6
BYLAYER
 49
-0.5
 62
256
  6
BYLAYER
  0
LAYOUT
  5
569
102
{ACAD_REACTORS
330
1A
102
}
100
AcDbPlotSettings
  1

  2
none_device
  4
ANSI_D_(34.00_x_22.00_Inches)
  6

 40
0.0
 41
0.0
 42
0.0
 43
0.0
 44
863.6
 45
558.8
 46
0.0
 47
0.0
 48
0.0
 49
0.0
140
0.0
141
0.0
142
1.0
143
1.0
 70
1024
 72
0
 73
0
 74
0
  7

 75
0
147
1.0
148
0.0
149
0.0
100
AcDbLayout
  1
Model
 70
0
 71
0
 10
0.0
 20
0.0
 11
34.0
 21
22.0
 12
0.0
 22
0.0
 32
0.0
 14
0.0
 24
0.0
 34
0.0
 15
0.0
 25
0.0
 35
0.0
146
0.0
 13
0.0
 23
0.0
 33
0.0
 16
1.0
 26
0.0
 36
0.0
 17
0.0
 27
1.0
 37
0.0
 76
0
330
20D
345
0
346
0
  0
LAYOUT
  5
56A
102
{ACAD_REACTORS
330
1A
102
}
100
AcDbPlotSettings
  1

  2
none_device
  4
ANSI_D_(34.00_x_22.00_Inches)
  6

 40
0.0
 41
0.0
 42
0.0
 43
0.0
 44
863.6
 45
558.8
 46
0.0
 47
0.0
 48
0.0
 49
0.0
140
0.0
141
0.0
142
1.0
143
1.0
 70
0
 72
0
 73
0
 74
0
  7

 75
0
147
1.0
148
0.0
149
0.0
100
AcDbLayout
  1
Layout1
 70
0
 71
1
 10
0.0
 20
0.0
 11
34.0
 21
22.0
 12
0.0
 22
0.0
 32
0.0
 14
0.0
 24
0.0
 34
0.0
 15
0.0
 25
0.0
 35
0.0
146
0.0
 13
0.0
 23
0.0
 33
0.0
 16
1.0
 26
0.0
 36
0.0
 17
0.0
 27
1.0
 37
0.0
 76
0
330
20E
345
0
346
0
  0
ENDSEC
  0
EOF
