999
DXF file: 1552902-7_b.dxf
999
Pro/ENGINEER 2021304 by Parametric Technology Corporation
  0
SECTION
  2
HEADER
  9
$ACADVER
  1
AC1015
  9
$DWGCODEPAGE
  3
ANSI_1252
  9
$EXTMAX
 10
44.0
 20
34.0
 30
0.0
  9
$EXTMIN
 10
0.0
 20
0.0
 30
0.0
  9
$LIMMIN
 10
0.0
 20
0.0
  9
$LIMMAX
 10
44.0
 20
34.0
  9
$VIEWCTR
 10
22.0
 20
17.0
  9
$VIEWSIZE
 40
34.0
  9
$CLAYER
  8
0
  9
$LTSCALE
 40
2.42
  9
$CELTYPE
  6
BYLAYER
  9
$DIMSCALE
 40
1.0
  9
$DIMASZ
 40
0.1875
  9
$DIMEXO
 40
0.0625
  9
$DIMDLI
 40
1.672
  9
$DIMEXE
 40
0.125
  9
$DIMCEN
 40
0.396
  9
$DIMLFAC
 40
1.0
  9
$DIMBLK
  1
_FILLED
  9
$DIMALT
 70
1
  9
$DIMALTD
 70
2
  9
$DIMALTTD
 70
2
  9
$DIMALTF
 40
25.4
  9
$DIMTXT
 40
0.15625
  9
$DIMTOL
 70
1
  9
$DIMLIM
 70
0
  9
$DIMTFAC
 40
1.0
  9
$DIMTP
 40
0.01
  9
$DIMTM
 40
0.01
  9
$DIMGAP
 40
0.09
  9
$DIMDSEP
 70
46
  9
$AUNITS
 70
0
  9
$PDMODE
 70
3
  9
$PDSIZE
 40
0.3125
  9
$HANDSEED
  5
37D
  9
$TILEMODE
 70
1
  9
$MEASUREMENT
 70
0
  9
$INSUNITS
 70
1
  0
ENDSEC
  0
SECTION
  2
CLASSES
  0
CLASS
  1
ACDBDICTIONARYWDFLT
  2
AcDbDictionaryWithDefault
  3
AutoCAD 2000
 90
0
280
0
281
0
  0
CLASS
  1
ACDBPLACEHOLDER
  2
AcDbPlaceHolder
  3
AutoCAD 2000
 90
0
280
0
281
0
  0
CLASS
  1
LAYOUT
  2
AcDbLayout
  3
AutoCAD 2000
 90
0
280
0
281
0
  0
ENDSEC
  0
SECTION
  2
TABLES
  0
TABLE
  2
VPORT
  5
8
100
AcDbSymbolTable
 70
2
  0
VPORT
  5
1F4
100
AcDbSymbolTableRecord
100
AcDbViewportTableRecord
  2
*ACTIVE
 70
0
 10
0.0
 20
0.0
 11
1.0
 21
1.0
 12
22.0
 22
17.0
 13
0.0
 23
0.0
 14
1.0
 24
1.0
 15
0.0
 25
0.0
 16
0.0
 26
0.0
 36
1.0
 17
0.0
 27
0.0
 37
0.0
 40
34.0
 41
1.2941176471
 42
50.0
 43
0.0
 44
0.0
 50
0.0
 51
0.0
 71
0
 72
100
 73
1
 74
1
 75
0
 76
0
 77
0
 78
0
  0
ENDTAB
  0
TABLE
  2
LTYPE
  5
5
100
AcDbSymbolTable
 70
6
  0
LTYPE
  5
14
100
AcDbSymbolTableRecord
100
AcDbLinetypeTableRecord
  2
BYBLOCK
 70
0
  3

 72
65
 73
0
 40
0.0
  0
LTYPE
  5
15
100
AcDbSymbolTableRecord
100
AcDbLinetypeTableRecord
  2
BYLAYER
 70
0
  3

 72
65
 73
0
 40
0.0
  0
LTYPE
  5
16
100
AcDbSymbolTableRecord
100
AcDbLinetypeTableRecord
  2
CONTINUOUS
 70
64
  3
Solid line
 72
65
 73
0
 40
0.0
  0
LTYPE
  5
1F5
100
AcDbSymbolTableRecord
100
AcDbLinetypeTableRecord
  2
CENTER
 70
64
  3
____ _ ____ _ ____ _ ____ _ ____ _ ____ _ ____
 72
65
 73
4
 40
0.6
 49
0.375
 74
0
 49
-0.075
 74
0
 49
0.075
 74
0
 49
-0.075
 74
0
  0
LTYPE
  5
1F6
100
AcDbSymbolTableRecord
100
AcDbLinetypeTableRecord
  2
HIDDEN
 70
64
  3
- - - - - - - - - - - - - - - - - - - -
 72
65
 73
2
 40
0.2
 49
0.1
 74
0
 49
-0.1
 74
0
  0
LTYPE
  5
1F7
100
AcDbSymbolTableRecord
100
AcDbLinetypeTableRecord
  2
PHANTOM
 70
64
  3
_____ _ _ _____ _ _ _____ _ _ _____
 72
65
 73
6
 40
0.8
 49
0.45
 74
0
 49
-0.05
 74
0
 49
0.1
 74
0
 49
-0.05
 74
0
 49
0.1
 74
0
 49
-0.05
 74
0
  0
LTYPE
  5
1F8
100
AcDbSymbolTableRecord
100
AcDbLinetypeTableRecord
  2
DOT
 70
64
  3
. . . . . . . . . . . . . . . . . . . .
 72
65
 73
2
 40
0.2
 49
0.1
 74
0
 49
-0.1
 74
0
  0
LTYPE
  5
1F9
100
AcDbSymbolTableRecord
100
AcDbLinetypeTableRecord
  2
DASHED
 70
64
  3
- - - - - - - - - - - - - - - - - - - -
 72
65
 73
2
 40
0.2
 49
0.1
 74
0
 49
-0.1
 74
0
  0
ENDTAB
  0
TABLE
  2
LAYER
  5
2
100
AcDbSymbolTable
 70
36
  0
LAYER
  5
10
100
AcDbSymbolTableRecord
100
AcDbLayerTableRecord
  2
0
 70
0
 62
7
  6
CONTINUOUS
370
-3
390
F
  0
LAYER
  5
1FA
100
AcDbSymbolTableRecord
100
AcDbLayerTableRecord
  2
DEFAULT_1
 70
0
 62
7
  6
CENTER
370
-3
390
F
  0
LAYER
  5
1FB
100
AcDbSymbolTableRecord
100
AcDbLayerTableRecord
  2
DEFAULT_2
 70
0
 62
8
  6
HIDDEN
370
-3
390
F
  0
LAYER
  5
1FC
100
AcDbSymbolTableRecord
100
AcDbLayerTableRecord
  2
DEFAULT_3
 70
0
 62
7
  6
PHANTOM
370
-3
390
F
  0
LAYER
  5
1FD
100
AcDbSymbolTableRecord
100
AcDbLayerTableRecord
  2
DATUMS
 70
0
 62
7
  6
CONTINUOUS
370
-3
390
F
  0
LAYER
  5
1FE
100
AcDbSymbolTableRecord
100
AcDbLayerTableRecord
  2
DATUM_AXIS
 70
0
 62
7
  6
CONTINUOUS
370
-3
390
F
  0
LAYER
  5
1FF
100
AcDbSymbolTableRecord
100
AcDbLayerTableRecord
  2
DATUM_CSYS
 70
0
 62
7
  6
CONTINUOUS
370
-3
390
F
  0
LAYER
  5
200
100
AcDbSymbolTableRecord
100
AcDbLayerTableRecord
  2
DATUM_PLANE
 70
0
 62
7
  6
CONTINUOUS
370
-3
390
F
  0
LAYER
  5
201
100
AcDbSymbolTableRecord
100
AcDbLayerTableRecord
  2
DATUM_POINT
 70
0
 62
7
  6
CONTINUOUS
370
-3
390
F
  0
LAYER
  5
202
100
AcDbSymbolTableRecord
100
AcDbLayerTableRecord
  2
_CURVE
 70
0
 62
7
  6
CONTINUOUS
370
-3
390
F
  0
LAYER
  5
203
100
AcDbSymbolTableRecord
100
AcDbLayerTableRecord
  2
_SURFACE
 70
0
 62
7
  6
CONTINUOUS
370
-3
390
F
  0
LAYER
  5
204
100
AcDbSymbolTableRecord
100
AcDbLayerTableRecord
  2
__REF_CURVE
 70
0
 62
7
  6
CONTINUOUS
370
-3
390
F
  0
LAYER
  5
205
100
AcDbSymbolTableRecord
100
AcDbLayerTableRecord
  2
__REF_SURFACE
 70
0
 62
7
  6
CONTINUOUS
370
-3
390
F
  0
LAYER
  5
206
100
AcDbSymbolTableRecord
100
AcDbLayerTableRecord
  2
___NOTE
 70
0
 62
7
  6
CONTINUOUS
370
-3
390
F
  0
LAYER
  5
207
100
AcDbSymbolTableRecord
100
AcDbLayerTableRecord
  2
___SYMBOL
 70
0
 62
7
  6
CONTINUOUS
370
-3
390
F
  0
ENDTAB
  0
TABLE
  2
STYLE
  5
3
100
AcDbSymbolTable
 70
1
  0
STYLE
  5
11
100
AcDbSymbolTableRecord
100
AcDbTextStyleTableRecord
  2
STANDARD
 70
0
 40
0.0
 41
0.8
 50
0.0
 71
0
 42
0.2
  3
txt
  4

  0
STYLE
  5
208
100
AcDbSymbolTableRecord
100
AcDbTextStyleTableRecord
  2
TEXTSTYLE_1
 70
0
 40
0.0
 41
0.8
 50
0.0
 71
0
 42
0.2
  3
gdt
  4

  0
STYLE
  5
209
100
AcDbSymbolTableRecord
100
AcDbTextStyleTableRecord
  2
TEXTSTYLE_2
 70
0
 40
0.0
 41
1.0
 50
0.0
 71
0
 42
0.2
  3
txt
  4

  0
ENDTAB
  0
TABLE
  2
VIEW
  5
6
100
AcDbSymbolTable
 70
0
  0
ENDTAB
  0
TABLE
  2
UCS
  5
7
100
AcDbSymbolTable
 70
0
  0
ENDTAB
  0
TABLE
  2
APPID
  5
9
100
AcDbSymbolTable
 70
1
  0
APPID
  5
20A
100
AcDbSymbolTableRecord
100
AcDbRegAppTableRecord
  2
ACAD
 70
0
  0
ENDTAB
  0
TABLE
  2
BLOCK_RECORD
  5
1
100
AcDbSymbolTable
 70
0
  0
BLOCK_RECORD
  5
20B
100
AcDbSymbolTableRecord
100
AcDbBlockTableRecord
  2
*Model_Space
  0
BLOCK_RECORD
  5
20C
100
AcDbSymbolTableRecord
100
AcDbBlockTableRecord
  2
*Paper_Space
  0
BLOCK_RECORD
  5
20D
100
AcDbSymbolTableRecord
100
AcDbBlockTableRecord
  2
_FILLED
  0
BLOCK_RECORD
  5
20E
100
AcDbSymbolTableRecord
100
AcDbBlockTableRecord
  2
*D0
  0
BLOCK_RECORD
  5
20F
100
AcDbSymbolTableRecord
100
AcDbBlockTableRecord
  2
*D1
  0
BLOCK_RECORD
  5
210
100
AcDbSymbolTableRecord
100
AcDbBlockTableRecord
  2
*D2
  0
BLOCK_RECORD
  5
211
100
AcDbSymbolTableRecord
100
AcDbBlockTableRecord
  2
*D3
  0
BLOCK_RECORD
  5
212
100
AcDbSymbolTableRecord
100
AcDbBlockTableRecord
  2
*D4
  0
BLOCK_RECORD
  5
213
100
AcDbSymbolTableRecord
100
AcDbBlockTableRecord
  2
*D5
  0
BLOCK_RECORD
  5
214
100
AcDbSymbolTableRecord
100
AcDbBlockTableRecord
  2
COPYRIGHT_YEAR_BL3
  0
BLOCK_RECORD
  5
215
100
AcDbSymbolTableRecord
100
AcDbBlockTableRecord
  2
SCISSORS_BL2
  0
BLOCK_RECORD
  5
216
100
AcDbSymbolTableRecord
100
AcDbBlockTableRecord
  2
SCISSORS_BL1
  0
BLOCK_RECORD
  5
217
100
AcDbSymbolTableRecord
100
AcDbBlockTableRecord
  2
WHEN_PLOTTING_TEMPLATE_N_BL0
  0
ENDTAB
  0
TABLE
  2
DIMSTYLE
  5
A
100
AcDbSymbolTable
 70
1
100
AcDbDimStyleTable
 71
0
  0
DIMSTYLE
105
218
100
AcDbSymbolTableRecord
100
AcDbDimStyleTableRecord
  2
STANDARD
 70
0
  3

  4

 40
1.0
 41
0.1875
 42
0.0625
 43
0.38
 44
0.125
 45
0.0
 46
0.0
 47
0.01
 48
0.01
140
0.15625
141
0.09
142
0.0
143
2.54
144
1.0
145
0.0
146
1.0
147
0.09
 71
1
 72
0
 73
1
 74
1
 75
0
 76
0
 77
0
 78
4
 79
1
170
1
171
2
172
0
173
0
174
0
175
0
176
0
177
0
178
0
270
2
179
3
271
3
272
3
273
2
274
2
275
0
280
0
281
0
282
0
283
1
284
4
285
0
286
0
287
3
288
0
340
11
278
46
341
20D
342
20D
343
20D
344
20D
  0
DIMSTYLE
105
219
100
AcDbSymbolTableRecord
100
AcDbDimStyleTableRecord
  2
DIMSTYLE_1
 70
0
  3

  4

 40
1.0
 41
0.1875
 42
0.0625
 43
0.38
 44
0.125
 45
0.0
 46
0.0
 47
0.01
 48
0.01
140
0.15625
141
0.09
142
0.0
143
2.54
144
1.0
145
0.0
146
1.0
147
0.078125
 71
0
 72
0
 73
1
 74
1
 75
0
 76
0
 77
0
 78
4
 79
1
170
1
171
1
172
0
173
0
174
0
175
0
176
0
177
0
178
0
270
2
179
3
271
4
272
16
273
2
274
3
275
0
280
0
281
0
282
0
283
1
284
4
285
0
286
0
287
3
288
0
340
11
278
46
341
20D
342
20D
343
20D
344
20D
  0
DIMSTYLE
105
21A
100
AcDbSymbolTableRecord
100
AcDbDimStyleTableRecord
  2
DIMSTYLE_2
 70
0
  3

  4

 40
1.0
 41
0.1875
 42
0.0625
 43
0.38
 44
0.125
 45
0.0
 46
0.0
 47
0.01
 48
0.01
140
0.15625
141
0.09
142
0.0
143
2.54
144
1.0
145
0.0
146
1.0
147
0.078125
 71
0
 72
0
 73
1
 74
1
 75
0
 76
0
 77
0
 78
4
 79
1
170
1
171
1
172
0
173
0
174
0
175
0
176
0
177
0
178
0
270
2
179
3
271
5
272
32
273
2
274
2
275
0
280
0
281
0
282
0
283
1
284
4
285
0
286
0
287
3
288
0
340
11
278
46
341
20D
342
20D
343
20D
344
20D
  0
DIMSTYLE
105
21B
100
AcDbSymbolTableRecord
100
AcDbDimStyleTableRecord
  2
DIMSTYLE_3
 70
0
  3
<>
  4

 40
1.0
 41
0.1875
 42
0.0625
 43
0.38
 44
0.125
 45
0.0
 46
0.0
 47
0.01
 48
0.01
140
0.15625
141
0.09
142
0.0
143
2.54
144
1.0
145
0.0
146
1.0
147
0.09
 71
0
 72
0
 73
1
 74
1
 75
0
 76
0
 77
0
 78
4
 79
1
170
1
171
-1
172
0
173
0
174
0
175
0
176
0
177
0
178
0
270
2
179
3
271
4
272
16
273
2
274
1
275
0
280
0
281
0
282
0
283
1
284
4
285
0
286
0
287
3
288
0
340
11
278
46
341
20D
342
20D
343
20D
344
20D
  0
DIMSTYLE
105
21C
100
AcDbSymbolTableRecord
100
AcDbDimStyleTableRecord
  2
DIMSTYLE_4
 70
0
  3
<>
  4

 40
1.0
 41
0.1875
 42
0.0625
 43
0.38
 44
0.125
 45
0.0
 46
0.0
 47
0.01
 48
0.01
140
0.15625
141
0.09
142
0.0
143
2.54
144
1.0
145
0.0
146
1.0
147
0.09
 71
0
 72
0
 73
1
 74
1
 75
0
 76
0
 77
0
 78
4
 79
1
170
1
171
1
172
0
173
0
174
0
175
0
176
0
177
0
178
0
270
2
179
3
271
5
272
32
273
2
274
1
275
0
280
0
281
0
282
0
283
1
284
4
285
0
286
0
287
3
288
0
340
11
278
46
341
20D
342
20D
343
20D
344
20D
  0
ENDTAB
  0
ENDSEC
  0
SECTION
  2
BLOCKS
  0
BLOCK
  5
20
100
AcDbEntity
  8
0
100
AcDbBlockBegin
  2
*Model_Space
 70
0
 10
0.0
 20
0.0
 30
0.0
  3
*Model_Space
  1

  0
ENDBLK
  5
21
100
AcDbEntity
  8
0
100
AcDbBlockEnd
  0
BLOCK
  5
1C
100
AcDbEntity
  8
0
100
AcDbBlockBegin
  2
*Paper_Space
 70
0
 10
0.0
 20
0.0
 30
0.0
  3
*Paper_Space
  1

  0
ENDBLK
  5
1D
100
AcDbEntity
  8
0
100
AcDbBlockEnd
  0
BLOCK
  5
21D
100
AcDbEntity
  8
___SYMBOL
100
AcDbBlockBegin
 62
2
  6
CONTINUOUS
  2
COPYRIGHT_YEAR_BL3
 70
64
 10
34.1802742557
 20
9.6205163205
  3
COPYRIGHT_YEAR_BL3
  1

  0
TEXT
  5
21E
100
AcDbEntity
  8
___SYMBOL
100
AcDbText
 62
2
  6
CONTINUOUS
 10
33.3520570004
 20
9.5423389606
  7
STANDARD
 40
0.15625
  1
2025 KOHLER CO.
 41
0.8
 72
0
100
AcDbText
  0
TEXT
  5
21F
100
AcDbEntity
  8
___SYMBOL
100
AcDbText
 62
7
  6
CONTINUOUS
 10
33.1746949679
 20
9.5788748653
  7
TEXTSTYLE_2
 40
0.0935006638
  1
C
 41
1.0
 72
0
100
AcDbText
  0
CIRCLE
  5
220
100
AcDbEntity
  8
___SYMBOL
100
AcDbCircle
 62
7
  6
CONTINUOUS
 10
33.2062441697
 20
9.6259410217
 40
0.0727526587
  0
ENDBLK
  5
221
100
AcDbEntity
  8
0
  6
BYBLOCK
 62
0
100
AcDbBlockEnd
  0
BLOCK
  5
222
100
AcDbEntity
  8
___SYMBOL
100
AcDbBlockBegin
 62
2
  6
CONTINUOUS
  2
SCISSORS_BL2
 70
64
 10
37.8853075422
 20
21.1393721098
  3
SCISSORS_BL2
  1

  0
LINE
  5
223
100
AcDbEntity
  8
___SYMBOL
100
AcDbLine
 62
7
  6
CONTINUOUS
 10
37.8564869089
 20
21.1702213702
 11
37.8004470223
 21
21.4470505211
  0
LINE
  5
224
100
AcDbEntity
  8
___SYMBOL
100
AcDbLine
 62
7
  6
CONTINUOUS
 10
37.8322970793
 20
21.1554708325
 11
37.8004470223
 21
21.4470505211
  0
LINE
  5
225
100
AcDbEntity
  8
___SYMBOL
100
AcDbLine
 62
7
  6
CONTINUOUS
 10
37.8701179615
 20
21.1223793742
 11
37.8693341546
 21
21.1478060777
  0
LINE
  5
226
100
AcDbEntity
  8
___SYMBOL
100
AcDbLine
 62
7
  6
CONTINUOUS
 10
37.8775230052
 20
21.1481460724
 11
37.8783122056
 21
21.122544407
  0
LINE
  5
227
100
AcDbEntity
  8
___SYMBOL
100
AcDbLine
 62
7
  6
CONTINUOUS
 10
37.8745639637
 20
21.2368307973
 11
37.9684211586
 21
21.4421827806
  0
LINE
  5
228
100
AcDbEntity
  8
___SYMBOL
100
AcDbLine
 62
7
  6
CONTINUOUS
 10
37.8175095529
 20
21.107695747
 11
37.8337740998
 21
21.138402031
  0
LINE
  5
229
100
AcDbEntity
  8
___SYMBOL
100
AcDbLine
 62
7
  6
CONTINUOUS
 10
37.9081375865
 20
21.1416050963
 11
37.9684211586
 21
21.3344494027
  0
LINE
  5
22A
100
AcDbEntity
  8
___SYMBOL
100
AcDbLine
 62
7
  6
CONTINUOUS
 10
37.8934532788
 20
21.1832545634
 11
37.8564869089
 21
21.1702213702
  0
LINE
  5
22B
100
AcDbEntity
  8
___SYMBOL
100
AcDbLine
 62
7
  6
CONTINUOUS
 10
37.9204435984
 20
21.1067012487
 11
37.8918001976
 21
21.0375689873
  0
LINE
  5
22C
100
AcDbEntity
  8
___SYMBOL
100
AcDbLine
 62
7
  6
CONTINUOUS
 10
37.8444304344
 20
21.0398247922
 11
37.866469072
 21
21.0627243931
  0
LINE
  5
22D
100
AcDbEntity
  8
___SYMBOL
100
AcDbLine
 62
7
  6
CONTINUOUS
 10
37.8004470223
 20
21.4470505211
 11
37.9204435984
 21
21.1067012487
  0
LINE
  5
22E
100
AcDbEntity
  8
___SYMBOL
100
AcDbLine
 62
7
  6
CONTINUOUS
 10
37.8444304344
 20
21.0398247922
 11
37.8175095529
 21
21.107695747
  0
ARC
  5
22F
100
AcDbEntity
  8
___SYMBOL
100
AcDbCircle
 62
7
  6
CONTINUOUS
 10
37.7961041589
 20
21.3883160916
 40
0.1805402131
100
AcDbArc
 50
342.6406360869
 51
17.3593639131
  0
ARC
  5
230
100
AcDbEntity
  8
___SYMBOL
100
AcDbCircle
 62
7
  6
CONTINUOUS
 10
37.9886230636
 20
21.1603999364
 40
0.1564036746
100
AcDbArc
 50
181.8059909349
 51
231.752660067
  0
CIRCLE
  5
231
100
AcDbEntity
  8
___SYMBOL
100
AcDbCircle
 62
7
  6
CONTINUOUS
 10
37.8739580701
 20
21.1352231825
 40
0.0134055901
  0
ARC
  5
232
100
AcDbEntity
  8
___SYMBOL
100
AcDbCircle
 62
7
  6
CONTINUOUS
 10
37.9536869753
 20
20.9490643838
 40
0.0073044281
100
AcDbArc
 50
185.3133793157
 51
314.0675041521
  0
ARC
  5
233
100
AcDbEntity
  8
___SYMBOL
100
AcDbCircle
 62
7
  6
CONTINUOUS
 10
37.7863561777
 20
20.9453040992
 40
0.0073043678
100
AcDbArc
 50
233.3109272841
 51
359.4467240969
  0
SPLINE
  5
234
100
AcDbEntity
  8
___SYMBOL
100
AcDbSpline
 62
7
  6
CONTINUOUS
 70
0
 71
3
 72
12
 73
8
 74
0
 42
0.0000001
 43
0.0000001
 44
0.0000000001
 40
0.0
 40
0.0
 40
0.0
 40
0.0
 40
0.4884256058
 40
0.6683914397
 40
0.8669439281
 40
0.9099489479
 40
1.0
 40
1.0
 40
1.0
 40
1.0
 10
37.9348149112
 20
20.8316936986
 30
0.0
 10
37.9232007371
 20
20.8657153423
 30
0.0
 10
37.920715866
 20
20.9162275756
 30
0.0
 10
37.9215115352
 20
20.9796642884
 30
0.0
 10
37.9190695401
 20
21.0110730452
 30
0.0
 10
37.9097967898
 20
21.0340190769
 30
0.0
 10
37.8983340872
 20
21.0386819284
 30
0.0
 10
37.8918001976
 20
21.0375689873
 30
0.0
  0
SPLINE
  5
235
100
AcDbEntity
  8
___SYMBOL
100
AcDbSpline
 62
7
  6
CONTINUOUS
 70
0
 71
3
 72
14
 73
10
 74
0
 42
0.0000001
 43
0.0000001
 44
0.0000000001
 40
0.0
 40
0.0
 40
0.0
 40
0.0
 40
0.0469735811
 40
0.2606095073
 40
0.5805460666
 40
0.7382389988
 40
0.8401572415
 40
0.925087268
 40
1.0
 40
1.0
 40
1.0
 40
1.0
 10
37.9464139335
 20
20.9483879711
 30
0.0
 10
37.9461767321
 20
20.9509384498
 30
0.0
 10
37.9451974885
 20
20.9651426735
 30
0.0
 10
37.9465395133
 20
20.9964130207
 30
0.0
 10
37.9494606542
 20
21.0361547749
 30
0.0
 10
37.9324843925
 20
21.0633543709
 30
0.0
 10
37.9219677644
 20
21.0793848335
 30
0.0
 10
37.9211260433
 20
21.0939750081
 30
0.0
 10
37.9210594268
 20
21.1026629181
 30
0.0
 10
37.9204435984
 20
21.1067012487
 30
0.0
  0
SPLINE
  5
236
100
AcDbEntity
  8
___SYMBOL
100
AcDbSpline
 62
7
  6
CONTINUOUS
 70
0
 71
3
 72
12
 73
8
 74
0
 42
0.0000001
 43
0.0000001
 44
0.0000000001
 40
0.0
 40
0.0
 40
0.0
 40
0.0
 40
0.2870411994
 40
0.5613888029
 40
0.7613462239
 40
0.9013972407
 40
1.0
 40
1.0
 40
1.0
 40
1.0
 10
37.8150989139
 20
20.8510219903
 30
0.0
 10
37.8196996585
 20
20.869365563
 30
0.0
 10
37.8216047538
 20
20.906712806
 30
0.0
 10
37.8184565531
 20
20.9570415279
 30
0.0
 10
37.8222483751
 20
20.9967136208
 30
0.0
 10
37.8242863902
 20
21.0271542062
 30
0.0
 10
37.8381881831
 20
21.0380253039
 30
0.0
 10
37.8444304344
 20
21.0398247922
 30
0.0
  0
SPLINE
  5
237
100
AcDbEntity
  8
___SYMBOL
100
AcDbSpline
 62
7
  6
CONTINUOUS
 70
0
 71
3
 72
13
 73
9
 74
0
 42
0.0000001
 43
0.0000001
 44
0.0000000001
 40
0.0
 40
0.0
 40
0.0
 40
0.0
 40
0.0902051637
 40
0.4170421866
 40
0.6587388922
 40
0.9356437381
 40
0.9595034934
 40
1.0
 40
1.0
 40
1.0
 40
1.0
 10
37.793660205
 20
20.9452335657
 30
0.0
 10
37.7937083777
 20
20.950222044
 30
0.0
 10
37.7935659754
 20
20.9732523024
 30
0.0
 10
37.7925049207
 20
21.0101305384
 30
0.0
 10
37.8001989086
 20
21.0553172877
 30
0.0
 10
37.8224812049
 20
21.0844999673
 30
0.0
 10
37.8149150923
 20
21.1019822649
 30
0.0
 10
37.8158874148
 20
21.1061515419
 30
0.0
 10
37.8175095529
 20
21.107695747
 30
0.0
  0
ELLIPSE
  5
238
100
AcDbEntity
  8
___SYMBOL
100
AcDbEllipse
 62
7
  6
CONTINUOUS
 10
37.9946303816
 20
20.8677020166
 30
0.0
 11
0.0030333388
 21
-0.0618801108
 31
0.0
 40
0.774293327
 41
0.0
 42
6.2831853072
  0
ELLIPSE
  5
239
100
AcDbEntity
  8
___SYMBOL
100
AcDbEllipse
 62
7
  6
CONTINUOUS
 10
37.9946303816
 20
20.8677020166
 30
0.0
 11
-0.0015166694
 21
-0.0922134984
 31
0.0
 40
0.700902774
 41
5.1250505418
 42
10.0362700851
  0
ELLIPSE
  5
23A
100
AcDbEntity
  8
___SYMBOL
100
AcDbEllipse
 62
7
  6
CONTINUOUS
 10
37.7488802634
 20
20.8741286623
 30
0.0
 11
0.0075833469
 21
-0.0614251099
 31
0.0
 40
0.7501188416
 41
0.0
 42
6.2831853072
  0
ELLIPSE
  5
23B
100
AcDbEntity
  8
___SYMBOL
100
AcDbEllipse
 62
7
  6
CONTINUOUS
 10
37.7500177654
 20
20.8638911439
 30
0.0
 11
0.001137502
 21
-0.0868293221
 31
0.0
 40
0.7569683881
 41
2.6163261196
 42
7.6953125801
  0
ENDBLK
  5
23C
100
AcDbEntity
  8
0
  6
BYBLOCK
 62
0
100
AcDbBlockEnd
  0
BLOCK
  5
23D
100
AcDbEntity
  8
___SYMBOL
100
AcDbBlockBegin
 62
2
  6
CONTINUOUS
  2
SCISSORS_BL1
 70
64
 10
37.1387867559
 20
23.4613280923
  3
SCISSORS_BL1
  1

  0
LINE
  5
23E
100
AcDbEntity
  8
___SYMBOL
100
AcDbLine
 62
7
  6
CONTINUOUS
 10
37.1099661226
 20
23.4921773527
 11
37.053926236
 21
23.7690065035
  0
LINE
  5
23F
100
AcDbEntity
  8
___SYMBOL
100
AcDbLine
 62
7
  6
CONTINUOUS
 10
37.085776293
 20
23.477426815
 11
37.053926236
 21
23.7690065035
  0
LINE
  5
240
100
AcDbEntity
  8
___SYMBOL
100
AcDbLine
 62
7
  6
CONTINUOUS
 10
37.1235971752
 20
23.4443353567
 11
37.1228133683
 21
23.4697620601
  0
LINE
  5
241
100
AcDbEntity
  8
___SYMBOL
100
AcDbLine
 62
7
  6
CONTINUOUS
 10
37.1310022189
 20
23.4701020548
 11
37.1317914192
 21
23.4445003894
  0
LINE
  5
242
100
AcDbEntity
  8
___SYMBOL
100
AcDbLine
 62
7
  6
CONTINUOUS
 10
37.1280431774
 20
23.5587867797
 11
37.2219003722
 21
23.764138763
  0
LINE
  5
243
100
AcDbEntity
  8
___SYMBOL
100
AcDbLine
 62
7
  6
CONTINUOUS
 10
37.0709887665
 20
23.4296517294
 11
37.0872533135
 21
23.4603580134
  0
LINE
  5
244
100
AcDbEntity
  8
___SYMBOL
100
AcDbLine
 62
7
  6
CONTINUOUS
 10
37.1616168002
 20
23.4635610788
 11
37.2219003722
 21
23.6564053852
  0
LINE
  5
245
100
AcDbEntity
  8
___SYMBOL
100
AcDbLine
 62
7
  6
CONTINUOUS
 10
37.1469324925
 20
23.5052105459
 11
37.1099661226
 21
23.4921773527
  0
LINE
  5
246
100
AcDbEntity
  8
___SYMBOL
100
AcDbLine
 62
7
  6
CONTINUOUS
 10
37.1739228121
 20
23.4286572311
 11
37.1452794113
 21
23.3595249698
  0
LINE
  5
247
100
AcDbEntity
  8
___SYMBOL
100
AcDbLine
 62
7
  6
CONTINUOUS
 10
37.0979096481
 20
23.3617807746
 11
37.1199482856
 21
23.3846803755
  0
LINE
  5
248
100
AcDbEntity
  8
___SYMBOL
100
AcDbLine
 62
7
  6
CONTINUOUS
 10
37.053926236
 20
23.7690065035
 11
37.1739228121
 21
23.4286572311
  0
LINE
  5
249
100
AcDbEntity
  8
___SYMBOL
100
AcDbLine
 62
7
  6
CONTINUOUS
 10
37.0979096481
 20
23.3617807746
 11
37.0709887665
 21
23.4296517294
  0
ARC
  5
24A
100
AcDbEntity
  8
___SYMBOL
100
AcDbCircle
 62
7
  6
CONTINUOUS
 10
37.0495833726
 20
23.7102720741
 40
0.1805402131
100
AcDbArc
 50
342.6406360869
 51
17.3593639131
  0
ARC
  5
24B
100
AcDbEntity
  8
___SYMBOL
100
AcDbCircle
 62
7
  6
CONTINUOUS
 10
37.2421022773
 20
23.4823559188
 40
0.1564036746
100
AcDbArc
 50
181.8059909349
 51
231.752660067
  0
CIRCLE
  5
24C
100
AcDbEntity
  8
___SYMBOL
100
AcDbCircle
 62
7
  6
CONTINUOUS
 10
37.1274372838
 20
23.457179165
 40
0.0134055901
  0
ARC
  5
24D
100
AcDbEntity
  8
___SYMBOL
100
AcDbCircle
 62
7
  6
CONTINUOUS
 10
37.2071661889
 20
23.2710203662
 40
0.0073044281
100
AcDbArc
 50
185.3133793157
 51
314.0675041521
  0
ARC
  5
24E
100
AcDbEntity
  8
___SYMBOL
100
AcDbCircle
 62
7
  6
CONTINUOUS
 10
37.0398353914
 20
23.2672600816
 40
0.0073043678
100
AcDbArc
 50
233.3109272841
 51
359.4467240969
  0
SPLINE
  5
24F
100
AcDbEntity
  8
___SYMBOL
100
AcDbSpline
 62
7
  6
CONTINUOUS
 70
0
 71
3
 72
12
 73
8
 74
0
 42
0.0000001
 43
0.0000001
 44
0.0000000001
 40
0.0
 40
0.0
 40
0.0
 40
0.0
 40
0.4884256058
 40
0.6683914397
 40
0.8669439281
 40
0.9099489479
 40
1.0
 40
1.0
 40
1.0
 40
1.0
 10
37.1882941249
 20
23.153649681
 30
0.0
 10
37.1766799508
 20
23.1876713248
 30
0.0
 10
37.1741950797
 20
23.238183558
 30
0.0
 10
37.1749907489
 20
23.3016202708
 30
0.0
 10
37.1725487538
 20
23.3330290276
 30
0.0
 10
37.1632760035
 20
23.3559750594
 30
0.0
 10
37.1518133008
 20
23.3606379109
 30
0.0
 10
37.1452794113
 20
23.3595249698
 30
0.0
  0
SPLINE
  5
250
100
AcDbEntity
  8
___SYMBOL
100
AcDbSpline
 62
7
  6
CONTINUOUS
 70
0
 71
3
 72
14
 73
10
 74
0
 42
0.0000001
 43
0.0000001
 44
0.0000000001
 40
0.0
 40
0.0
 40
0.0
 40
0.0
 40
0.0469735811
 40
0.2606095073
 40
0.5805460666
 40
0.7382389988
 40
0.8401572415
 40
0.925087268
 40
1.0
 40
1.0
 40
1.0
 40
1.0
 10
37.1998931472
 20
23.2703439536
 30
0.0
 10
37.1996559458
 20
23.2728944322
 30
0.0
 10
37.1986767022
 20
23.2870986559
 30
0.0
 10
37.200018727
 20
23.3183690031
 30
0.0
 10
37.2029398679
 20
23.3581107574
 30
0.0
 10
37.1859636061
 20
23.3853103534
 30
0.0
 10
37.1754469781
 20
23.401340816
 30
0.0
 10
37.174605257
 20
23.4159309906
 30
0.0
 10
37.1745386405
 20
23.4246189006
 30
0.0
 10
37.1739228121
 20
23.4286572311
 30
0.0
  0
SPLINE
  5
251
100
AcDbEntity
  8
___SYMBOL
100
AcDbSpline
 62
7
  6
CONTINUOUS
 70
0
 71
3
 72
12
 73
8
 74
0
 42
0.0000001
 43
0.0000001
 44
0.0000000001
 40
0.0
 40
0.0
 40
0.0
 40
0.0
 40
0.2870411994
 40
0.5613888029
 40
0.7613462239
 40
0.9013972407
 40
1.0
 40
1.0
 40
1.0
 40
1.0
 10
37.0685781276
 20
23.1729779727
 30
0.0
 10
37.0731788722
 20
23.1913215455
 30
0.0
 10
37.0750839675
 20
23.2286687885
 30
0.0
 10
37.0719357668
 20
23.2789975103
 30
0.0
 10
37.0757275888
 20
23.3186696033
 30
0.0
 10
37.0777656039
 20
23.3491101887
 30
0.0
 10
37.0916673968
 20
23.3599812863
 30
0.0
 10
37.0979096481
 20
23.3617807746
 30
0.0
  0
SPLINE
  5
252
100
AcDbEntity
  8
___SYMBOL
100
AcDbSpline
 62
7
  6
CONTINUOUS
 70
0
 71
3
 72
13
 73
9
 74
0
 42
0.0000001
 43
0.0000001
 44
0.0000000001
 40
0.0
 40
0.0
 40
0.0
 40
0.0
 40
0.0902051637
 40
0.4170421866
 40
0.6587388922
 40
0.9356437381
 40
0.9595034934
 40
1.0
 40
1.0
 40
1.0
 40
1.0
 10
37.0471394187
 20
23.2671895482
 30
0.0
 10
37.0471875914
 20
23.2721780265
 30
0.0
 10
37.0470451891
 20
23.2952082848
 30
0.0
 10
37.0459841344
 20
23.3320865209
 30
0.0
 10
37.0536781223
 20
23.3772732701
 30
0.0
 10
37.0759604186
 20
23.4064559498
 30
0.0
 10
37.0683943059
 20
23.4239382474
 30
0.0
 10
37.0693666284
 20
23.4281075243
 30
0.0
 10
37.0709887665
 20
23.4296517294
 30
0.0
  0
ELLIPSE
  5
253
100
AcDbEntity
  8
___SYMBOL
100
AcDbEllipse
 62
7
  6
CONTINUOUS
 10
37.2481095953
 20
23.189657999
 30
0.0
 11
0.0030333388
 21
-0.0618801108
 31
0.0
 40
0.774293327
 41
0.0
 42
6.2831853072
  0
ELLIPSE
  5
254
100
AcDbEntity
  8
___SYMBOL
100
AcDbEllipse
 62
7
  6
CONTINUOUS
 10
37.2481095953
 20
23.189657999
 30
0.0
 11
-0.0015166694
 21
-0.0922134984
 31
0.0
 40
0.700902774
 41
5.1250505418
 42
10.0362700851
  0
ELLIPSE
  5
255
100
AcDbEntity
  8
___SYMBOL
100
AcDbEllipse
 62
7
  6
CONTINUOUS
 10
37.002359477
 20
23.1960846447
 30
0.0
 11
0.0075833469
 21
-0.0614251099
 31
0.0
 40
0.7501188416
 41
0.0
 42
6.2831853072
  0
ELLIPSE
  5
256
100
AcDbEntity
  8
___SYMBOL
100
AcDbEllipse
 62
7
  6
CONTINUOUS
 10
37.0034969791
 20
23.1858471264
 30
0.0
 11
0.001137502
 21
-0.0868293221
 31
0.0
 40
0.7569683881
 41
2.6163261196
 42
7.6953125801
  0
ENDBLK
  5
257
100
AcDbEntity
  8
0
  6
BYBLOCK
 62
0
100
AcDbBlockEnd
  0
BLOCK
  5
258
100
AcDbEntity
  8
___SYMBOL
100
AcDbBlockBegin
 62
2
  6
CONTINUOUS
  2
WHEN_PLOTTING_TEMPLATE_N_BL0
 70
64
 10
29.7129704581
 20
12.8051316564
  3
WHEN_PLOTTING_TEMPLATE_N_BL0
  1

  0
TEXT
  5
259
100
AcDbEntity
  8
___SYMBOL
100
AcDbText
 62
2
  6
CONTINUOUS
 10
26.4004704581
 20
14.0160691564
  7
STANDARD
 40
0.15625
  1
WHEN PLOTTING TEMPLATE FULL SIZE:
 41
0.8
 72
0
100
AcDbText
  0
TEXT
  5
25A
100
AcDbEntity
  8
___SYMBOL
100
AcDbText
 62
2
  6
CONTINUOUS
 10
26.4004704581
 20
13.7816941564
  7
STANDARD
 40
0.15625
  1
Make sure horizontal and vertical dimensions
 41
0.8
 72
0
100
AcDbText
  0
TEXT
  5
25B
100
AcDbEntity
  8
___SYMBOL
100
AcDbText
 62
2
  6
CONTINUOUS
 10
26.4004704581
 20
13.5473191564
  7
STANDARD
 40
0.15625
  1
match the dimensions labeled on the template.
 41
0.8
 72
0
100
AcDbText
  0
TEXT
  5
25C
100
AcDbEntity
  8
___SYMBOL
100
AcDbText
 62
2
  6
CONTINUOUS
 10
26.4004704581
 20
13.3129441564
  7
STANDARD
 40
0.15625
  1
 
 41
0.8
 72
0
100
AcDbText
  0
TEXT
  5
25D
100
AcDbEntity
  8
___SYMBOL
100
AcDbText
 62
2
  6
CONTINUOUS
 10
26.4004704581
 20
13.0785691564
  7
STANDARD
 40
0.15625
  1
AL TRAZAR LA PLANTILLA A ESCALA,
 41
0.8
 72
0
100
AcDbText
  0
TEXT
  5
25E
100
AcDbEntity
  8
___SYMBOL
100
AcDbText
 62
2
  6
CONTINUOUS
 10
26.4004704581
 20
12.8441941564
  7
STANDARD
 40
0.15625
  1
asegúrese de que las dimensiones horizontales
 41
0.8
 72
0
100
AcDbText
  0
TEXT
  5
25F
100
AcDbEntity
  8
___SYMBOL
100
AcDbText
 62
2
  6
CONTINUOUS
 10
26.4004704581
 20
12.6098191564
  7
STANDARD
 40
0.15625
  1
y verticales concuerden con las dimensiones marcadas
 41
0.8
 72
0
100
AcDbText
  0
TEXT
  5
260
100
AcDbEntity
  8
___SYMBOL
100
AcDbText
 62
2
  6
CONTINUOUS
 10
26.4004704581
 20
12.3754441564
  7
STANDARD
 40
0.15625
  1
en la plantilla.
 41
0.8
 72
0
100
AcDbText
  0
TEXT
  5
261
100
AcDbEntity
  8
___SYMBOL
100
AcDbText
 62
2
  6
CONTINUOUS
 10
26.4004704581
 20
12.1410691564
  7
STANDARD
 40
0.15625
  1
 
 41
0.8
 72
0
100
AcDbText
  0
TEXT
  5
262
100
AcDbEntity
  8
___SYMBOL
100
AcDbText
 62
2
  6
CONTINUOUS
 10
26.4004704581
 20
11.9066941564
  7
STANDARD
 40
0.15625
  1
AU MOMENT DE TRACER LA DÉCOUPE À L'ÉCHELLE,
 41
0.8
 72
0
100
AcDbText
  0
TEXT
  5
263
100
AcDbEntity
  8
___SYMBOL
100
AcDbText
 62
2
  6
CONTINUOUS
 10
26.4004704581
 20
11.6723191564
  7
STANDARD
 40
0.15625
  1
Assurez vos que les dimensions horizotales et
 41
0.8
 72
0
100
AcDbText
  0
TEXT
  5
264
100
AcDbEntity
  8
___SYMBOL
100
AcDbText
 62
2
  6
CONTINUOUS
 10
26.4004704581
 20
11.4379441564
  7
STANDARD
 40
0.15625
  1
verticales correspondent avec les dimensions du plan.
 41
0.8
 72
0
100
AcDbText
  0
ENDBLK
  5
265
100
AcDbEntity
  8
0
  6
BYBLOCK
 62
0
100
AcDbBlockEnd
  0
BLOCK
  5
266
100
AcDbEntity
  8
0
100
AcDbBlockBegin
  2
_FILLED
 70
64
 10
0.0
 20
0.0
  3
_FILLED
  1

  0
SOLID
  5
267
100
AcDbEntity
  8
0
  6
BYBLOCK
 62
0
100
AcDbTrace
 10
0.0
 20
0.0
 11
-1.0
 21
0.1666666667
 12
-1.0
 22
-0.1666666667
 13
-1.0
 23
-0.1666666667
  0
ENDBLK
  5
268
100
AcDbEntity
  8
0
  6
BYBLOCK
 62
0
100
AcDbBlockEnd
  0
BLOCK
  5
269
100
AcDbEntity
  8
0
100
AcDbBlockBegin
 62
2
  6
CONTINUOUS
  2
*D0
 70
65
 10
0.0
 20
0.0
  3
*D0
  1

  0
MTEXT
  5
26A
100
AcDbEntity
  8
0
100
AcDbMText
 62
2
  6
CONTINUOUS
  7
STANDARD
 71
2
 72
1
 10
19.013550207
 20
19.3698580404
 30
0.0
 11
1.0
 21
0.0
 31
0.0
 73
2
 44
0.9
  1
16-9/16"\P[42,1]
 40
0.15625
 41
1.0
  0
LINE
  5
26B
100
AcDbEntity
  8
0
100
AcDbLine
 62
2
  6
CONTINUOUS
 10
14.4750196471
 20
11.0100935066
 11
19.138550207
 21
11.0100935066
  0
LINE
  5
26C
100
AcDbEntity
  8
0
100
AcDbLine
 62
2
  6
CONTINUOUS
 10
14.9865196471
 20
27.5733725742
 11
19.138550207
 21
27.5733725742
  0
LINE
  5
26D
100
AcDbEntity
  8
0
100
AcDbLine
 62
2
  6
CONTINUOUS
 10
19.013550207
 20
11.0100935066
 11
19.013550207
 21
18.9011080404
  0
LINE
  5
26E
100
AcDbEntity
  8
0
100
AcDbLine
 62
2
  6
CONTINUOUS
 10
19.013550207
 20
27.5733725742
 11
19.013550207
 21
19.4479830404
  0
INSERT
  5
26F
100
AcDbEntity
  8
0
100
AcDbBlockReference
 62
2
  6
CONTINUOUS
  2
_FILLED
 10
19.013550207
 20
11.0100935066
 41
0.1875
 42
0.1875
 43
0.1875
 50
270.0
  0
INSERT
  5
270
100
AcDbEntity
  8
0
100
AcDbBlockReference
 62
2
  6
CONTINUOUS
  2
_FILLED
 10
19.013550207
 20
27.5733725742
 41
0.1875
 42
0.1875
 43
0.1875
 50
90.0
  0
ENDBLK
  5
271
100
AcDbEntity
  8
0
  6
BYBLOCK
 62
0
100
AcDbBlockEnd
  0
BLOCK
  5
272
100
AcDbEntity
  8
0
100
AcDbBlockBegin
 62
2
  6
CONTINUOUS
  2
*D1
 70
65
 10
0.0
 20
0.0
  3
*D1
  1

  0
MTEXT
  5
273
100
AcDbEntity
  8
0
100
AcDbMText
 62
2
  6
CONTINUOUS
  7
STANDARD
 71
2
 72
1
 10
21.9989091809
 20
15.5591355229
 30
0.0
 11
1.0
 21
0.0
 31
0.0
 73
2
 44
0.9
  1
30-1/4"\P[76,9]
 40
0.15625
 41
0.875
  0
LINE
  5
274
100
AcDbEntity
  8
0
100
AcDbLine
 62
2
  6
CONTINUOUS
 10
6.8697696471
 20
15.3593502841
 11
6.8697696471
 21
15.6060105229
  0
LINE
  5
275
100
AcDbEntity
  8
0
100
AcDbLine
 62
2
  6
CONTINUOUS
 10
37.1280487146
 20
14.0515935066
 11
37.1280487146
 21
15.6060105229
  0
LINE
  5
276
100
AcDbEntity
  8
0
100
AcDbLine
 62
2
  6
CONTINUOUS
 10
6.8697696471
 20
15.4810105229
 11
21.4832841809
 21
15.4810105229
  0
LINE
  5
277
100
AcDbEntity
  8
0
100
AcDbLine
 62
2
  6
CONTINUOUS
 10
37.1280487146
 20
15.4810105229
 11
22.5145341809
 21
15.4810105229
  0
INSERT
  5
278
100
AcDbEntity
  8
0
100
AcDbBlockReference
 62
2
  6
CONTINUOUS
  2
_FILLED
 10
6.8697696471
 20
15.4810105229
 41
0.1875
 42
0.1875
 43
0.1875
 50
180.0
  0
INSERT
  5
279
100
AcDbEntity
  8
0
100
AcDbBlockReference
 62
2
  6
CONTINUOUS
  2
_FILLED
 10
37.1280487146
 20
15.4810105229
 41
0.1875
 42
0.1875
 43
0.1875
  0
ENDBLK
  5
27A
100
AcDbEntity
  8
0
  6
BYBLOCK
 62
0
100
AcDbBlockEnd
  0
BLOCK
  5
27B
100
AcDbEntity
  8
0
100
AcDbBlockBegin
 62
2
  6
CONTINUOUS
  2
*D2
 70
65
 10
0.0
 20
0.0
  3
*D2
  1

  0
MTEXT
  5
27C
100
AcDbEntity
  8
0
100
AcDbMText
 62
2
  6
CONTINUOUS
  7
STANDARD
 71
2
 72
1
 10
24.3296841278
 20
16.5051947847
 30
0.0
 11
1.0
 21
0.0
 31
0.0
 73
2
 44
0.9
  1
31-3/4"\P[80,6]
 40
0.15625
 41
0.875
  0
LINE
  5
27D
100
AcDbEntity
  8
0
100
AcDbLine
 62
2
  6
CONTINUOUS
 10
6.1239091809
 20
16.4270697847
 11
23.8140591278
 21
16.4270697847
  0
LINE
  5
27E
100
AcDbEntity
  8
0
100
AcDbLine
 62
2
  6
CONTINUOUS
 10
37.8739091809
 20
16.4270697847
 11
24.8453091278
 21
16.4270697847
  0
INSERT
  5
27F
100
AcDbEntity
  8
0
100
AcDbBlockReference
 62
2
  6
CONTINUOUS
  2
_FILLED
 10
6.1239091809
 20
16.4270697847
 41
0.1875
 42
0.1875
 43
0.1875
 50
180.0
  0
INSERT
  5
280
100
AcDbEntity
  8
0
100
AcDbBlockReference
 62
2
  6
CONTINUOUS
  2
_FILLED
 10
37.8739091809
 20
16.4270697847
 41
0.1875
 42
0.1875
 43
0.1875
  0
ENDBLK
  5
281
100
AcDbEntity
  8
0
  6
BYBLOCK
 62
0
100
AcDbBlockEnd
  0
BLOCK
  5
282
100
AcDbEntity
  8
0
100
AcDbBlockBegin
 62
2
  6
CONTINUOUS
  2
*D3
 70
65
 10
0.0
 20
0.0
  3
*D3
  1

  0
MTEXT
  5
283
100
AcDbEntity
  8
0
100
AcDbMText
 62
2
  6
CONTINUOUS
  7
STANDARD
 71
2
 72
1
 10
20.0982184978
 20
20.3172127719
 30
0.0
 11
1.0
 21
0.0
 31
0.0
 73
2
 44
0.9
  1
17-9/16"\P[44,6]
 40
0.15625
 41
1.0
  0
LINE
  5
284
100
AcDbEntity
  8
0
100
AcDbLine
 62
2
  6
CONTINUOUS
 10
20.0982184978
 20
28.0667330404
 11
20.0982184978
 21
20.3953377719
  0
LINE
  5
285
100
AcDbEntity
  8
0
100
AcDbLine
 62
2
  6
CONTINUOUS
 10
20.0982184978
 20
10.5167330404
 11
20.0982184978
 21
19.8484627719
  0
INSERT
  5
286
100
AcDbEntity
  8
0
100
AcDbBlockReference
 62
2
  6
CONTINUOUS
  2
_FILLED
 10
20.0982184978
 20
28.0667330404
 41
0.1875
 42
0.1875
 43
0.1875
 50
90.0
  0
INSERT
  5
287
100
AcDbEntity
  8
0
100
AcDbBlockReference
 62
2
  6
CONTINUOUS
  2
_FILLED
 10
20.0982184978
 20
10.5167330404
 41
0.1875
 42
0.1875
 43
0.1875
 50
270.0
  0
ENDBLK
  5
288
100
AcDbEntity
  8
0
  6
BYBLOCK
 62
0
100
AcDbBlockEnd
  0
BLOCK
  5
289
100
AcDbEntity
  8
0
100
AcDbBlockBegin
 62
2
  6
CONTINUOUS
  2
*D4
 70
65
 10
0.0
 20
0.0
  3
*D4
  1

  0
MTEXT
  5
28A
100
AcDbEntity
  8
0
100
AcDbMText
 62
2
  6
CONTINUOUS
  7
STANDARD
 71
3
 72
1
 10
35.8794595104
 20
26.8318152849
 30
0.0
 11
1.0
 21
0.0
 31
0.0
 73
2
 44
0.9
  1
4X R3/8"\P[1]
 40
0.15625
 41
1.0
  0
LINE
  5
28B
100
AcDbEntity
  8
0
100
AcDbLine
 62
2
  6
CONTINUOUS
 10
37.0562065959
 20
27.406199159
 11
36.1294595104
 21
26.7536902849
  0
LINE
  5
28C
100
AcDbEntity
  8
0
100
AcDbLine
 62
2
  6
CONTINUOUS
 10
36.1294595104
 20
26.7536902849
 11
35.9575845104
 21
26.7536902849
  0
INSERT
  5
28D
100
AcDbEntity
  8
0
100
AcDbBlockReference
 62
2
  6
CONTINUOUS
  2
_FILLED
 10
37.0562065959
 20
27.406199159
 41
0.1875
 42
0.1875
 43
0.1875
 50
35.1488079465
  0
ENDBLK
  5
28E
100
AcDbEntity
  8
0
  6
BYBLOCK
 62
0
100
AcDbBlockEnd
  0
BLOCK
  5
28F
100
AcDbEntity
  8
0
100
AcDbBlockBegin
 62
2
  6
CONTINUOUS
  2
*D5
 70
65
 10
0.0
 20
0.0
  3
*D5
  1

  0
MTEXT
  5
290
100
AcDbEntity
  8
0
100
AcDbMText
 62
2
  6
CONTINUOUS
  7
STANDARD
 71
1
 72
1
 10
8.3183777276
 20
12.6600442482
 30
0.0
 11
1.0
 21
0.0
 31
0.0
 73
2
 44
0.9
  1
4X R1{\ftxt;\W0.0001;\H0.0001;\~}{\ftxt;\W3.2;\H0.15625; }"\P[2,5]
 40
0.15625
 41
1.25
  0
LINE
  5
291
100
AcDbEntity
  8
0
100
AcDbLine
 62
2
  6
CONTINUOUS
 10
6.4604733439
 20
10.7684998613
 11
8.0683777276
 21
12.5819192482
  0
LINE
  5
292
100
AcDbEntity
  8
0
100
AcDbLine
 62
2
  6
CONTINUOUS
 10
8.0683777276
 20
12.5819192482
 11
8.2402527276
 21
12.5819192482
  0
INSERT
  5
293
100
AcDbEntity
  8
0
100
AcDbBlockReference
 62
2
  6
CONTINUOUS
  2
_FILLED
 10
6.4604733439
 20
10.7684998613
 41
0.1875
 42
0.1875
 43
0.1875
 50
228.4375613246
  0
ENDBLK
  5
294
100
AcDbEntity
  8
0
  6
BYBLOCK
 62
0
100
AcDbBlockEnd
  0
ENDSEC
  0
SECTION
  2
ENTITIES
  0
SOLID
  5
295
100
AcDbEntity
  8
0
100
AcDbTrace
 62
2
  6
CONTINUOUS
 10
9.2292627027
 20
24.9772308219
 11
9.3670268695
 21
25.1410520115
 12
9.5590886815
 22
25.1410520115
 13
9.5590886815
 23
25.1410520115
  0
SOLID
  5
296
100
AcDbEntity
  8
0
100
AcDbTrace
 62
2
  6
CONTINUOUS
 10
9.5590886815
 20
25.1410520115
 11
9.3457852297
 21
24.8874037386
 12
9.2292627027
 22
24.9772308219
 13
9.2292627027
 23
24.9772308219
  0
SOLID
  5
297
100
AcDbEntity
  8
0
100
AcDbTrace
 62
2
  6
CONTINUOUS
 10
9.2292627027
 20
24.7566381962
 11
9.3457852297
 21
24.8874037386
 12
9.3830006428
 22
24.5551383622
 13
9.3830006428
 23
24.5551383622
  0
SOLID
  5
298
100
AcDbEntity
  8
0
100
AcDbTrace
 62
2
  6
CONTINUOUS
 10
9.3457852297
 20
24.8874037386
 11
9.5992930644
 21
24.5551383622
 12
9.3830006428
 22
24.5551383622
 13
9.3830006428
 23
24.5551383622
  0
SOLID
  5
299
100
AcDbEntity
  8
0
100
AcDbTrace
 62
2
  6
CONTINUOUS
 10
9.2292627027
 20
24.5551383622
 11
9.0547624758
 21
24.5551143587
 12
9.2292627027
 22
24.7566381962
 13
9.2292627027
 23
24.7566381962
  0
SOLID
  5
29A
100
AcDbEntity
  8
0
100
AcDbTrace
 62
2
  6
CONTINUOUS
 10
9.3457852297
 20
24.8874037386
 11
9.2292627027
 21
24.7566381962
 12
9.2292627027
 22
24.9772308219
 13
9.2292627027
 23
24.9772308219
  0
SOLID
  5
29B
100
AcDbEntity
  8
0
100
AcDbTrace
 62
2
  6
CONTINUOUS
 10
9.2292627027
 20
24.7566381962
 11
9.0547624758
 21
24.5551143587
 12
9.2292627027
 22
24.9772308219
 13
9.2292627027
 23
24.9772308219
  0
SOLID
  5
29C
100
AcDbEntity
  8
0
100
AcDbTrace
 62
2
  6
CONTINUOUS
 10
9.2292627027
 20
24.9772308219
 11
9.0547624758
 21
24.5551143587
 12
9.2292627027
 22
25.1410520115
 13
9.2292627027
 23
25.1410520115
  0
SOLID
  5
29D
100
AcDbEntity
  8
0
100
AcDbTrace
 62
2
  6
CONTINUOUS
 10
9.0547624758
 20
24.5551143587
 11
9.0547624758
 21
25.1410520115
 12
9.2292627027
 22
25.1410520115
 13
9.2292627027
 23
25.1410520115
  0
SOLID
  5
29E
100
AcDbEntity
  8
0
100
AcDbTrace
 62
2
  6
CONTINUOUS
 10
9.6836973491
 20
25.1304425981
 11
9.7446465036
 21
25.1433977408
 12
9.8069572984
 22
25.1433977408
 13
9.8069572984
 23
25.1433977408
  0
SOLID
  5
29F
100
AcDbEntity
  8
0
100
AcDbTrace
 62
2
  6
CONTINUOUS
 10
9.8069572984
 20
25.1433977408
 11
9.8679064529
 21
25.1304425981
 12
9.6836973491
 22
25.1304425981
 13
9.6836973491
 23
25.1304425981
  0
SOLID
  5
2A0
100
AcDbEntity
  8
0
100
AcDbTrace
 62
2
  6
CONTINUOUS
 10
9.6267736055
 20
25.1050985146
 11
9.6836973491
 21
25.1304425981
 12
9.8679064529
 22
25.1304425981
 13
9.8679064529
 23
25.1304425981
  0
SOLID
  5
2A1
100
AcDbEntity
  8
0
100
AcDbTrace
 62
2
  6
CONTINUOUS
 10
9.8679064529
 20
25.1304425981
 11
9.9248301965
 21
25.1050985146
 12
9.6267736055
 22
25.1050985146
 13
9.6267736055
 23
25.1050985146
  0
SOLID
  5
2A2
100
AcDbEntity
  8
0
100
AcDbTrace
 62
2
  6
CONTINUOUS
 10
9.5763631136
 20
25.0684731483
 11
9.6267736055
 21
25.1050985146
 12
9.9248301965
 22
25.1050985146
 13
9.9248301965
 23
25.1050985146
  0
SOLID
  5
2A3
100
AcDbEntity
  8
0
100
AcDbTrace
 62
2
  6
CONTINUOUS
 10
9.9248301965
 20
25.1050985146
 11
9.9752406885
 21
25.0684731483
 12
9.5763631136
 22
25.0684731483
 13
9.5763631136
 23
25.0684731483
  0
SOLID
  5
2A4
100
AcDbEntity
  8
0
100
AcDbTrace
 62
2
  6
CONTINUOUS
 10
9.5346690536
 20
25.0221672035
 11
9.5763631136
 21
25.0684731483
 12
9.9752406885
 22
25.0684731483
 13
9.9752406885
 23
25.0684731483
  0
SOLID
  5
2A5
100
AcDbEntity
  8
0
100
AcDbTrace
 62
2
  6
CONTINUOUS
 10
9.9752406885
 20
25.0684731483
 11
10.0169347484
 21
25.0221672035
 12
9.5346690536
 22
25.0221672035
 13
9.5346690536
 23
25.0221672035
  0
SOLID
  5
2A6
100
AcDbEntity
  8
0
100
AcDbTrace
 62
2
  6
CONTINUOUS
 10
9.775801901
 20
24.9717433501
 11
9.5035136562
 21
24.9682044723
 12
10.0169347484
 22
25.0221672035
 13
10.0169347484
 23
25.0221672035
  0
SOLID
  5
2A7
100
AcDbEntity
  8
0
100
AcDbTrace
 62
2
  6
CONTINUOUS
 10
9.5035136562
 20
24.9682044723
 11
9.5346690536
 21
25.0221672035
 12
10.0169347484
 22
25.0221672035
 13
10.0169347484
 23
25.0221672035
  0
SOLID
  5
2A8
100
AcDbEntity
  8
0
100
AcDbTrace
 62
2
  6
CONTINUOUS
 10
10.0169347484
 20
25.0221672035
 11
10.0480901458
 21
24.9682044723
 12
9.775801901
 22
24.9717433501
 13
9.775801901
 23
24.9717433501
  0
SOLID
  5
2A9
100
AcDbEntity
  8
0
100
AcDbTrace
 62
2
  6
CONTINUOUS
 10
9.775801901
 20
24.9717433501
 11
9.7372460314
 21
24.9656367002
 12
9.5035136562
 22
24.9682044723
 13
9.5035136562
 23
24.9682044723
  0
SOLID
  5
2AA
100
AcDbEntity
  8
0
100
AcDbTrace
 62
2
  6
CONTINUOUS
 10
9.8143577706
 20
24.9656367002
 11
9.775801901
 21
24.9717433501
 12
10.0480901458
 22
24.9682044723
 13
10.0480901458
 23
24.9682044723
  0
SOLID
  5
2AB
100
AcDbEntity
  8
0
100
AcDbTrace
 62
2
  6
CONTINUOUS
 10
9.6748613238
 20
24.9203115571
 11
9.4842585617
 21
24.9089433848
 12
9.7024642789
 22
24.9479145122
 13
9.7024642789
 23
24.9479145122
  0
SOLID
  5
2AC
100
AcDbEntity
  8
0
100
AcDbTrace
 62
2
  6
CONTINUOUS
 10
9.7024642789
 20
24.9479145122
 11
9.4842585617
 21
24.9089433848
 12
9.7372460314
 22
24.9656367002
 13
9.7372460314
 23
24.9656367002
  0
SOLID
  5
2AD
100
AcDbEntity
  8
0
100
AcDbTrace
 62
2
  6
CONTINUOUS
 10
9.4842585617
 20
24.9089433848
 11
9.5035136562
 21
24.9682044723
 12
9.7372460314
 22
24.9656367002
 13
9.7372460314
 23
24.9656367002
  0
SOLID
  5
2AE
100
AcDbEntity
  8
0
100
AcDbTrace
 62
2
  6
CONTINUOUS
 10
9.8143577706
 20
24.9656367002
 11
10.0480901458
 21
24.9682044723
 12
9.8491395231
 22
24.9479145122
 13
9.8491395231
 23
24.9479145122
  0
SOLID
  5
2AF
100
AcDbEntity
  8
0
100
AcDbTrace
 62
2
  6
CONTINUOUS
 10
9.8491395231
 20
24.9479145122
 11
10.0480901458
 21
24.9682044723
 12
9.8767424782
 22
24.9203115571
 13
9.8767424782
 23
24.9203115571
  0
SOLID
  5
2B0
100
AcDbEntity
  8
0
100
AcDbTrace
 62
2
  6
CONTINUOUS
 10
10.0480901458
 20
24.9682044723
 11
10.0673452404
 21
24.9089433848
 12
9.8767424782
 22
24.9203115571
 13
9.8767424782
 23
24.9203115571
  0
SOLID
  5
2B1
100
AcDbEntity
  8
0
100
AcDbTrace
 62
2
  6
CONTINUOUS
 10
9.6748613238
 20
24.9203115571
 11
9.6571391358
 21
24.8855298046
 12
9.4842585617
 22
24.9089433848
 13
9.4842585617
 23
24.9089433848
  0
SOLID
  5
2B2
100
AcDbEntity
  8
0
100
AcDbTrace
 62
2
  6
CONTINUOUS
 10
9.8944646663
 20
24.8855298046
 11
9.8767424782
 21
24.9203115571
 12
10.0673452404
 22
24.9089433848
 13
10.0673452404
 23
24.9089433848
  0
SOLID
  5
2B3
100
AcDbEntity
  8
0
100
AcDbTrace
 62
2
  6
CONTINUOUS
 10
9.47774531
 20
24.846973935
 11
9.4842585617
 21
24.9089433848
 12
9.6571391358
 22
24.8855298046
 13
9.6571391358
 23
24.8855298046
  0
SOLID
  5
2B4
100
AcDbEntity
  8
0
100
AcDbTrace
 62
2
  6
CONTINUOUS
 10
9.6571391358
 20
24.8855298046
 11
9.6510324859
 21
24.846973935
 12
9.47774531
 22
24.846973935
 13
9.47774531
 23
24.846973935
  0
SOLID
  5
2B5
100
AcDbEntity
  8
0
100
AcDbTrace
 62
2
  6
CONTINUOUS
 10
9.8944646663
 20
24.8855298046
 11
10.0673452404
 21
24.9089433848
 12
9.9005713161
 22
24.846973935
 13
9.9005713161
 23
24.846973935
  0
SOLID
  5
2B6
100
AcDbEntity
  8
0
100
AcDbTrace
 62
2
  6
CONTINUOUS
 10
10.0673452404
 20
24.9089433848
 11
10.073858492
 21
24.846973935
 12
9.9005713161
 22
24.846973935
 13
9.9005713161
 23
24.846973935
  0
SOLID
  5
2B7
100
AcDbEntity
  8
0
100
AcDbTrace
 62
2
  6
CONTINUOUS
 10
9.8944646663
 20
24.8084180654
 11
9.9005713161
 21
24.846973935
 12
10.073858492
 22
24.846973935
 13
10.073858492
 23
24.846973935
  0
SOLID
  5
2B8
100
AcDbEntity
  8
0
100
AcDbTrace
 62
2
  6
CONTINUOUS
 10
9.6571391358
 20
24.8084180654
 11
9.4842585617
 21
24.7850044852
 12
9.6510324859
 22
24.846973935
 13
9.6510324859
 23
24.846973935
  0
SOLID
  5
2B9
100
AcDbEntity
  8
0
100
AcDbTrace
 62
2
  6
CONTINUOUS
 10
9.4842585617
 20
24.7850044852
 11
9.47774531
 21
24.846973935
 12
9.6510324859
 22
24.846973935
 13
9.6510324859
 23
24.846973935
  0
SOLID
  5
2BA
100
AcDbEntity
  8
0
100
AcDbTrace
 62
2
  6
CONTINUOUS
 10
10.073858492
 20
24.846973935
 11
10.0673452404
 21
24.7850044852
 12
9.8944646663
 22
24.8084180654
 13
9.8944646663
 23
24.8084180654
  0
SOLID
  5
2BB
100
AcDbEntity
  8
0
100
AcDbTrace
 62
2
  6
CONTINUOUS
 10
9.6571391358
 20
24.8084180654
 11
9.6748613238
 21
24.7736363129
 12
9.4842585617
 22
24.7850044852
 13
9.4842585617
 23
24.7850044852
  0
SOLID
  5
2BC
100
AcDbEntity
  8
0
100
AcDbTrace
 62
2
  6
CONTINUOUS
 10
9.8767424782
 20
24.7736363129
 11
9.8944646663
 21
24.8084180654
 12
10.0673452404
 22
24.7850044852
 13
10.0673452404
 23
24.7850044852
  0
SOLID
  5
2BD
100
AcDbEntity
  8
0
100
AcDbTrace
 62
2
  6
CONTINUOUS
 10
9.7372460314
 20
24.7283111698
 11
9.5035136562
 21
24.7257433977
 12
9.7024642789
 22
24.7460333578
 13
9.7024642789
 23
24.7460333578
  0
SOLID
  5
2BE
100
AcDbEntity
  8
0
100
AcDbTrace
 62
2
  6
CONTINUOUS
 10
9.7024642789
 20
24.7460333578
 11
9.5035136562
 21
24.7257433977
 12
9.6748613238
 22
24.7736363129
 13
9.6748613238
 23
24.7736363129
  0
SOLID
  5
2BF
100
AcDbEntity
  8
0
100
AcDbTrace
 62
2
  6
CONTINUOUS
 10
9.5035136562
 20
24.7257433977
 11
9.4842585617
 21
24.7850044852
 12
9.6748613238
 22
24.7736363129
 13
9.6748613238
 23
24.7736363129
  0
SOLID
  5
2C0
100
AcDbEntity
  8
0
100
AcDbTrace
 62
2
  6
CONTINUOUS
 10
9.8767424782
 20
24.7736363129
 11
10.0673452404
 21
24.7850044852
 12
9.8491395231
 22
24.7460333578
 13
9.8491395231
 23
24.7460333578
  0
SOLID
  5
2C1
100
AcDbEntity
  8
0
100
AcDbTrace
 62
2
  6
CONTINUOUS
 10
9.8491395231
 20
24.7460333578
 11
10.0673452404
 21
24.7850044852
 12
9.8143577706
 22
24.7283111698
 13
9.8143577706
 23
24.7283111698
  0
SOLID
  5
2C2
100
AcDbEntity
  8
0
100
AcDbTrace
 62
2
  6
CONTINUOUS
 10
10.0673452404
 20
24.7850044852
 11
10.0480901458
 21
24.7257433977
 12
9.8143577706
 22
24.7283111698
 13
9.8143577706
 23
24.7283111698
  0
SOLID
  5
2C3
100
AcDbEntity
  8
0
100
AcDbTrace
 62
2
  6
CONTINUOUS
 10
9.7372460314
 20
24.7283111698
 11
9.775801901
 21
24.7222045199
 12
9.5035136562
 22
24.7257433977
 13
9.5035136562
 23
24.7257433977
  0
SOLID
  5
2C4
100
AcDbEntity
  8
0
100
AcDbTrace
 62
2
  6
CONTINUOUS
 10
9.775801901
 20
24.7222045199
 11
9.8143577706
 21
24.7283111698
 12
10.0480901458
 22
24.7257433977
 13
10.0480901458
 23
24.7257433977
  0
SOLID
  5
2C5
100
AcDbEntity
  8
0
100
AcDbTrace
 62
2
  6
CONTINUOUS
 10
9.5346690536
 20
24.6717806665
 11
9.5035136562
 21
24.7257433977
 12
9.775801901
 22
24.7222045199
 13
9.775801901
 23
24.7222045199
  0
SOLID
  5
2C6
100
AcDbEntity
  8
0
100
AcDbTrace
 62
2
  6
CONTINUOUS
 10
9.775801901
 20
24.7222045199
 11
10.0480901458
 21
24.7257433977
 12
9.5346690536
 22
24.6717806665
 13
9.5346690536
 23
24.6717806665
  0
SOLID
  5
2C7
100
AcDbEntity
  8
0
100
AcDbTrace
 62
2
  6
CONTINUOUS
 10
10.0480901458
 20
24.7257433977
 11
10.0169347484
 21
24.6717806665
 12
9.5346690536
 22
24.6717806665
 13
9.5346690536
 23
24.6717806665
  0
SOLID
  5
2C8
100
AcDbEntity
  8
0
100
AcDbTrace
 62
2
  6
CONTINUOUS
 10
9.5763631136
 20
24.6254747217
 11
9.5346690536
 21
24.6717806665
 12
10.0169347484
 22
24.6717806665
 13
10.0169347484
 23
24.6717806665
  0
SOLID
  5
2C9
100
AcDbEntity
  8
0
100
AcDbTrace
 62
2
  6
CONTINUOUS
 10
10.0169347484
 20
24.6717806665
 11
9.9752406885
 21
24.6254747217
 12
9.5763631136
 22
24.6254747217
 13
9.5763631136
 23
24.6254747217
  0
SOLID
  5
2CA
100
AcDbEntity
  8
0
100
AcDbTrace
 62
2
  6
CONTINUOUS
 10
9.6267736055
 20
24.5888493554
 11
9.5763631136
 21
24.6254747217
 12
9.9752406885
 22
24.6254747217
 13
9.9752406885
 23
24.6254747217
  0
SOLID
  5
2CB
100
AcDbEntity
  8
0
100
AcDbTrace
 62
2
  6
CONTINUOUS
 10
9.9752406885
 20
24.6254747217
 11
9.9248301965
 21
24.5888493554
 12
9.6267736055
 22
24.5888493554
 13
9.6267736055
 23
24.5888493554
  0
SOLID
  5
2CC
100
AcDbEntity
  8
0
100
AcDbTrace
 62
2
  6
CONTINUOUS
 10
9.6836973491
 20
24.5635052719
 11
9.6267736055
 21
24.5888493554
 12
9.9248301965
 22
24.5888493554
 13
9.9248301965
 23
24.5888493554
  0
SOLID
  5
2CD
100
AcDbEntity
  8
0
100
AcDbTrace
 62
2
  6
CONTINUOUS
 10
9.9248301965
 20
24.5888493554
 11
9.8679064529
 21
24.5635052719
 12
9.6836973491
 22
24.5635052719
 13
9.6836973491
 23
24.5635052719
  0
SOLID
  5
2CE
100
AcDbEntity
  8
0
100
AcDbTrace
 62
2
  6
CONTINUOUS
 10
9.7446465036
 20
24.5505501292
 11
9.6836973491
 21
24.5635052719
 12
9.8679064529
 22
24.5635052719
 13
9.8679064529
 23
24.5635052719
  0
SOLID
  5
2CF
100
AcDbEntity
  8
0
100
AcDbTrace
 62
2
  6
CONTINUOUS
 10
9.8679064529
 20
24.5635052719
 11
9.8069572984
 21
24.5505501292
 12
9.7446465036
 22
24.5505501292
 13
9.7446465036
 23
24.5505501292
  0
SOLID
  5
2D0
100
AcDbEntity
  8
0
100
AcDbTrace
 62
2
  6
CONTINUOUS
 10
10.4037042303
 20
24.9206682519
 11
10.4037042303
 21
25.1410520115
 12
10.5684379102
 22
25.1410520115
 13
10.5684379102
 23
25.1410520115
  0
SOLID
  5
2D1
100
AcDbEntity
  8
0
100
AcDbTrace
 62
2
  6
CONTINUOUS
 10
10.4037042303
 20
24.9206682519
 11
10.2557074193
 21
24.783462972
 12
10.2557074193
 22
24.9206682519
 13
10.2557074193
 23
24.9206682519
  0
SOLID
  5
2D2
100
AcDbEntity
  8
0
100
AcDbTrace
 62
2
  6
CONTINUOUS
 10
10.2557074193
 20
24.783462972
 11
10.0909737394
 21
24.5551383622
 12
10.2557074193
 22
24.9206682519
 13
10.2557074193
 23
24.9206682519
  0
SOLID
  5
2D3
100
AcDbEntity
  8
0
100
AcDbTrace
 62
2
  6
CONTINUOUS
 10
10.2557074193
 20
24.9206682519
 11
10.0909737394
 21
24.5551383622
 12
10.2557074193
 22
25.1410520115
 13
10.2557074193
 23
25.1410520115
  0
SOLID
  5
2D4
100
AcDbEntity
  8
0
100
AcDbTrace
 62
2
  6
CONTINUOUS
 10
10.0909737394
 20
24.5551383622
 11
10.0909737394
 21
25.1410520115
 12
10.2557074193
 22
25.1410520115
 13
10.2557074193
 23
25.1410520115
  0
SOLID
  5
2D5
100
AcDbEntity
  8
0
100
AcDbTrace
 62
2
  6
CONTINUOUS
 10
10.2557074193
 20
24.783462972
 11
10.2557074193
 21
24.5551383622
 12
10.0909737394
 22
24.5551383622
 13
10.0909737394
 23
24.5551383622
  0
SOLID
  5
2D6
100
AcDbEntity
  8
0
100
AcDbTrace
 62
2
  6
CONTINUOUS
 10
10.2557074193
 20
24.783462972
 11
10.4037042303
 21
24.9206682519
 12
10.4037042303
 22
24.783462972
 13
10.4037042303
 23
24.783462972
  0
SOLID
  5
2D7
100
AcDbEntity
  8
0
100
AcDbTrace
 62
2
  6
CONTINUOUS
 10
10.4037042303
 20
24.9206682519
 11
10.5684379102
 21
25.1410520115
 12
10.4037042303
 22
24.783462972
 13
10.4037042303
 23
24.783462972
  0
SOLID
  5
2D8
100
AcDbEntity
  8
0
100
AcDbTrace
 62
2
  6
CONTINUOUS
 10
10.4037042303
 20
24.783462972
 11
10.5684379102
 21
25.1410520115
 12
10.4037042303
 22
24.5551383622
 13
10.4037042303
 23
24.5551383622
  0
SOLID
  5
2D9
100
AcDbEntity
  8
0
100
AcDbTrace
 62
2
  6
CONTINUOUS
 10
10.5684379102
 20
25.1410520115
 11
10.5684379102
 21
24.5551383622
 12
10.4037042303
 22
24.5551383622
 13
10.4037042303
 23
24.5551383622
  0
SOLID
  5
2DA
100
AcDbEntity
  8
0
100
AcDbTrace
 62
2
  6
CONTINUOUS
 10
10.9262128871
 20
24.6963651193
 11
10.6134827544
 21
24.5551383622
 12
10.7635288172
 22
24.6963651193
 13
10.7635288172
 23
24.6963651193
  0
SOLID
  5
2DB
100
AcDbEntity
  8
0
100
AcDbTrace
 62
2
  6
CONTINUOUS
 10
10.7635288172
 20
24.6963651193
 11
10.6134827544
 21
24.5551383622
 12
10.7635288172
 22
25.1410520115
 13
10.7635288172
 23
25.1410520115
  0
SOLID
  5
2DC
100
AcDbEntity
  8
0
100
AcDbTrace
 62
2
  6
CONTINUOUS
 10
10.6134827544
 20
24.5551383622
 11
10.6134827544
 21
25.1410520115
 12
10.7635288172
 22
25.1410520115
 13
10.7635288172
 23
25.1410520115
  0
SOLID
  5
2DD
100
AcDbEntity
  8
0
100
AcDbTrace
 62
2
  6
CONTINUOUS
 10
10.6134827544
 20
24.5551383622
 11
10.9262128871
 21
24.6963651193
 12
10.7635288172
 22
24.5551383622
 13
10.7635288172
 23
24.5551383622
  0
SOLID
  5
2DE
100
AcDbEntity
  8
0
100
AcDbTrace
 62
2
  6
CONTINUOUS
 10
10.9262128871
 20
24.6963651193
 11
10.9262128871
 21
24.5551383622
 12
10.7635288172
 22
24.5551383622
 13
10.7635288172
 23
24.5551383622
  0
SOLID
  5
2DF
100
AcDbEntity
  8
0
100
AcDbTrace
 62
2
  6
CONTINUOUS
 10
11.2644648011
 20
25.1410520115
 11
11.2644648011
 21
24.9982926148
 12
11.1136072777
 22
24.9982926148
 13
11.1136072777
 23
24.9982926148
  0
SOLID
  5
2E0
100
AcDbEntity
  8
0
100
AcDbTrace
 62
2
  6
CONTINUOUS
 10
11.2644648011
 20
24.9206682519
 11
11.2644648011
 21
24.7762866503
 12
11.1136072777
 22
24.7762866503
 13
11.1136072777
 23
24.7762866503
  0
SOLID
  5
2E1
100
AcDbEntity
  8
0
100
AcDbTrace
 62
2
  6
CONTINUOUS
 10
11.2644648011
 20
24.6963651193
 11
10.9553606258
 21
24.5551383622
 12
11.1136072777
 22
24.6963651193
 13
11.1136072777
 23
24.6963651193
  0
SOLID
  5
2E2
100
AcDbEntity
  8
0
100
AcDbTrace
 62
2
  6
CONTINUOUS
 10
11.1136072777
 20
24.6963651193
 11
10.9553606258
 21
24.5551383622
 12
11.1136072777
 22
24.7762866503
 13
11.1136072777
 23
24.7762866503
  0
SOLID
  5
2E3
100
AcDbEntity
  8
0
100
AcDbTrace
 62
2
  6
CONTINUOUS
 10
11.2644648011
 20
24.9206682519
 11
11.1136072777
 21
24.7762866503
 12
11.1136072777
 22
24.9206682519
 13
11.1136072777
 23
24.9206682519
  0
SOLID
  5
2E4
100
AcDbEntity
  8
0
100
AcDbTrace
 62
2
  6
CONTINUOUS
 10
11.1136072777
 20
24.7762866503
 11
10.9553606258
 21
24.5551383622
 12
11.1136072777
 22
24.9206682519
 13
11.1136072777
 23
24.9206682519
  0
SOLID
  5
2E5
100
AcDbEntity
  8
0
100
AcDbTrace
 62
2
  6
CONTINUOUS
 10
11.1136072777
 20
24.9206682519
 11
10.9553606258
 21
24.5551383622
 12
11.1136072777
 22
24.9982926148
 13
11.1136072777
 23
24.9982926148
  0
SOLID
  5
2E6
100
AcDbEntity
  8
0
100
AcDbTrace
 62
2
  6
CONTINUOUS
 10
11.2644648011
 20
25.1410520115
 11
11.1136072777
 21
24.9982926148
 12
11.1278116011
 22
25.1410520115
 13
11.1278116011
 23
25.1410520115
  0
SOLID
  5
2E7
100
AcDbEntity
  8
0
100
AcDbTrace
 62
2
  6
CONTINUOUS
 10
11.1136072777
 20
24.9982926148
 11
10.9553606258
 21
24.5551383622
 12
11.1278116011
 22
25.1410520115
 13
11.1278116011
 23
25.1410520115
  0
SOLID
  5
2E8
100
AcDbEntity
  8
0
100
AcDbTrace
 62
2
  6
CONTINUOUS
 10
10.9553606258
 20
24.5551383622
 11
10.9553606258
 21
25.1410520115
 12
11.1278116011
 22
25.1410520115
 13
11.1278116011
 23
25.1410520115
  0
SOLID
  5
2E9
100
AcDbEntity
  8
0
100
AcDbTrace
 62
2
  6
CONTINUOUS
 10
11.2644648011
 20
24.6963651193
 11
11.2644648011
 21
24.5551383622
 12
10.9553606258
 22
24.5551383622
 13
10.9553606258
 23
24.5551383622
  0
SOLID
  5
2EA
100
AcDbEntity
  8
0
100
AcDbTrace
 62
2
  6
CONTINUOUS
 10
11.5428327165
 20
25.1410591171
 11
11.58976574
 21
25.1346488687
 12
11.3092850158
 22
25.1410520115
 13
11.3092850158
 23
25.1410520115
  0
SOLID
  5
2EB
100
AcDbEntity
  8
0
100
AcDbTrace
 62
2
  6
CONTINUOUS
 10
11.4599408384
 20
24.9984731782
 11
11.7138805795
 21
25.0031025137
 12
11.5158707199
 22
24.9984731782
 13
11.5158707199
 23
24.9984731782
  0
SOLID
  5
2EC
100
AcDbEntity
  8
0
100
AcDbTrace
 62
2
  6
CONTINUOUS
 10
11.5158707199
 20
24.9984731782
 11
11.7138805795
 21
25.0031025137
 12
11.5395933015
 22
24.9929390099
 13
11.5395933015
 23
24.9929390099
  0
SOLID
  5
2ED
100
AcDbEntity
  8
0
100
AcDbTrace
 62
2
  6
CONTINUOUS
 10
11.5395933015
 20
24.9929390099
 11
11.7138805795
 21
25.0031025137
 12
11.5584182891
 22
24.9774791348
 13
11.5584182891
 23
24.9774791348
  0
SOLID
  5
2EE
100
AcDbEntity
  8
0
100
AcDbTrace
 62
2
  6
CONTINUOUS
 10
11.7138805795
 20
25.0031025137
 11
11.7175538259
 21
24.9558763849
 12
11.5584182891
 22
24.9774791348
 13
11.5584182891
 23
24.9774791348
  0
SOLID
  5
2EF
100
AcDbEntity
  8
0
100
AcDbTrace
 62
2
  6
CONTINUOUS
 10
11.5684592277
 20
24.9552852742
 11
11.5584182891
 21
24.9774791348
 12
11.7175538259
 22
24.9558763849
 13
11.7175538259
 23
24.9558763849
  0
SOLID
  5
2F0
100
AcDbEntity
  8
0
100
AcDbTrace
 62
2
  6
CONTINUOUS
 10
11.5684592277
 20
24.9552852742
 11
11.7175538259
 21
24.9558763849
 12
11.567643146
 22
24.9309393935
 13
11.567643146
 23
24.9309393935
  0
SOLID
  5
2F1
100
AcDbEntity
  8
0
100
AcDbTrace
 62
2
  6
CONTINUOUS
 10
11.567643146
 20
24.9309393935
 11
11.7175538259
 21
24.9558763849
 12
11.5561385257
 22
24.9094677469
 13
11.5561385257
 23
24.9094677469
  0
SOLID
  5
2F2
100
AcDbEntity
  8
0
100
AcDbTrace
 62
2
  6
CONTINUOUS
 10
11.7175538259
 20
24.9558763849
 11
11.7084282222
 21
24.9093949548
 12
11.5561385257
 22
24.9094677469
 13
11.5561385257
 23
24.9094677469
  0
SOLID
  5
2F3
100
AcDbEntity
  8
0
100
AcDbTrace
 62
2
  6
CONTINUOUS
 10
11.5363205178
 20
24.8953031974
 11
11.5561385257
 21
24.9094677469
 12
11.7084282222
 22
24.9093949548
 13
11.7084282222
 23
24.9093949548
  0
SOLID
  5
2F4
100
AcDbEntity
  8
0
100
AcDbTrace
 62
2
  6
CONTINUOUS
 10
11.5363205178
 20
24.8953031974
 11
11.7084282222
 21
24.9093949548
 12
11.5122805886
 22
24.8913700437
 13
11.5122805886
 23
24.8913700437
  0
SOLID
  5
2F5
100
AcDbEntity
  8
0
100
AcDbTrace
 62
2
  6
CONTINUOUS
 10
11.7084282222
 20
24.9093949548
 11
11.6871722466
 21
24.867063129
 12
11.5122805886
 22
24.8913700437
 13
11.5122805886
 23
24.8913700437
  0
SOLID
  5
2F6
100
AcDbEntity
  8
0
100
AcDbTrace
 62
2
  6
CONTINUOUS
 10
11.6152719642
 20
24.8067209035
 11
11.4599408384
 21
24.752094733
 12
11.6553429634
 22
24.8319818417
 13
11.6553429634
 23
24.8319818417
  0
SOLID
  5
2F7
100
AcDbEntity
  8
0
100
AcDbTrace
 62
2
  6
CONTINUOUS
 10
11.6553429634
 20
24.8319818417
 11
11.4599408384
 21
24.752094733
 12
11.6871722466
 22
24.867063129
 13
11.6871722466
 23
24.867063129
  0
SOLID
  5
2F8
100
AcDbEntity
  8
0
100
AcDbTrace
 62
2
  6
CONTINUOUS
 10
11.6871722466
 20
24.867063129
 11
11.4599408384
 21
24.752094733
 12
11.5122805886
 22
24.8913700437
 13
11.5122805886
 23
24.8913700437
  0
SOLID
  5
2F9
100
AcDbEntity
  8
0
100
AcDbTrace
 62
2
  6
CONTINUOUS
 10
11.4599408384
 20
24.752094733
 11
11.3092850158
 21
24.5551383622
 12
11.5122805886
 22
24.8913700437
 13
11.5122805886
 23
24.8913700437
  0
SOLID
  5
2FA
100
AcDbEntity
  8
0
100
AcDbTrace
 62
2
  6
CONTINUOUS
 10
11.5122805886
 20
24.8913700437
 11
11.3092850158
 21
24.5551383622
 12
11.4599408384
 22
24.8913700437
 13
11.4599408384
 23
24.8913700437
  0
SOLID
  5
2FB
100
AcDbEntity
  8
0
100
AcDbTrace
 62
2
  6
CONTINUOUS
 10
11.4599408384
 20
24.8913700437
 11
11.3092850158
 21
24.5551383622
 12
11.4599408384
 22
24.9984731782
 13
11.4599408384
 23
24.9984731782
  0
SOLID
  5
2FC
100
AcDbEntity
  8
0
100
AcDbTrace
 62
2
  6
CONTINUOUS
 10
11.7138805795
 20
25.0031025137
 11
11.4599408384
 21
24.9984731782
 12
11.6976775594
 22
25.0476138844
 13
11.6976775594
 23
25.0476138844
  0
SOLID
  5
2FD
100
AcDbEntity
  8
0
100
AcDbTrace
 62
2
  6
CONTINUOUS
 10
11.6976775594
 20
25.0476138844
 11
11.4599408384
 21
24.9984731782
 12
11.6701316859
 22
25.0861499044
 13
11.6701316859
 23
25.0861499044
  0
SOLID
  5
2FE
100
AcDbEntity
  8
0
100
AcDbTrace
 62
2
  6
CONTINUOUS
 10
11.6701316859
 20
25.0861499044
 11
11.4599408384
 21
24.9984731782
 12
11.6332607775
 22
25.1158876935
 13
11.6332607775
 23
25.1158876935
  0
SOLID
  5
2FF
100
AcDbEntity
  8
0
100
AcDbTrace
 62
2
  6
CONTINUOUS
 10
11.6332607775
 20
25.1158876935
 11
11.4599408384
 21
24.9984731782
 12
11.58976574
 22
25.1346488687
 13
11.58976574
 23
25.1346488687
  0
SOLID
  5
300
100
AcDbEntity
  8
0
100
AcDbTrace
 62
2
  6
CONTINUOUS
 10
11.58976574
 20
25.1346488687
 11
11.4599408384
 21
24.9984731782
 12
11.3092850158
 22
25.1410520115
 13
11.3092850158
 23
25.1410520115
  0
SOLID
  5
301
100
AcDbEntity
  8
0
100
AcDbTrace
 62
2
  6
CONTINUOUS
 10
11.3092850158
 20
24.5551383622
 11
11.3092850158
 21
25.1410520115
 12
11.4599408384
 22
24.9984731782
 13
11.4599408384
 23
24.9984731782
  0
SOLID
  5
302
100
AcDbEntity
  8
0
100
AcDbTrace
 62
2
  6
CONTINUOUS
 10
11.4599408384
 20
24.752094733
 11
11.4599408384
 21
24.5551383622
 12
11.3092850158
 22
24.5551383622
 13
11.3092850158
 23
24.5551383622
  0
SOLID
  5
303
100
AcDbEntity
  8
0
100
AcDbTrace
 62
2
  6
CONTINUOUS
 10
11.4599408384
 20
24.752094733
 11
11.6152719642
 21
24.8067209035
 12
11.5847642676
 22
24.5551383622
 13
11.5847642676
 23
24.5551383622
  0
SOLID
  5
304
100
AcDbEntity
  8
0
100
AcDbTrace
 62
2
  6
CONTINUOUS
 10
11.6152719642
 20
24.8067209035
 11
11.7747152071
 21
24.5551383622
 12
11.5847642676
 22
24.5551383622
 13
11.5847642676
 23
24.5551383622
  0
DIMENSION
  5
305
100
AcDbEntity
  8
0
100
AcDbDimension
 62
2
  6
CONTINUOUS
  2
*D0
 10
19.013550207
 20
27.5733725742
 11
19.013550207
 21
19.1745455404
 70
160
 71
2
 72
2
 41
0.9
 42
16.5632790675
  1
<>"\P[]
  3
DIMSTYLE_1
100
AcDbAlignedDimension
 13
14.4125196471
 23
11.0100935066
 14
14.9240196471
 24
27.5733725742
 50
90.0
100
AcDbRotatedDimension
  0
DIMENSION
  5
306
100
AcDbEntity
  8
0
100
AcDbDimension
 62
2
  6
CONTINUOUS
  2
*D1
 10
37.1280487146
 20
15.4810105229
 11
21.9989091809
 21
15.3638230229
 70
160
 71
2
 72
2
 41
0.9
 42
30.2582790675
  1
<>"\P[]
  3
DIMSTYLE_1
100
AcDbAlignedDimension
 13
6.8697696471
 23
15.6685105229
 14
37.1280487146
 24
13.9890935066
100
AcDbRotatedDimension
  0
DIMENSION
  5
307
100
AcDbEntity
  8
0
100
AcDbDimension
 62
2
  6
CONTINUOUS
  2
*D2
 10
37.8739091809
 20
16.4270697847
 11
24.3296841278
 21
16.3098822847
 70
160
 71
2
 72
2
 41
0.9
 42
31.75
  1
<>"\P[]
  3
DIMSTYLE_2
100
AcDbAlignedDimension
 13
6.1239091809
 23
11.5167330404
 14
37.8739091809
 24
11.5167330404
100
AcDbRotatedDimension
  0
DIMENSION
  5
308
100
AcDbEntity
  8
0
100
AcDbDimension
 62
2
  6
CONTINUOUS
  2
*D3
 10
20.0982184978
 20
10.5167330404
 11
20.0982184978
 21
20.1219002719
 70
160
 71
2
 72
2
 41
0.9
 42
17.55
  1
<>"\P[]
  3
DIMSTYLE_2
100
AcDbAlignedDimension
 13
7.1239091809
 23
28.0667330404
 14
7.1239091809
 24
10.5167330404
 50
270.0
100
AcDbRotatedDimension
  0
DIMENSION
  5
309
100
AcDbEntity
  8
0
100
AcDbDimension
 62
2
  6
CONTINUOUS
  2
*D4
 10
36.7340487146
 20
27.1793725742
 11
35.3794595104
 21
26.6365027849
 70
164
 71
3
 72
2
 41
0.9
 42
0.394
  1
4X R<>"\P[]
  3
DIMSTYLE_3
100
AcDbRadialDimension
 15
37.0562065959
 25
27.406199159
  0
DIMENSION
  5
30A
100
AcDbEntity
  8
0
100
AcDbDimension
 62
2
  6
CONTINUOUS
  2
*D5
 10
7.1239091809
 20
11.5167330404
 11
8.9433777276
 21
12.4647317482
 70
164
 71
1
 72
2
 41
0.9
 42
1.0
  1
4X R<>"\P[]
  3
DIMSTYLE_4
100
AcDbRadialDimension
 15
6.4604733439
 25
10.7684998613
  0
MTEXT
  5
30B
100
AcDbEntity
  8
___NOTE
100
AcDbMText
 62
2
  6
CONTINUOUS
  7
STANDARD
 71
1
 72
1
 10
11.4092858261
 20
11.8592822428
 30
0.0
 11
1.0
 21
0.0
 31
0.0
 73
2
 44
0.9
  1
1552902-7-B\P \P \P \P \P \P \P \P1552902-7-B
 40
0.2
 41
1.76
  0
MTEXT
  5
30C
100
AcDbEntity
  8
___NOTE
100
AcDbMText
 62
2
  6
CONTINUOUS
  7
STANDARD
 71
1
 72
1
 10
9.0730879462
 20
24.2039257378
 30
0.0
 11
1.0
 21
0.0
 31
0.0
 73
2
 44
0.9
  1
CUT-OUT TEMPLATE\PTOP-MOUNT / UNDER-MOUNT SINK\PPLANTILLA DE CORTE\PFREGADERO DE MONTAJE POR ARRIBA / DE MONTAJE POR ABAJO\PGABARIT DE DÉCOUPE\PÉVIER À MONTAGE EN SURFACE/À MONTAGE SOUS PLAN\P 
 40
0.15625
 41
6.75
  0
MTEXT
  5
30D
100
AcDbEntity
  8
___NOTE
100
AcDbMText
 62
2
  6
CONTINUOUS
  7
STANDARD
 71
1
 72
1
 10
9.0943808907
 20
22.4109419723
 30
0.0
 11
1.0
 21
0.0
 31
0.0
 73
2
 44
0.9
  1
33710\P \P39827
 40
0.15625
 41
0.625
  0
LEADER
  5
30E
100
AcDbEntity
  8
___NOTE
100
AcDbLeader
 62
2
  6
CONTINUOUS
  3
STANDARD
 71
1
 72
0
 73
0
 75
0
 40
0.15625
 41
3.625
 76
3
 10
37.1280487146
 20
23.97918609
 30
0.0
 10
36.2175724253
 20
23.350227203
 30
0.0
 10
35.9675724253
 20
23.350227203
 30
0.0
340
30F
1001
ACAD
1000
DSTYLE
1002
{
1070
77
1070
0
1002
}
  0
MTEXT
  5
30F
102
{ACAD_REACTORS
330
30E
102
}
100
AcDbEntity
  8
___NOTE
100
AcDbMText
 62
2
  6
CONTINUOUS
  7
STANDARD
 71
3
 72
1
 10
35.9675724253
 20
23.428352203
 30
0.0
 11
1.0
 21
0.0
 31
0.0
 73
2
 44
0.9
  1
FOR UNDERCOUNTER INSTALLATION\PCUT ALONG THIS LINE FOR A REVEAL\PPARA INSTALACIONES DEBAJO DEL MOSTRADOR,\PCORTE A LO LARGO DE ESTA LÍNEA CON BATIENTE\PPOUR DES INSTALLATIONS SOUS COMPTOIR,\PDÉCOUPER AU LONG DE CETTE LIGNE AVEC EBRASEMENTS
 40
0.15625
 41
6.0
  0
LEADER
  5
310
100
AcDbEntity
  8
___NOTE
100
AcDbLeader
 62
2
  6
CONTINUOUS
  3
STANDARD
 71
1
 72
0
 73
0
 75
0
 40
0.15625
 41
1.375
 76
3
 10
38.2489091809
 20
26.7385518013
 30
0.0
 10
36.1551217481
 20
25.2895333944
 30
0.0
 10
35.9051217481
 20
25.2895333944
 30
0.0
340
311
1001
ACAD
1000
DSTYLE
1002
{
1070
77
1070
0
1002
}
  0
MTEXT
  5
311
102
{ACAD_REACTORS
330
310
102
}
100
AcDbEntity
  8
___NOTE
100
AcDbMText
 62
2
  6
CONTINUOUS
  7
STANDARD
 71
3
 72
1
 10
35.9051217481
 20
25.3676583944
 30
0.0
 11
1.0
 21
0.0
 31
0.0
 73
2
 44
0.9
  1
RIM OF SINK\PREBORDE DE FREGADERO\PREBORD D'ÉVIER
 40
0.15625
 41
2.5
  0
LEADER
  5
312
100
AcDbEntity
  8
___NOTE
100
AcDbLeader
 62
2
  6
CONTINUOUS
  3
STANDARD
 71
1
 72
0
 73
0
 75
0
 40
0.15625
 41
3.25
 76
3
 10
37.8739091809
 20
21.6690979447
 30
0.0
 10
36.1576675212
 20
20.1848378295
 30
0.0
 10
35.9076675212
 20
20.1848378295
 30
0.0
340
313
1001
ACAD
1000
DSTYLE
1002
{
1070
77
1070
0
1002
}
  0
MTEXT
  5
313
102
{ACAD_REACTORS
330
312
102
}
100
AcDbEntity
  8
___NOTE
100
AcDbMText
 62
2
  6
CONTINUOUS
  7
STANDARD
 71
3
 72
1
 10
35.9076675212
 20
20.2629628295
 30
0.0
 11
1.0
 21
0.0
 31
0.0
 73
2
 44
0.9
  1
FOR TOP-MOUNT INSTALLATION\PCUT ALONG THIS LINE\PPARA INSTALACIONES DE MONTAJE POR ARRIBA\PCORTE A LO LARGO DE ESTA LÍNEA\PPOUR INSTALLATION À MONTAGE EN SURFACE\PCOUPER LE LONG DE CETTE LIGNE
 40
0.15625
 41
5.0
  0
INSERT
  5
314
100
AcDbEntity
  8
___SYMBOL
100
AcDbBlockReference
 62
2
  6
CONTINUOUS
  2
WHEN_PLOTTING_TEMPLATE_N_BL0
 10
29.7129704581
 20
12.8051316564
  0
INSERT
  5
315
100
AcDbEntity
  8
___SYMBOL
100
AcDbBlockReference
 62
2
  6
CONTINUOUS
  2
SCISSORS_BL1
 10
37.1387867559
 20
23.4613280923
  0
INSERT
  5
316
100
AcDbEntity
  8
___SYMBOL
100
AcDbBlockReference
 62
2
  6
CONTINUOUS
  2
SCISSORS_BL2
 10
37.8853075422
 20
21.1393721098
  0
INSERT
  5
317
100
AcDbEntity
  8
___SYMBOL
100
AcDbBlockReference
 62
2
  6
CONTINUOUS
  2
COPYRIGHT_YEAR_BL3
 10
34.1802742557
 20
9.6205163205
  0
LINE
  5
318
100
AcDbEntity
  8
0
100
AcDbLine
 62
2
  6
CONTINUOUS
 10
9.3670268695
 20
25.1410520115
 11
9.2292627027
 21
24.9772308219
  0
LINE
  5
319
100
AcDbEntity
  8
0
100
AcDbLine
 62
2
  6
CONTINUOUS
 10
9.5590886815
 20
25.1410520115
 11
9.3457852297
 21
24.8874037386
  0
LINE
  5
31A
100
AcDbEntity
  8
0
100
AcDbLine
 62
2
  6
CONTINUOUS
 10
9.0547624758
 20
25.1410520115
 11
9.0547624758
 21
24.5551143587
  0
LINE
  5
31B
100
AcDbEntity
  8
0
100
AcDbLine
 62
2
  6
CONTINUOUS
 10
9.2292627027
 20
25.1410520115
 11
9.2292627027
 21
24.9772308219
  0
LINE
  5
31C
100
AcDbEntity
  8
0
100
AcDbLine
 62
2
  6
CONTINUOUS
 10
9.2292627027
 20
24.7566381962
 11
9.2292627027
 21
24.5551383622
  0
LINE
  5
31D
100
AcDbEntity
  8
0
100
AcDbLine
 62
2
  6
CONTINUOUS
 10
10.0909737394
 20
25.1410520115
 11
10.0909737394
 21
24.5551383622
  0
LINE
  5
31E
100
AcDbEntity
  8
0
100
AcDbLine
 62
2
  6
CONTINUOUS
 10
10.2557074193
 20
25.1410520115
 11
10.2557074193
 21
24.9206682519
  0
LINE
  5
31F
100
AcDbEntity
  8
0
100
AcDbLine
 62
2
  6
CONTINUOUS
 10
10.2557074193
 20
24.783462972
 11
10.2557074193
 21
24.5551383622
  0
LINE
  5
320
100
AcDbEntity
  8
0
100
AcDbLine
 62
2
  6
CONTINUOUS
 10
10.4037042303
 20
25.1410520115
 11
10.4037042303
 21
24.9206682519
  0
LINE
  5
321
100
AcDbEntity
  8
0
100
AcDbLine
 62
2
  6
CONTINUOUS
 10
10.4037042303
 20
24.783462972
 11
10.4037042303
 21
24.5551383622
  0
LINE
  5
322
100
AcDbEntity
  8
0
100
AcDbLine
 62
2
  6
CONTINUOUS
 10
10.5684379102
 20
25.1410520115
 11
10.5684379102
 21
24.5551383622
  0
LINE
  5
323
100
AcDbEntity
  8
0
100
AcDbLine
 62
2
  6
CONTINUOUS
 10
10.6134827544
 20
24.5551383622
 11
10.6134827544
 21
25.1410520115
  0
LINE
  5
324
100
AcDbEntity
  8
0
100
AcDbLine
 62
2
  6
CONTINUOUS
 10
10.7635288172
 20
25.1410520115
 11
10.7635288172
 21
24.6963651193
  0
LINE
  5
325
100
AcDbEntity
  8
0
100
AcDbLine
 62
2
  6
CONTINUOUS
 10
10.9262128871
 20
24.6963651193
 11
10.9262128871
 21
24.5551383622
  0
LINE
  5
326
100
AcDbEntity
  8
0
100
AcDbLine
 62
2
  6
CONTINUOUS
 10
10.9553606258
 20
24.5551383622
 11
10.9553606258
 21
25.1410520115
  0
LINE
  5
327
100
AcDbEntity
  8
0
100
AcDbLine
 62
2
  6
CONTINUOUS
 10
11.1136072777
 20
24.9982926148
 11
11.1136072777
 21
24.9206682519
  0
LINE
  5
328
100
AcDbEntity
  8
0
100
AcDbLine
 62
2
  6
CONTINUOUS
 10
11.1136072777
 20
24.7762866503
 11
11.1136072777
 21
24.6963651193
  0
LINE
  5
329
100
AcDbEntity
  8
0
100
AcDbLine
 62
2
  6
CONTINUOUS
 10
11.2644648011
 20
24.5551383622
 11
11.2644648011
 21
24.6963651193
  0
LINE
  5
32A
100
AcDbEntity
  8
0
100
AcDbLine
 62
2
  6
CONTINUOUS
 10
11.2644648011
 20
24.7762866503
 11
11.2644648011
 21
24.9206682519
  0
LINE
  5
32B
100
AcDbEntity
  8
0
100
AcDbLine
 62
2
  6
CONTINUOUS
 10
11.2644648011
 20
24.9982926148
 11
11.2644648011
 21
25.1410520115
  0
LINE
  5
32C
100
AcDbEntity
  8
0
100
AcDbLine
 62
2
  6
CONTINUOUS
 10
11.3092850158
 20
24.5551383622
 11
11.3092850158
 21
25.1410520115
  0
LINE
  5
32D
100
AcDbEntity
  8
0
100
AcDbLine
 62
2
  6
CONTINUOUS
 10
11.4599408384
 20
24.9984731782
 11
11.4599408384
 21
24.8913700437
  0
LINE
  5
32E
100
AcDbEntity
  8
0
100
AcDbLine
 62
2
  6
CONTINUOUS
 10
11.4599408384
 20
24.752094733
 11
11.4599408384
 21
24.5551383622
  0
LINE
  5
32F
100
AcDbEntity
  8
0
100
AcDbLine
 62
2
  6
CONTINUOUS
 10
11.8995991823
 20
24.5222976714
 11
11.8995991823
 21
24.5882638703
  0
LINE
  5
330
100
AcDbEntity
  8
0
100
AcDbLine
 62
2
  6
CONTINUOUS
 10
9.3830006428
 20
24.5551383622
 11
9.2292627027
 21
24.7566381962
  0
LINE
  5
331
100
AcDbEntity
  8
0
100
AcDbLine
 62
2
  6
CONTINUOUS
 10
9.5992930644
 20
24.5551383622
 11
9.3457852297
 21
24.8874037386
  0
LINE
  5
332
100
AcDbEntity
  8
0
100
AcDbLine
 62
2
  6
CONTINUOUS
 10
11.5847642676
 20
24.5551383622
 11
11.4599408384
 21
24.752094733
  0
LINE
  5
333
100
AcDbEntity
  8
0
100
AcDbLine
 62
2
  6
CONTINUOUS
 10
11.7747152071
 20
24.5551383622
 11
11.6152719642
 21
24.8067209035
  0
LINE
  5
334
100
AcDbEntity
  8
0
100
AcDbLine
 62
2
  6
CONTINUOUS
 10
11.9111971585
 20
24.5546006128
 11
11.9430651713
 21
24.5222976714
  0
LINE
  5
335
100
AcDbEntity
  8
0
100
AcDbLine
 62
2
  6
CONTINUOUS
 10
9.2292627027
 20
24.5551383622
 11
9.0547624758
 21
24.5551143587
  0
LINE
  5
336
100
AcDbEntity
  8
0
100
AcDbLine
 62
2
  6
CONTINUOUS
 10
11.9238785153
 20
24.5546006128
 11
11.8995991823
 21
24.5546006128
  0
LINE
  5
337
100
AcDbEntity
  8
0
100
AcDbLine
 62
2
  6
CONTINUOUS
 10
10.5684379102
 20
24.5551383622
 11
10.4037042303
 21
24.5551383622
  0
LINE
  5
338
100
AcDbEntity
  8
0
100
AcDbLine
 62
2
  6
CONTINUOUS
 10
10.2557074193
 20
24.5551383622
 11
10.0909737394
 21
24.5551383622
  0
LINE
  5
339
100
AcDbEntity
  8
0
100
AcDbLine
 62
2
  6
CONTINUOUS
 10
9.3830006428
 20
24.5551383622
 11
9.5992930644
 21
24.5551383622
  0
LINE
  5
33A
100
AcDbEntity
  8
0
100
AcDbLine
 62
2
  6
CONTINUOUS
 10
10.6134827544
 20
24.5551383622
 11
10.9262128871
 21
24.5551383622
  0
LINE
  5
33B
100
AcDbEntity
  8
0
100
AcDbLine
 62
2
  6
CONTINUOUS
 10
10.9553606258
 20
24.5551383622
 11
11.2644648011
 21
24.5551383622
  0
LINE
  5
33C
100
AcDbEntity
  8
0
100
AcDbLine
 62
2
  6
CONTINUOUS
 10
11.3092850158
 20
24.5551383622
 11
11.4599408384
 21
24.5551383622
  0
LINE
  5
33D
100
AcDbEntity
  8
0
100
AcDbLine
 62
2
  6
CONTINUOUS
 10
11.5847642676
 20
24.5551383622
 11
11.7747152071
 21
24.5551383622
  0
LINE
  5
33E
100
AcDbEntity
  8
0
100
AcDbLine
 62
2
  6
CONTINUOUS
 10
11.8995991823
 20
24.5882638703
 11
11.9238785153
 21
24.5882638703
  0
LINE
  5
33F
100
AcDbEntity
  8
0
100
AcDbLine
 62
2
  6
CONTINUOUS
 10
10.7635288172
 20
24.6963651193
 11
10.9262128871
 21
24.6963651193
  0
LINE
  5
340
100
AcDbEntity
  8
0
100
AcDbLine
 62
2
  6
CONTINUOUS
 10
11.1136072777
 20
24.6963651193
 11
11.2644648011
 21
24.6963651193
  0
LINE
  5
341
100
AcDbEntity
  8
0
100
AcDbLine
 62
2
  6
CONTINUOUS
 10
11.1136072777
 20
24.7762866503
 11
11.2644648011
 21
24.7762866503
  0
LINE
  5
342
100
AcDbEntity
  8
0
100
AcDbLine
 62
2
  6
CONTINUOUS
 10
10.2557074193
 20
24.783462972
 11
10.4037042303
 21
24.783462972
  0
LINE
  5
343
100
AcDbEntity
  8
0
100
AcDbLine
 62
2
  6
CONTINUOUS
 10
11.0593906325
 20
24.9270108016
 11
11.2644648011
 21
24.9206682519
  0
LINE
  5
344
100
AcDbEntity
  8
0
100
AcDbLine
 62
2
  6
CONTINUOUS
 10
11.4599408384
 20
24.8913700437
 11
11.5122805886
 21
24.8913700437
  0
LINE
  5
345
100
AcDbEntity
  8
0
100
AcDbLine
 62
2
  6
CONTINUOUS
 10
10.2557074193
 20
24.9206682519
 11
10.4037042303
 21
24.9206682519
  0
LINE
  5
346
100
AcDbEntity
  8
0
100
AcDbLine
 62
2
  6
CONTINUOUS
 10
11.1136072777
 20
24.9982926148
 11
11.2644648011
 21
24.9982926148
  0
LINE
  5
347
100
AcDbEntity
  8
0
100
AcDbLine
 62
2
  6
CONTINUOUS
 10
11.5158707199
 20
24.9984731782
 11
11.4599408384
 21
24.9984731782
  0
LINE
  5
348
100
AcDbEntity
  8
0
100
AcDbLine
 62
2
  6
CONTINUOUS
 10
9.0547624758
 20
25.1410520115
 11
9.2292627027
 21
25.1410520115
  0
LINE
  5
349
100
AcDbEntity
  8
0
100
AcDbLine
 62
2
  6
CONTINUOUS
 10
9.3670268695
 20
25.1410520115
 11
9.5590886815
 21
25.1410520115
  0
LINE
  5
34A
100
AcDbEntity
  8
0
100
AcDbLine
 62
2
  6
CONTINUOUS
 10
10.0909737394
 20
25.1410520115
 11
10.2557074193
 21
25.1410520115
  0
LINE
  5
34B
100
AcDbEntity
  8
0
100
AcDbLine
 62
2
  6
CONTINUOUS
 10
10.4037042303
 20
25.1410520115
 11
10.5684379102
 21
25.1410520115
  0
LINE
  5
34C
100
AcDbEntity
  8
0
100
AcDbLine
 62
2
  6
CONTINUOUS
 10
10.6134827544
 20
25.1410520115
 11
10.7635288172
 21
25.1410520115
  0
LINE
  5
34D
100
AcDbEntity
  8
0
100
AcDbLine
 62
2
  6
CONTINUOUS
 10
10.9553606258
 20
25.1410520115
 11
11.2644648011
 21
25.1410520115
  0
LINE
  5
34E
100
AcDbEntity
  8
0
100
AcDbLine
 62
2
  6
CONTINUOUS
 10
11.3092850158
 20
25.1410520115
 11
11.5428327165
 21
25.1410520115
  0
LINE
  5
34F
100
AcDbEntity
  8
_CURVE
100
AcDbLine
 62
8
  6
PHANTOM
 10
5.7489091809
 20
26.9417330404
 11
5.7489091809
 21
11.6417330404
  0
LINE
  5
350
100
AcDbEntity
  8
_CURVE
100
AcDbLine
 62
7
  6
CONTINUOUS
 10
6.1239091809
 20
27.0667330404
 11
6.1239091809
 21
11.5167330404
  0
LINE
  5
351
100
AcDbEntity
  8
_CURVE
100
AcDbLine
 62
7
  6
CONTINUOUS
 10
6.8697696471
 20
11.4040935066
 11
6.8697696471
 21
27.1793725742
  0
LINE
  5
352
100
AcDbEntity
  8
_CURVE
100
AcDbLine
 62
7
  6
CENTER
 10
7.1239091809
 20
27.3167330404
 11
7.1239091809
 21
26.8167330404
  0
LINE
  5
353
100
AcDbEntity
  8
_CURVE
100
AcDbLine
 62
7
  6
CENTER
 10
7.1239091809
 20
11.7667330404
 11
7.1239091809
 21
11.2667330404
  0
LINE
  5
354
100
AcDbEntity
  8
_CURVE
100
AcDbLine
 62
8
  6
PHANTOM
 10
7.2489091809
 20
10.1417330404
 11
36.7489091809
 21
10.1417330404
  0
LINE
  5
355
100
AcDbEntity
  8
_CURVE
100
AcDbLine
 62
7
  6
CONTINUOUS
 10
7.1239091809
 20
10.5167330404
 11
36.8739091809
 21
10.5167330404
  0
LINE
  5
356
100
AcDbEntity
  8
_CURVE
100
AcDbLine
 62
7
  6
CONTINUOUS
 10
36.7340487146
 20
11.0100935066
 11
7.2637696471
 21
11.0100935066
  0
LINE
  5
357
100
AcDbEntity
  8
_CURVE
100
AcDbLine
 62
7
  6
CENTER
 10
6.8739091809
 20
11.5167330404
 11
7.3739091809
 21
11.5167330404
  0
LINE
  5
358
100
AcDbEntity
  8
_CURVE
100
AcDbLine
 62
7
  6
CENTER
 10
36.6239091809
 20
11.5167330404
 11
37.1239091809
 21
11.5167330404
  0
LINE
  5
359
100
AcDbEntity
  8
_CURVE
100
AcDbLine
 62
8
  6
CENTER
 10
21.9989091809
 20
29.9417330404
 11
21.9989091809
 21
26.9417330404
  0
LINE
  5
35A
100
AcDbEntity
  8
_CURVE
100
AcDbLine
 62
8
  6
CENTER
 10
21.9989091809
 20
8.6417330404
 11
21.9989091809
 21
11.6417330404
  0
LINE
  5
35B
100
AcDbEntity
  8
_CURVE
100
AcDbLine
 62
8
  6
CENTER
 10
39.7489091809
 20
19.2917330404
 11
36.7489091809
 21
19.2917330404
  0
LINE
  5
35C
100
AcDbEntity
  8
_CURVE
100
AcDbLine
 62
8
  6
CENTER
 10
4.2489091809
 20
19.2917330404
 11
7.2489091809
 21
19.2917330404
  0
LINE
  5
35D
100
AcDbEntity
  8
_CURVE
100
AcDbLine
 62
7
  6
CENTER
 10
6.8739091809
 20
27.0667330404
 11
7.3739091809
 21
27.0667330404
  0
LINE
  5
35E
100
AcDbEntity
  8
_CURVE
100
AcDbLine
 62
7
  6
CENTER
 10
36.6239091809
 20
27.0667330404
 11
37.1239091809
 21
27.0667330404
  0
LINE
  5
35F
100
AcDbEntity
  8
_CURVE
100
AcDbLine
 62
7
  6
CONTINUOUS
 10
7.2637696471
 20
27.5733725742
 11
36.7340487146
 21
27.5733725742
  0
LINE
  5
360
100
AcDbEntity
  8
_CURVE
100
AcDbLine
 62
7
  6
CONTINUOUS
 10
36.8739091809
 20
28.0667330404
 11
7.1239091809
 21
28.0667330404
  0
LINE
  5
361
100
AcDbEntity
  8
_CURVE
100
AcDbLine
 62
8
  6
PHANTOM
 10
36.7489091809
 20
28.4417330404
 11
7.2489091809
 21
28.4417330404
  0
LINE
  5
362
100
AcDbEntity
  8
_CURVE
100
AcDbLine
 62
7
  6
CENTER
 10
36.8739091809
 20
27.3167330404
 11
36.8739091809
 21
26.8167330404
  0
LINE
  5
363
100
AcDbEntity
  8
_CURVE
100
AcDbLine
 62
7
  6
CENTER
 10
36.8739091809
 20
11.7667330404
 11
36.8739091809
 21
11.2667330404
  0
LINE
  5
364
100
AcDbEntity
  8
_CURVE
100
AcDbLine
 62
7
  6
CONTINUOUS
 10
37.1280487146
 20
27.1793725742
 11
37.1280487146
 21
11.4040935066
  0
LINE
  5
365
100
AcDbEntity
  8
_CURVE
100
AcDbLine
 62
7
  6
CONTINUOUS
 10
37.8739091809
 20
11.5167330404
 11
37.8739091809
 21
27.0667330404
  0
LINE
  5
366
100
AcDbEntity
  8
_CURVE
100
AcDbLine
 62
8
  6
PHANTOM
 10
38.2489091809
 20
11.6417330404
 11
38.2489091809
 21
26.9417330404
  0
CIRCLE
  5
367
100
AcDbEntity
  8
0
100
AcDbCircle
 62
2
  6
CONTINUOUS
 10
9.775801901
 20
24.846973935
 40
0.298056591
  0
ARC
  5
368
100
AcDbEntity
  8
0
100
AcDbCircle
 62
2
  6
CONTINUOUS
 10
11.5428327165
 20
24.9660425008
 40
0.1750166163
100
AcDbArc
 50
294.4500166359
 51
90.0
  0
CIRCLE
  5
369
100
AcDbEntity
  8
0
100
AcDbCircle
 62
2
  6
CONTINUOUS
 10
9.775801901
 20
24.846973935
 40
0.1247694151
  0
CIRCLE
  5
36A
100
AcDbEntity
  8
0
100
AcDbCircle
 62
2
  6
CONTINUOUS
 10
11.9154851818
 20
24.5551383622
 40
0.0653578721
  0
ARC
  5
36B
100
AcDbEntity
  8
0
100
AcDbCircle
 62
2
  6
CONTINUOUS
 10
11.5158706179
 20
24.9448614432
 40
0.053611735
100
AcDbArc
 50
266.1604009902
 51
89.9998910512
  0
ARC
  5
36C
100
AcDbEntity
  8
0
100
AcDbCircle
 62
2
  6
CONTINUOUS
 10
11.9238785153
 20
24.5714324206
 40
0.0168314496
100
AcDbArc
 50
270.0
 51
90.0
  0
ARC
  5
36D
100
AcDbEntity
  8
_CURVE
100
AcDbCircle
 62
7
  6
DASHED
 10
7.1239091809
 20
11.5167330404
 40
1.0
100
AcDbArc
 50
0.0
 51
180.0
  0
ARC
  5
36E
100
AcDbEntity
  8
_CURVE
100
AcDbCircle
 62
7
  6
CONTINUOUS
 10
7.1239091809
 20
11.5167330404
 40
1.0
100
AcDbArc
 50
180.0
 51
270.0
  0
ARC
  5
36F
100
AcDbEntity
  8
_CURVE
100
AcDbCircle
 62
7
  6
CONTINUOUS
 10
36.8739091809
 20
11.5167330404
 40
1.0
100
AcDbArc
 50
270.0
 51
360.0
  0
ARC
  5
370
100
AcDbEntity
  8
_CURVE
100
AcDbCircle
 62
7
  6
CONTINUOUS
 10
36.8739091809
 20
27.0667330404
 40
1.0
100
AcDbArc
 50
0.0
 51
90.0
  0
ARC
  5
371
100
AcDbEntity
  8
_CURVE
100
AcDbCircle
 62
7
  6
CONTINUOUS
 10
7.1239091809
 20
27.0667330404
 40
1.0
100
AcDbArc
 50
90.0
 51
180.0
  0
ARC
  5
372
100
AcDbEntity
  8
_CURVE
100
AcDbCircle
 62
7
  6
DASHED
 10
7.1239091809
 20
11.5167330404
 40
1.0
100
AcDbArc
 50
270.0
 51
360.0
  0
ARC
  5
373
100
AcDbEntity
  8
_CURVE
100
AcDbCircle
 62
7
  6
CONTINUOUS
 10
7.2637696471
 20
27.1793725742
 40
0.394
100
AcDbArc
 50
90.0
 51
180.0
  0
ARC
  5
374
100
AcDbEntity
  8
_CURVE
100
AcDbCircle
 62
7
  6
CONTINUOUS
 10
7.2637696471
 20
11.4040935066
 40
0.394
100
AcDbArc
 50
180.0
 51
270.0
  0
ARC
  5
375
100
AcDbEntity
  8
_CURVE
100
AcDbCircle
 62
7
  6
CONTINUOUS
 10
36.7340487146
 20
11.4040935066
 40
0.394
100
AcDbArc
 50
270.0
 51
360.0
  0
ARC
  5
376
100
AcDbEntity
  8
_CURVE
100
AcDbCircle
 62
7
  6
CONTINUOUS
 10
36.7340487146
 20
27.1793725742
 40
0.394
100
AcDbArc
 50
0.0
 51
90.0
  0
SPLINE
  5
377
100
AcDbEntity
  8
_CURVE
100
AcDbSpline
 62
8
  6
PHANTOM
 70
0
 71
3
 72
23
 73
19
 74
0
 42
0.0000001
 43
0.0000001
 44
0.0000000001
 40
0.0
 40
0.0
 40
0.0
 40
0.0
 40
0.0625
 40
0.125
 40
0.1875
 40
0.25
 40
0.3125
 40
0.375
 40
0.4375
 40
0.5
 40
0.5625
 40
0.625
 40
0.6875
 40
0.75
 40
0.8125
 40
0.875
 40
0.9375
 40
1.0
 40
1.0
 40
1.0
 40
1.0
 10
7.2489091809
 20
28.4417330404
 30
0.0
 10
7.2039091809
 20
28.4417330404
 30
0.0
 10
7.1138579303
 20
28.4416598172
 30
0.0
 10
6.9765637623
 20
28.433334155
 30
0.0
 10
6.8366209143
 20
28.4112196762
 30
0.0
 10
6.6949304468
 20
28.3718668552
 30
0.0
 10
6.5534405084
 20
28.3136642703
 30
0.0
 10
6.4148571328
 20
28.2365494005
 30
0.0
 10
6.2823560651
 20
28.141720452
 30
0.0
 10
6.1592943127
 20
28.0313479086
 30
0.0
 10
6.0489217693
 20
27.9082861562
 30
0.0
 10
5.9540928207
 20
27.7757850885
 30
0.0
 10
5.8769779509
 20
27.6372017128
 30
0.0
 10
5.818775366
 20
27.4957117744
 30
0.0
 10
5.779422545
 20
27.3540213069
 30
0.0
 10
5.7573080662
 20
27.214078459
 30
0.0
 10
5.7489824041
 20
27.076784291
 30
0.0
 10
5.7489091809
 20
26.9867330404
 30
0.0
 10
5.7489091809
 20
26.9417330404
 30
0.0
  0
SPLINE
  5
378
100
AcDbEntity
  8
_CURVE
100
AcDbSpline
 62
8
  6
PHANTOM
 70
0
 71
3
 72
23
 73
19
 74
0
 42
0.0000001
 43
0.0000001
 44
0.0000000001
 40
0.0
 40
0.0
 40
0.0
 40
0.0
 40
0.0625
 40
0.125
 40
0.1875
 40
0.25
 40
0.3125
 40
0.375
 40
0.4375
 40
0.5
 40
0.5625
 40
0.625
 40
0.6875
 40
0.75
 40
0.8125
 40
0.875
 40
0.9375
 40
1.0
 40
1.0
 40
1.0
 40
1.0
 10
5.7489091809
 20
11.6417330404
 30
0.0
 10
5.7489091809
 20
11.5967330404
 30
0.0
 10
5.7489824041
 20
11.5066817899
 30
0.0
 10
5.7573080662
 20
11.3693876218
 30
0.0
 10
5.779422545
 20
11.2294447739
 30
0.0
 10
5.818775366
 20
11.0877543064
 30
0.0
 10
5.8769779509
 20
10.946264368
 30
0.0
 10
5.9540928207
 20
10.8076809923
 30
0.0
 10
6.0489217693
 20
10.6751799246
 30
0.0
 10
6.1592943127
 20
10.5521181722
 30
0.0
 10
6.2823560651
 20
10.4417456288
 30
0.0
 10
6.4148571328
 20
10.3469166803
 30
0.0
 10
6.5534405084
 20
10.2698018105
 30
0.0
 10
6.6949304468
 20
10.2115992256
 30
0.0
 10
6.8366209143
 20
10.1722464046
 30
0.0
 10
6.9765637623
 20
10.1501319258
 30
0.0
 10
7.1138579303
 20
10.1418062636
 30
0.0
 10
7.2039091809
 20
10.1417330404
 30
0.0
 10
7.2489091809
 20
10.1417330404
 30
0.0
  0
SPLINE
  5
379
100
AcDbEntity
  8
_CURVE
100
AcDbSpline
 62
8
  6
PHANTOM
 70
0
 71
3
 72
23
 73
19
 74
0
 42
0.0000001
 43
0.0000001
 44
0.0000000001
 40
0.0
 40
0.0
 40
0.0
 40
0.0
 40
0.0625
 40
0.125
 40
0.1875
 40
0.25
 40
0.3125
 40
0.375
 40
0.4375
 40
0.5
 40
0.5625
 40
0.625
 40
0.6875
 40
0.75
 40
0.8125
 40
0.875
 40
0.9375
 40
1.0
 40
1.0
 40
1.0
 40
1.0
 10
36.7489091809
 20
10.1417330404
 30
0.0
 10
36.7939091809
 20
10.1417330404
 30
0.0
 10
36.8839604314
 20
10.1418062636
 30
0.0
 10
37.0212545994
 20
10.1501319258
 30
0.0
 10
37.1611974474
 20
10.1722464046
 30
0.0
 10
37.3028879149
 20
10.2115992256
 30
0.0
 10
37.4443778533
 20
10.2698018105
 30
0.0
 10
37.5829612289
 20
10.3469166803
 30
0.0
 10
37.7154622966
 20
10.4417456288
 30
0.0
 10
37.838524049
 20
10.5521181722
 30
0.0
 10
37.9488965924
 20
10.6751799246
 30
0.0
 10
38.043725541
 20
10.8076809923
 30
0.0
 10
38.1208404108
 20
10.946264368
 30
0.0
 10
38.1790429957
 20
11.0877543064
 30
0.0
 10
38.2183958167
 20
11.2294447739
 30
0.0
 10
38.2405102955
 20
11.3693876218
 30
0.0
 10
38.2488359576
 20
11.5066817899
 30
0.0
 10
38.2489091809
 20
11.5967330404
 30
0.0
 10
38.2489091809
 20
11.6417330404
 30
0.0
  0
SPLINE
  5
37A
100
AcDbEntity
  8
_CURVE
100
AcDbSpline
 62
8
  6
PHANTOM
 70
0
 71
3
 72
23
 73
19
 74
0
 42
0.0000001
 43
0.0000001
 44
0.0000000001
 40
0.0
 40
0.0
 40
0.0
 40
0.0
 40
0.0625
 40
0.125
 40
0.1875
 40
0.25
 40
0.3125
 40
0.375
 40
0.4375
 40
0.5
 40
0.5625
 40
0.625
 40
0.6875
 40
0.75
 40
0.8125
 40
0.875
 40
0.9375
 40
1.0
 40
1.0
 40
1.0
 40
1.0
 10
38.2489091809
 20
26.9417330404
 30
0.0
 10
38.2489091809
 20
26.9867330404
 30
0.0
 10
38.2488359576
 20
27.076784291
 30
0.0
 10
38.2405102955
 20
27.214078459
 30
0.0
 10
38.2183958167
 20
27.3540213069
 30
0.0
 10
38.1790429957
 20
27.4957117744
 30
0.0
 10
38.1208404108
 20
27.6372017128
 30
0.0
 10
38.043725541
 20
27.7757850885
 30
0.0
 10
37.9488965924
 20
27.9082861562
 30
0.0
 10
37.838524049
 20
28.0313479086
 30
0.0
 10
37.7154622966
 20
28.141720452
 30
0.0
 10
37.5829612289
 20
28.2365494005
 30
0.0
 10
37.4443778533
 20
28.3136642703
 30
0.0
 10
37.3028879149
 20
28.3718668552
 30
0.0
 10
37.1611974474
 20
28.4112196762
 30
0.0
 10
37.0212545994
 20
28.433334155
 30
0.0
 10
36.8839604314
 20
28.4416598172
 30
0.0
 10
36.7939091809
 20
28.4417330404
 30
0.0
 10
36.7489091809
 20
28.4417330404
 30
0.0
  0
ENDSEC
  0
SECTION
  2
OBJECTS
  0
DICTIONARY
  5
C
100
AcDbDictionary
280
0
281
1
  3
ACAD_GROUP
350
D
  3
ACAD_MLINESTYLE
350
17
  3
ACAD_LAYOUT
350
1A
  3
ACAD_PLOTSETTINGS
350
19
  3
ACAD_PLOTSTYLENAME
350
E
  0
DICTIONARY
  5
D
102
{ACAD_REACTORS
330
C
102
}
100
AcDbDictionary
280
0
281
1
  0
ACDBDICTIONARYWDFLT
  5
E
102
{ACAD_REACTORS
330
C
102
}
100
AcDbDictionary
281
1
  3
Normal
350
F
100
AcDbDictionaryWithDefault
340
F
  0
DICTIONARY
  5
17
102
{ACAD_REACTORS
330
C
102
}
100
AcDbDictionary
280
0
281
1
  3
Standard
350
18
  0
DICTIONARY
  5
19
102
{ACAD_REACTORS
330
C
102
}
100
AcDbDictionary
281
1
  0
DICTIONARY
  5
1A
102
{ACAD_REACTORS
330
C
102
}
100
AcDbDictionary
281
1
  3
Model
350
37B
  3
Layout1
350
37C
  0
ACDBPLACEHOLDER
  5
F
102
{ACAD_REACTORS
330
E
102
}
  0
MLINESTYLE
  5
18
102
{ACAD_REACTORS
330
17
102
}
100
AcDbMlineStyle
  2
STANDARD
 70
0
  3

 62
256
 51
90.0
 52
90.0
 71
2
 49
0.5
 62
256
  6
BYLAYER
 49
-0.5
 62
256
  6
BYLAYER
  0
LAYOUT
  5
37B
102
{ACAD_REACTORS
330
1A
102
}
100
AcDbPlotSettings
  1

  2
none_device
  4
ANSI_E_(44.00_x_34.00_Inches)
  6

 40
0.0
 41
0.0
 42
0.0
 43
0.0
 44
1117.6
 45
863.6
 46
0.0
 47
0.0
 48
0.0
 49
0.0
140
0.0
141
0.0
142
1.0
143
1.0
 70
1024
 72
0
 73
0
 74
0
  7

 75
0
147
1.0
148
0.0
149
0.0
100
AcDbLayout
  1
Model
 70
0
 71
0
 10
0.0
 20
0.0
 11
44.0
 21
34.0
 12
0.0
 22
0.0
 32
0.0
 14
0.0
 24
0.0
 34
0.0
 15
0.0
 25
0.0
 35
0.0
146
0.0
 13
0.0
 23
0.0
 33
0.0
 16
1.0
 26
0.0
 36
0.0
 17
0.0
 27
1.0
 37
0.0
 76
0
330
20B
345
0
346
0
  0
LAYOUT
  5
37C
102
{ACAD_REACTORS
330
1A
102
}
100
AcDbPlotSettings
  1

  2
none_device
  4
ANSI_E_(44.00_x_34.00_Inches)
  6

 40
0.0
 41
0.0
 42
0.0
 43
0.0
 44
1117.6
 45
863.6
 46
0.0
 47
0.0
 48
0.0
 49
0.0
140
0.0
141
0.0
142
1.0
143
1.0
 70
0
 72
0
 73
0
 74
0
  7

 75
0
147
1.0
148
0.0
149
0.0
100
AcDbLayout
  1
Layout1
 70
0
 71
1
 10
0.0
 20
0.0
 11
44.0
 21
34.0
 12
0.0
 22
0.0
 32
0.0
 14
0.0
 24
0.0
 34
0.0
 15
0.0
 25
0.0
 35
0.0
146
0.0
 13
0.0
 23
0.0
 33
0.0
 16
1.0
 26
0.0
 36
0.0
 17
0.0
 27
1.0
 37
0.0
 76
0
330
20C
345
0
346
0
  0
ENDSEC
  0
EOF
