999
DXF file: 1564883-7.dxf
999
Pro/ENGINEER 2021304 by Parametric Technology Corporation
  0
SECTION
  2
HEADER
  9
$ACADVER
  1
AC1015
  9
$DWGCODEPAGE
  3
ANSI_1252
  9
$EXTMAX
 10
44.0
 20
34.0
 30
0.0
  9
$EXTMIN
 10
0.0
 20
0.0
 30
0.0
  9
$LIMMIN
 10
0.0
 20
0.0
  9
$LIMMAX
 10
44.0
 20
34.0
  9
$VIEWCTR
 10
22.0
 20
17.0
  9
$VIEWSIZE
 40
34.0
  9
$CLAYER
  8
0
  9
$LTSCALE
 40
2.42
  9
$CELTYPE
  6
BYLAYER
  9
$DIMSCALE
 40
1.0
  9
$DIMASZ
 40
0.1875
  9
$DIMEXO
 40
0.0625
  9
$DIMDLI
 40
1.672
  9
$DIMEXE
 40
0.125
  9
$DIMCEN
 40
0.396
  9
$DIMLFAC
 40
1.0
  9
$DIMBLK
  1
_FILLED
  9
$DIMALT
 70
1
  9
$DIMALTD
 70
2
  9
$DIMALTTD
 70
2
  9
$DIMALTF
 40
25.4
  9
$DIMTXT
 40
0.15625
  9
$DIMTOL
 70
1
  9
$DIMLIM
 70
0
  9
$DIMTFAC
 40
1.0
  9
$DIMTP
 40
0.01
  9
$DIMTM
 40
0.01
  9
$DIMGAP
 40
0.09
  9
$DIMDSEP
 70
46
  9
$AUNITS
 70
0
  9
$PDMODE
 70
3
  9
$PDSIZE
 40
0.3125
  9
$HANDSEED
  5
339
  9
$TILEMODE
 70
1
  9
$MEASUREMENT
 70
0
  9
$INSUNITS
 70
1
  0
ENDSEC
  0
SECTION
  2
CLASSES
  0
CLASS
  1
ACDBDICTIONARYWDFLT
  2
AcDbDictionaryWithDefault
  3
AutoCAD 2000
 90
0
280
0
281
0
  0
CLASS
  1
ACDBPLACEHOLDER
  2
AcDbPlaceHolder
  3
AutoCAD 2000
 90
0
280
0
281
0
  0
CLASS
  1
LAYOUT
  2
AcDbLayout
  3
AutoCAD 2000
 90
0
280
0
281
0
  0
ENDSEC
  0
SECTION
  2
TABLES
  0
TABLE
  2
VPORT
  5
8
100
AcDbSymbolTable
 70
2
  0
VPORT
  5
1F4
100
AcDbSymbolTableRecord
100
AcDbViewportTableRecord
  2
*ACTIVE
 70
0
 10
0.0
 20
0.0
 11
1.0
 21
1.0
 12
22.0
 22
17.0
 13
0.0
 23
0.0
 14
1.0
 24
1.0
 15
0.0
 25
0.0
 16
0.0
 26
0.0
 36
1.0
 17
0.0
 27
0.0
 37
0.0
 40
34.0
 41
1.2941176471
 42
50.0
 43
0.0
 44
0.0
 50
0.0
 51
0.0
 71
0
 72
100
 73
1
 74
1
 75
0
 76
0
 77
0
 78
0
  0
ENDTAB
  0
TABLE
  2
LTYPE
  5
5
100
AcDbSymbolTable
 70
6
  0
LTYPE
  5
14
100
AcDbSymbolTableRecord
100
AcDbLinetypeTableRecord
  2
BYBLOCK
 70
0
  3

 72
65
 73
0
 40
0.0
  0
LTYPE
  5
15
100
AcDbSymbolTableRecord
100
AcDbLinetypeTableRecord
  2
BYLAYER
 70
0
  3

 72
65
 73
0
 40
0.0
  0
LTYPE
  5
16
100
AcDbSymbolTableRecord
100
AcDbLinetypeTableRecord
  2
CONTINUOUS
 70
64
  3
Solid line
 72
65
 73
0
 40
0.0
  0
LTYPE
  5
1F5
100
AcDbSymbolTableRecord
100
AcDbLinetypeTableRecord
  2
CENTER
 70
64
  3
____ _ ____ _ ____ _ ____ _ ____ _ ____ _ ____
 72
65
 73
4
 40
0.6
 49
0.375
 74
0
 49
-0.075
 74
0
 49
0.075
 74
0
 49
-0.075
 74
0
  0
LTYPE
  5
1F6
100
AcDbSymbolTableRecord
100
AcDbLinetypeTableRecord
  2
HIDDEN
 70
64
  3
- - - - - - - - - - - - - - - - - - - -
 72
65
 73
2
 40
0.2
 49
0.1
 74
0
 49
-0.1
 74
0
  0
LTYPE
  5
1F7
100
AcDbSymbolTableRecord
100
AcDbLinetypeTableRecord
  2
PHANTOM
 70
64
  3
_____ _ _ _____ _ _ _____ _ _ _____
 72
65
 73
6
 40
0.8
 49
0.45
 74
0
 49
-0.05
 74
0
 49
0.1
 74
0
 49
-0.05
 74
0
 49
0.1
 74
0
 49
-0.05
 74
0
  0
LTYPE
  5
1F8
100
AcDbSymbolTableRecord
100
AcDbLinetypeTableRecord
  2
DOT
 70
64
  3
. . . . . . . . . . . . . . . . . . . .
 72
65
 73
2
 40
0.2
 49
0.1
 74
0
 49
-0.1
 74
0
  0
LTYPE
  5
1F9
100
AcDbSymbolTableRecord
100
AcDbLinetypeTableRecord
  2
DASHED
 70
64
  3
- - - - - - - - - - - - - - - - - - - -
 72
65
 73
2
 40
0.2
 49
0.1
 74
0
 49
-0.1
 74
0
  0
ENDTAB
  0
TABLE
  2
LAYER
  5
2
100
AcDbSymbolTable
 70
36
  0
LAYER
  5
10
100
AcDbSymbolTableRecord
100
AcDbLayerTableRecord
  2
0
 70
0
 62
7
  6
CONTINUOUS
370
-3
390
F
  0
LAYER
  5
1FA
100
AcDbSymbolTableRecord
100
AcDbLayerTableRecord
  2
DEFAULT_1
 70
0
 62
7
  6
CENTER
370
-3
390
F
  0
LAYER
  5
1FB
100
AcDbSymbolTableRecord
100
AcDbLayerTableRecord
  2
DEFAULT_2
 70
0
 62
8
  6
HIDDEN
370
-3
390
F
  0
LAYER
  5
1FC
100
AcDbSymbolTableRecord
100
AcDbLayerTableRecord
  2
DEFAULT_3
 70
0
 62
7
  6
PHANTOM
370
-3
390
F
  0
LAYER
  5
1FD
100
AcDbSymbolTableRecord
100
AcDbLayerTableRecord
  2
DATUMS
 70
0
 62
7
  6
CONTINUOUS
370
-3
390
F
  0
LAYER
  5
1FE
100
AcDbSymbolTableRecord
100
AcDbLayerTableRecord
  2
DATUM_AXIS
 70
0
 62
7
  6
CONTINUOUS
370
-3
390
F
  0
LAYER
  5
1FF
100
AcDbSymbolTableRecord
100
AcDbLayerTableRecord
  2
DATUM_CSYS
 70
0
 62
7
  6
CONTINUOUS
370
-3
390
F
  0
LAYER
  5
200
100
AcDbSymbolTableRecord
100
AcDbLayerTableRecord
  2
DATUM_PLANE
 70
0
 62
7
  6
CONTINUOUS
370
-3
390
F
  0
LAYER
  5
201
100
AcDbSymbolTableRecord
100
AcDbLayerTableRecord
  2
DATUM_POINT
 70
0
 62
7
  6
CONTINUOUS
370
-3
390
F
  0
LAYER
  5
202
100
AcDbSymbolTableRecord
100
AcDbLayerTableRecord
  2
SINK
 70
0
 62
7
  6
CONTINUOUS
370
-3
390
F
  0
LAYER
  5
203
100
AcDbSymbolTableRecord
100
AcDbLayerTableRecord
  2
_CURVE
 70
0
 62
7
  6
CONTINUOUS
370
-3
390
F
  0
LAYER
  5
204
100
AcDbSymbolTableRecord
100
AcDbLayerTableRecord
  2
_SURFACE
 70
0
 62
7
  6
CONTINUOUS
370
-3
390
F
  0
LAYER
  5
205
100
AcDbSymbolTableRecord
100
AcDbLayerTableRecord
  2
__REF_CURVE
 70
0
 62
7
  6
CONTINUOUS
370
-3
390
F
  0
LAYER
  5
206
100
AcDbSymbolTableRecord
100
AcDbLayerTableRecord
  2
__REF_SURFACE
 70
0
 62
7
  6
CONTINUOUS
370
-3
390
F
  0
LAYER
  5
207
100
AcDbSymbolTableRecord
100
AcDbLayerTableRecord
  2
___NOTE
 70
0
 62
7
  6
CONTINUOUS
370
-3
390
F
  0
LAYER
  5
208
100
AcDbSymbolTableRecord
100
AcDbLayerTableRecord
  2
___SYMBOL
 70
0
 62
7
  6
CONTINUOUS
370
-3
390
F
  0
ENDTAB
  0
TABLE
  2
STYLE
  5
3
100
AcDbSymbolTable
 70
1
  0
STYLE
  5
11
100
AcDbSymbolTableRecord
100
AcDbTextStyleTableRecord
  2
STANDARD
 70
0
 40
0.0
 41
0.8
 50
0.0
 71
0
 42
0.2
  3
txt
  4

  0
STYLE
  5
209
100
AcDbSymbolTableRecord
100
AcDbTextStyleTableRecord
  2
TEXTSTYLE_1
 70
0
 40
0.0
 41
0.8
 50
0.0
 71
0
 42
0.2
  3
gdt
  4

  0
STYLE
  5
20A
100
AcDbSymbolTableRecord
100
AcDbTextStyleTableRecord
  2
TEXTSTYLE_2
 70
0
 40
0.0
 41
1.0
 50
0.0
 71
0
 42
0.2
  3
txt
  4

  0
ENDTAB
  0
TABLE
  2
VIEW
  5
6
100
AcDbSymbolTable
 70
0
  0
ENDTAB
  0
TABLE
  2
UCS
  5
7
100
AcDbSymbolTable
 70
0
  0
ENDTAB
  0
TABLE
  2
APPID
  5
9
100
AcDbSymbolTable
 70
1
  0
APPID
  5
20B
100
AcDbSymbolTableRecord
100
AcDbRegAppTableRecord
  2
ACAD
 70
0
  0
ENDTAB
  0
TABLE
  2
BLOCK_RECORD
  5
1
100
AcDbSymbolTable
 70
0
  0
BLOCK_RECORD
  5
20C
100
AcDbSymbolTableRecord
100
AcDbBlockTableRecord
  2
*Model_Space
  0
BLOCK_RECORD
  5
20D
100
AcDbSymbolTableRecord
100
AcDbBlockTableRecord
  2
*Paper_Space
  0
BLOCK_RECORD
  5
20E
100
AcDbSymbolTableRecord
100
AcDbBlockTableRecord
  2
_FILLED
  0
BLOCK_RECORD
  5
20F
100
AcDbSymbolTableRecord
100
AcDbBlockTableRecord
  2
*D0
  0
BLOCK_RECORD
  5
210
100
AcDbSymbolTableRecord
100
AcDbBlockTableRecord
  2
*D1
  0
BLOCK_RECORD
  5
211
100
AcDbSymbolTableRecord
100
AcDbBlockTableRecord
  2
*D2
  0
BLOCK_RECORD
  5
212
100
AcDbSymbolTableRecord
100
AcDbBlockTableRecord
  2
*D3
  0
BLOCK_RECORD
  5
213
100
AcDbSymbolTableRecord
100
AcDbBlockTableRecord
  2
SCISSORS_BL1
  0
BLOCK_RECORD
  5
214
100
AcDbSymbolTableRecord
100
AcDbBlockTableRecord
  2
PLOTTING_TEMPLATE_NOTE_BL0
  0
ENDTAB
  0
TABLE
  2
DIMSTYLE
  5
A
100
AcDbSymbolTable
 70
1
100
AcDbDimStyleTable
 71
0
  0
DIMSTYLE
105
215
100
AcDbSymbolTableRecord
100
AcDbDimStyleTableRecord
  2
STANDARD
 70
0
  3

  4

 40
1.0
 41
0.1875
 42
0.0625
 43
0.38
 44
0.125
 45
0.0
 46
0.0
 47
0.01
 48
0.01
140
0.15625
141
0.09
142
0.0
143
2.54
144
1.0
145
0.0
146
1.0
147
0.09
 71
1
 72
0
 73
1
 74
1
 75
0
 76
0
 77
0
 78
4
 79
1
170
1
171
2
172
0
173
0
174
0
175
0
176
0
177
0
178
0
270
2
179
3
271
3
272
3
273
2
274
2
275
0
280
0
281
0
282
0
283
1
284
4
285
0
286
0
287
3
288
0
340
11
278
46
341
20E
342
20E
343
20E
344
20E
  0
DIMSTYLE
105
216
100
AcDbSymbolTableRecord
100
AcDbDimStyleTableRecord
  2
DIMSTYLE_1
 70
0
  3

  4

 40
1.0
 41
0.1875
 42
0.0625
 43
0.38
 44
0.125
 45
0.0
 46
0.0
 47
0.03125
 48
0.03125
140
0.15625
141
0.09
142
0.0
143
2.54
144
1.0
145
0.0
146
1.0
147
0.078125
 71
0
 72
0
 73
1
 74
1
 75
0
 76
0
 77
0
 78
4
 79
1
170
1
171
1
172
0
173
0
174
0
175
0
176
0
177
0
178
0
270
2
179
3
271
5
272
2
273
2
274
2
275
0
280
0
281
0
282
0
283
1
284
4
285
0
286
0
287
3
288
0
340
11
278
46
341
20E
342
20E
343
20E
344
20E
  0
DIMSTYLE
105
217
100
AcDbSymbolTableRecord
100
AcDbDimStyleTableRecord
  2
DIMSTYLE_2
 70
0
  3

  4

 40
1.0
 41
0.1875
 42
0.0625
 43
0.38
 44
0.125
 45
0.0
 46
0.0
 47
0.0625
 48
0.0625
140
0.15625
141
0.09
142
0.0
143
2.54
144
1.0
145
0.0
146
1.0
147
0.078125
 71
0
 72
0
 73
1
 74
1
 75
0
 76
0
 77
0
 78
4
 79
1
170
1
171
1
172
0
173
0
174
0
175
0
176
0
177
0
178
0
270
2
179
3
271
4
272
16
273
2
274
3
275
0
280
0
281
0
282
0
283
1
284
4
285
0
286
0
287
3
288
0
340
11
278
46
341
20E
342
20E
343
20E
344
20E
  0
DIMSTYLE
105
218
100
AcDbSymbolTableRecord
100
AcDbDimStyleTableRecord
  2
DIMSTYLE_3
 70
0
  3
<>
  4

 40
1.0
 41
0.1875
 42
0.0625
 43
0.38
 44
0.125
 45
0.0
 46
0.0
 47
0.03125
 48
0.03125
140
0.15625
141
0.09
142
0.0
143
2.54
144
1.0
145
0.0
146
1.0
147
0.09
 71
0
 72
0
 73
1
 74
1
 75
0
 76
0
 77
0
 78
4
 79
1
170
1
171
1
172
0
173
0
174
0
175
0
176
0
177
0
178
0
270
2
179
3
271
5
272
3
273
2
274
2
275
0
280
0
281
0
282
0
283
1
284
4
285
0
286
0
287
3
288
0
340
11
278
46
341
20E
342
20E
343
20E
344
20E
  0
DIMSTYLE
105
219
100
AcDbSymbolTableRecord
100
AcDbDimStyleTableRecord
  2
DIMSTYLE_4
 70
0
  3

  4

 40
1.0
 41
0.1875
 42
0.0625
 43
0.38
 44
0.125
 45
0.0
 46
0.0
 47
0.03125
 48
0.03125
140
0.15625
141
0.09
142
0.0
143
2.54
144
1.0
145
0.0
146
1.0
147
0.078125
 71
0
 72
0
 73
1
 74
1
 75
0
 76
0
 77
0
 78
4
 79
1
170
1
171
1
172
0
173
0
174
0
175
0
176
0
177
0
178
0
270
2
179
3
271
5
272
3
273
2
274
2
275
0
280
0
281
0
282
0
283
1
284
4
285
0
286
0
287
3
288
0
340
11
278
46
341
20E
342
20E
343
20E
344
20E
  0
ENDTAB
  0
ENDSEC
  0
SECTION
  2
BLOCKS
  0
BLOCK
  5
20
100
AcDbEntity
  8
0
100
AcDbBlockBegin
  2
*Model_Space
 70
0
 10
0.0
 20
0.0
 30
0.0
  3
*Model_Space
  1

  0
ENDBLK
  5
21
100
AcDbEntity
  8
0
100
AcDbBlockEnd
  0
BLOCK
  5
1C
100
AcDbEntity
  8
0
100
AcDbBlockBegin
  2
*Paper_Space
 70
0
 10
0.0
 20
0.0
 30
0.0
  3
*Paper_Space
  1

  0
ENDBLK
  5
1D
100
AcDbEntity
  8
0
100
AcDbBlockEnd
  0
BLOCK
  5
21A
100
AcDbEntity
  8
___SYMBOL
100
AcDbBlockBegin
 62
2
  6
CONTINUOUS
  2
SCISSORS_BL1
 70
64
 10
8.7291669549
 20
16.4609226344
  3
SCISSORS_BL1
  1

  0
LINE
  5
21B
100
AcDbEntity
  8
___SYMBOL
100
AcDbLine
 62
7
  6
CONTINUOUS
 10
8.6715256882
 20
16.5226211553
 11
8.559445915
 21
17.0762794569
  0
LINE
  5
21C
100
AcDbEntity
  8
___SYMBOL
100
AcDbLine
 62
7
  6
CONTINUOUS
 10
8.623146029
 20
16.4931200798
 11
8.559445915
 21
17.0762794569
  0
LINE
  5
21D
100
AcDbEntity
  8
___SYMBOL
100
AcDbLine
 62
7
  6
CONTINUOUS
 10
8.6987877934
 20
16.4269371632
 11
8.6972201795
 21
16.4777905701
  0
LINE
  5
21E
100
AcDbEntity
  8
___SYMBOL
100
AcDbLine
 62
7
  6
CONTINUOUS
 10
8.7135978808
 20
16.4784705595
 11
8.7151762815
 21
16.4272672288
  0
LINE
  5
21F
100
AcDbEntity
  8
___SYMBOL
100
AcDbLine
 62
7
  6
CONTINUOUS
 10
8.7076797979
 20
16.6558400094
 11
8.8953941875
 21
17.0665439759
  0
LINE
  5
220
100
AcDbEntity
  8
___SYMBOL
100
AcDbLine
 62
7
  6
CONTINUOUS
 10
8.5935709761
 20
16.3975699088
 11
8.62610007
 21
16.4589824767
  0
LINE
  5
221
100
AcDbEntity
  8
___SYMBOL
100
AcDbLine
 62
7
  6
CONTINUOUS
 10
8.7748270434
 20
16.4653886074
 11
8.8953941875
 21
16.8510772202
  0
LINE
  5
222
100
AcDbEntity
  8
___SYMBOL
100
AcDbLine
 62
7
  6
CONTINUOUS
 10
8.7454584279
 20
16.5486875416
 11
8.6715256882
 21
16.5226211553
  0
LINE
  5
223
100
AcDbEntity
  8
___SYMBOL
100
AcDbLine
 62
7
  6
CONTINUOUS
 10
8.7994390672
 20
16.3955809121
 11
8.7421522655
 21
16.2573163894
  0
LINE
  5
224
100
AcDbEntity
  8
___SYMBOL
100
AcDbLine
 62
7
  6
CONTINUOUS
 10
8.6474127391
 20
16.2618279991
 11
8.6914900143
 21
16.307627201
  0
LINE
  5
225
100
AcDbEntity
  8
___SYMBOL
100
AcDbLine
 62
7
  6
CONTINUOUS
 10
8.559445915
 20
17.0762794569
 11
8.7994390672
 21
16.3955809121
  0
LINE
  5
226
100
AcDbEntity
  8
___SYMBOL
100
AcDbLine
 62
7
  6
CONTINUOUS
 10
8.6474127391
 20
16.2618279991
 11
8.5935709761
 21
16.3975699088
  0
ARC
  5
227
100
AcDbEntity
  8
___SYMBOL
100
AcDbCircle
 62
7
  6
CONTINUOUS
 10
8.5507601881
 20
16.958810598
 40
0.3610804262
100
AcDbArc
 50
342.6406360869
 51
17.3593639131
  0
ARC
  5
228
100
AcDbEntity
  8
___SYMBOL
100
AcDbCircle
 62
7
  6
CONTINUOUS
 10
8.9357979976
 20
16.5029782875
 40
0.3128073492
100
AcDbArc
 50
181.8059909349
 51
231.752660067
  0
CIRCLE
  5
229
100
AcDbEntity
  8
___SYMBOL
100
AcDbCircle
 62
7
  6
CONTINUOUS
 10
8.7064680105
 20
16.4526247798
 40
0.0268111801
  0
ARC
  5
22A
100
AcDbEntity
  8
___SYMBOL
100
AcDbCircle
 62
7
  6
CONTINUOUS
 10
8.8659258209
 20
16.0803071824
 40
0.0146088562
100
AcDbArc
 50
185.3133793157
 51
314.0675041521
  0
ARC
  5
22B
100
AcDbEntity
  8
___SYMBOL
100
AcDbCircle
 62
7
  6
CONTINUOUS
 10
8.5312642259
 20
16.0727866131
 40
0.0146087357
100
AcDbArc
 50
233.3109272841
 51
359.4467240969
  0
SPLINE
  5
22C
100
AcDbEntity
  8
___SYMBOL
100
AcDbSpline
 62
7
  6
CONTINUOUS
 70
0
 71
3
 72
12
 73
8
 74
0
 42
0.0000001
 43
0.0000001
 44
0.0000000001
 40
0.0
 40
0.0
 40
0.0
 40
0.0
 40
0.4884256058
 40
0.6683914397
 40
0.8669439281
 40
0.9099489479
 40
1.0
 40
1.0
 40
1.0
 40
1.0
 10
8.8281816927
 20
15.8455658119
 30
0.0
 10
8.8049533445
 20
15.9136090994
 30
0.0
 10
8.7999836024
 20
16.0146335659
 30
0.0
 10
8.8015749409
 20
16.1415069915
 30
0.0
 10
8.7966909506
 20
16.2043245051
 30
0.0
 10
8.7781454499
 20
16.2502165686
 30
0.0
 10
8.7552200447
 20
16.2595422716
 30
0.0
 10
8.7421522655
 20
16.2573163894
 30
0.0
  0
SPLINE
  5
22D
100
AcDbEntity
  8
___SYMBOL
100
AcDbSpline
 62
7
  6
CONTINUOUS
 70
0
 71
3
 72
14
 73
10
 74
0
 42
0.0000001
 43
0.0000001
 44
0.0000000001
 40
0.0
 40
0.0
 40
0.0
 40
0.0
 40
0.0469735811
 40
0.2606095073
 40
0.5805460666
 40
0.7382389988
 40
0.8401572415
 40
0.925087268
 40
1.0
 40
1.0
 40
1.0
 40
1.0
 10
8.8513797374
 20
16.078954357
 30
0.0
 10
8.8509053345
 20
16.0840553143
 30
0.0
 10
8.8489468474
 20
16.1124637618
 30
0.0
 10
8.851630897
 20
16.1750044562
 30
0.0
 10
8.8574731788
 20
16.2544879646
 30
0.0
 10
8.8235206553
 20
16.3088871566
 30
0.0
 10
8.8024873992
 20
16.3409480818
 30
0.0
 10
8.800803957
 20
16.370128431
 30
0.0
 10
8.800670724
 20
16.387504251
 30
0.0
 10
8.7994390672
 20
16.3955809121
 30
0.0
  0
SPLINE
  5
22E
100
AcDbEntity
  8
___SYMBOL
100
AcDbSpline
 62
7
  6
CONTINUOUS
 70
0
 71
3
 72
12
 73
8
 74
0
 42
0.0000001
 43
0.0000001
 44
0.0000000001
 40
0.0
 40
0.0
 40
0.0
 40
0.0
 40
0.2870411994
 40
0.5613888029
 40
0.7613462239
 40
0.9013972407
 40
1.0
 40
1.0
 40
1.0
 40
1.0
 10
8.5887496982
 20
15.8842223953
 30
0.0
 10
8.5979511874
 20
15.9209095408
 30
0.0
 10
8.6017613779
 20
15.9956040268
 30
0.0
 10
8.5954649765
 20
16.0962614705
 30
0.0
 10
8.6030486206
 20
16.1756056564
 30
0.0
 10
8.6071246508
 20
16.2364868272
 30
0.0
 10
8.6349282367
 20
16.2582290225
 30
0.0
 10
8.6474127391
 20
16.2618279991
 30
0.0
  0
SPLINE
  5
22F
100
AcDbEntity
  8
___SYMBOL
100
AcDbSpline
 62
7
  6
CONTINUOUS
 70
0
 71
3
 72
13
 73
9
 74
0
 42
0.0000001
 43
0.0000001
 44
0.0000000001
 40
0.0
 40
0.0
 40
0.0
 40
0.0
 40
0.0902051637
 40
0.4170421866
 40
0.6587388922
 40
0.9356437381
 40
0.9595034934
 40
1.0
 40
1.0
 40
1.0
 40
1.0
 10
8.5458722804
 20
16.0726455462
 30
0.0
 10
8.5459686258
 20
16.0826225028
 30
0.0
 10
8.5456838212
 20
16.1286830195
 30
0.0
 10
8.5435617118
 20
16.2024394916
 30
0.0
 10
8.5589496876
 20
16.2928129901
 30
0.0
 10
8.6035142802
 20
16.3511783494
 30
0.0
 10
8.5883820549
 20
16.3861429446
 30
0.0
 10
8.5903266999
 20
16.3944814985
 30
0.0
 10
8.5935709761
 20
16.3975699088
 30
0.0
  0
ELLIPSE
  5
230
100
AcDbEntity
  8
___SYMBOL
100
AcDbEllipse
 62
7
  6
CONTINUOUS
 10
8.9478126337
 20
15.917582448
 30
0.0
 11
0.0060666775
 21
-0.1237602215
 31
0.0
 40
0.774293327
 41
0.0
 42
6.2831853072
  0
ELLIPSE
  5
231
100
AcDbEntity
  8
___SYMBOL
100
AcDbEllipse
 62
7
  6
CONTINUOUS
 10
8.9478126337
 20
15.917582448
 30
0.0
 11
-0.0030333388
 21
-0.1844269968
 31
0.0
 40
0.700902774
 41
5.1250505418
 42
10.0362700851
  0
ELLIPSE
  5
232
100
AcDbEntity
  8
___SYMBOL
100
AcDbEllipse
 62
7
  6
CONTINUOUS
 10
8.4563123971
 20
15.9304357393
 30
0.0
 11
0.0151666938
 21
-0.1228502199
 31
0.0
 40
0.7501188416
 41
0.0
 42
6.2831853072
  0
ELLIPSE
  5
233
100
AcDbEntity
  8
___SYMBOL
100
AcDbEllipse
 62
7
  6
CONTINUOUS
 10
8.4585874011
 20
15.9099607026
 30
0.0
 11
0.0022750041
 21
-0.1736586442
 31
0.0
 40
0.7569683881
 41
2.6163261196
 42
7.6953125801
  0
ENDBLK
  5
234
100
AcDbEntity
  8
0
  6
BYBLOCK
 62
0
100
AcDbBlockEnd
  0
BLOCK
  5
235
100
AcDbEntity
  8
___SYMBOL
100
AcDbBlockBegin
 62
2
  6
CONTINUOUS
  2
PLOTTING_TEMPLATE_NOTE_BL0
 70
64
 10
29.9612729296
 20
13.8884049769
  3
PLOTTING_TEMPLATE_NOTE_BL0
  1

  0
TEXT
  5
236
100
AcDbEntity
  8
___SYMBOL
100
AcDbText
 62
2
  6
CONTINUOUS
 10
27.0862729296
 20
15.2165299769
  7
STANDARD
 40
0.15625
  1
WHEN PLOTTING TEMPLATE FULL SIZE:
 41
0.8
 72
0
100
AcDbText
  0
TEXT
  5
237
100
AcDbEntity
  8
___SYMBOL
100
AcDbText
 62
2
  6
CONTINUOUS
 10
27.0862729296
 20
14.9821549769
  7
STANDARD
 40
0.15625
  1
Make sure horizontal and vertical dimensions
 41
0.8
 72
0
100
AcDbText
  0
TEXT
  5
238
100
AcDbEntity
  8
___SYMBOL
100
AcDbText
 62
2
  6
CONTINUOUS
 10
27.0862729296
 20
14.7477799769
  7
STANDARD
 40
0.15625
  1
match the dimensions labeled on the template.
 41
0.8
 72
0
100
AcDbText
  0
TEXT
  5
239
100
AcDbEntity
  8
___SYMBOL
100
AcDbText
 62
2
  6
CONTINUOUS
 10
27.0862729296
 20
14.5134049769
  7
STANDARD
 40
0.15625
  1
 
 41
0.8
 72
0
100
AcDbText
  0
TEXT
  5
23A
100
AcDbEntity
  8
___SYMBOL
100
AcDbText
 62
2
  6
CONTINUOUS
 10
27.0862729296
 20
14.2790299769
  7
STANDARD
 40
0.15625
  1
LORS DU TRACÉ DU GABARIT À L'ÉCHELLE: 
 41
0.8
 72
0
100
AcDbText
  0
TEXT
  5
23B
100
AcDbEntity
  8
___SYMBOL
100
AcDbText
 62
2
  6
CONTINUOUS
 10
27.0862729296
 20
14.0446549769
  7
STANDARD
 40
0.15625
  1
s'assurer que les dimensions horizontales et
 41
0.8
 72
0
100
AcDbText
  0
TEXT
  5
23C
100
AcDbEntity
  8
___SYMBOL
100
AcDbText
 62
2
  6
CONTINUOUS
 10
27.0862729296
 20
13.8102799769
  7
STANDARD
 40
0.15625
  1
verticales correspondent à celles marquées sur
 41
0.8
 72
0
100
AcDbText
  0
TEXT
  5
23D
100
AcDbEntity
  8
___SYMBOL
100
AcDbText
 62
2
  6
CONTINUOUS
 10
27.0862729296
 20
13.5759049769
  7
STANDARD
 40
0.15625
  1
le gabarit.
 41
0.8
 72
0
100
AcDbText
  0
TEXT
  5
23E
100
AcDbEntity
  8
___SYMBOL
100
AcDbText
 62
2
  6
CONTINUOUS
 10
27.0862729296
 20
13.3415299769
  7
STANDARD
 40
0.15625
  1
 
 41
0.8
 72
0
100
AcDbText
  0
TEXT
  5
23F
100
AcDbEntity
  8
___SYMBOL
100
AcDbText
 62
2
  6
CONTINUOUS
 10
27.0862729296
 20
13.1071549769
  7
STANDARD
 40
0.15625
  1
AL TRAZAR LA PLANTILLA A ESCALA COMPLETA:
 41
0.8
 72
0
100
AcDbText
  0
TEXT
  5
240
100
AcDbEntity
  8
___SYMBOL
100
AcDbText
 62
2
  6
CONTINUOUS
 10
27.0862729296
 20
12.8727799769
  7
STANDARD
 40
0.15625
  1
asegúrese de que la dimensión horizontal y
 41
0.8
 72
0
100
AcDbText
  0
TEXT
  5
241
100
AcDbEntity
  8
___SYMBOL
100
AcDbText
 62
2
  6
CONTINUOUS
 10
27.0862729296
 20
12.6384049769
  7
STANDARD
 40
0.15625
  1
la dimensión vertical sean iguales a las
 41
0.8
 72
0
100
AcDbText
  0
TEXT
  5
242
100
AcDbEntity
  8
___SYMBOL
100
AcDbText
 62
2
  6
CONTINUOUS
 10
27.0862729296
 20
12.4040299769
  7
STANDARD
 40
0.15625
  1
dimensiones indicadas en la plantilla.
 41
0.8
 72
0
100
AcDbText
  0
ENDBLK
  5
243
100
AcDbEntity
  8
0
  6
BYBLOCK
 62
0
100
AcDbBlockEnd
  0
BLOCK
  5
244
100
AcDbEntity
  8
0
100
AcDbBlockBegin
  2
_FILLED
 70
64
 10
0.0
 20
0.0
  3
_FILLED
  1

  0
SOLID
  5
245
100
AcDbEntity
  8
0
  6
BYBLOCK
 62
0
100
AcDbTrace
 10
0.0
 20
0.0
 11
-1.0
 21
0.1666666667
 12
-1.0
 22
-0.1666666667
 13
-1.0
 23
-0.1666666667
  0
ENDBLK
  5
246
100
AcDbEntity
  8
0
  6
BYBLOCK
 62
0
100
AcDbBlockEnd
  0
BLOCK
  5
247
100
AcDbEntity
  8
0
100
AcDbBlockBegin
 62
2
  6
CONTINUOUS
  2
*D0
 70
65
 10
0.0
 20
0.0
  3
*D0
  1

  0
MTEXT
  5
248
100
AcDbEntity
  8
0
100
AcDbMText
 62
2
  6
CONTINUOUS
  7
STANDARD
 71
2
 72
1
 10
24.8204570023
 20
20.0047356789
 30
0.0
 11
1.0
 21
0.0
 31
0.0
 73
2
 44
0.9
  1
26-1/4"\P[66,7]
 40
0.15625
 41
0.875
  0
LINE
  5
249
100
AcDbEntity
  8
0
100
AcDbLine
 62
2
  6
CONTINUOUS
 10
8.7064680105
 20
19.9266106789
 11
24.3048320023
 21
19.9266106789
  0
LINE
  5
24A
100
AcDbEntity
  8
0
100
AcDbLine
 62
2
  6
CONTINUOUS
 10
34.9464680105
 20
19.9266106789
 11
25.3360820023
 21
19.9266106789
  0
INSERT
  5
24B
100
AcDbEntity
  8
0
100
AcDbBlockReference
 62
2
  6
CONTINUOUS
  2
_FILLED
 10
8.7064680105
 20
19.9266106789
 41
0.1875
 42
0.1875
 43
0.1875
 50
180.0
  0
INSERT
  5
24C
100
AcDbEntity
  8
0
100
AcDbBlockReference
 62
2
  6
CONTINUOUS
  2
_FILLED
 10
34.9464680105
 20
19.9266106789
 41
0.1875
 42
0.1875
 43
0.1875
  0
ENDBLK
  5
24D
100
AcDbEntity
  8
0
  6
BYBLOCK
 62
0
100
AcDbBlockEnd
  0
BLOCK
  5
24E
100
AcDbEntity
  8
0
100
AcDbBlockBegin
 62
2
  6
CONTINUOUS
  2
*D1
 70
65
 10
0.0
 20
0.0
  3
*D1
  1

  0
MTEXT
  5
24F
100
AcDbEntity
  8
0
100
AcDbMText
 62
2
  6
CONTINUOUS
  7
STANDARD
 71
2
 72
1
 10
23.5591884348
 20
18.6161233739
 30
0.0
 11
1.0
 21
0.0
 31
0.0
 73
2
 44
0.9
  1
17{\ftxt;\W0.0001;\H0.0001;\~}{\ftxt;\W3.2;\H0.15625; }"\P[43,1]
 40
0.15625
 41
0.875
  0
LINE
  5
250
100
AcDbEntity
  8
0
100
AcDbLine
 62
2
  6
CONTINUOUS
 10
23.5591884348
 20
10.8790972831
 11
23.5591884348
 21
18.1473733739
  0
LINE
  5
251
100
AcDbEntity
  8
0
100
AcDbLine
 62
2
  6
CONTINUOUS
 10
23.5591884348
 20
27.8490972831
 11
23.5591884348
 21
18.6942483739
  0
INSERT
  5
252
100
AcDbEntity
  8
0
100
AcDbBlockReference
 62
2
  6
CONTINUOUS
  2
_FILLED
 10
23.5591884348
 20
10.8790972831
 41
0.1875
 42
0.1875
 43
0.1875
 50
270.0
  0
INSERT
  5
253
100
AcDbEntity
  8
0
100
AcDbBlockReference
 62
2
  6
CONTINUOUS
  2
_FILLED
 10
23.5591884348
 20
27.8490972831
 41
0.1875
 42
0.1875
 43
0.1875
 50
90.0
  0
ENDBLK
  5
254
100
AcDbEntity
  8
0
  6
BYBLOCK
 62
0
100
AcDbBlockEnd
  0
BLOCK
  5
255
100
AcDbEntity
  8
0
100
AcDbBlockBegin
 62
2
  6
CONTINUOUS
  2
*D2
 70
65
 10
0.0
 20
0.0
  3
*D2
  1

  0
MTEXT
  5
256
100
AcDbEntity
  8
0
100
AcDbMText
 62
2
  6
CONTINUOUS
  7
STANDARD
 71
2
 72
1
 10
9.4987653213
 20
27.0798289405
 30
0.0
 11
1.0
 21
0.0
 31
0.0
 73
2
 44
0.9
  1
2X R13/32"\P[1]
 40
0.15625
 41
1.25
  0
LINE
  5
257
100
AcDbEntity
  8
0
100
AcDbLine
 62
2
  6
CONTINUOUS
 10
8.8404341603
 20
27.7511013316
 11
9.3615027086
 21
27.1579539405
  0
INSERT
  5
258
100
AcDbEntity
  8
0
100
AcDbBlockReference
 62
2
  6
CONTINUOUS
  2
_FILLED
 10
8.8404341603
 20
27.7511013316
 41
0.1875
 42
0.1875
 43
0.1875
 50
131.2986823969
  0
ENDBLK
  5
259
100
AcDbEntity
  8
0
  6
BYBLOCK
 62
0
100
AcDbBlockEnd
  0
BLOCK
  5
25A
100
AcDbEntity
  8
0
100
AcDbBlockBegin
 62
2
  6
CONTINUOUS
  2
*D3
 70
65
 10
0.0
 20
0.0
  3
*D3
  1

  0
MTEXT
  5
25B
100
AcDbEntity
  8
0
100
AcDbMText
 62
2
  6
CONTINUOUS
  7
STANDARD
 71
2
 72
1
 10
6.2754301464
 20
10.3355819542
 30
0.0
 11
1.0
 21
0.0
 31
0.0
 73
2
 44
0.9
  1
(1-1/2")\P[3,8]
 40
0.15625
 41
1.0
  0
LINE
  5
25C
100
AcDbEntity
  8
0
100
AcDbLine
 62
2
  6
CONTINUOUS
 10
7.7639680105
 20
10.8790972831
 11
6.1504301464
 21
10.8790972831
  0
LINE
  5
25D
100
AcDbEntity
  8
0
100
AcDbLine
 62
2
  6
CONTINUOUS
 10
6.2754301464
 20
10.8790972831
 11
6.2754301464
 21
10.4137069542
  0
LINE
  5
25E
100
AcDbEntity
  8
0
100
AcDbLine
 62
2
  6
CONTINUOUS
 10
6.2754301464
 20
9.3790972831
 11
6.2754301464
 21
9.8668319542
  0
INSERT
  5
25F
100
AcDbEntity
  8
0
100
AcDbBlockReference
 62
2
  6
CONTINUOUS
  2
_FILLED
 10
6.2754301464
 20
10.8790972831
 41
0.1875
 42
0.1875
 43
0.1875
 50
90.0
  0
INSERT
  5
260
100
AcDbEntity
  8
0
100
AcDbBlockReference
 62
2
  6
CONTINUOUS
  2
_FILLED
 10
6.2754301464
 20
9.3790972831
 41
0.1875
 42
0.1875
 43
0.1875
 50
270.0
  0
ENDBLK
  5
261
100
AcDbEntity
  8
0
  6
BYBLOCK
 62
0
100
AcDbBlockEnd
  0
ENDSEC
  0
SECTION
  2
ENTITIES
  0
SOLID
  5
262
100
AcDbEntity
  8
0
100
AcDbTrace
 62
2
  6
CONTINUOUS
 10
10.4495932123
 20
26.3459167203
 11
10.5873573791
 21
26.50973791
 12
10.7794191911
 22
26.50973791
 13
10.7794191911
 23
26.50973791
  0
SOLID
  5
263
100
AcDbEntity
  8
0
100
AcDbTrace
 62
2
  6
CONTINUOUS
 10
10.7794191911
 20
26.50973791
 11
10.5661157392
 21
26.2560896371
 12
10.4495932123
 22
26.3459167203
 13
10.4495932123
 23
26.3459167203
  0
SOLID
  5
264
100
AcDbEntity
  8
0
100
AcDbTrace
 62
2
  6
CONTINUOUS
 10
10.4495932123
 20
26.1253240947
 11
10.5661157392
 21
26.2560896371
 12
10.6033311524
 22
25.9238242607
 13
10.6033311524
 23
25.9238242607
  0
SOLID
  5
265
100
AcDbEntity
  8
0
100
AcDbTrace
 62
2
  6
CONTINUOUS
 10
10.5661157392
 20
26.2560896371
 11
10.8196235739
 21
25.9238242607
 12
10.6033311524
 22
25.9238242607
 13
10.6033311524
 23
25.9238242607
  0
SOLID
  5
266
100
AcDbEntity
  8
0
100
AcDbTrace
 62
2
  6
CONTINUOUS
 10
10.4495932123
 20
25.9238242607
 11
10.2750929854
 21
25.9238002572
 12
10.4495932123
 22
26.1253240947
 13
10.4495932123
 23
26.1253240947
  0
SOLID
  5
267
100
AcDbEntity
  8
0
100
AcDbTrace
 62
2
  6
CONTINUOUS
 10
10.5661157392
 20
26.2560896371
 11
10.4495932123
 21
26.1253240947
 12
10.4495932123
 22
26.3459167203
 13
10.4495932123
 23
26.3459167203
  0
SOLID
  5
268
100
AcDbEntity
  8
0
100
AcDbTrace
 62
2
  6
CONTINUOUS
 10
10.4495932123
 20
26.1253240947
 11
10.2750929854
 21
25.9238002572
 12
10.4495932123
 22
26.3459167203
 13
10.4495932123
 23
26.3459167203
  0
SOLID
  5
269
100
AcDbEntity
  8
0
100
AcDbTrace
 62
2
  6
CONTINUOUS
 10
10.4495932123
 20
26.3459167203
 11
10.2750929854
 21
25.9238002572
 12
10.4495932123
 22
26.50973791
 13
10.4495932123
 23
26.50973791
  0
SOLID
  5
26A
100
AcDbEntity
  8
0
100
AcDbTrace
 62
2
  6
CONTINUOUS
 10
10.2750929854
 20
25.9238002572
 11
10.2750929854
 21
26.50973791
 12
10.4495932123
 22
26.50973791
 13
10.4495932123
 23
26.50973791
  0
SOLID
  5
26B
100
AcDbEntity
  8
0
100
AcDbTrace
 62
2
  6
CONTINUOUS
 10
10.9040278587
 20
26.4991284966
 11
10.9649770132
 21
26.5120836393
 12
11.027287808
 22
26.5120836393
 13
11.027287808
 23
26.5120836393
  0
SOLID
  5
26C
100
AcDbEntity
  8
0
100
AcDbTrace
 62
2
  6
CONTINUOUS
 10
11.027287808
 20
26.5120836393
 11
11.0882369625
 21
26.4991284966
 12
10.9040278587
 22
26.4991284966
 13
10.9040278587
 23
26.4991284966
  0
SOLID
  5
26D
100
AcDbEntity
  8
0
100
AcDbTrace
 62
2
  6
CONTINUOUS
 10
10.8471041151
 20
26.473784413
 11
10.9040278587
 21
26.4991284966
 12
11.0882369625
 22
26.4991284966
 13
11.0882369625
 23
26.4991284966
  0
SOLID
  5
26E
100
AcDbEntity
  8
0
100
AcDbTrace
 62
2
  6
CONTINUOUS
 10
11.0882369625
 20
26.4991284966
 11
11.1451607061
 21
26.473784413
 12
10.8471041151
 22
26.473784413
 13
10.8471041151
 23
26.473784413
  0
SOLID
  5
26F
100
AcDbEntity
  8
0
100
AcDbTrace
 62
2
  6
CONTINUOUS
 10
10.7966936231
 20
26.4371590468
 11
10.8471041151
 21
26.473784413
 12
11.1451607061
 22
26.473784413
 13
11.1451607061
 23
26.473784413
  0
SOLID
  5
270
100
AcDbEntity
  8
0
100
AcDbTrace
 62
2
  6
CONTINUOUS
 10
11.1451607061
 20
26.473784413
 11
11.195571198
 21
26.4371590468
 12
10.7966936231
 22
26.4371590468
 13
10.7966936231
 23
26.4371590468
  0
SOLID
  5
271
100
AcDbEntity
  8
0
100
AcDbTrace
 62
2
  6
CONTINUOUS
 10
10.7549995632
 20
26.390853102
 11
10.7966936231
 21
26.4371590468
 12
11.195571198
 22
26.4371590468
 13
11.195571198
 23
26.4371590468
  0
SOLID
  5
272
100
AcDbEntity
  8
0
100
AcDbTrace
 62
2
  6
CONTINUOUS
 10
11.195571198
 20
26.4371590468
 11
11.237265258
 21
26.390853102
 12
10.7549995632
 22
26.390853102
 13
10.7549995632
 23
26.390853102
  0
SOLID
  5
273
100
AcDbEntity
  8
0
100
AcDbTrace
 62
2
  6
CONTINUOUS
 10
10.9961324106
 20
26.3404292485
 11
10.7238441658
 21
26.3368903707
 12
11.237265258
 22
26.390853102
 13
11.237265258
 23
26.390853102
  0
SOLID
  5
274
100
AcDbEntity
  8
0
100
AcDbTrace
 62
2
  6
CONTINUOUS
 10
10.7238441658
 20
26.3368903707
 11
10.7549995632
 21
26.390853102
 12
11.237265258
 22
26.390853102
 13
11.237265258
 23
26.390853102
  0
SOLID
  5
275
100
AcDbEntity
  8
0
100
AcDbTrace
 62
2
  6
CONTINUOUS
 10
11.237265258
 20
26.390853102
 11
11.2684206554
 21
26.3368903707
 12
10.9961324106
 22
26.3404292485
 13
10.9961324106
 23
26.3404292485
  0
SOLID
  5
276
100
AcDbEntity
  8
0
100
AcDbTrace
 62
2
  6
CONTINUOUS
 10
10.9961324106
 20
26.3404292485
 11
10.957576541
 21
26.3343225987
 12
10.7238441658
 22
26.3368903707
 13
10.7238441658
 23
26.3368903707
  0
SOLID
  5
277
100
AcDbEntity
  8
0
100
AcDbTrace
 62
2
  6
CONTINUOUS
 10
11.0346882802
 20
26.3343225987
 11
10.9961324106
 21
26.3404292485
 12
11.2684206554
 22
26.3368903707
 13
11.2684206554
 23
26.3368903707
  0
SOLID
  5
278
100
AcDbEntity
  8
0
100
AcDbTrace
 62
2
  6
CONTINUOUS
 10
10.8951918334
 20
26.2889974556
 11
10.7045890712
 21
26.2776292833
 12
10.9227947885
 22
26.3166004106
 13
10.9227947885
 23
26.3166004106
  0
SOLID
  5
279
100
AcDbEntity
  8
0
100
AcDbTrace
 62
2
  6
CONTINUOUS
 10
10.9227947885
 20
26.3166004106
 11
10.7045890712
 21
26.2776292833
 12
10.957576541
 22
26.3343225987
 13
10.957576541
 23
26.3343225987
  0
SOLID
  5
27A
100
AcDbEntity
  8
0
100
AcDbTrace
 62
2
  6
CONTINUOUS
 10
10.7045890712
 20
26.2776292833
 11
10.7238441658
 21
26.3368903707
 12
10.957576541
 22
26.3343225987
 13
10.957576541
 23
26.3343225987
  0
SOLID
  5
27B
100
AcDbEntity
  8
0
100
AcDbTrace
 62
2
  6
CONTINUOUS
 10
11.0346882802
 20
26.3343225987
 11
11.2684206554
 21
26.3368903707
 12
11.0694700327
 22
26.3166004106
 13
11.0694700327
 23
26.3166004106
  0
SOLID
  5
27C
100
AcDbEntity
  8
0
100
AcDbTrace
 62
2
  6
CONTINUOUS
 10
11.0694700327
 20
26.3166004106
 11
11.2684206554
 21
26.3368903707
 12
11.0970729878
 22
26.2889974556
 13
11.0970729878
 23
26.2889974556
  0
SOLID
  5
27D
100
AcDbEntity
  8
0
100
AcDbTrace
 62
2
  6
CONTINUOUS
 10
11.2684206554
 20
26.3368903707
 11
11.28767575
 21
26.2776292833
 12
11.0970729878
 22
26.2889974556
 13
11.0970729878
 23
26.2889974556
  0
SOLID
  5
27E
100
AcDbEntity
  8
0
100
AcDbTrace
 62
2
  6
CONTINUOUS
 10
10.8951918334
 20
26.2889974556
 11
10.8774696453
 21
26.2542157031
 12
10.7045890712
 22
26.2776292833
 13
10.7045890712
 23
26.2776292833
  0
SOLID
  5
27F
100
AcDbEntity
  8
0
100
AcDbTrace
 62
2
  6
CONTINUOUS
 10
11.1147951758
 20
26.2542157031
 11
11.0970729878
 21
26.2889974556
 12
11.28767575
 22
26.2776292833
 13
11.28767575
 23
26.2776292833
  0
SOLID
  5
280
100
AcDbEntity
  8
0
100
AcDbTrace
 62
2
  6
CONTINUOUS
 10
10.6980758196
 20
26.2156598335
 11
10.7045890712
 21
26.2776292833
 12
10.8774696453
 22
26.2542157031
 13
10.8774696453
 23
26.2542157031
  0
SOLID
  5
281
100
AcDbEntity
  8
0
100
AcDbTrace
 62
2
  6
CONTINUOUS
 10
10.8774696453
 20
26.2542157031
 11
10.8713629955
 21
26.2156598335
 12
10.6980758196
 22
26.2156598335
 13
10.6980758196
 23
26.2156598335
  0
SOLID
  5
282
100
AcDbEntity
  8
0
100
AcDbTrace
 62
2
  6
CONTINUOUS
 10
11.1147951758
 20
26.2542157031
 11
11.28767575
 21
26.2776292833
 12
11.1209018257
 22
26.2156598335
 13
11.1209018257
 23
26.2156598335
  0
SOLID
  5
283
100
AcDbEntity
  8
0
100
AcDbTrace
 62
2
  6
CONTINUOUS
 10
11.28767575
 20
26.2776292833
 11
11.2941890016
 21
26.2156598335
 12
11.1209018257
 22
26.2156598335
 13
11.1209018257
 23
26.2156598335
  0
SOLID
  5
284
100
AcDbEntity
  8
0
100
AcDbTrace
 62
2
  6
CONTINUOUS
 10
11.1147951758
 20
26.1771039638
 11
11.1209018257
 21
26.2156598335
 12
11.2941890016
 22
26.2156598335
 13
11.2941890016
 23
26.2156598335
  0
SOLID
  5
285
100
AcDbEntity
  8
0
100
AcDbTrace
 62
2
  6
CONTINUOUS
 10
10.8774696453
 20
26.1771039638
 11
10.7045890712
 21
26.1536903837
 12
10.8713629955
 22
26.2156598335
 13
10.8713629955
 23
26.2156598335
  0
SOLID
  5
286
100
AcDbEntity
  8
0
100
AcDbTrace
 62
2
  6
CONTINUOUS
 10
10.7045890712
 20
26.1536903837
 11
10.6980758196
 21
26.2156598335
 12
10.8713629955
 22
26.2156598335
 13
10.8713629955
 23
26.2156598335
  0
SOLID
  5
287
100
AcDbEntity
  8
0
100
AcDbTrace
 62
2
  6
CONTINUOUS
 10
11.2941890016
 20
26.2156598335
 11
11.28767575
 21
26.1536903837
 12
11.1147951758
 22
26.1771039638
 13
11.1147951758
 23
26.1771039638
  0
SOLID
  5
288
100
AcDbEntity
  8
0
100
AcDbTrace
 62
2
  6
CONTINUOUS
 10
10.8774696453
 20
26.1771039638
 11
10.8951918334
 21
26.1423222113
 12
10.7045890712
 22
26.1536903837
 13
10.7045890712
 23
26.1536903837
  0
SOLID
  5
289
100
AcDbEntity
  8
0
100
AcDbTrace
 62
2
  6
CONTINUOUS
 10
11.0970729878
 20
26.1423222113
 11
11.1147951758
 21
26.1771039638
 12
11.28767575
 22
26.1536903837
 13
11.28767575
 23
26.1536903837
  0
SOLID
  5
28A
100
AcDbEntity
  8
0
100
AcDbTrace
 62
2
  6
CONTINUOUS
 10
10.957576541
 20
26.0969970682
 11
10.7238441658
 21
26.0944292962
 12
10.9227947885
 22
26.1147192563
 13
10.9227947885
 23
26.1147192563
  0
SOLID
  5
28B
100
AcDbEntity
  8
0
100
AcDbTrace
 62
2
  6
CONTINUOUS
 10
10.9227947885
 20
26.1147192563
 11
10.7238441658
 21
26.0944292962
 12
10.8951918334
 22
26.1423222113
 13
10.8951918334
 23
26.1423222113
  0
SOLID
  5
28C
100
AcDbEntity
  8
0
100
AcDbTrace
 62
2
  6
CONTINUOUS
 10
10.7238441658
 20
26.0944292962
 11
10.7045890712
 21
26.1536903837
 12
10.8951918334
 22
26.1423222113
 13
10.8951918334
 23
26.1423222113
  0
SOLID
  5
28D
100
AcDbEntity
  8
0
100
AcDbTrace
 62
2
  6
CONTINUOUS
 10
11.0970729878
 20
26.1423222113
 11
11.28767575
 21
26.1536903837
 12
11.0694700327
 22
26.1147192563
 13
11.0694700327
 23
26.1147192563
  0
SOLID
  5
28E
100
AcDbEntity
  8
0
100
AcDbTrace
 62
2
  6
CONTINUOUS
 10
11.0694700327
 20
26.1147192563
 11
11.28767575
 21
26.1536903837
 12
11.0346882802
 22
26.0969970682
 13
11.0346882802
 23
26.0969970682
  0
SOLID
  5
28F
100
AcDbEntity
  8
0
100
AcDbTrace
 62
2
  6
CONTINUOUS
 10
11.28767575
 20
26.1536903837
 11
11.2684206554
 21
26.0944292962
 12
11.0346882802
 22
26.0969970682
 13
11.0346882802
 23
26.0969970682
  0
SOLID
  5
290
100
AcDbEntity
  8
0
100
AcDbTrace
 62
2
  6
CONTINUOUS
 10
10.957576541
 20
26.0969970682
 11
10.9961324106
 21
26.0908904184
 12
10.7238441658
 22
26.0944292962
 13
10.7238441658
 23
26.0944292962
  0
SOLID
  5
291
100
AcDbEntity
  8
0
100
AcDbTrace
 62
2
  6
CONTINUOUS
 10
10.9961324106
 20
26.0908904184
 11
11.0346882802
 21
26.0969970682
 12
11.2684206554
 22
26.0944292962
 13
11.2684206554
 23
26.0944292962
  0
SOLID
  5
292
100
AcDbEntity
  8
0
100
AcDbTrace
 62
2
  6
CONTINUOUS
 10
10.7549995632
 20
26.0404665649
 11
10.7238441658
 21
26.0944292962
 12
10.9961324106
 22
26.0908904184
 13
10.9961324106
 23
26.0908904184
  0
SOLID
  5
293
100
AcDbEntity
  8
0
100
AcDbTrace
 62
2
  6
CONTINUOUS
 10
10.9961324106
 20
26.0908904184
 11
11.2684206554
 21
26.0944292962
 12
10.7549995632
 22
26.0404665649
 13
10.7549995632
 23
26.0404665649
  0
SOLID
  5
294
100
AcDbEntity
  8
0
100
AcDbTrace
 62
2
  6
CONTINUOUS
 10
11.2684206554
 20
26.0944292962
 11
11.237265258
 21
26.0404665649
 12
10.7549995632
 22
26.0404665649
 13
10.7549995632
 23
26.0404665649
  0
SOLID
  5
295
100
AcDbEntity
  8
0
100
AcDbTrace
 62
2
  6
CONTINUOUS
 10
10.7966936231
 20
25.9941606202
 11
10.7549995632
 21
26.0404665649
 12
11.237265258
 22
26.0404665649
 13
11.237265258
 23
26.0404665649
  0
SOLID
  5
296
100
AcDbEntity
  8
0
100
AcDbTrace
 62
2
  6
CONTINUOUS
 10
11.237265258
 20
26.0404665649
 11
11.195571198
 21
25.9941606202
 12
10.7966936231
 22
25.9941606202
 13
10.7966936231
 23
25.9941606202
  0
SOLID
  5
297
100
AcDbEntity
  8
0
100
AcDbTrace
 62
2
  6
CONTINUOUS
 10
10.8471041151
 20
25.9575352539
 11
10.7966936231
 21
25.9941606202
 12
11.195571198
 22
25.9941606202
 13
11.195571198
 23
25.9941606202
  0
SOLID
  5
298
100
AcDbEntity
  8
0
100
AcDbTrace
 62
2
  6
CONTINUOUS
 10
11.195571198
 20
25.9941606202
 11
11.1451607061
 21
25.9575352539
 12
10.8471041151
 22
25.9575352539
 13
10.8471041151
 23
25.9575352539
  0
SOLID
  5
299
100
AcDbEntity
  8
0
100
AcDbTrace
 62
2
  6
CONTINUOUS
 10
10.9040278587
 20
25.9321911704
 11
10.8471041151
 21
25.9575352539
 12
11.1451607061
 22
25.9575352539
 13
11.1451607061
 23
25.9575352539
  0
SOLID
  5
29A
100
AcDbEntity
  8
0
100
AcDbTrace
 62
2
  6
CONTINUOUS
 10
11.1451607061
 20
25.9575352539
 11
11.0882369625
 21
25.9321911704
 12
10.9040278587
 22
25.9321911704
 13
10.9040278587
 23
25.9321911704
  0
SOLID
  5
29B
100
AcDbEntity
  8
0
100
AcDbTrace
 62
2
  6
CONTINUOUS
 10
10.9649770132
 20
25.9192360277
 11
10.9040278587
 21
25.9321911704
 12
11.0882369625
 22
25.9321911704
 13
11.0882369625
 23
25.9321911704
  0
SOLID
  5
29C
100
AcDbEntity
  8
0
100
AcDbTrace
 62
2
  6
CONTINUOUS
 10
11.0882369625
 20
25.9321911704
 11
11.027287808
 21
25.9192360277
 12
10.9649770132
 22
25.9192360277
 13
10.9649770132
 23
25.9192360277
  0
SOLID
  5
29D
100
AcDbEntity
  8
0
100
AcDbTrace
 62
2
  6
CONTINUOUS
 10
11.6240347399
 20
26.2893541504
 11
11.6240347399
 21
26.50973791
 12
11.7887684198
 22
26.50973791
 13
11.7887684198
 23
26.50973791
  0
SOLID
  5
29E
100
AcDbEntity
  8
0
100
AcDbTrace
 62
2
  6
CONTINUOUS
 10
11.6240347399
 20
26.2893541504
 11
11.4760379288
 21
26.1521488704
 12
11.4760379288
 22
26.2893541504
 13
11.4760379288
 23
26.2893541504
  0
SOLID
  5
29F
100
AcDbEntity
  8
0
100
AcDbTrace
 62
2
  6
CONTINUOUS
 10
11.4760379288
 20
26.1521488704
 11
11.311304249
 21
25.9238242607
 12
11.4760379288
 22
26.2893541504
 13
11.4760379288
 23
26.2893541504
  0
SOLID
  5
2A0
100
AcDbEntity
  8
0
100
AcDbTrace
 62
2
  6
CONTINUOUS
 10
11.4760379288
 20
26.2893541504
 11
11.311304249
 21
25.9238242607
 12
11.4760379288
 22
26.50973791
 13
11.4760379288
 23
26.50973791
  0
SOLID
  5
2A1
100
AcDbEntity
  8
0
100
AcDbTrace
 62
2
  6
CONTINUOUS
 10
11.311304249
 20
25.9238242607
 11
11.311304249
 21
26.50973791
 12
11.4760379288
 22
26.50973791
 13
11.4760379288
 23
26.50973791
  0
SOLID
  5
2A2
100
AcDbEntity
  8
0
100
AcDbTrace
 62
2
  6
CONTINUOUS
 10
11.4760379288
 20
26.1521488704
 11
11.4760379288
 21
25.9238242607
 12
11.311304249
 22
25.9238242607
 13
11.311304249
 23
25.9238242607
  0
SOLID
  5
2A3
100
AcDbEntity
  8
0
100
AcDbTrace
 62
2
  6
CONTINUOUS
 10
11.4760379288
 20
26.1521488704
 11
11.6240347399
 21
26.2893541504
 12
11.6240347399
 22
26.1521488704
 13
11.6240347399
 23
26.1521488704
  0
SOLID
  5
2A4
100
AcDbEntity
  8
0
100
AcDbTrace
 62
2
  6
CONTINUOUS
 10
11.6240347399
 20
26.2893541504
 11
11.7887684198
 21
26.50973791
 12
11.6240347399
 22
26.1521488704
 13
11.6240347399
 23
26.1521488704
  0
SOLID
  5
2A5
100
AcDbEntity
  8
0
100
AcDbTrace
 62
2
  6
CONTINUOUS
 10
11.6240347399
 20
26.1521488704
 11
11.7887684198
 21
26.50973791
 12
11.6240347399
 22
25.9238242607
 13
11.6240347399
 23
25.9238242607
  0
SOLID
  5
2A6
100
AcDbEntity
  8
0
100
AcDbTrace
 62
2
  6
CONTINUOUS
 10
11.7887684198
 20
26.50973791
 11
11.7887684198
 21
25.9238242607
 12
11.6240347399
 22
25.9238242607
 13
11.6240347399
 23
25.9238242607
  0
SOLID
  5
2A7
100
AcDbEntity
  8
0
100
AcDbTrace
 62
2
  6
CONTINUOUS
 10
12.1465433967
 20
26.0650510178
 11
11.833813264
 21
25.9238242607
 12
11.9838593267
 22
26.0650510178
 13
11.9838593267
 23
26.0650510178
  0
SOLID
  5
2A8
100
AcDbEntity
  8
0
100
AcDbTrace
 62
2
  6
CONTINUOUS
 10
11.9838593267
 20
26.0650510178
 11
11.833813264
 21
25.9238242607
 12
11.9838593267
 22
26.50973791
 13
11.9838593267
 23
26.50973791
  0
SOLID
  5
2A9
100
AcDbEntity
  8
0
100
AcDbTrace
 62
2
  6
CONTINUOUS
 10
11.833813264
 20
25.9238242607
 11
11.833813264
 21
26.50973791
 12
11.9838593267
 22
26.50973791
 13
11.9838593267
 23
26.50973791
  0
SOLID
  5
2AA
100
AcDbEntity
  8
0
100
AcDbTrace
 62
2
  6
CONTINUOUS
 10
11.833813264
 20
25.9238242607
 11
12.1465433967
 21
26.0650510178
 12
11.9838593267
 22
25.9238242607
 13
11.9838593267
 23
25.9238242607
  0
SOLID
  5
2AB
100
AcDbEntity
  8
0
100
AcDbTrace
 62
2
  6
CONTINUOUS
 10
12.1465433967
 20
26.0650510178
 11
12.1465433967
 21
25.9238242607
 12
11.9838593267
 22
25.9238242607
 13
11.9838593267
 23
25.9238242607
  0
SOLID
  5
2AC
100
AcDbEntity
  8
0
100
AcDbTrace
 62
2
  6
CONTINUOUS
 10
12.4847953107
 20
26.50973791
 11
12.4847953107
 21
26.3669785132
 12
12.3339377873
 22
26.3669785132
 13
12.3339377873
 23
26.3669785132
  0
SOLID
  5
2AD
100
AcDbEntity
  8
0
100
AcDbTrace
 62
2
  6
CONTINUOUS
 10
12.4847953107
 20
26.2893541504
 11
12.4847953107
 21
26.1449725488
 12
12.3339377873
 22
26.1449725488
 13
12.3339377873
 23
26.1449725488
  0
SOLID
  5
2AE
100
AcDbEntity
  8
0
100
AcDbTrace
 62
2
  6
CONTINUOUS
 10
12.4847953107
 20
26.0650510178
 11
12.1756911354
 21
25.9238242607
 12
12.3339377873
 22
26.0650510178
 13
12.3339377873
 23
26.0650510178
  0
SOLID
  5
2AF
100
AcDbEntity
  8
0
100
AcDbTrace
 62
2
  6
CONTINUOUS
 10
12.3339377873
 20
26.0650510178
 11
12.1756911354
 21
25.9238242607
 12
12.3339377873
 22
26.1449725488
 13
12.3339377873
 23
26.1449725488
  0
SOLID
  5
2B0
100
AcDbEntity
  8
0
100
AcDbTrace
 62
2
  6
CONTINUOUS
 10
12.4847953107
 20
26.2893541504
 11
12.3339377873
 21
26.1449725488
 12
12.3339377873
 22
26.2893541504
 13
12.3339377873
 23
26.2893541504
  0
SOLID
  5
2B1
100
AcDbEntity
  8
0
100
AcDbTrace
 62
2
  6
CONTINUOUS
 10
12.3339377873
 20
26.1449725488
 11
12.1756911354
 21
25.9238242607
 12
12.3339377873
 22
26.2893541504
 13
12.3339377873
 23
26.2893541504
  0
SOLID
  5
2B2
100
AcDbEntity
  8
0
100
AcDbTrace
 62
2
  6
CONTINUOUS
 10
12.3339377873
 20
26.2893541504
 11
12.1756911354
 21
25.9238242607
 12
12.3339377873
 22
26.3669785132
 13
12.3339377873
 23
26.3669785132
  0
SOLID
  5
2B3
100
AcDbEntity
  8
0
100
AcDbTrace
 62
2
  6
CONTINUOUS
 10
12.4847953107
 20
26.50973791
 11
12.3339377873
 21
26.3669785132
 12
12.3481421107
 22
26.50973791
 13
12.3481421107
 23
26.50973791
  0
SOLID
  5
2B4
100
AcDbEntity
  8
0
100
AcDbTrace
 62
2
  6
CONTINUOUS
 10
12.3339377873
 20
26.3669785132
 11
12.1756911354
 21
25.9238242607
 12
12.3481421107
 22
26.50973791
 13
12.3481421107
 23
26.50973791
  0
SOLID
  5
2B5
100
AcDbEntity
  8
0
100
AcDbTrace
 62
2
  6
CONTINUOUS
 10
12.1756911354
 20
25.9238242607
 11
12.1756911354
 21
26.50973791
 12
12.3481421107
 22
26.50973791
 13
12.3481421107
 23
26.50973791
  0
SOLID
  5
2B6
100
AcDbEntity
  8
0
100
AcDbTrace
 62
2
  6
CONTINUOUS
 10
12.4847953107
 20
26.0650510178
 11
12.4847953107
 21
25.9238242607
 12
12.1756911354
 22
25.9238242607
 13
12.1756911354
 23
25.9238242607
  0
SOLID
  5
2B7
100
AcDbEntity
  8
0
100
AcDbTrace
 62
2
  6
CONTINUOUS
 10
12.7631632261
 20
26.5097450156
 11
12.8100962496
 21
26.5033347672
 12
12.5296155254
 22
26.50973791
 13
12.5296155254
 23
26.50973791
  0
SOLID
  5
2B8
100
AcDbEntity
  8
0
100
AcDbTrace
 62
2
  6
CONTINUOUS
 10
12.680271348
 20
26.3671590767
 11
12.9342110891
 21
26.3717884122
 12
12.7362012294
 22
26.3671590767
 13
12.7362012294
 23
26.3671590767
  0
SOLID
  5
2B9
100
AcDbEntity
  8
0
100
AcDbTrace
 62
2
  6
CONTINUOUS
 10
12.7362012294
 20
26.3671590767
 11
12.9342110891
 21
26.3717884122
 12
12.759923811
 22
26.3616249083
 13
12.759923811
 23
26.3616249083
  0
SOLID
  5
2BA
100
AcDbEntity
  8
0
100
AcDbTrace
 62
2
  6
CONTINUOUS
 10
12.759923811
 20
26.3616249083
 11
12.9342110891
 21
26.3717884122
 12
12.7787487987
 22
26.3461650333
 13
12.7787487987
 23
26.3461650333
  0
SOLID
  5
2BB
100
AcDbEntity
  8
0
100
AcDbTrace
 62
2
  6
CONTINUOUS
 10
12.9342110891
 20
26.3717884122
 11
12.9378843355
 21
26.3245622834
 12
12.7787487987
 22
26.3461650333
 13
12.7787487987
 23
26.3461650333
  0
SOLID
  5
2BC
100
AcDbEntity
  8
0
100
AcDbTrace
 62
2
  6
CONTINUOUS
 10
12.7887897373
 20
26.3239711727
 11
12.7787487987
 21
26.3461650333
 12
12.9378843355
 22
26.3245622834
 13
12.9378843355
 23
26.3245622834
  0
SOLID
  5
2BD
100
AcDbEntity
  8
0
100
AcDbTrace
 62
2
  6
CONTINUOUS
 10
12.7887897373
 20
26.3239711727
 11
12.9378843355
 21
26.3245622834
 12
12.7879736556
 22
26.299625292
 13
12.7879736556
 23
26.299625292
  0
SOLID
  5
2BE
100
AcDbEntity
  8
0
100
AcDbTrace
 62
2
  6
CONTINUOUS
 10
12.7879736556
 20
26.299625292
 11
12.9378843355
 21
26.3245622834
 12
12.7764690353
 22
26.2781536454
 13
12.7764690353
 23
26.2781536454
  0
SOLID
  5
2BF
100
AcDbEntity
  8
0
100
AcDbTrace
 62
2
  6
CONTINUOUS
 10
12.9378843355
 20
26.3245622834
 11
12.9287587318
 21
26.2780808533
 12
12.7764690353
 22
26.2781536454
 13
12.7764690353
 23
26.2781536454
  0
SOLID
  5
2C0
100
AcDbEntity
  8
0
100
AcDbTrace
 62
2
  6
CONTINUOUS
 10
12.7566510274
 20
26.2639890959
 11
12.7764690353
 21
26.2781536454
 12
12.9287587318
 22
26.2780808533
 13
12.9287587318
 23
26.2780808533
  0
SOLID
  5
2C1
100
AcDbEntity
  8
0
100
AcDbTrace
 62
2
  6
CONTINUOUS
 10
12.7566510274
 20
26.2639890959
 11
12.9287587318
 21
26.2780808533
 12
12.7326110982
 22
26.2600559422
 13
12.7326110982
 23
26.2600559422
  0
SOLID
  5
2C2
100
AcDbEntity
  8
0
100
AcDbTrace
 62
2
  6
CONTINUOUS
 10
12.9287587318
 20
26.2780808533
 11
12.9075027561
 21
26.2357490275
 12
12.7326110982
 22
26.2600559422
 13
12.7326110982
 23
26.2600559422
  0
SOLID
  5
2C3
100
AcDbEntity
  8
0
100
AcDbTrace
 62
2
  6
CONTINUOUS
 10
12.8356024737
 20
26.1754068019
 11
12.680271348
 21
26.1207806315
 12
12.875673473
 22
26.2006677402
 13
12.875673473
 23
26.2006677402
  0
SOLID
  5
2C4
100
AcDbEntity
  8
0
100
AcDbTrace
 62
2
  6
CONTINUOUS
 10
12.875673473
 20
26.2006677402
 11
12.680271348
 21
26.1207806315
 12
12.9075027561
 22
26.2357490275
 13
12.9075027561
 23
26.2357490275
  0
SOLID
  5
2C5
100
AcDbEntity
  8
0
100
AcDbTrace
 62
2
  6
CONTINUOUS
 10
12.9075027561
 20
26.2357490275
 11
12.680271348
 21
26.1207806315
 12
12.7326110982
 22
26.2600559422
 13
12.7326110982
 23
26.2600559422
  0
SOLID
  5
2C6
100
AcDbEntity
  8
0
100
AcDbTrace
 62
2
  6
CONTINUOUS
 10
12.680271348
 20
26.1207806315
 11
12.5296155254
 21
25.9238242607
 12
12.7326110982
 22
26.2600559422
 13
12.7326110982
 23
26.2600559422
  0
SOLID
  5
2C7
100
AcDbEntity
  8
0
100
AcDbTrace
 62
2
  6
CONTINUOUS
 10
12.7326110982
 20
26.2600559422
 11
12.5296155254
 21
25.9238242607
 12
12.680271348
 22
26.2600559422
 13
12.680271348
 23
26.2600559422
  0
SOLID
  5
2C8
100
AcDbEntity
  8
0
100
AcDbTrace
 62
2
  6
CONTINUOUS
 10
12.680271348
 20
26.2600559422
 11
12.5296155254
 21
25.9238242607
 12
12.680271348
 22
26.3671590767
 13
12.680271348
 23
26.3671590767
  0
SOLID
  5
2C9
100
AcDbEntity
  8
0
100
AcDbTrace
 62
2
  6
CONTINUOUS
 10
12.9342110891
 20
26.3717884122
 11
12.680271348
 21
26.3671590767
 12
12.918008069
 22
26.4162997829
 13
12.918008069
 23
26.4162997829
  0
SOLID
  5
2CA
100
AcDbEntity
  8
0
100
AcDbTrace
 62
2
  6
CONTINUOUS
 10
12.918008069
 20
26.4162997829
 11
12.680271348
 21
26.3671590767
 12
12.8904621954
 22
26.4548358029
 13
12.8904621954
 23
26.4548358029
  0
SOLID
  5
2CB
100
AcDbEntity
  8
0
100
AcDbTrace
 62
2
  6
CONTINUOUS
 10
12.8904621954
 20
26.4548358029
 11
12.680271348
 21
26.3671590767
 12
12.8535912871
 22
26.484573592
 13
12.8535912871
 23
26.484573592
  0
SOLID
  5
2CC
100
AcDbEntity
  8
0
100
AcDbTrace
 62
2
  6
CONTINUOUS
 10
12.8535912871
 20
26.484573592
 11
12.680271348
 21
26.3671590767
 12
12.8100962496
 22
26.5033347672
 13
12.8100962496
 23
26.5033347672
  0
SOLID
  5
2CD
100
AcDbEntity
  8
0
100
AcDbTrace
 62
2
  6
CONTINUOUS
 10
12.8100962496
 20
26.5033347672
 11
12.680271348
 21
26.3671590767
 12
12.5296155254
 22
26.50973791
 13
12.5296155254
 23
26.50973791
  0
SOLID
  5
2CE
100
AcDbEntity
  8
0
100
AcDbTrace
 62
2
  6
CONTINUOUS
 10
12.5296155254
 20
25.9238242607
 11
12.5296155254
 21
26.50973791
 12
12.680271348
 22
26.3671590767
 13
12.680271348
 23
26.3671590767
  0
SOLID
  5
2CF
100
AcDbEntity
  8
0
100
AcDbTrace
 62
2
  6
CONTINUOUS
 10
12.680271348
 20
26.1207806315
 11
12.680271348
 21
25.9238242607
 12
12.5296155254
 22
25.9238242607
 13
12.5296155254
 23
25.9238242607
  0
SOLID
  5
2D0
100
AcDbEntity
  8
0
100
AcDbTrace
 62
2
  6
CONTINUOUS
 10
12.680271348
 20
26.1207806315
 11
12.8356024737
 21
26.1754068019
 12
12.8050947772
 22
25.9238242607
 13
12.8050947772
 23
25.9238242607
  0
SOLID
  5
2D1
100
AcDbEntity
  8
0
100
AcDbTrace
 62
2
  6
CONTINUOUS
 10
12.8356024737
 20
26.1754068019
 11
12.9950457167
 21
25.9238242607
 12
12.8050947772
 22
25.9238242607
 13
12.8050947772
 23
25.9238242607
  0
DIMENSION
  5
2D2
100
AcDbEntity
  8
0
100
AcDbDimension
 62
2
  6
CONTINUOUS
  2
*D0
 10
34.9464680105
 20
19.9266106789
 11
24.8204570023
 21
19.8094231789
 70
160
 71
2
 72
2
 41
0.9
 42
26.24
  1
<>"\P[]
  3
DIMSTYLE_1
100
AcDbAlignedDimension
 13
8.7064680105
 23
9.3790972831
 14
34.9464680105
 24
9.3790972831
100
AcDbRotatedDimension
  0
DIMENSION
  5
2D3
100
AcDbEntity
  8
0
100
AcDbDimension
 62
2
  6
CONTINUOUS
  2
*D1
 10
23.5591884348
 20
27.8490972831
 11
23.5591884348
 21
18.4208108739
 70
160
 71
2
 72
2
 41
0.9
 42
16.97
  1
<>"\P[]
  3
DIMSTYLE_2
100
AcDbAlignedDimension
 13
7.8264680105
 23
10.8790972831
 14
9.1004680105
 24
27.8490972831
 50
90.0
100
AcDbRotatedDimension
  0
DIMENSION
  5
2D4
100
AcDbEntity
  8
0
100
AcDbDimension
 62
2
  6
CONTINUOUS
  2
*D2
 10
9.1004680105
 20
27.4550972831
 11
9.4987653213
 21
26.8845164405
 70
164
 71
2
 72
2
 41
0.9
 42
0.394
  1
2X R<>"\P[]
  3
DIMSTYLE_3
100
AcDbRadialDimension
 15
8.8404341603
 25
27.7511013316
  0
DIMENSION
  5
2D5
100
AcDbEntity
  8
0
100
AcDbDimension
 62
2
  6
CONTINUOUS
  2
*D3
 10
6.2754301464
 20
9.3790972831
 11
6.2754301464
 21
10.1402694542
 70
160
 71
2
 72
2
 41
0.9
 42
1.5
  1
(<>")\P[]
  3
DIMSTYLE_4
100
AcDbAlignedDimension
 13
7.8264680105
 23
10.8790972831
 14
8.7064680105
 24
9.3790972831
 50
270.0
100
AcDbRotatedDimension
  0
MTEXT
  5
2D6
100
AcDbEntity
  8
___NOTE
100
AcDbMText
 62
2
  6
CONTINUOUS
  7
STANDARD
 71
1
 72
1
 10
21.9583267359
 20
15.4309496176
 30
0.0
 11
0.0
 21
1.0
 31
0.0
 73
2
 44
0.9
  1
CENTERLINE OF SINK
 40
0.15625
 41
2.25
  0
MTEXT
  5
2D7
100
AcDbEntity
  8
___NOTE
100
AcDbMText
 62
2
  6
CONTINUOUS
  7
STANDARD
 71
1
 72
1
 10
10.2438927213
 20
25.5450259793
 30
0.0
 11
1.0
 21
0.0
 31
0.0
 73
2
 44
0.9
  1
FOR UNDER-MOUNT INSTALLATION CUT ALONG THIS LINE\PPARA INSTALACIÓN DE MONTAJE POR ABAJO CORTE A LO LARGO DE ESTA LÍNEA\PPOUR INSTALLATION À MONTAGE SOUS PLAN COUPER LE LONG DE CETTE LIGNE\P \P 
 40
0.2
 41
10.88
  0
MTEXT
  5
2D8
100
AcDbEntity
  8
___NOTE
100
AcDbMText
 62
2
  6
CONTINUOUS
  7
STANDARD
 71
1
 72
1
 10
10.2576720617
 20
24.3769728081
 30
0.0
 11
1.0
 21
0.0
 31
0.0
 73
2
 44
0.9
  1
33655\P 
 40
0.15625
 41
0.625
  0
MTEXT
  5
2D9
100
AcDbEntity
  8
___NOTE
100
AcDbMText
 62
2
  6
CONTINUOUS
  7
STANDARD
 71
1
 72
1
 10
27.0249506854
 20
19.0369372721
 30
0.0
 11
1.0
 21
0.0
 31
0.0
 73
2
 44
0.9
  3
IMPORTANT!\PFor proper fit of the included accessories, \Pcut the countertop according to the template cut line.\PIMPORTANT! \PPour bien adapter les accessoires inclus, \Pdécouper le comptoir selon la ligne de découpe du gabarit.\PIMPORTANTE! \PPara 
  1
que los accesorios incluidos queden bien,\Pcorte la encimera según la línea de corte de la plantilla.
 40
0.15625
 41
7.25
  0
MTEXT
  5
2DA
100
AcDbEntity
  8
___NOTE
100
AcDbMText
 62
2
  6
CONTINUOUS
  7
STANDARD
 71
1
 72
1
 10
8.3065489486
 20
17.407294235
 30
0.0
 11
0.0
 21
1.0
 31
0.0
 73
2
 44
0.9
  1
1564883-7-A\P \P1564883-7-A
 40
0.2
 41
1.76
  0
LEADER
  5
2DB
100
AcDbEntity
  8
___NOTE
100
AcDbLeader
 62
2
  6
CONTINUOUS
  3
STANDARD
 71
1
 72
0
 73
0
 75
0
 40
0.3
 41
3.0
 76
3
 10
9.3116146715
 20
10.8790972831
 30
0.0
 10
10.7612887903
 20
14.0596126357
 30
0.0
 10
11.0112887903
 20
14.0596126357
 30
0.0
340
2DC
1001
ACAD
1000
DSTYLE
1002
{
1070
77
1070
0
1002
}
  0
MTEXT
  5
2DC
102
{ACAD_REACTORS
330
2DB
102
}
100
AcDbEntity
  8
___NOTE
100
AcDbMText
 62
2
  6
CONTINUOUS
  7
TEXTSTYLE_2
 71
1
 72
1
 10
11.0112887903
 20
14.2096126357
 30
0.0
 11
1.0
 21
0.0
 31
0.0
 73
2
 44
0.9
  1
\LIMPORTANT:\P\lALIGN THIS LINE \PWITH FRONT FACE \PON CABINET'S FRAME.
 40
0.3
 41
5.7
  0
LEADER
  5
2DD
100
AcDbEntity
  8
___NOTE
100
AcDbLeader
 62
2
  6
CONTINUOUS
  3
STANDARD
 71
1
 72
0
 73
0
 75
0
 40
0.15625
 41
3.0
 76
3
 10
6.6720812761
 20
9.3790972831
 30
0.0
 10
6.8331132584
 20
7.6720512307
 30
0.0
 10
7.0831132584
 20
7.6720512307
 30
0.0
340
2DE
1001
ACAD
1000
DSTYLE
1002
{
1070
77
1070
0
1002
}
  0
MTEXT
  5
2DE
102
{ACAD_REACTORS
330
2DD
102
}
100
AcDbEntity
  8
___NOTE
100
AcDbMText
 62
2
  6
CONTINUOUS
  7
STANDARD
 71
1
 72
1
 10
7.0831132584
 20
7.7501762307
 30
0.0
 11
1.0
 21
0.0
 31
0.0
 73
2
 44
0.9
  1
FRONT FACE OF COUNTERTOP
 40
0.15625
 41
3.0
  0
LEADER
  5
2DF
100
AcDbEntity
  8
___NOTE
100
AcDbLeader
 62
2
  6
CONTINUOUS
  3
STANDARD
 71
1
 72
0
 73
0
 75
0
 40
0.15625
 41
2.0
 76
3
 10
35.8264680105
 20
25.3543122308
 30
0.0
 10
34.2747281792
 20
26.2369370858
 30
0.0
 10
34.0247281792
 20
26.2369370858
 30
0.0
340
2E0
1001
ACAD
1000
DSTYLE
1002
{
1070
77
1070
0
1002
}
  0
MTEXT
  5
2E0
102
{ACAD_REACTORS
330
2DF
102
}
100
AcDbEntity
  8
___NOTE
100
AcDbMText
 62
2
  6
CONTINUOUS
  7
STANDARD
 71
3
 72
1
 10
34.0247281792
 20
26.3150620858
 30
0.0
 11
1.0
 21
0.0
 31
0.0
 73
2
 44
0.9
  1
PROFILE OF SINK.\PREBORD DE L'UNITÉ.\PBORDE DE LA UNIDAD.
 40
0.15625
 41
2.375
  0
LEADER
  5
2E1
100
AcDbEntity
  8
___NOTE
100
AcDbLeader
 62
2
  6
CONTINUOUS
  3
STANDARD
 71
1
 72
0
 73
0
 75
0
 40
0.15625
 41
1.75
 76
3
 10
28.5750893573
 20
8.8790972831
 30
0.0
 10
28.2103207528
 20
8.1423791084
 30
0.0
 10
27.9603207528
 20
8.1423791084
 30
0.0
340
2E2
1001
ACAD
1000
DSTYLE
1002
{
1070
77
1070
0
1002
}
  0
MTEXT
  5
2E2
102
{ACAD_REACTORS
330
2E1
102
}
100
AcDbEntity
  8
___NOTE
100
AcDbMText
 62
2
  6
CONTINUOUS
  7
STANDARD
 71
3
 72
1
 10
27.9603207528
 20
8.2205041084
 30
0.0
 11
1.0
 21
0.0
 31
0.0
 73
2
 44
0.9
  1
FRONT OF APRON
 40
0.15625
 41
1.75
  0
INSERT
  5
2E3
100
AcDbEntity
  8
___SYMBOL
100
AcDbBlockReference
 62
2
  6
CONTINUOUS
  2
PLOTTING_TEMPLATE_NOTE_BL0
 10
29.9612729296
 20
13.8884049769
  0
INSERT
  5
2E4
100
AcDbEntity
  8
___SYMBOL
100
AcDbBlockReference
 62
2
  6
CONTINUOUS
  2
SCISSORS_BL1
 10
8.7291669549
 20
16.4609226344
  0
LINE
  5
2E5
100
AcDbEntity
  8
0
100
AcDbLine
 62
2
  6
CONTINUOUS
 10
10.5873573791
 20
26.50973791
 11
10.4495932123
 21
26.3459167203
  0
LINE
  5
2E6
100
AcDbEntity
  8
0
100
AcDbLine
 62
2
  6
CONTINUOUS
 10
10.7794191911
 20
26.50973791
 11
10.5661157392
 21
26.2560896371
  0
LINE
  5
2E7
100
AcDbEntity
  8
0
100
AcDbLine
 62
2
  6
CONTINUOUS
 10
10.2750929854
 20
26.50973791
 11
10.2750929854
 21
25.9238002572
  0
LINE
  5
2E8
100
AcDbEntity
  8
0
100
AcDbLine
 62
2
  6
CONTINUOUS
 10
10.4495932123
 20
26.50973791
 11
10.4495932123
 21
26.3459167203
  0
LINE
  5
2E9
100
AcDbEntity
  8
0
100
AcDbLine
 62
2
  6
CONTINUOUS
 10
10.4495932123
 20
26.1253240947
 11
10.4495932123
 21
25.9238242607
  0
LINE
  5
2EA
100
AcDbEntity
  8
0
100
AcDbLine
 62
2
  6
CONTINUOUS
 10
11.311304249
 20
26.50973791
 11
11.311304249
 21
25.9238242607
  0
LINE
  5
2EB
100
AcDbEntity
  8
0
100
AcDbLine
 62
2
  6
CONTINUOUS
 10
11.4760379288
 20
26.50973791
 11
11.4760379288
 21
26.2893541504
  0
LINE
  5
2EC
100
AcDbEntity
  8
0
100
AcDbLine
 62
2
  6
CONTINUOUS
 10
11.4760379288
 20
26.1521488704
 11
11.4760379288
 21
25.9238242607
  0
LINE
  5
2ED
100
AcDbEntity
  8
0
100
AcDbLine
 62
2
  6
CONTINUOUS
 10
11.6240347399
 20
26.50973791
 11
11.6240347399
 21
26.2893541504
  0
LINE
  5
2EE
100
AcDbEntity
  8
0
100
AcDbLine
 62
2
  6
CONTINUOUS
 10
11.6240347399
 20
26.1521488704
 11
11.6240347399
 21
25.9238242607
  0
LINE
  5
2EF
100
AcDbEntity
  8
0
100
AcDbLine
 62
2
  6
CONTINUOUS
 10
11.7887684198
 20
26.50973791
 11
11.7887684198
 21
25.9238242607
  0
LINE
  5
2F0
100
AcDbEntity
  8
0
100
AcDbLine
 62
2
  6
CONTINUOUS
 10
11.833813264
 20
25.9238242607
 11
11.833813264
 21
26.50973791
  0
LINE
  5
2F1
100
AcDbEntity
  8
0
100
AcDbLine
 62
2
  6
CONTINUOUS
 10
11.9838593267
 20
26.50973791
 11
11.9838593267
 21
26.0650510178
  0
LINE
  5
2F2
100
AcDbEntity
  8
0
100
AcDbLine
 62
2
  6
CONTINUOUS
 10
12.1465433967
 20
26.0650510178
 11
12.1465433967
 21
25.9238242607
  0
LINE
  5
2F3
100
AcDbEntity
  8
0
100
AcDbLine
 62
2
  6
CONTINUOUS
 10
12.1756911354
 20
25.9238242607
 11
12.1756911354
 21
26.50973791
  0
LINE
  5
2F4
100
AcDbEntity
  8
0
100
AcDbLine
 62
2
  6
CONTINUOUS
 10
12.3339377873
 20
26.3669785132
 11
12.3339377873
 21
26.2893541504
  0
LINE
  5
2F5
100
AcDbEntity
  8
0
100
AcDbLine
 62
2
  6
CONTINUOUS
 10
12.3339377873
 20
26.1449725488
 11
12.3339377873
 21
26.0650510178
  0
LINE
  5
2F6
100
AcDbEntity
  8
0
100
AcDbLine
 62
2
  6
CONTINUOUS
 10
12.4847953107
 20
25.9238242607
 11
12.4847953107
 21
26.0650510178
  0
LINE
  5
2F7
100
AcDbEntity
  8
0
100
AcDbLine
 62
2
  6
CONTINUOUS
 10
12.4847953107
 20
26.1449725488
 11
12.4847953107
 21
26.2893541504
  0
LINE
  5
2F8
100
AcDbEntity
  8
0
100
AcDbLine
 62
2
  6
CONTINUOUS
 10
12.4847953107
 20
26.3669785132
 11
12.4847953107
 21
26.50973791
  0
LINE
  5
2F9
100
AcDbEntity
  8
0
100
AcDbLine
 62
2
  6
CONTINUOUS
 10
12.5296155254
 20
25.9238242607
 11
12.5296155254
 21
26.50973791
  0
LINE
  5
2FA
100
AcDbEntity
  8
0
100
AcDbLine
 62
2
  6
CONTINUOUS
 10
12.680271348
 20
26.3671590767
 11
12.680271348
 21
26.2600559422
  0
LINE
  5
2FB
100
AcDbEntity
  8
0
100
AcDbLine
 62
2
  6
CONTINUOUS
 10
12.680271348
 20
26.1207806315
 11
12.680271348
 21
25.9238242607
  0
LINE
  5
2FC
100
AcDbEntity
  8
0
100
AcDbLine
 62
2
  6
CONTINUOUS
 10
13.1199296919
 20
25.8909835699
 11
13.1199296919
 21
25.9569497688
  0
LINE
  5
2FD
100
AcDbEntity
  8
0
100
AcDbLine
 62
2
  6
CONTINUOUS
 10
10.6033311524
 20
25.9238242607
 11
10.4495932123
 21
26.1253240947
  0
LINE
  5
2FE
100
AcDbEntity
  8
0
100
AcDbLine
 62
2
  6
CONTINUOUS
 10
10.8196235739
 20
25.9238242607
 11
10.5661157392
 21
26.2560896371
  0
LINE
  5
2FF
100
AcDbEntity
  8
0
100
AcDbLine
 62
2
  6
CONTINUOUS
 10
12.8050947772
 20
25.9238242607
 11
12.680271348
 21
26.1207806315
  0
LINE
  5
300
100
AcDbEntity
  8
0
100
AcDbLine
 62
2
  6
CONTINUOUS
 10
12.9950457167
 20
25.9238242607
 11
12.8356024737
 21
26.1754068019
  0
LINE
  5
301
100
AcDbEntity
  8
0
100
AcDbLine
 62
2
  6
CONTINUOUS
 10
13.1315276681
 20
25.9232865112
 11
13.1633956809
 21
25.8909835699
  0
LINE
  5
302
100
AcDbEntity
  8
0
100
AcDbLine
 62
2
  6
CONTINUOUS
 10
11.4760379288
 20
26.2893541504
 11
11.6303513273
 21
26.2084077193
  0
LINE
  5
303
100
AcDbEntity
  8
0
100
AcDbLine
 62
2
  6
CONTINUOUS
 10
10.4495932123
 20
25.9238242607
 11
10.2750929854
 21
25.9238002572
  0
LINE
  5
304
100
AcDbEntity
  8
0
100
AcDbLine
 62
2
  6
CONTINUOUS
 10
13.1442090249
 20
25.9232865112
 11
13.1199296919
 21
25.9232865112
  0
LINE
  5
305
100
AcDbEntity
  8
0
100
AcDbLine
 62
2
  6
CONTINUOUS
 10
11.7887684198
 20
25.9238242607
 11
11.6240347399
 21
25.9238242607
  0
LINE
  5
306
100
AcDbEntity
  8
0
100
AcDbLine
 62
2
  6
CONTINUOUS
 10
11.4760379288
 20
25.9238242607
 11
11.311304249
 21
25.9238242607
  0
LINE
  5
307
100
AcDbEntity
  8
0
100
AcDbLine
 62
2
  6
CONTINUOUS
 10
10.6033311524
 20
25.9238242607
 11
10.8196235739
 21
25.9238242607
  0
LINE
  5
308
100
AcDbEntity
  8
0
100
AcDbLine
 62
2
  6
CONTINUOUS
 10
11.833813264
 20
25.9238242607
 11
12.1465433967
 21
25.9238242607
  0
LINE
  5
309
100
AcDbEntity
  8
0
100
AcDbLine
 62
2
  6
CONTINUOUS
 10
12.1756911354
 20
25.9238242607
 11
12.4847953107
 21
25.9238242607
  0
LINE
  5
30A
100
AcDbEntity
  8
0
100
AcDbLine
 62
2
  6
CONTINUOUS
 10
12.5296155254
 20
25.9238242607
 11
12.680271348
 21
25.9238242607
  0
LINE
  5
30B
100
AcDbEntity
  8
0
100
AcDbLine
 62
2
  6
CONTINUOUS
 10
12.8050947772
 20
25.9238242607
 11
12.9950457167
 21
25.9238242607
  0
LINE
  5
30C
100
AcDbEntity
  8
0
100
AcDbLine
 62
2
  6
CONTINUOUS
 10
13.1199296919
 20
25.9569497688
 11
13.1442090249
 21
25.9569497688
  0
LINE
  5
30D
100
AcDbEntity
  8
0
100
AcDbLine
 62
2
  6
CONTINUOUS
 10
11.9838593267
 20
26.0650510178
 11
12.1465433967
 21
26.0650510178
  0
LINE
  5
30E
100
AcDbEntity
  8
0
100
AcDbLine
 62
2
  6
CONTINUOUS
 10
12.3339377873
 20
26.0650510178
 11
12.4847953107
 21
26.0650510178
  0
LINE
  5
30F
100
AcDbEntity
  8
0
100
AcDbLine
 62
2
  6
CONTINUOUS
 10
12.3339377873
 20
26.1449725488
 11
12.4847953107
 21
26.1449725488
  0
LINE
  5
310
100
AcDbEntity
  8
0
100
AcDbLine
 62
2
  6
CONTINUOUS
 10
11.4760379288
 20
26.1521488704
 11
11.6240347399
 21
26.1521488704
  0
LINE
  5
311
100
AcDbEntity
  8
0
100
AcDbLine
 62
2
  6
CONTINUOUS
 10
12.680271348
 20
26.2600559422
 11
12.7326110982
 21
26.2600559422
  0
LINE
  5
312
100
AcDbEntity
  8
0
100
AcDbLine
 62
2
  6
CONTINUOUS
 10
12.3339377873
 20
26.3669785132
 11
12.4847953107
 21
26.3669785132
  0
LINE
  5
313
100
AcDbEntity
  8
0
100
AcDbLine
 62
2
  6
CONTINUOUS
 10
12.7362012294
 20
26.3671590767
 11
12.680271348
 21
26.3671590767
  0
LINE
  5
314
100
AcDbEntity
  8
0
100
AcDbLine
 62
2
  6
CONTINUOUS
 10
12.279721142
 20
26.2956967001
 11
12.4847953107
 21
26.2893541504
  0
LINE
  5
315
100
AcDbEntity
  8
0
100
AcDbLine
 62
2
  6
CONTINUOUS
 10
10.2750929854
 20
26.50973791
 11
10.4495932123
 21
26.50973791
  0
LINE
  5
316
100
AcDbEntity
  8
0
100
AcDbLine
 62
2
  6
CONTINUOUS
 10
10.5873573791
 20
26.50973791
 11
10.7794191911
 21
26.50973791
  0
LINE
  5
317
100
AcDbEntity
  8
0
100
AcDbLine
 62
2
  6
CONTINUOUS
 10
11.311304249
 20
26.50973791
 11
11.4760379288
 21
26.50973791
  0
LINE
  5
318
100
AcDbEntity
  8
0
100
AcDbLine
 62
2
  6
CONTINUOUS
 10
11.6240347399
 20
26.50973791
 11
11.7887684198
 21
26.50973791
  0
LINE
  5
319
100
AcDbEntity
  8
0
100
AcDbLine
 62
2
  6
CONTINUOUS
 10
11.833813264
 20
26.50973791
 11
11.9838593267
 21
26.50973791
  0
LINE
  5
31A
100
AcDbEntity
  8
0
100
AcDbLine
 62
2
  6
CONTINUOUS
 10
12.1756911354
 20
26.50973791
 11
12.4847953107
 21
26.50973791
  0
LINE
  5
31B
100
AcDbEntity
  8
0
100
AcDbLine
 62
2
  6
CONTINUOUS
 10
12.5296155254
 20
26.50973791
 11
12.7631632261
 21
26.50973791
  0
LINE
  5
31C
100
AcDbEntity
  8
_CURVE
100
AcDbLine
 62
8
 10
7.0764680105
 20
10.8790972831
 11
7.0764680105
 21
9.0090972831
  0
LINE
  5
31D
100
AcDbEntity
  8
_CURVE
100
AcDbLine
 62
8
 10
7.8264680105
 20
28.7290972831
 11
7.8264680105
 21
10.8790972831
  0
LINE
  5
31E
100
AcDbEntity
  8
_CURVE
100
AcDbLine
 62
7
  6
CONTINUOUS
 10
8.7064680105
 20
27.4550972831
 11
8.7064680105
 21
9.3790972831
  0
LINE
  5
31F
100
AcDbEntity
  8
_CURVE
100
AcDbLine
 62
8
 10
7.2064680105
 20
8.8790972831
 11
36.4464680105
 21
8.8790972831
  0
LINE
  5
320
100
AcDbEntity
  8
_CURVE
100
AcDbLine
 62
7
  6
CONTINUOUS
 10
5.7064680105
 20
9.3790972831
 11
8.7064680105
 21
9.3790972831
  0
LINE
  5
321
100
AcDbEntity
  8
_CURVE
100
AcDbLine
 62
7
  6
CONTINUOUS
 10
34.9464680105
 20
9.3790972831
 11
37.9464680105
 21
9.3790972831
  0
LINE
  5
322
100
AcDbEntity
  8
_CURVE
100
AcDbLine
 62
8
 10
7.0764680105
 20
10.8790972831
 11
7.8264680105
 21
10.8790972831
  0
LINE
  5
323
100
AcDbEntity
  8
_CURVE
100
AcDbLine
 62
8
  6
DASHED
 10
7.8264680105
 20
10.8790972831
 11
35.8264680105
 21
10.8790972831
  0
LINE
  5
324
100
AcDbEntity
  8
_CURVE
100
AcDbLine
 62
8
 10
35.8264680105
 20
10.8790972831
 11
36.5764680105
 21
10.8790972831
  0
LINE
  5
325
100
AcDbEntity
  8
_CURVE
100
AcDbLine
 62
2
  6
CENTER
 10
21.8264680105
 20
28.9290972831
 11
21.8264680105
 21
6.6790972831
  0
LINE
  5
326
100
AcDbEntity
  8
_CURVE
100
AcDbLine
 62
7
  6
CONTINUOUS
 10
34.5524680105
 20
27.8490972831
 11
9.1004680105
 21
27.8490972831
  0
LINE
  5
327
100
AcDbEntity
  8
_CURVE
100
AcDbLine
 62
8
 10
35.5764680105
 20
28.9790972831
 11
8.0764680105
 21
28.9790972831
  0
LINE
  5
328
100
AcDbEntity
  8
_CURVE
100
AcDbLine
 62
7
  6
CONTINUOUS
 10
34.9464680105
 20
9.3790972831
 11
34.9464680105
 21
27.4550972831
  0
LINE
  5
329
100
AcDbEntity
  8
_CURVE
100
AcDbLine
 62
8
 10
35.8264680105
 20
10.8790972831
 11
35.8264680105
 21
28.7290972831
  0
LINE
  5
32A
100
AcDbEntity
  8
_CURVE
100
AcDbLine
 62
8
 10
36.5764680105
 20
9.0090972831
 11
36.5764680105
 21
10.8790972831
  0
CIRCLE
  5
32B
100
AcDbEntity
  8
0
100
AcDbCircle
 62
2
  6
CONTINUOUS
 10
10.9961324106
 20
26.2156598335
 40
0.298056591
  0
ARC
  5
32C
100
AcDbEntity
  8
0
100
AcDbCircle
 62
2
  6
CONTINUOUS
 10
12.7631632261
 20
26.3347283993
 40
0.1750166163
100
AcDbArc
 50
294.4500166359
 51
90.0
  0
CIRCLE
  5
32D
100
AcDbEntity
  8
0
100
AcDbCircle
 62
2
  6
CONTINUOUS
 10
10.9961324106
 20
26.2156598335
 40
0.1247694151
  0
CIRCLE
  5
32E
100
AcDbEntity
  8
0
100
AcDbCircle
 62
2
  6
CONTINUOUS
 10
13.1358156914
 20
25.9238242607
 40
0.0653578721
  0
ARC
  5
32F
100
AcDbEntity
  8
0
100
AcDbCircle
 62
2
  6
CONTINUOUS
 10
12.7362011275
 20
26.3135473417
 40
0.053611735
100
AcDbArc
 50
266.1604009902
 51
89.9998910512
  0
ARC
  5
330
100
AcDbEntity
  8
0
100
AcDbCircle
 62
2
  6
CONTINUOUS
 10
13.1442090249
 20
25.9401183191
 40
0.0168314496
100
AcDbArc
 50
270.0
 51
90.0
  0
ARC
  5
331
100
AcDbEntity
  8
_CURVE
100
AcDbCircle
 62
7
  6
CONTINUOUS
 10
34.5524680105
 20
27.4550972831
 40
0.394
100
AcDbArc
 50
0.0
 51
90.0
  0
ARC
  5
332
100
AcDbEntity
  8
_CURVE
100
AcDbCircle
 62
7
  6
CONTINUOUS
 10
9.1004680105
 20
27.4550972831
 40
0.394
100
AcDbArc
 50
90.0
 51
180.0
  0
ARC
  5
333
100
AcDbEntity
  8
_CURVE
100
AcDbCircle
 62
8
 10
35.5764680105
 20
28.7290972831
 40
0.25
100
AcDbArc
 50
0.0
 51
90.0
  0
ARC
  5
334
100
AcDbEntity
  8
_CURVE
100
AcDbCircle
 62
8
 10
8.0764680105
 20
28.7290972831
 40
0.25
100
AcDbArc
 50
90.0
 51
180.0
  0
ARC
  5
335
100
AcDbEntity
  8
_CURVE
100
AcDbCircle
 62
8
 10
7.2064680105
 20
9.0090972831
 40
0.13
100
AcDbArc
 50
180.0
 51
270.0
  0
ARC
  5
336
100
AcDbEntity
  8
_CURVE
100
AcDbCircle
 62
8
 10
36.4464680105
 20
9.0090972831
 40
0.13
100
AcDbArc
 50
270.0
 51
360.0
  0
ENDSEC
  0
SECTION
  2
OBJECTS
  0
DICTIONARY
  5
C
100
AcDbDictionary
280
0
281
1
  3
ACAD_GROUP
350
D
  3
ACAD_MLINESTYLE
350
17
  3
ACAD_LAYOUT
350
1A
  3
ACAD_PLOTSETTINGS
350
19
  3
ACAD_PLOTSTYLENAME
350
E
  0
DICTIONARY
  5
D
102
{ACAD_REACTORS
330
C
102
}
100
AcDbDictionary
280
0
281
1
  0
ACDBDICTIONARYWDFLT
  5
E
102
{ACAD_REACTORS
330
C
102
}
100
AcDbDictionary
281
1
  3
Normal
350
F
100
AcDbDictionaryWithDefault
340
F
  0
DICTIONARY
  5
17
102
{ACAD_REACTORS
330
C
102
}
100
AcDbDictionary
280
0
281
1
  3
Standard
350
18
  0
DICTIONARY
  5
19
102
{ACAD_REACTORS
330
C
102
}
100
AcDbDictionary
281
1
  0
DICTIONARY
  5
1A
102
{ACAD_REACTORS
330
C
102
}
100
AcDbDictionary
281
1
  3
Model
350
337
  3
Layout1
350
338
  0
ACDBPLACEHOLDER
  5
F
102
{ACAD_REACTORS
330
E
102
}
  0
MLINESTYLE
  5
18
102
{ACAD_REACTORS
330
17
102
}
100
AcDbMlineStyle
  2
STANDARD
 70
0
  3

 62
256
 51
90.0
 52
90.0
 71
2
 49
0.5
 62
256
  6
BYLAYER
 49
-0.5
 62
256
  6
BYLAYER
  0
LAYOUT
  5
337
102
{ACAD_REACTORS
330
1A
102
}
100
AcDbPlotSettings
  1

  2
none_device
  4
ANSI_E_(44.00_x_34.00_Inches)
  6

 40
0.0
 41
0.0
 42
0.0
 43
0.0
 44
1117.6
 45
863.6
 46
0.0
 47
0.0
 48
0.0
 49
0.0
140
0.0
141
0.0
142
1.0
143
1.0
 70
1024
 72
0
 73
0
 74
0
  7

 75
0
147
1.0
148
0.0
149
0.0
100
AcDbLayout
  1
Model
 70
0
 71
0
 10
0.0
 20
0.0
 11
44.0
 21
34.0
 12
0.0
 22
0.0
 32
0.0
 14
0.0
 24
0.0
 34
0.0
 15
0.0
 25
0.0
 35
0.0
146
0.0
 13
0.0
 23
0.0
 33
0.0
 16
1.0
 26
0.0
 36
0.0
 17
0.0
 27
1.0
 37
0.0
 76
0
330
20C
345
0
346
0
  0
LAYOUT
  5
338
102
{ACAD_REACTORS
330
1A
102
}
100
AcDbPlotSettings
  1

  2
none_device
  4
ANSI_E_(44.00_x_34.00_Inches)
  6

 40
0.0
 41
0.0
 42
0.0
 43
0.0
 44
1117.6
 45
863.6
 46
0.0
 47
0.0
 48
0.0
 49
0.0
140
0.0
141
0.0
142
1.0
143
1.0
 70
0
 72
0
 73
0
 74
0
  7

 75
0
147
1.0
148
0.0
149
0.0
100
AcDbLayout
  1
Layout1
 70
0
 71
1
 10
0.0
 20
0.0
 11
44.0
 21
34.0
 12
0.0
 22
0.0
 32
0.0
 14
0.0
 24
0.0
 34
0.0
 15
0.0
 25
0.0
 35
0.0
146
0.0
 13
0.0
 23
0.0
 33
0.0
 16
1.0
 26
0.0
 36
0.0
 17
0.0
 27
1.0
 37
0.0
 76
0
330
20D
345
0
346
0
  0
ENDSEC
  0
EOF
