999
DXF file: 1564885-7.dxf
999
Pro/ENGINEER 2021304 by Parametric Technology Corporation
  0
SECTION
  2
HEADER
  9
$ACADVER
  1
AC1015
  9
$DWGCODEPAGE
  3
ANSI_1252
  9
$EXTMAX
 10
44.0
 20
34.0
 30
0.0
  9
$EXTMIN
 10
0.0
 20
0.0
 30
0.0
  9
$LIMMIN
 10
0.0
 20
0.0
  9
$LIMMAX
 10
44.0
 20
34.0
  9
$VIEWCTR
 10
22.0
 20
17.0
  9
$VIEWSIZE
 40
34.0
  9
$CLAYER
  8
0
  9
$LTSCALE
 40
2.42
  9
$CELTYPE
  6
BYLAYER
  9
$DIMSCALE
 40
1.0
  9
$DIMASZ
 40
0.1875
  9
$DIMEXO
 40
0.0625
  9
$DIMDLI
 40
1.672
  9
$DIMEXE
 40
0.125
  9
$DIMCEN
 40
0.396
  9
$DIMLFAC
 40
1.0
  9
$DIMBLK
  1
_FILLED
  9
$DIMALT
 70
1
  9
$DIMALTD
 70
2
  9
$DIMALTTD
 70
2
  9
$DIMALTF
 40
25.4
  9
$DIMTXT
 40
0.15625
  9
$DIMTOL
 70
1
  9
$DIMLIM
 70
0
  9
$DIMTFAC
 40
1.0
  9
$DIMTP
 40
0.01
  9
$DIMTM
 40
0.01
  9
$DIMGAP
 40
0.09
  9
$DIMDSEP
 70
46
  9
$AUNITS
 70
0
  9
$PDMODE
 70
3
  9
$PDSIZE
 40
0.3125
  9
$HANDSEED
  5
33A
  9
$TILEMODE
 70
1
  9
$MEASUREMENT
 70
0
  9
$INSUNITS
 70
1
  0
ENDSEC
  0
SECTION
  2
CLASSES
  0
CLASS
  1
ACDBDICTIONARYWDFLT
  2
AcDbDictionaryWithDefault
  3
AutoCAD 2000
 90
0
280
0
281
0
  0
CLASS
  1
ACDBPLACEHOLDER
  2
AcDbPlaceHolder
  3
AutoCAD 2000
 90
0
280
0
281
0
  0
CLASS
  1
LAYOUT
  2
AcDbLayout
  3
AutoCAD 2000
 90
0
280
0
281
0
  0
ENDSEC
  0
SECTION
  2
TABLES
  0
TABLE
  2
VPORT
  5
8
100
AcDbSymbolTable
 70
2
  0
VPORT
  5
1F4
100
AcDbSymbolTableRecord
100
AcDbViewportTableRecord
  2
*ACTIVE
 70
0
 10
0.0
 20
0.0
 11
1.0
 21
1.0
 12
22.0
 22
17.0
 13
0.0
 23
0.0
 14
1.0
 24
1.0
 15
0.0
 25
0.0
 16
0.0
 26
0.0
 36
1.0
 17
0.0
 27
0.0
 37
0.0
 40
34.0
 41
1.2941176471
 42
50.0
 43
0.0
 44
0.0
 50
0.0
 51
0.0
 71
0
 72
100
 73
1
 74
1
 75
0
 76
0
 77
0
 78
0
  0
ENDTAB
  0
TABLE
  2
LTYPE
  5
5
100
AcDbSymbolTable
 70
6
  0
LTYPE
  5
14
100
AcDbSymbolTableRecord
100
AcDbLinetypeTableRecord
  2
BYBLOCK
 70
0
  3

 72
65
 73
0
 40
0.0
  0
LTYPE
  5
15
100
AcDbSymbolTableRecord
100
AcDbLinetypeTableRecord
  2
BYLAYER
 70
0
  3

 72
65
 73
0
 40
0.0
  0
LTYPE
  5
16
100
AcDbSymbolTableRecord
100
AcDbLinetypeTableRecord
  2
CONTINUOUS
 70
64
  3
Solid line
 72
65
 73
0
 40
0.0
  0
LTYPE
  5
1F5
100
AcDbSymbolTableRecord
100
AcDbLinetypeTableRecord
  2
CENTER
 70
64
  3
____ _ ____ _ ____ _ ____ _ ____ _ ____ _ ____
 72
65
 73
4
 40
0.6
 49
0.375
 74
0
 49
-0.075
 74
0
 49
0.075
 74
0
 49
-0.075
 74
0
  0
LTYPE
  5
1F6
100
AcDbSymbolTableRecord
100
AcDbLinetypeTableRecord
  2
HIDDEN
 70
64
  3
- - - - - - - - - - - - - - - - - - - -
 72
65
 73
2
 40
0.2
 49
0.1
 74
0
 49
-0.1
 74
0
  0
LTYPE
  5
1F7
100
AcDbSymbolTableRecord
100
AcDbLinetypeTableRecord
  2
PHANTOM
 70
64
  3
_____ _ _ _____ _ _ _____ _ _ _____
 72
65
 73
6
 40
0.8
 49
0.45
 74
0
 49
-0.05
 74
0
 49
0.1
 74
0
 49
-0.05
 74
0
 49
0.1
 74
0
 49
-0.05
 74
0
  0
LTYPE
  5
1F8
100
AcDbSymbolTableRecord
100
AcDbLinetypeTableRecord
  2
DOT
 70
64
  3
. . . . . . . . . . . . . . . . . . . .
 72
65
 73
2
 40
0.2
 49
0.1
 74
0
 49
-0.1
 74
0
  0
LTYPE
  5
1F9
100
AcDbSymbolTableRecord
100
AcDbLinetypeTableRecord
  2
DASHED
 70
64
  3
- - - - - - - - - - - - - - - - - - - -
 72
65
 73
2
 40
0.2
 49
0.1
 74
0
 49
-0.1
 74
0
  0
ENDTAB
  0
TABLE
  2
LAYER
  5
2
100
AcDbSymbolTable
 70
36
  0
LAYER
  5
10
100
AcDbSymbolTableRecord
100
AcDbLayerTableRecord
  2
0
 70
0
 62
7
  6
CONTINUOUS
370
-3
390
F
  0
LAYER
  5
1FA
100
AcDbSymbolTableRecord
100
AcDbLayerTableRecord
  2
DEFAULT_1
 70
0
 62
7
  6
CENTER
370
-3
390
F
  0
LAYER
  5
1FB
100
AcDbSymbolTableRecord
100
AcDbLayerTableRecord
  2
DEFAULT_2
 70
0
 62
8
  6
HIDDEN
370
-3
390
F
  0
LAYER
  5
1FC
100
AcDbSymbolTableRecord
100
AcDbLayerTableRecord
  2
DEFAULT_3
 70
0
 62
7
  6
PHANTOM
370
-3
390
F
  0
LAYER
  5
1FD
100
AcDbSymbolTableRecord
100
AcDbLayerTableRecord
  2
DATUMS
 70
0
 62
7
  6
CONTINUOUS
370
-3
390
F
  0
LAYER
  5
1FE
100
AcDbSymbolTableRecord
100
AcDbLayerTableRecord
  2
DATUM_AXIS
 70
0
 62
7
  6
CONTINUOUS
370
-3
390
F
  0
LAYER
  5
1FF
100
AcDbSymbolTableRecord
100
AcDbLayerTableRecord
  2
DATUM_CSYS
 70
0
 62
7
  6
CONTINUOUS
370
-3
390
F
  0
LAYER
  5
200
100
AcDbSymbolTableRecord
100
AcDbLayerTableRecord
  2
DATUM_PLANE
 70
0
 62
7
  6
CONTINUOUS
370
-3
390
F
  0
LAYER
  5
201
100
AcDbSymbolTableRecord
100
AcDbLayerTableRecord
  2
DATUM_POINT
 70
0
 62
7
  6
CONTINUOUS
370
-3
390
F
  0
LAYER
  5
202
100
AcDbSymbolTableRecord
100
AcDbLayerTableRecord
  2
SINK
 70
0
 62
7
  6
CONTINUOUS
370
-3
390
F
  0
LAYER
  5
203
100
AcDbSymbolTableRecord
100
AcDbLayerTableRecord
  2
_CURVE
 70
0
 62
7
  6
CONTINUOUS
370
-3
390
F
  0
LAYER
  5
204
100
AcDbSymbolTableRecord
100
AcDbLayerTableRecord
  2
_SURFACE
 70
0
 62
7
  6
CONTINUOUS
370
-3
390
F
  0
LAYER
  5
205
100
AcDbSymbolTableRecord
100
AcDbLayerTableRecord
  2
__REF_CURVE
 70
0
 62
7
  6
CONTINUOUS
370
-3
390
F
  0
LAYER
  5
206
100
AcDbSymbolTableRecord
100
AcDbLayerTableRecord
  2
__REF_SURFACE
 70
0
 62
7
  6
CONTINUOUS
370
-3
390
F
  0
LAYER
  5
207
100
AcDbSymbolTableRecord
100
AcDbLayerTableRecord
  2
___NOTE
 70
0
 62
7
  6
CONTINUOUS
370
-3
390
F
  0
LAYER
  5
208
100
AcDbSymbolTableRecord
100
AcDbLayerTableRecord
  2
___SYMBOL
 70
0
 62
7
  6
CONTINUOUS
370
-3
390
F
  0
ENDTAB
  0
TABLE
  2
STYLE
  5
3
100
AcDbSymbolTable
 70
1
  0
STYLE
  5
11
100
AcDbSymbolTableRecord
100
AcDbTextStyleTableRecord
  2
STANDARD
 70
0
 40
0.0
 41
0.8
 50
0.0
 71
0
 42
0.2
  3
txt
  4

  0
STYLE
  5
209
100
AcDbSymbolTableRecord
100
AcDbTextStyleTableRecord
  2
TEXTSTYLE_1
 70
0
 40
0.0
 41
0.8
 50
0.0
 71
0
 42
0.2
  3
gdt
  4

  0
STYLE
  5
20A
100
AcDbSymbolTableRecord
100
AcDbTextStyleTableRecord
  2
TEXTSTYLE_2
 70
0
 40
0.0
 41
1.0
 50
0.0
 71
0
 42
0.2
  3
txt
  4

  0
ENDTAB
  0
TABLE
  2
VIEW
  5
6
100
AcDbSymbolTable
 70
0
  0
ENDTAB
  0
TABLE
  2
UCS
  5
7
100
AcDbSymbolTable
 70
0
  0
ENDTAB
  0
TABLE
  2
APPID
  5
9
100
AcDbSymbolTable
 70
1
  0
APPID
  5
20B
100
AcDbSymbolTableRecord
100
AcDbRegAppTableRecord
  2
ACAD
 70
0
  0
ENDTAB
  0
TABLE
  2
BLOCK_RECORD
  5
1
100
AcDbSymbolTable
 70
0
  0
BLOCK_RECORD
  5
20C
100
AcDbSymbolTableRecord
100
AcDbBlockTableRecord
  2
*Model_Space
  0
BLOCK_RECORD
  5
20D
100
AcDbSymbolTableRecord
100
AcDbBlockTableRecord
  2
*Paper_Space
  0
BLOCK_RECORD
  5
20E
100
AcDbSymbolTableRecord
100
AcDbBlockTableRecord
  2
_FILLED
  0
BLOCK_RECORD
  5
20F
100
AcDbSymbolTableRecord
100
AcDbBlockTableRecord
  2
*D0
  0
BLOCK_RECORD
  5
210
100
AcDbSymbolTableRecord
100
AcDbBlockTableRecord
  2
*D1
  0
BLOCK_RECORD
  5
211
100
AcDbSymbolTableRecord
100
AcDbBlockTableRecord
  2
*D2
  0
BLOCK_RECORD
  5
212
100
AcDbSymbolTableRecord
100
AcDbBlockTableRecord
  2
*D3
  0
BLOCK_RECORD
  5
213
100
AcDbSymbolTableRecord
100
AcDbBlockTableRecord
  2
SCISSORS_BL1
  0
BLOCK_RECORD
  5
214
100
AcDbSymbolTableRecord
100
AcDbBlockTableRecord
  2
PLOTTING_TEMPLATE_NOTE_BL0
  0
ENDTAB
  0
TABLE
  2
DIMSTYLE
  5
A
100
AcDbSymbolTable
 70
1
100
AcDbDimStyleTable
 71
0
  0
DIMSTYLE
105
215
100
AcDbSymbolTableRecord
100
AcDbDimStyleTableRecord
  2
STANDARD
 70
0
  3

  4

 40
1.0
 41
0.1875
 42
0.0625
 43
0.38
 44
0.125
 45
0.0
 46
0.0
 47
0.01
 48
0.01
140
0.15625
141
0.09
142
0.0
143
2.54
144
1.0
145
0.0
146
1.0
147
0.09
 71
1
 72
0
 73
1
 74
1
 75
0
 76
0
 77
0
 78
4
 79
1
170
1
171
2
172
0
173
0
174
0
175
0
176
0
177
0
178
0
270
2
179
3
271
3
272
3
273
2
274
2
275
0
280
0
281
0
282
0
283
1
284
4
285
0
286
0
287
3
288
0
340
11
278
46
341
20E
342
20E
343
20E
344
20E
  0
DIMSTYLE
105
216
100
AcDbSymbolTableRecord
100
AcDbDimStyleTableRecord
  2
DIMSTYLE_1
 70
0
  3

  4

 40
1.0
 41
0.1875
 42
0.0625
 43
0.38
 44
0.125
 45
0.0
 46
0.0
 47
0.03125
 48
0.03125
140
0.15625
141
0.09
142
0.0
143
2.54
144
1.0
145
0.0
146
1.0
147
0.078125
 71
0
 72
0
 73
1
 74
1
 75
0
 76
0
 77
0
 78
4
 79
1
170
1
171
1
172
0
173
0
174
0
175
0
176
0
177
0
178
0
270
2
179
3
271
5
272
2
273
2
274
2
275
0
280
0
281
0
282
0
283
1
284
4
285
0
286
0
287
3
288
0
340
11
278
46
341
20E
342
20E
343
20E
344
20E
  0
DIMSTYLE
105
217
100
AcDbSymbolTableRecord
100
AcDbDimStyleTableRecord
  2
DIMSTYLE_2
 70
0
  3

  4

 40
1.0
 41
0.1875
 42
0.0625
 43
0.38
 44
0.125
 45
0.0
 46
0.0
 47
0.0625
 48
0.0625
140
0.15625
141
0.09
142
0.0
143
2.54
144
1.0
145
0.0
146
1.0
147
0.078125
 71
0
 72
0
 73
1
 74
1
 75
0
 76
0
 77
0
 78
4
 79
1
170
1
171
1
172
0
173
0
174
0
175
0
176
0
177
0
178
0
270
2
179
3
271
4
272
16
273
2
274
3
275
0
280
0
281
0
282
0
283
1
284
4
285
0
286
0
287
3
288
0
340
11
278
46
341
20E
342
20E
343
20E
344
20E
  0
DIMSTYLE
105
218
100
AcDbSymbolTableRecord
100
AcDbDimStyleTableRecord
  2
DIMSTYLE_3
 70
0
  3
<>
  4

 40
1.0
 41
0.1875
 42
0.0625
 43
0.38
 44
0.125
 45
0.0
 46
0.0
 47
0.03125
 48
0.03125
140
0.15625
141
0.09
142
0.0
143
2.54
144
1.0
145
0.0
146
1.0
147
0.09
 71
0
 72
0
 73
1
 74
1
 75
0
 76
0
 77
0
 78
4
 79
1
170
1
171
1
172
0
173
0
174
0
175
0
176
0
177
0
178
0
270
2
179
3
271
5
272
3
273
2
274
2
275
0
280
0
281
0
282
0
283
1
284
4
285
0
286
0
287
3
288
0
340
11
278
46
341
20E
342
20E
343
20E
344
20E
  0
DIMSTYLE
105
219
100
AcDbSymbolTableRecord
100
AcDbDimStyleTableRecord
  2
DIMSTYLE_4
 70
0
  3

  4

 40
1.0
 41
0.1875
 42
0.0625
 43
0.38
 44
0.125
 45
0.0
 46
0.0
 47
0.03125
 48
0.03125
140
0.15625
141
0.09
142
0.0
143
2.54
144
1.0
145
0.0
146
1.0
147
0.078125
 71
0
 72
0
 73
1
 74
1
 75
0
 76
0
 77
0
 78
4
 79
1
170
1
171
1
172
0
173
0
174
0
175
0
176
0
177
0
178
0
270
2
179
3
271
5
272
3
273
2
274
2
275
0
280
0
281
0
282
0
283
1
284
4
285
0
286
0
287
3
288
0
340
11
278
46
341
20E
342
20E
343
20E
344
20E
  0
ENDTAB
  0
ENDSEC
  0
SECTION
  2
BLOCKS
  0
BLOCK
  5
20
100
AcDbEntity
  8
0
100
AcDbBlockBegin
  2
*Model_Space
 70
0
 10
0.0
 20
0.0
 30
0.0
  3
*Model_Space
  1

  0
ENDBLK
  5
21
100
AcDbEntity
  8
0
100
AcDbBlockEnd
  0
BLOCK
  5
1C
100
AcDbEntity
  8
0
100
AcDbBlockBegin
  2
*Paper_Space
 70
0
 10
0.0
 20
0.0
 30
0.0
  3
*Paper_Space
  1

  0
ENDBLK
  5
1D
100
AcDbEntity
  8
0
100
AcDbBlockEnd
  0
BLOCK
  5
21A
100
AcDbEntity
  8
___SYMBOL
100
AcDbBlockBegin
 62
2
  6
CONTINUOUS
  2
SCISSORS_BL1
 70
64
 10
5.7291669549
 20
15.4859226344
  3
SCISSORS_BL1
  1

  0
LINE
  5
21B
100
AcDbEntity
  8
___SYMBOL
100
AcDbLine
 62
7
  6
CONTINUOUS
 10
5.6715256882
 20
15.5476211553
 11
5.559445915
 21
16.1012794569
  0
LINE
  5
21C
100
AcDbEntity
  8
___SYMBOL
100
AcDbLine
 62
7
  6
CONTINUOUS
 10
5.623146029
 20
15.5181200798
 11
5.559445915
 21
16.1012794569
  0
LINE
  5
21D
100
AcDbEntity
  8
___SYMBOL
100
AcDbLine
 62
7
  6
CONTINUOUS
 10
5.6987877934
 20
15.4519371632
 11
5.6972201795
 21
15.5027905701
  0
LINE
  5
21E
100
AcDbEntity
  8
___SYMBOL
100
AcDbLine
 62
7
  6
CONTINUOUS
 10
5.7135978808
 20
15.5034705595
 11
5.7151762815
 21
15.4522672288
  0
LINE
  5
21F
100
AcDbEntity
  8
___SYMBOL
100
AcDbLine
 62
7
  6
CONTINUOUS
 10
5.7076797979
 20
15.6808400094
 11
5.8953941875
 21
16.0915439759
  0
LINE
  5
220
100
AcDbEntity
  8
___SYMBOL
100
AcDbLine
 62
7
  6
CONTINUOUS
 10
5.5935709761
 20
15.4225699088
 11
5.62610007
 21
15.4839824767
  0
LINE
  5
221
100
AcDbEntity
  8
___SYMBOL
100
AcDbLine
 62
7
  6
CONTINUOUS
 10
5.7748270434
 20
15.4903886074
 11
5.8953941875
 21
15.8760772202
  0
LINE
  5
222
100
AcDbEntity
  8
___SYMBOL
100
AcDbLine
 62
7
  6
CONTINUOUS
 10
5.7454584279
 20
15.5736875416
 11
5.6715256882
 21
15.5476211553
  0
LINE
  5
223
100
AcDbEntity
  8
___SYMBOL
100
AcDbLine
 62
7
  6
CONTINUOUS
 10
5.7994390672
 20
15.4205809121
 11
5.7421522655
 21
15.2823163894
  0
LINE
  5
224
100
AcDbEntity
  8
___SYMBOL
100
AcDbLine
 62
7
  6
CONTINUOUS
 10
5.6474127391
 20
15.2868279991
 11
5.6914900143
 21
15.332627201
  0
LINE
  5
225
100
AcDbEntity
  8
___SYMBOL
100
AcDbLine
 62
7
  6
CONTINUOUS
 10
5.559445915
 20
16.1012794569
 11
5.7994390672
 21
15.4205809121
  0
LINE
  5
226
100
AcDbEntity
  8
___SYMBOL
100
AcDbLine
 62
7
  6
CONTINUOUS
 10
5.6474127391
 20
15.2868279991
 11
5.5935709761
 21
15.4225699088
  0
ARC
  5
227
100
AcDbEntity
  8
___SYMBOL
100
AcDbCircle
 62
7
  6
CONTINUOUS
 10
5.5507601881
 20
15.983810598
 40
0.3610804262
100
AcDbArc
 50
342.6406360869
 51
17.3593639131
  0
ARC
  5
228
100
AcDbEntity
  8
___SYMBOL
100
AcDbCircle
 62
7
  6
CONTINUOUS
 10
5.9357979976
 20
15.5279782875
 40
0.3128073492
100
AcDbArc
 50
181.8059909349
 51
231.752660067
  0
CIRCLE
  5
229
100
AcDbEntity
  8
___SYMBOL
100
AcDbCircle
 62
7
  6
CONTINUOUS
 10
5.7064680105
 20
15.4776247798
 40
0.0268111801
  0
ARC
  5
22A
100
AcDbEntity
  8
___SYMBOL
100
AcDbCircle
 62
7
  6
CONTINUOUS
 10
5.8659258209
 20
15.1053071824
 40
0.0146088562
100
AcDbArc
 50
185.3133793157
 51
314.0675041521
  0
ARC
  5
22B
100
AcDbEntity
  8
___SYMBOL
100
AcDbCircle
 62
7
  6
CONTINUOUS
 10
5.5312642259
 20
15.0977866131
 40
0.0146087357
100
AcDbArc
 50
233.3109272841
 51
359.4467240969
  0
SPLINE
  5
22C
100
AcDbEntity
  8
___SYMBOL
100
AcDbSpline
 62
7
  6
CONTINUOUS
 70
0
 71
3
 72
12
 73
8
 74
0
 42
0.0000001
 43
0.0000001
 44
0.0000000001
 40
0.0
 40
0.0
 40
0.0
 40
0.0
 40
0.4884256058
 40
0.6683914397
 40
0.8669439281
 40
0.9099489479
 40
1.0
 40
1.0
 40
1.0
 40
1.0
 10
5.8281816927
 20
14.8705658119
 30
0.0
 10
5.8049533445
 20
14.9386090994
 30
0.0
 10
5.7999836024
 20
15.0396335659
 30
0.0
 10
5.8015749409
 20
15.1665069915
 30
0.0
 10
5.7966909506
 20
15.2293245051
 30
0.0
 10
5.7781454499
 20
15.2752165686
 30
0.0
 10
5.7552200447
 20
15.2845422716
 30
0.0
 10
5.7421522655
 20
15.2823163894
 30
0.0
  0
SPLINE
  5
22D
100
AcDbEntity
  8
___SYMBOL
100
AcDbSpline
 62
7
  6
CONTINUOUS
 70
0
 71
3
 72
14
 73
10
 74
0
 42
0.0000001
 43
0.0000001
 44
0.0000000001
 40
0.0
 40
0.0
 40
0.0
 40
0.0
 40
0.0469735811
 40
0.2606095073
 40
0.5805460666
 40
0.7382389988
 40
0.8401572415
 40
0.925087268
 40
1.0
 40
1.0
 40
1.0
 40
1.0
 10
5.8513797374
 20
15.103954357
 30
0.0
 10
5.8509053345
 20
15.1090553143
 30
0.0
 10
5.8489468474
 20
15.1374637618
 30
0.0
 10
5.851630897
 20
15.2000044562
 30
0.0
 10
5.8574731788
 20
15.2794879646
 30
0.0
 10
5.8235206553
 20
15.3338871566
 30
0.0
 10
5.8024873992
 20
15.3659480818
 30
0.0
 10
5.800803957
 20
15.395128431
 30
0.0
 10
5.800670724
 20
15.412504251
 30
0.0
 10
5.7994390672
 20
15.4205809121
 30
0.0
  0
SPLINE
  5
22E
100
AcDbEntity
  8
___SYMBOL
100
AcDbSpline
 62
7
  6
CONTINUOUS
 70
0
 71
3
 72
12
 73
8
 74
0
 42
0.0000001
 43
0.0000001
 44
0.0000000001
 40
0.0
 40
0.0
 40
0.0
 40
0.0
 40
0.2870411994
 40
0.5613888029
 40
0.7613462239
 40
0.9013972407
 40
1.0
 40
1.0
 40
1.0
 40
1.0
 10
5.5887496982
 20
14.9092223953
 30
0.0
 10
5.5979511874
 20
14.9459095408
 30
0.0
 10
5.6017613779
 20
15.0206040268
 30
0.0
 10
5.5954649765
 20
15.1212614705
 30
0.0
 10
5.6030486206
 20
15.2006056564
 30
0.0
 10
5.6071246508
 20
15.2614868272
 30
0.0
 10
5.6349282367
 20
15.2832290225
 30
0.0
 10
5.6474127391
 20
15.2868279991
 30
0.0
  0
SPLINE
  5
22F
100
AcDbEntity
  8
___SYMBOL
100
AcDbSpline
 62
7
  6
CONTINUOUS
 70
0
 71
3
 72
13
 73
9
 74
0
 42
0.0000001
 43
0.0000001
 44
0.0000000001
 40
0.0
 40
0.0
 40
0.0
 40
0.0
 40
0.0902051637
 40
0.4170421866
 40
0.6587388922
 40
0.9356437381
 40
0.9595034934
 40
1.0
 40
1.0
 40
1.0
 40
1.0
 10
5.5458722804
 20
15.0976455462
 30
0.0
 10
5.5459686258
 20
15.1076225028
 30
0.0
 10
5.5456838212
 20
15.1536830195
 30
0.0
 10
5.5435617118
 20
15.2274394916
 30
0.0
 10
5.5589496876
 20
15.3178129901
 30
0.0
 10
5.6035142802
 20
15.3761783494
 30
0.0
 10
5.5883820549
 20
15.4111429446
 30
0.0
 10
5.5903266999
 20
15.4194814985
 30
0.0
 10
5.5935709761
 20
15.4225699088
 30
0.0
  0
ELLIPSE
  5
230
100
AcDbEntity
  8
___SYMBOL
100
AcDbEllipse
 62
7
  6
CONTINUOUS
 10
5.9478126337
 20
14.942582448
 30
0.0
 11
0.0060666775
 21
-0.1237602215
 31
0.0
 40
0.774293327
 41
0.0
 42
6.2831853072
  0
ELLIPSE
  5
231
100
AcDbEntity
  8
___SYMBOL
100
AcDbEllipse
 62
7
  6
CONTINUOUS
 10
5.9478126337
 20
14.942582448
 30
0.0
 11
-0.0030333388
 21
-0.1844269968
 31
0.0
 40
0.700902774
 41
5.1250505418
 42
10.0362700851
  0
ELLIPSE
  5
232
100
AcDbEntity
  8
___SYMBOL
100
AcDbEllipse
 62
7
  6
CONTINUOUS
 10
5.4563123971
 20
14.9554357393
 30
0.0
 11
0.0151666938
 21
-0.1228502199
 31
0.0
 40
0.7501188416
 41
0.0
 42
6.2831853072
  0
ELLIPSE
  5
233
100
AcDbEntity
  8
___SYMBOL
100
AcDbEllipse
 62
7
  6
CONTINUOUS
 10
5.4585874011
 20
14.9349607026
 30
0.0
 11
0.0022750041
 21
-0.1736586442
 31
0.0
 40
0.7569683881
 41
2.6163261196
 42
7.6953125801
  0
ENDBLK
  5
234
100
AcDbEntity
  8
0
  6
BYBLOCK
 62
0
100
AcDbBlockEnd
  0
BLOCK
  5
235
100
AcDbEntity
  8
___SYMBOL
100
AcDbBlockBegin
 62
2
  6
CONTINUOUS
  2
PLOTTING_TEMPLATE_NOTE_BL0
 70
64
 10
33.7707925045
 20
11.7295894124
  3
PLOTTING_TEMPLATE_NOTE_BL0
  1

  0
TEXT
  5
236
100
AcDbEntity
  8
___SYMBOL
100
AcDbText
 62
2
  6
CONTINUOUS
 10
30.8957925045
 20
13.0577144124
  7
STANDARD
 40
0.15625
  1
WHEN PLOTTING TEMPLATE FULL SIZE:
 41
0.8
 72
0
100
AcDbText
  0
TEXT
  5
237
100
AcDbEntity
  8
___SYMBOL
100
AcDbText
 62
2
  6
CONTINUOUS
 10
30.8957925045
 20
12.8233394124
  7
STANDARD
 40
0.15625
  1
Make sure horizontal and vertical dimensions
 41
0.8
 72
0
100
AcDbText
  0
TEXT
  5
238
100
AcDbEntity
  8
___SYMBOL
100
AcDbText
 62
2
  6
CONTINUOUS
 10
30.8957925045
 20
12.5889644124
  7
STANDARD
 40
0.15625
  1
match the dimensions labeled on the template.
 41
0.8
 72
0
100
AcDbText
  0
TEXT
  5
239
100
AcDbEntity
  8
___SYMBOL
100
AcDbText
 62
2
  6
CONTINUOUS
 10
30.8957925045
 20
12.3545894124
  7
STANDARD
 40
0.15625
  1
 
 41
0.8
 72
0
100
AcDbText
  0
TEXT
  5
23A
100
AcDbEntity
  8
___SYMBOL
100
AcDbText
 62
2
  6
CONTINUOUS
 10
30.8957925045
 20
12.1202144124
  7
STANDARD
 40
0.15625
  1
LORS DU TRACÉ DU GABARIT À L'ÉCHELLE: 
 41
0.8
 72
0
100
AcDbText
  0
TEXT
  5
23B
100
AcDbEntity
  8
___SYMBOL
100
AcDbText
 62
2
  6
CONTINUOUS
 10
30.8957925045
 20
11.8858394124
  7
STANDARD
 40
0.15625
  1
s'assurer que les dimensions horizontales et
 41
0.8
 72
0
100
AcDbText
  0
TEXT
  5
23C
100
AcDbEntity
  8
___SYMBOL
100
AcDbText
 62
2
  6
CONTINUOUS
 10
30.8957925045
 20
11.6514644124
  7
STANDARD
 40
0.15625
  1
verticales correspondent à celles marquées sur
 41
0.8
 72
0
100
AcDbText
  0
TEXT
  5
23D
100
AcDbEntity
  8
___SYMBOL
100
AcDbText
 62
2
  6
CONTINUOUS
 10
30.8957925045
 20
11.4170894124
  7
STANDARD
 40
0.15625
  1
le gabarit.
 41
0.8
 72
0
100
AcDbText
  0
TEXT
  5
23E
100
AcDbEntity
  8
___SYMBOL
100
AcDbText
 62
2
  6
CONTINUOUS
 10
30.8957925045
 20
11.1827144124
  7
STANDARD
 40
0.15625
  1
 
 41
0.8
 72
0
100
AcDbText
  0
TEXT
  5
23F
100
AcDbEntity
  8
___SYMBOL
100
AcDbText
 62
2
  6
CONTINUOUS
 10
30.8957925045
 20
10.9483394124
  7
STANDARD
 40
0.15625
  1
AL TRAZAR LA PLANTILLA A ESCALA COMPLETA:
 41
0.8
 72
0
100
AcDbText
  0
TEXT
  5
240
100
AcDbEntity
  8
___SYMBOL
100
AcDbText
 62
2
  6
CONTINUOUS
 10
30.8957925045
 20
10.7139644124
  7
STANDARD
 40
0.15625
  1
asegúrese de que la dimensión horizontal y
 41
0.8
 72
0
100
AcDbText
  0
TEXT
  5
241
100
AcDbEntity
  8
___SYMBOL
100
AcDbText
 62
2
  6
CONTINUOUS
 10
30.8957925045
 20
10.4795894124
  7
STANDARD
 40
0.15625
  1
la dimensión vertical sean iguales a las
 41
0.8
 72
0
100
AcDbText
  0
TEXT
  5
242
100
AcDbEntity
  8
___SYMBOL
100
AcDbText
 62
2
  6
CONTINUOUS
 10
30.8957925045
 20
10.2452144124
  7
STANDARD
 40
0.15625
  1
dimensiones indicadas en la plantilla.
 41
0.8
 72
0
100
AcDbText
  0
ENDBLK
  5
243
100
AcDbEntity
  8
0
  6
BYBLOCK
 62
0
100
AcDbBlockEnd
  0
BLOCK
  5
244
100
AcDbEntity
  8
0
100
AcDbBlockBegin
  2
_FILLED
 70
64
 10
0.0
 20
0.0
  3
_FILLED
  1

  0
SOLID
  5
245
100
AcDbEntity
  8
0
  6
BYBLOCK
 62
0
100
AcDbTrace
 10
0.0
 20
0.0
 11
-1.0
 21
0.1666666667
 12
-1.0
 22
-0.1666666667
 13
-1.0
 23
-0.1666666667
  0
ENDBLK
  5
246
100
AcDbEntity
  8
0
  6
BYBLOCK
 62
0
100
AcDbBlockEnd
  0
BLOCK
  5
247
100
AcDbEntity
  8
0
100
AcDbBlockBegin
 62
2
  6
CONTINUOUS
  2
*D0
 70
65
 10
0.0
 20
0.0
  3
*D0
  1

  0
MTEXT
  5
248
100
AcDbEntity
  8
0
100
AcDbMText
 62
2
  6
CONTINUOUS
  7
STANDARD
 71
2
 72
1
 10
18.3134743414
 20
19.834511817
 30
0.0
 11
1.0
 21
0.0
 31
0.0
 73
2
 44
0.9
  1
32-1/4"\P[81,9]
 40
0.15625
 41
0.875
  0
LINE
  5
249
100
AcDbEntity
  8
0
100
AcDbLine
 62
2
  6
CONTINUOUS
 10
5.7064680105
 20
19.756386817
 11
17.7978493414
 21
19.756386817
  0
LINE
  5
24A
100
AcDbEntity
  8
0
100
AcDbLine
 62
2
  6
CONTINUOUS
 10
37.9464680105
 20
19.756386817
 11
18.8290993414
 21
19.756386817
  0
INSERT
  5
24B
100
AcDbEntity
  8
0
100
AcDbBlockReference
 62
2
  6
CONTINUOUS
  2
_FILLED
 10
5.7064680105
 20
19.756386817
 41
0.1875
 42
0.1875
 43
0.1875
 50
180.0
  0
INSERT
  5
24C
100
AcDbEntity
  8
0
100
AcDbBlockReference
 62
2
  6
CONTINUOUS
  2
_FILLED
 10
37.9464680105
 20
19.756386817
 41
0.1875
 42
0.1875
 43
0.1875
  0
ENDBLK
  5
24D
100
AcDbEntity
  8
0
  6
BYBLOCK
 62
0
100
AcDbBlockEnd
  0
BLOCK
  5
24E
100
AcDbEntity
  8
0
100
AcDbBlockBegin
 62
2
  6
CONTINUOUS
  2
*D1
 70
65
 10
0.0
 20
0.0
  3
*D1
  1

  0
MTEXT
  5
24F
100
AcDbEntity
  8
0
100
AcDbMText
 62
2
  6
CONTINUOUS
  7
STANDARD
 71
2
 72
1
 10
19.706993813
 20
18.4672222831
 30
0.0
 11
1.0
 21
0.0
 31
0.0
 73
2
 44
0.9
  1
17{\ftxt;\W0.0001;\H0.0001;\~}{\ftxt;\W3.2;\H0.15625; }"\P[43,1]
 40
0.15625
 41
0.875
  0
LINE
  5
250
100
AcDbEntity
  8
0
100
AcDbLine
 62
2
  6
CONTINUOUS
 10
19.706993813
 20
9.9040972831
 11
19.706993813
 21
17.9984722831
  0
LINE
  5
251
100
AcDbEntity
  8
0
100
AcDbLine
 62
2
  6
CONTINUOUS
 10
19.706993813
 20
26.8740972831
 11
19.706993813
 21
18.5453472831
  0
INSERT
  5
252
100
AcDbEntity
  8
0
100
AcDbBlockReference
 62
2
  6
CONTINUOUS
  2
_FILLED
 10
19.706993813
 20
9.9040972831
 41
0.1875
 42
0.1875
 43
0.1875
 50
270.0
  0
INSERT
  5
253
100
AcDbEntity
  8
0
100
AcDbBlockReference
 62
2
  6
CONTINUOUS
  2
_FILLED
 10
19.706993813
 20
26.8740972831
 41
0.1875
 42
0.1875
 43
0.1875
 50
90.0
  0
ENDBLK
  5
254
100
AcDbEntity
  8
0
  6
BYBLOCK
 62
0
100
AcDbBlockEnd
  0
BLOCK
  5
255
100
AcDbEntity
  8
0
100
AcDbBlockBegin
 62
2
  6
CONTINUOUS
  2
*D2
 70
65
 10
0.0
 20
0.0
  3
*D2
  1

  0
MTEXT
  5
256
100
AcDbEntity
  8
0
100
AcDbMText
 62
2
  6
CONTINUOUS
  7
STANDARD
 71
2
 72
1
 10
6.4987653213
 20
26.1048289405
 30
0.0
 11
1.0
 21
0.0
 31
0.0
 73
2
 44
0.9
  1
2X R13/32"\P[1]
 40
0.15625
 41
1.25
  0
LINE
  5
257
100
AcDbEntity
  8
0
100
AcDbLine
 62
2
  6
CONTINUOUS
 10
5.8404341603
 20
26.7761013316
 11
6.3615027086
 21
26.1829539405
  0
INSERT
  5
258
100
AcDbEntity
  8
0
100
AcDbBlockReference
 62
2
  6
CONTINUOUS
  2
_FILLED
 10
5.8404341603
 20
26.7761013316
 41
0.1875
 42
0.1875
 43
0.1875
 50
131.2986823969
  0
ENDBLK
  5
259
100
AcDbEntity
  8
0
  6
BYBLOCK
 62
0
100
AcDbBlockEnd
  0
BLOCK
  5
25A
100
AcDbEntity
  8
0
100
AcDbBlockBegin
 62
2
  6
CONTINUOUS
  2
*D3
 70
65
 10
0.0
 20
0.0
  3
*D3
  1

  0
MTEXT
  5
25B
100
AcDbEntity
  8
0
100
AcDbMText
 62
2
  6
CONTINUOUS
  7
STANDARD
 71
2
 72
1
 10
3.3813164
 20
9.3605819542
 30
0.0
 11
1.0
 21
0.0
 31
0.0
 73
2
 44
0.9
  1
(1-1/2")\P[3,8]
 40
0.15625
 41
1.0
  0
LINE
  5
25C
100
AcDbEntity
  8
0
100
AcDbLine
 62
2
  6
CONTINUOUS
 10
4.0337882379
 20
9.9040972831
 11
3.2563164
 21
9.9040972831
  0
LINE
  5
25D
100
AcDbEntity
  8
0
100
AcDbLine
 62
2
  6
CONTINUOUS
 10
3.5063164
 20
8.4040972831
 11
3.2749623714
 21
8.4040972831
  0
LINE
  5
25E
100
AcDbEntity
  8
0
100
AcDbLine
 62
2
  6
CONTINUOUS
 10
3.3813164
 20
9.9040972831
 11
3.3813164
 21
9.4387069542
  0
LINE
  5
25F
100
AcDbEntity
  8
0
100
AcDbLine
 62
2
  6
CONTINUOUS
 10
3.3813164
 20
8.4040972831
 11
3.3813164
 21
8.8918319542
  0
INSERT
  5
260
100
AcDbEntity
  8
0
100
AcDbBlockReference
 62
2
  6
CONTINUOUS
  2
_FILLED
 10
3.3813164
 20
9.9040972831
 41
0.1875
 42
0.1875
 43
0.1875
 50
90.0
  0
INSERT
  5
261
100
AcDbEntity
  8
0
100
AcDbBlockReference
 62
2
  6
CONTINUOUS
  2
_FILLED
 10
3.3813164
 20
8.4040972831
 41
0.1875
 42
0.1875
 43
0.1875
 50
270.0
  0
ENDBLK
  5
262
100
AcDbEntity
  8
0
  6
BYBLOCK
 62
0
100
AcDbBlockEnd
  0
ENDSEC
  0
SECTION
  2
ENTITIES
  0
SOLID
  5
263
100
AcDbEntity
  8
0
100
AcDbTrace
 62
2
  6
CONTINUOUS
 10
8.2639519534
 20
24.7527970685
 11
8.4017161202
 21
24.9166182581
 12
8.5937779322
 22
24.9166182581
 13
8.5937779322
 23
24.9166182581
  0
SOLID
  5
264
100
AcDbEntity
  8
0
100
AcDbTrace
 62
2
  6
CONTINUOUS
 10
8.5937779322
 20
24.9166182581
 11
8.3804744804
 21
24.6629699852
 12
8.2639519534
 22
24.7527970685
 13
8.2639519534
 23
24.7527970685
  0
SOLID
  5
265
100
AcDbEntity
  8
0
100
AcDbTrace
 62
2
  6
CONTINUOUS
 10
8.2639519534
 20
24.5322044428
 11
8.3804744804
 21
24.6629699852
 12
8.4176898935
 22
24.3307046088
 13
8.4176898935
 23
24.3307046088
  0
SOLID
  5
266
100
AcDbEntity
  8
0
100
AcDbTrace
 62
2
  6
CONTINUOUS
 10
8.3804744804
 20
24.6629699852
 11
8.6339823151
 21
24.3307046088
 12
8.4176898935
 22
24.3307046088
 13
8.4176898935
 23
24.3307046088
  0
SOLID
  5
267
100
AcDbEntity
  8
0
100
AcDbTrace
 62
2
  6
CONTINUOUS
 10
8.2639519534
 20
24.3307046088
 11
8.0894517265
 21
24.3306806053
 12
8.2639519534
 22
24.5322044428
 13
8.2639519534
 23
24.5322044428
  0
SOLID
  5
268
100
AcDbEntity
  8
0
100
AcDbTrace
 62
2
  6
CONTINUOUS
 10
8.3804744804
 20
24.6629699852
 11
8.2639519534
 21
24.5322044428
 12
8.2639519534
 22
24.7527970685
 13
8.2639519534
 23
24.7527970685
  0
SOLID
  5
269
100
AcDbEntity
  8
0
100
AcDbTrace
 62
2
  6
CONTINUOUS
 10
8.2639519534
 20
24.5322044428
 11
8.0894517265
 21
24.3306806053
 12
8.2639519534
 22
24.7527970685
 13
8.2639519534
 23
24.7527970685
  0
SOLID
  5
26A
100
AcDbEntity
  8
0
100
AcDbTrace
 62
2
  6
CONTINUOUS
 10
8.2639519534
 20
24.7527970685
 11
8.0894517265
 21
24.3306806053
 12
8.2639519534
 22
24.9166182581
 13
8.2639519534
 23
24.9166182581
  0
SOLID
  5
26B
100
AcDbEntity
  8
0
100
AcDbTrace
 62
2
  6
CONTINUOUS
 10
8.0894517265
 20
24.3306806053
 11
8.0894517265
 21
24.9166182581
 12
8.2639519534
 22
24.9166182581
 13
8.2639519534
 23
24.9166182581
  0
SOLID
  5
26C
100
AcDbEntity
  8
0
100
AcDbTrace
 62
2
  6
CONTINUOUS
 10
8.7183865998
 20
24.9060088447
 11
8.7793357543
 21
24.9189639874
 12
8.8416465491
 22
24.9189639874
 13
8.8416465491
 23
24.9189639874
  0
SOLID
  5
26D
100
AcDbEntity
  8
0
100
AcDbTrace
 62
2
  6
CONTINUOUS
 10
8.8416465491
 20
24.9189639874
 11
8.9025957036
 21
24.9060088447
 12
8.7183865998
 22
24.9060088447
 13
8.7183865998
 23
24.9060088447
  0
SOLID
  5
26E
100
AcDbEntity
  8
0
100
AcDbTrace
 62
2
  6
CONTINUOUS
 10
8.6614628562
 20
24.8806647612
 11
8.7183865998
 21
24.9060088447
 12
8.9025957036
 22
24.9060088447
 13
8.9025957036
 23
24.9060088447
  0
SOLID
  5
26F
100
AcDbEntity
  8
0
100
AcDbTrace
 62
2
  6
CONTINUOUS
 10
8.9025957036
 20
24.9060088447
 11
8.9595194472
 21
24.8806647612
 12
8.6614628562
 22
24.8806647612
 13
8.6614628562
 23
24.8806647612
  0
SOLID
  5
270
100
AcDbEntity
  8
0
100
AcDbTrace
 62
2
  6
CONTINUOUS
 10
8.6110523643
 20
24.8440393949
 11
8.6614628562
 21
24.8806647612
 12
8.9595194472
 22
24.8806647612
 13
8.9595194472
 23
24.8806647612
  0
SOLID
  5
271
100
AcDbEntity
  8
0
100
AcDbTrace
 62
2
  6
CONTINUOUS
 10
8.9595194472
 20
24.8806647612
 11
9.0099299392
 21
24.8440393949
 12
8.6110523643
 22
24.8440393949
 13
8.6110523643
 23
24.8440393949
  0
SOLID
  5
272
100
AcDbEntity
  8
0
100
AcDbTrace
 62
2
  6
CONTINUOUS
 10
8.5693583043
 20
24.7977334501
 11
8.6110523643
 21
24.8440393949
 12
9.0099299392
 22
24.8440393949
 13
9.0099299392
 23
24.8440393949
  0
SOLID
  5
273
100
AcDbEntity
  8
0
100
AcDbTrace
 62
2
  6
CONTINUOUS
 10
9.0099299392
 20
24.8440393949
 11
9.0516239991
 21
24.7977334501
 12
8.5693583043
 22
24.7977334501
 13
8.5693583043
 23
24.7977334501
  0
SOLID
  5
274
100
AcDbEntity
  8
0
100
AcDbTrace
 62
2
  6
CONTINUOUS
 10
8.8104911517
 20
24.7473095967
 11
8.5382029069
 21
24.7437707189
 12
9.0516239991
 22
24.7977334501
 13
9.0516239991
 23
24.7977334501
  0
SOLID
  5
275
100
AcDbEntity
  8
0
100
AcDbTrace
 62
2
  6
CONTINUOUS
 10
8.5382029069
 20
24.7437707189
 11
8.5693583043
 21
24.7977334501
 12
9.0516239991
 22
24.7977334501
 13
9.0516239991
 23
24.7977334501
  0
SOLID
  5
276
100
AcDbEntity
  8
0
100
AcDbTrace
 62
2
  6
CONTINUOUS
 10
9.0516239991
 20
24.7977334501
 11
9.0827793965
 21
24.7437707189
 12
8.8104911517
 22
24.7473095967
 13
8.8104911517
 23
24.7473095967
  0
SOLID
  5
277
100
AcDbEntity
  8
0
100
AcDbTrace
 62
2
  6
CONTINUOUS
 10
8.8104911517
 20
24.7473095967
 11
8.7719352821
 21
24.7412029468
 12
8.5382029069
 22
24.7437707189
 13
8.5382029069
 23
24.7437707189
  0
SOLID
  5
278
100
AcDbEntity
  8
0
100
AcDbTrace
 62
2
  6
CONTINUOUS
 10
8.8490470213
 20
24.7412029468
 11
8.8104911517
 21
24.7473095967
 12
9.0827793965
 22
24.7437707189
 13
9.0827793965
 23
24.7437707189
  0
SOLID
  5
279
100
AcDbEntity
  8
0
100
AcDbTrace
 62
2
  6
CONTINUOUS
 10
8.7095505745
 20
24.6958778037
 11
8.5189478123
 21
24.6845096314
 12
8.7371535296
 22
24.7234807588
 13
8.7371535296
 23
24.7234807588
  0
SOLID
  5
27A
100
AcDbEntity
  8
0
100
AcDbTrace
 62
2
  6
CONTINUOUS
 10
8.7371535296
 20
24.7234807588
 11
8.5189478123
 21
24.6845096314
 12
8.7719352821
 22
24.7412029468
 13
8.7719352821
 23
24.7412029468
  0
SOLID
  5
27B
100
AcDbEntity
  8
0
100
AcDbTrace
 62
2
  6
CONTINUOUS
 10
8.5189478123
 20
24.6845096314
 11
8.5382029069
 21
24.7437707189
 12
8.7719352821
 22
24.7412029468
 13
8.7719352821
 23
24.7412029468
  0
SOLID
  5
27C
100
AcDbEntity
  8
0
100
AcDbTrace
 62
2
  6
CONTINUOUS
 10
8.8490470213
 20
24.7412029468
 11
9.0827793965
 21
24.7437707189
 12
8.8838287738
 22
24.7234807588
 13
8.8838287738
 23
24.7234807588
  0
SOLID
  5
27D
100
AcDbEntity
  8
0
100
AcDbTrace
 62
2
  6
CONTINUOUS
 10
8.8838287738
 20
24.7234807588
 11
9.0827793965
 21
24.7437707189
 12
8.9114317289
 22
24.6958778037
 13
8.9114317289
 23
24.6958778037
  0
SOLID
  5
27E
100
AcDbEntity
  8
0
100
AcDbTrace
 62
2
  6
CONTINUOUS
 10
9.0827793965
 20
24.7437707189
 11
9.1020344911
 21
24.6845096314
 12
8.9114317289
 22
24.6958778037
 13
8.9114317289
 23
24.6958778037
  0
SOLID
  5
27F
100
AcDbEntity
  8
0
100
AcDbTrace
 62
2
  6
CONTINUOUS
 10
8.7095505745
 20
24.6958778037
 11
8.6918283865
 21
24.6610960512
 12
8.5189478123
 22
24.6845096314
 13
8.5189478123
 23
24.6845096314
  0
SOLID
  5
280
100
AcDbEntity
  8
0
100
AcDbTrace
 62
2
  6
CONTINUOUS
 10
8.929153917
 20
24.6610960512
 11
8.9114317289
 21
24.6958778037
 12
9.1020344911
 22
24.6845096314
 13
9.1020344911
 23
24.6845096314
  0
SOLID
  5
281
100
AcDbEntity
  8
0
100
AcDbTrace
 62
2
  6
CONTINUOUS
 10
8.5124345607
 20
24.6225401816
 11
8.5189478123
 21
24.6845096314
 12
8.6918283865
 22
24.6610960512
 13
8.6918283865
 23
24.6610960512
  0
SOLID
  5
282
100
AcDbEntity
  8
0
100
AcDbTrace
 62
2
  6
CONTINUOUS
 10
8.6918283865
 20
24.6610960512
 11
8.6857217366
 21
24.6225401816
 12
8.5124345607
 22
24.6225401816
 13
8.5124345607
 23
24.6225401816
  0
SOLID
  5
283
100
AcDbEntity
  8
0
100
AcDbTrace
 62
2
  6
CONTINUOUS
 10
8.929153917
 20
24.6610960512
 11
9.1020344911
 21
24.6845096314
 12
8.9352605668
 22
24.6225401816
 13
8.9352605668
 23
24.6225401816
  0
SOLID
  5
284
100
AcDbEntity
  8
0
100
AcDbTrace
 62
2
  6
CONTINUOUS
 10
9.1020344911
 20
24.6845096314
 11
9.1085477427
 21
24.6225401816
 12
8.9352605668
 22
24.6225401816
 13
8.9352605668
 23
24.6225401816
  0
SOLID
  5
285
100
AcDbEntity
  8
0
100
AcDbTrace
 62
2
  6
CONTINUOUS
 10
8.929153917
 20
24.583984312
 11
8.9352605668
 21
24.6225401816
 12
9.1085477427
 22
24.6225401816
 13
9.1085477427
 23
24.6225401816
  0
SOLID
  5
286
100
AcDbEntity
  8
0
100
AcDbTrace
 62
2
  6
CONTINUOUS
 10
8.6918283865
 20
24.583984312
 11
8.5189478123
 21
24.5605707318
 12
8.6857217366
 22
24.6225401816
 13
8.6857217366
 23
24.6225401816
  0
SOLID
  5
287
100
AcDbEntity
  8
0
100
AcDbTrace
 62
2
  6
CONTINUOUS
 10
8.5189478123
 20
24.5605707318
 11
8.5124345607
 21
24.6225401816
 12
8.6857217366
 22
24.6225401816
 13
8.6857217366
 23
24.6225401816
  0
SOLID
  5
288
100
AcDbEntity
  8
0
100
AcDbTrace
 62
2
  6
CONTINUOUS
 10
9.1085477427
 20
24.6225401816
 11
9.1020344911
 21
24.5605707318
 12
8.929153917
 22
24.583984312
 13
8.929153917
 23
24.583984312
  0
SOLID
  5
289
100
AcDbEntity
  8
0
100
AcDbTrace
 62
2
  6
CONTINUOUS
 10
8.6918283865
 20
24.583984312
 11
8.7095505745
 21
24.5492025595
 12
8.5189478123
 22
24.5605707318
 13
8.5189478123
 23
24.5605707318
  0
SOLID
  5
28A
100
AcDbEntity
  8
0
100
AcDbTrace
 62
2
  6
CONTINUOUS
 10
8.9114317289
 20
24.5492025595
 11
8.929153917
 21
24.583984312
 12
9.1020344911
 22
24.5605707318
 13
9.1020344911
 23
24.5605707318
  0
SOLID
  5
28B
100
AcDbEntity
  8
0
100
AcDbTrace
 62
2
  6
CONTINUOUS
 10
8.7719352821
 20
24.5038774164
 11
8.5382029069
 21
24.5013096443
 12
8.7371535296
 22
24.5215996044
 13
8.7371535296
 23
24.5215996044
  0
SOLID
  5
28C
100
AcDbEntity
  8
0
100
AcDbTrace
 62
2
  6
CONTINUOUS
 10
8.7371535296
 20
24.5215996044
 11
8.5382029069
 21
24.5013096443
 12
8.7095505745
 22
24.5492025595
 13
8.7095505745
 23
24.5492025595
  0
SOLID
  5
28D
100
AcDbEntity
  8
0
100
AcDbTrace
 62
2
  6
CONTINUOUS
 10
8.5382029069
 20
24.5013096443
 11
8.5189478123
 21
24.5605707318
 12
8.7095505745
 22
24.5492025595
 13
8.7095505745
 23
24.5492025595
  0
SOLID
  5
28E
100
AcDbEntity
  8
0
100
AcDbTrace
 62
2
  6
CONTINUOUS
 10
8.9114317289
 20
24.5492025595
 11
9.1020344911
 21
24.5605707318
 12
8.8838287738
 22
24.5215996044
 13
8.8838287738
 23
24.5215996044
  0
SOLID
  5
28F
100
AcDbEntity
  8
0
100
AcDbTrace
 62
2
  6
CONTINUOUS
 10
8.8838287738
 20
24.5215996044
 11
9.1020344911
 21
24.5605707318
 12
8.8490470213
 22
24.5038774164
 13
8.8490470213
 23
24.5038774164
  0
SOLID
  5
290
100
AcDbEntity
  8
0
100
AcDbTrace
 62
2
  6
CONTINUOUS
 10
9.1020344911
 20
24.5605707318
 11
9.0827793965
 21
24.5013096443
 12
8.8490470213
 22
24.5038774164
 13
8.8490470213
 23
24.5038774164
  0
SOLID
  5
291
100
AcDbEntity
  8
0
100
AcDbTrace
 62
2
  6
CONTINUOUS
 10
8.7719352821
 20
24.5038774164
 11
8.8104911517
 21
24.4977707665
 12
8.5382029069
 22
24.5013096443
 13
8.5382029069
 23
24.5013096443
  0
SOLID
  5
292
100
AcDbEntity
  8
0
100
AcDbTrace
 62
2
  6
CONTINUOUS
 10
8.8104911517
 20
24.4977707665
 11
8.8490470213
 21
24.5038774164
 12
9.0827793965
 22
24.5013096443
 13
9.0827793965
 23
24.5013096443
  0
SOLID
  5
293
100
AcDbEntity
  8
0
100
AcDbTrace
 62
2
  6
CONTINUOUS
 10
8.5693583043
 20
24.4473469131
 11
8.5382029069
 21
24.5013096443
 12
8.8104911517
 22
24.4977707665
 13
8.8104911517
 23
24.4977707665
  0
SOLID
  5
294
100
AcDbEntity
  8
0
100
AcDbTrace
 62
2
  6
CONTINUOUS
 10
8.8104911517
 20
24.4977707665
 11
9.0827793965
 21
24.5013096443
 12
8.5693583043
 22
24.4473469131
 13
8.5693583043
 23
24.4473469131
  0
SOLID
  5
295
100
AcDbEntity
  8
0
100
AcDbTrace
 62
2
  6
CONTINUOUS
 10
9.0827793965
 20
24.5013096443
 11
9.0516239991
 21
24.4473469131
 12
8.5693583043
 22
24.4473469131
 13
8.5693583043
 23
24.4473469131
  0
SOLID
  5
296
100
AcDbEntity
  8
0
100
AcDbTrace
 62
2
  6
CONTINUOUS
 10
8.6110523643
 20
24.4010409683
 11
8.5693583043
 21
24.4473469131
 12
9.0516239991
 22
24.4473469131
 13
9.0516239991
 23
24.4473469131
  0
SOLID
  5
297
100
AcDbEntity
  8
0
100
AcDbTrace
 62
2
  6
CONTINUOUS
 10
9.0516239991
 20
24.4473469131
 11
9.0099299392
 21
24.4010409683
 12
8.6110523643
 22
24.4010409683
 13
8.6110523643
 23
24.4010409683
  0
SOLID
  5
298
100
AcDbEntity
  8
0
100
AcDbTrace
 62
2
  6
CONTINUOUS
 10
8.6614628562
 20
24.364415602
 11
8.6110523643
 21
24.4010409683
 12
9.0099299392
 22
24.4010409683
 13
9.0099299392
 23
24.4010409683
  0
SOLID
  5
299
100
AcDbEntity
  8
0
100
AcDbTrace
 62
2
  6
CONTINUOUS
 10
9.0099299392
 20
24.4010409683
 11
8.9595194472
 21
24.364415602
 12
8.6614628562
 22
24.364415602
 13
8.6614628562
 23
24.364415602
  0
SOLID
  5
29A
100
AcDbEntity
  8
0
100
AcDbTrace
 62
2
  6
CONTINUOUS
 10
8.7183865998
 20
24.3390715185
 11
8.6614628562
 21
24.364415602
 12
8.9595194472
 22
24.364415602
 13
8.9595194472
 23
24.364415602
  0
SOLID
  5
29B
100
AcDbEntity
  8
0
100
AcDbTrace
 62
2
  6
CONTINUOUS
 10
8.9595194472
 20
24.364415602
 11
8.9025957036
 21
24.3390715185
 12
8.7183865998
 22
24.3390715185
 13
8.7183865998
 23
24.3390715185
  0
SOLID
  5
29C
100
AcDbEntity
  8
0
100
AcDbTrace
 62
2
  6
CONTINUOUS
 10
8.7793357543
 20
24.3261163758
 11
8.7183865998
 21
24.3390715185
 12
8.9025957036
 22
24.3390715185
 13
8.9025957036
 23
24.3390715185
  0
SOLID
  5
29D
100
AcDbEntity
  8
0
100
AcDbTrace
 62
2
  6
CONTINUOUS
 10
8.9025957036
 20
24.3390715185
 11
8.8416465491
 21
24.3261163758
 12
8.7793357543
 22
24.3261163758
 13
8.7793357543
 23
24.3261163758
  0
SOLID
  5
29E
100
AcDbEntity
  8
0
100
AcDbTrace
 62
2
  6
CONTINUOUS
 10
9.438393481
 20
24.6962344985
 11
9.438393481
 21
24.9166182581
 12
9.6031271609
 22
24.9166182581
 13
9.6031271609
 23
24.9166182581
  0
SOLID
  5
29F
100
AcDbEntity
  8
0
100
AcDbTrace
 62
2
  6
CONTINUOUS
 10
9.438393481
 20
24.6962344985
 11
9.29039667
 21
24.5590292186
 12
9.29039667
 22
24.6962344985
 13
9.29039667
 23
24.6962344985
  0
SOLID
  5
2A0
100
AcDbEntity
  8
0
100
AcDbTrace
 62
2
  6
CONTINUOUS
 10
9.29039667
 20
24.5590292186
 11
9.1256629901
 21
24.3307046088
 12
9.29039667
 22
24.6962344985
 13
9.29039667
 23
24.6962344985
  0
SOLID
  5
2A1
100
AcDbEntity
  8
0
100
AcDbTrace
 62
2
  6
CONTINUOUS
 10
9.29039667
 20
24.6962344985
 11
9.1256629901
 21
24.3307046088
 12
9.29039667
 22
24.9166182581
 13
9.29039667
 23
24.9166182581
  0
SOLID
  5
2A2
100
AcDbEntity
  8
0
100
AcDbTrace
 62
2
  6
CONTINUOUS
 10
9.1256629901
 20
24.3307046088
 11
9.1256629901
 21
24.9166182581
 12
9.29039667
 22
24.9166182581
 13
9.29039667
 23
24.9166182581
  0
SOLID
  5
2A3
100
AcDbEntity
  8
0
100
AcDbTrace
 62
2
  6
CONTINUOUS
 10
9.29039667
 20
24.5590292186
 11
9.29039667
 21
24.3307046088
 12
9.1256629901
 22
24.3307046088
 13
9.1256629901
 23
24.3307046088
  0
SOLID
  5
2A4
100
AcDbEntity
  8
0
100
AcDbTrace
 62
2
  6
CONTINUOUS
 10
9.29039667
 20
24.5590292186
 11
9.438393481
 21
24.6962344985
 12
9.438393481
 22
24.5590292186
 13
9.438393481
 23
24.5590292186
  0
SOLID
  5
2A5
100
AcDbEntity
  8
0
100
AcDbTrace
 62
2
  6
CONTINUOUS
 10
9.438393481
 20
24.6962344985
 11
9.6031271609
 21
24.9166182581
 12
9.438393481
 22
24.5590292186
 13
9.438393481
 23
24.5590292186
  0
SOLID
  5
2A6
100
AcDbEntity
  8
0
100
AcDbTrace
 62
2
  6
CONTINUOUS
 10
9.438393481
 20
24.5590292186
 11
9.6031271609
 21
24.9166182581
 12
9.438393481
 22
24.3307046088
 13
9.438393481
 23
24.3307046088
  0
SOLID
  5
2A7
100
AcDbEntity
  8
0
100
AcDbTrace
 62
2
  6
CONTINUOUS
 10
9.6031271609
 20
24.9166182581
 11
9.6031271609
 21
24.3307046088
 12
9.438393481
 22
24.3307046088
 13
9.438393481
 23
24.3307046088
  0
SOLID
  5
2A8
100
AcDbEntity
  8
0
100
AcDbTrace
 62
2
  6
CONTINUOUS
 10
9.9609021378
 20
24.4719313659
 11
9.6481720051
 21
24.3307046088
 12
9.7982180679
 22
24.4719313659
 13
9.7982180679
 23
24.4719313659
  0
SOLID
  5
2A9
100
AcDbEntity
  8
0
100
AcDbTrace
 62
2
  6
CONTINUOUS
 10
9.7982180679
 20
24.4719313659
 11
9.6481720051
 21
24.3307046088
 12
9.7982180679
 22
24.9166182581
 13
9.7982180679
 23
24.9166182581
  0
SOLID
  5
2AA
100
AcDbEntity
  8
0
100
AcDbTrace
 62
2
  6
CONTINUOUS
 10
9.6481720051
 20
24.3307046088
 11
9.6481720051
 21
24.9166182581
 12
9.7982180679
 22
24.9166182581
 13
9.7982180679
 23
24.9166182581
  0
SOLID
  5
2AB
100
AcDbEntity
  8
0
100
AcDbTrace
 62
2
  6
CONTINUOUS
 10
9.6481720051
 20
24.3307046088
 11
9.9609021378
 21
24.4719313659
 12
9.7982180679
 22
24.3307046088
 13
9.7982180679
 23
24.3307046088
  0
SOLID
  5
2AC
100
AcDbEntity
  8
0
100
AcDbTrace
 62
2
  6
CONTINUOUS
 10
9.9609021378
 20
24.4719313659
 11
9.9609021378
 21
24.3307046088
 12
9.7982180679
 22
24.3307046088
 13
9.7982180679
 23
24.3307046088
  0
SOLID
  5
2AD
100
AcDbEntity
  8
0
100
AcDbTrace
 62
2
  6
CONTINUOUS
 10
10.2991540518
 20
24.9166182581
 11
10.2991540518
 21
24.7738588614
 12
10.1482965284
 22
24.7738588614
 13
10.1482965284
 23
24.7738588614
  0
SOLID
  5
2AE
100
AcDbEntity
  8
0
100
AcDbTrace
 62
2
  6
CONTINUOUS
 10
10.2991540518
 20
24.6962344985
 11
10.2991540518
 21
24.5518528969
 12
10.1482965284
 22
24.5518528969
 13
10.1482965284
 23
24.5518528969
  0
SOLID
  5
2AF
100
AcDbEntity
  8
0
100
AcDbTrace
 62
2
  6
CONTINUOUS
 10
10.2991540518
 20
24.4719313659
 11
9.9900498765
 21
24.3307046088
 12
10.1482965284
 22
24.4719313659
 13
10.1482965284
 23
24.4719313659
  0
SOLID
  5
2B0
100
AcDbEntity
  8
0
100
AcDbTrace
 62
2
  6
CONTINUOUS
 10
10.1482965284
 20
24.4719313659
 11
9.9900498765
 21
24.3307046088
 12
10.1482965284
 22
24.5518528969
 13
10.1482965284
 23
24.5518528969
  0
SOLID
  5
2B1
100
AcDbEntity
  8
0
100
AcDbTrace
 62
2
  6
CONTINUOUS
 10
10.2991540518
 20
24.6962344985
 11
10.1482965284
 21
24.5518528969
 12
10.1482965284
 22
24.6962344985
 13
10.1482965284
 23
24.6962344985
  0
SOLID
  5
2B2
100
AcDbEntity
  8
0
100
AcDbTrace
 62
2
  6
CONTINUOUS
 10
10.1482965284
 20
24.5518528969
 11
9.9900498765
 21
24.3307046088
 12
10.1482965284
 22
24.6962344985
 13
10.1482965284
 23
24.6962344985
  0
SOLID
  5
2B3
100
AcDbEntity
  8
0
100
AcDbTrace
 62
2
  6
CONTINUOUS
 10
10.1482965284
 20
24.6962344985
 11
9.9900498765
 21
24.3307046088
 12
10.1482965284
 22
24.7738588614
 13
10.1482965284
 23
24.7738588614
  0
SOLID
  5
2B4
100
AcDbEntity
  8
0
100
AcDbTrace
 62
2
  6
CONTINUOUS
 10
10.2991540518
 20
24.9166182581
 11
10.1482965284
 21
24.7738588614
 12
10.1625008518
 22
24.9166182581
 13
10.1625008518
 23
24.9166182581
  0
SOLID
  5
2B5
100
AcDbEntity
  8
0
100
AcDbTrace
 62
2
  6
CONTINUOUS
 10
10.1482965284
 20
24.7738588614
 11
9.9900498765
 21
24.3307046088
 12
10.1625008518
 22
24.9166182581
 13
10.1625008518
 23
24.9166182581
  0
SOLID
  5
2B6
100
AcDbEntity
  8
0
100
AcDbTrace
 62
2
  6
CONTINUOUS
 10
9.9900498765
 20
24.3307046088
 11
9.9900498765
 21
24.9166182581
 12
10.1625008518
 22
24.9166182581
 13
10.1625008518
 23
24.9166182581
  0
SOLID
  5
2B7
100
AcDbEntity
  8
0
100
AcDbTrace
 62
2
  6
CONTINUOUS
 10
10.2991540518
 20
24.4719313659
 11
10.2991540518
 21
24.3307046088
 12
9.9900498765
 22
24.3307046088
 13
9.9900498765
 23
24.3307046088
  0
SOLID
  5
2B8
100
AcDbEntity
  8
0
100
AcDbTrace
 62
2
  6
CONTINUOUS
 10
10.5775219672
 20
24.9166253637
 11
10.6244549907
 21
24.9102151153
 12
10.3439742665
 22
24.9166182581
 13
10.3439742665
 23
24.9166182581
  0
SOLID
  5
2B9
100
AcDbEntity
  8
0
100
AcDbTrace
 62
2
  6
CONTINUOUS
 10
10.4946300891
 20
24.7740394248
 11
10.7485698302
 21
24.7786687603
 12
10.5505599706
 22
24.7740394248
 13
10.5505599706
 23
24.7740394248
  0
SOLID
  5
2BA
100
AcDbEntity
  8
0
100
AcDbTrace
 62
2
  6
CONTINUOUS
 10
10.5505599706
 20
24.7740394248
 11
10.7485698302
 21
24.7786687603
 12
10.5742825521
 22
24.7685052565
 13
10.5742825521
 23
24.7685052565
  0
SOLID
  5
2BB
100
AcDbEntity
  8
0
100
AcDbTrace
 62
2
  6
CONTINUOUS
 10
10.5742825521
 20
24.7685052565
 11
10.7485698302
 21
24.7786687603
 12
10.5931075398
 22
24.7530453814
 13
10.5931075398
 23
24.7530453814
  0
SOLID
  5
2BC
100
AcDbEntity
  8
0
100
AcDbTrace
 62
2
  6
CONTINUOUS
 10
10.7485698302
 20
24.7786687603
 11
10.7522430766
 21
24.7314426315
 12
10.5931075398
 22
24.7530453814
 13
10.5931075398
 23
24.7530453814
  0
SOLID
  5
2BD
100
AcDbEntity
  8
0
100
AcDbTrace
 62
2
  6
CONTINUOUS
 10
10.6031484784
 20
24.7308515208
 11
10.5931075398
 21
24.7530453814
 12
10.7522430766
 22
24.7314426315
 13
10.7522430766
 23
24.7314426315
  0
SOLID
  5
2BE
100
AcDbEntity
  8
0
100
AcDbTrace
 62
2
  6
CONTINUOUS
 10
10.6031484784
 20
24.7308515208
 11
10.7522430766
 21
24.7314426315
 12
10.6023323967
 22
24.7065056401
 13
10.6023323967
 23
24.7065056401
  0
SOLID
  5
2BF
100
AcDbEntity
  8
0
100
AcDbTrace
 62
2
  6
CONTINUOUS
 10
10.6023323967
 20
24.7065056401
 11
10.7522430766
 21
24.7314426315
 12
10.5908277764
 22
24.6850339935
 13
10.5908277764
 23
24.6850339935
  0
SOLID
  5
2C0
100
AcDbEntity
  8
0
100
AcDbTrace
 62
2
  6
CONTINUOUS
 10
10.7522430766
 20
24.7314426315
 11
10.7431174729
 21
24.6849612014
 12
10.5908277764
 22
24.6850339935
 13
10.5908277764
 23
24.6850339935
  0
SOLID
  5
2C1
100
AcDbEntity
  8
0
100
AcDbTrace
 62
2
  6
CONTINUOUS
 10
10.5710097685
 20
24.670869444
 11
10.5908277764
 21
24.6850339935
 12
10.7431174729
 22
24.6849612014
 13
10.7431174729
 23
24.6849612014
  0
SOLID
  5
2C2
100
AcDbEntity
  8
0
100
AcDbTrace
 62
2
  6
CONTINUOUS
 10
10.5710097685
 20
24.670869444
 11
10.7431174729
 21
24.6849612014
 12
10.5469698393
 22
24.6669362903
 13
10.5469698393
 23
24.6669362903
  0
SOLID
  5
2C3
100
AcDbEntity
  8
0
100
AcDbTrace
 62
2
  6
CONTINUOUS
 10
10.7431174729
 20
24.6849612014
 11
10.7218614973
 21
24.6426293756
 12
10.5469698393
 22
24.6669362903
 13
10.5469698393
 23
24.6669362903
  0
SOLID
  5
2C4
100
AcDbEntity
  8
0
100
AcDbTrace
 62
2
  6
CONTINUOUS
 10
10.6499612149
 20
24.5822871501
 11
10.4946300891
 21
24.5276609796
 12
10.6900322141
 22
24.6075480883
 13
10.6900322141
 23
24.6075480883
  0
SOLID
  5
2C5
100
AcDbEntity
  8
0
100
AcDbTrace
 62
2
  6
CONTINUOUS
 10
10.6900322141
 20
24.6075480883
 11
10.4946300891
 21
24.5276609796
 12
10.7218614973
 22
24.6426293756
 13
10.7218614973
 23
24.6426293756
  0
SOLID
  5
2C6
100
AcDbEntity
  8
0
100
AcDbTrace
 62
2
  6
CONTINUOUS
 10
10.7218614973
 20
24.6426293756
 11
10.4946300891
 21
24.5276609796
 12
10.5469698393
 22
24.6669362903
 13
10.5469698393
 23
24.6669362903
  0
SOLID
  5
2C7
100
AcDbEntity
  8
0
100
AcDbTrace
 62
2
  6
CONTINUOUS
 10
10.4946300891
 20
24.5276609796
 11
10.3439742665
 21
24.3307046088
 12
10.5469698393
 22
24.6669362903
 13
10.5469698393
 23
24.6669362903
  0
SOLID
  5
2C8
100
AcDbEntity
  8
0
100
AcDbTrace
 62
2
  6
CONTINUOUS
 10
10.5469698393
 20
24.6669362903
 11
10.3439742665
 21
24.3307046088
 12
10.4946300891
 22
24.6669362903
 13
10.4946300891
 23
24.6669362903
  0
SOLID
  5
2C9
100
AcDbEntity
  8
0
100
AcDbTrace
 62
2
  6
CONTINUOUS
 10
10.4946300891
 20
24.6669362903
 11
10.3439742665
 21
24.3307046088
 12
10.4946300891
 22
24.7740394248
 13
10.4946300891
 23
24.7740394248
  0
SOLID
  5
2CA
100
AcDbEntity
  8
0
100
AcDbTrace
 62
2
  6
CONTINUOUS
 10
10.7485698302
 20
24.7786687603
 11
10.4946300891
 21
24.7740394248
 12
10.7323668101
 22
24.823180131
 13
10.7323668101
 23
24.823180131
  0
SOLID
  5
2CB
100
AcDbEntity
  8
0
100
AcDbTrace
 62
2
  6
CONTINUOUS
 10
10.7323668101
 20
24.823180131
 11
10.4946300891
 21
24.7740394248
 12
10.7048209366
 22
24.861716151
 13
10.7048209366
 23
24.861716151
  0
SOLID
  5
2CC
100
AcDbEntity
  8
0
100
AcDbTrace
 62
2
  6
CONTINUOUS
 10
10.7048209366
 20
24.861716151
 11
10.4946300891
 21
24.7740394248
 12
10.6679500282
 22
24.8914539401
 13
10.6679500282
 23
24.8914539401
  0
SOLID
  5
2CD
100
AcDbEntity
  8
0
100
AcDbTrace
 62
2
  6
CONTINUOUS
 10
10.6679500282
 20
24.8914539401
 11
10.4946300891
 21
24.7740394248
 12
10.6244549907
 22
24.9102151153
 13
10.6244549907
 23
24.9102151153
  0
SOLID
  5
2CE
100
AcDbEntity
  8
0
100
AcDbTrace
 62
2
  6
CONTINUOUS
 10
10.6244549907
 20
24.9102151153
 11
10.4946300891
 21
24.7740394248
 12
10.3439742665
 22
24.9166182581
 13
10.3439742665
 23
24.9166182581
  0
SOLID
  5
2CF
100
AcDbEntity
  8
0
100
AcDbTrace
 62
2
  6
CONTINUOUS
 10
10.3439742665
 20
24.3307046088
 11
10.3439742665
 21
24.9166182581
 12
10.4946300891
 22
24.7740394248
 13
10.4946300891
 23
24.7740394248
  0
SOLID
  5
2D0
100
AcDbEntity
  8
0
100
AcDbTrace
 62
2
  6
CONTINUOUS
 10
10.4946300891
 20
24.5276609796
 11
10.4946300891
 21
24.3307046088
 12
10.3439742665
 22
24.3307046088
 13
10.3439742665
 23
24.3307046088
  0
SOLID
  5
2D1
100
AcDbEntity
  8
0
100
AcDbTrace
 62
2
  6
CONTINUOUS
 10
10.4946300891
 20
24.5276609796
 11
10.6499612149
 21
24.5822871501
 12
10.6194535183
 22
24.3307046088
 13
10.6194535183
 23
24.3307046088
  0
SOLID
  5
2D2
100
AcDbEntity
  8
0
100
AcDbTrace
 62
2
  6
CONTINUOUS
 10
10.6499612149
 20
24.5822871501
 11
10.8094044578
 21
24.3307046088
 12
10.6194535183
 22
24.3307046088
 13
10.6194535183
 23
24.3307046088
  0
DIMENSION
  5
2D3
100
AcDbEntity
  8
0
100
AcDbDimension
 62
2
  6
CONTINUOUS
  2
*D0
 10
37.9464680105
 20
19.756386817
 11
18.3134743414
 21
19.639199317
 70
160
 71
2
 72
2
 41
0.9
 42
32.24
  1
<>"\P[]
  3
DIMSTYLE_1
100
AcDbAlignedDimension
 13
5.7064680105
 23
8.4040972831
 14
37.9464680105
 24
8.4040972831
100
AcDbRotatedDimension
  0
DIMENSION
  5
2D4
100
AcDbEntity
  8
0
100
AcDbDimension
 62
2
  6
CONTINUOUS
  2
*D1
 10
19.706993813
 20
26.8740972831
 11
19.706993813
 21
18.2719097831
 70
160
 71
2
 72
2
 41
0.9
 42
16.97
  1
<>"\P[]
  3
DIMSTYLE_2
100
AcDbAlignedDimension
 13
4.8264680105
 23
9.9040972831
 14
6.1004680105
 24
26.8740972831
 50
90.0
100
AcDbRotatedDimension
  0
DIMENSION
  5
2D5
100
AcDbEntity
  8
0
100
AcDbDimension
 62
2
  6
CONTINUOUS
  2
*D2
 10
6.1004680105
 20
26.4800972831
 11
6.4987653213
 21
25.9095164405
 70
164
 71
2
 72
2
 41
0.9
 42
0.394
  1
2X R<>"\P[]
  3
DIMSTYLE_3
100
AcDbRadialDimension
 15
5.8404341603
 25
26.7761013316
  0
DIMENSION
  5
2D6
100
AcDbEntity
  8
0
100
AcDbDimension
 62
2
  6
CONTINUOUS
  2
*D3
 10
3.3813164
 20
8.4040972831
 11
3.3813164
 21
9.1652694542
 70
160
 71
2
 72
2
 41
0.9
 42
1.5
  1
(<>")\P[]
  3
DIMSTYLE_4
100
AcDbAlignedDimension
 13
4.0962882379
 23
9.9040972831
 14
3.5688164
 24
8.4040972831
 50
270.0
100
AcDbRotatedDimension
  0
MTEXT
  5
2D7
100
AcDbEntity
  8
___NOTE
100
AcDbMText
 62
2
  6
CONTINUOUS
  7
STANDARD
 71
1
 72
1
 10
21.5719160973
 20
15.7801158573
 30
0.0
 11
0.0
 21
1.0
 31
0.0
 73
2
 44
0.9
  1
CENTERLINE OF SINK
 40
0.15625
 41
2.25
  0
MTEXT
  5
2D8
100
AcDbEntity
  8
___NOTE
100
AcDbMText
 62
2
  6
CONTINUOUS
  7
STANDARD
 71
1
 72
1
 10
8.0582514625
 20
23.9519063275
 30
0.0
 11
1.0
 21
0.0
 31
0.0
 73
2
 44
0.9
  1
FOR UNDER-MOUNT INSTALLATION CUT ALONG THIS LINE\PPARA INSTALACIÓN DE MONTAJE POR ABAJO CORTE A LO LARGO DE ESTA LÍNEA\PPOUR INSTALLATION À MONTAGE SOUS PLAN COUPER LE LONG DE CETTE LIGNE\P \P 
 40
0.2
 41
10.88
  0
MTEXT
  5
2D9
100
AcDbEntity
  8
___NOTE
100
AcDbMText
 62
2
  6
CONTINUOUS
  7
STANDARD
 71
1
 72
1
 10
8.0720308028
 20
22.7838531562
 30
0.0
 11
1.0
 21
0.0
 31
0.0
 73
2
 44
0.9
  1
33657\P33658\P 
 40
0.15625
 41
0.625
  0
MTEXT
  5
2DA
100
AcDbEntity
  8
___NOTE
100
AcDbMText
 62
2
  6
CONTINUOUS
  7
STANDARD
 71
1
 72
1
 10
22.655200262
 20
12.3194024001
 30
0.0
 11
1.0
 21
0.0
 31
0.0
 73
2
 44
0.9
  3
IMPORTANT!\PFor proper fit of the included accessories, \Pcut the countertop according to the template cut line.\PIMPORTANT! \PPour bien adapter les accessoires inclus, \Pdécouper le comptoir selon la ligne de découpe du gabarit.\PIMPORTANTE! \PPara 
  1
que los accesorios incluidos queden bien,\Pcorte la encimera según la línea de corte de la plantilla.
 40
0.15625
 41
7.25
  0
MTEXT
  5
2DB
100
AcDbEntity
  8
___NOTE
100
AcDbMText
 62
2
  6
CONTINUOUS
  7
STANDARD
 71
1
 72
1
 10
5.3038577647
 20
17.4028983489
 30
0.0
 11
0.0
 21
1.0
 31
0.0
 73
2
 44
0.9
  1
1564885-7-A\P \P1564885-7-A
 40
0.2
 41
1.76
  0
LEADER
  5
2DC
100
AcDbEntity
  8
___NOTE
100
AcDbLeader
 62
2
  6
CONTINUOUS
  3
STANDARD
 71
1
 72
0
 73
0
 75
0
 40
0.3
 41
3.0
 76
3
 10
6.6298603845
 20
9.9040972831
 30
0.0
 10
8.3689377887
 20
11.949214794
 30
0.0
 10
8.6189377887
 20
11.949214794
 30
0.0
340
2DD
1001
ACAD
1000
DSTYLE
1002
{
1070
77
1070
0
1002
}
  0
MTEXT
  5
2DD
102
{ACAD_REACTORS
330
2DC
102
}
100
AcDbEntity
  8
___NOTE
100
AcDbMText
 62
2
  6
CONTINUOUS
  7
TEXTSTYLE_2
 71
1
 72
1
 10
8.6189377887
 20
12.099214794
 30
0.0
 11
1.0
 21
0.0
 31
0.0
 73
2
 44
0.9
  1
\LIMPORTANT:\P\lALIGN THIS LINE \PWITH FRONT FACE \PON CABINET'S FRAME.
 40
0.3
 41
5.7
  0
LEADER
  5
2DE
100
AcDbEntity
  8
___NOTE
100
AcDbLeader
 62
2
  6
CONTINUOUS
  3
STANDARD
 71
1
 72
0
 73
0
 75
0
 40
0.15625
 41
3.0
 76
3
 10
3.6720812761
 20
8.4040972831
 30
0.0
 10
3.962420417
 20
6.6646640483
 30
0.0
 10
4.212420417
 20
6.6646640483
 30
0.0
340
2DF
1001
ACAD
1000
DSTYLE
1002
{
1070
77
1070
0
1002
}
  0
MTEXT
  5
2DF
102
{ACAD_REACTORS
330
2DE
102
}
100
AcDbEntity
  8
___NOTE
100
AcDbMText
 62
2
  6
CONTINUOUS
  7
STANDARD
 71
1
 72
1
 10
4.212420417
 20
6.7427890483
 30
0.0
 11
1.0
 21
0.0
 31
0.0
 73
2
 44
0.9
  1
FRONT FACE OF COUNTERTOP
 40
0.15625
 41
3.0
  0
LEADER
  5
2E0
100
AcDbEntity
  8
___NOTE
100
AcDbLeader
 62
2
  6
CONTINUOUS
  3
STANDARD
 71
1
 72
0
 73
0
 75
0
 40
0.15625
 41
2.0
 76
3
 10
38.8264680105
 20
16.8208388249
 30
0.0
 10
36.8757012576
 20
18.0419666786
 30
0.0
 10
36.6257012576
 20
18.0419666786
 30
0.0
340
2E1
1001
ACAD
1000
DSTYLE
1002
{
1070
77
1070
0
1002
}
  0
MTEXT
  5
2E1
102
{ACAD_REACTORS
330
2E0
102
}
100
AcDbEntity
  8
___NOTE
100
AcDbMText
 62
2
  6
CONTINUOUS
  7
STANDARD
 71
3
 72
1
 10
36.6257012576
 20
18.1200916786
 30
0.0
 11
1.0
 21
0.0
 31
0.0
 73
2
 44
0.9
  1
PROFILE OF SINK.\PREBORD DE L'UNITÉ.\PBORDE DE LA UNIDAD.
 40
0.15625
 41
2.375
  0
LEADER
  5
2E2
100
AcDbEntity
  8
___NOTE
100
AcDbLeader
 62
2
  6
CONTINUOUS
  3
STANDARD
 71
1
 72
0
 73
0
 75
0
 40
0.15625
 41
1.75
 76
3
 10
29.9598953793
 20
7.9040972831
 30
0.0
 10
29.1026096482
 20
8.4048361253
 30
0.0
 10
28.8526096482
 20
8.4048361253
 30
0.0
340
2E3
1001
ACAD
1000
DSTYLE
1002
{
1070
77
1070
0
1002
}
  0
MTEXT
  5
2E3
102
{ACAD_REACTORS
330
2E2
102
}
100
AcDbEntity
  8
___NOTE
100
AcDbMText
 62
2
  6
CONTINUOUS
  7
STANDARD
 71
3
 72
1
 10
28.8526096482
 20
8.4829611253
 30
0.0
 11
1.0
 21
0.0
 31
0.0
 73
2
 44
0.9
  1
FRONT OF APRON
 40
0.15625
 41
1.75
  0
INSERT
  5
2E4
100
AcDbEntity
  8
___SYMBOL
100
AcDbBlockReference
 62
2
  6
CONTINUOUS
  2
PLOTTING_TEMPLATE_NOTE_BL0
 10
33.7707925045
 20
11.7295894124
  0
INSERT
  5
2E5
100
AcDbEntity
  8
___SYMBOL
100
AcDbBlockReference
 62
2
  6
CONTINUOUS
  2
SCISSORS_BL1
 10
5.7291669549
 20
15.4859226344
  0
LINE
  5
2E6
100
AcDbEntity
  8
0
100
AcDbLine
 62
2
  6
CONTINUOUS
 10
8.4017161202
 20
24.9166182581
 11
8.2639519534
 21
24.7527970685
  0
LINE
  5
2E7
100
AcDbEntity
  8
0
100
AcDbLine
 62
2
  6
CONTINUOUS
 10
8.5937779322
 20
24.9166182581
 11
8.3804744804
 21
24.6629699852
  0
LINE
  5
2E8
100
AcDbEntity
  8
0
100
AcDbLine
 62
2
  6
CONTINUOUS
 10
8.0894517265
 20
24.9166182581
 11
8.0894517265
 21
24.3306806053
  0
LINE
  5
2E9
100
AcDbEntity
  8
0
100
AcDbLine
 62
2
  6
CONTINUOUS
 10
8.2639519534
 20
24.9166182581
 11
8.2639519534
 21
24.7527970685
  0
LINE
  5
2EA
100
AcDbEntity
  8
0
100
AcDbLine
 62
2
  6
CONTINUOUS
 10
8.2639519534
 20
24.5322044428
 11
8.2639519534
 21
24.3307046088
  0
LINE
  5
2EB
100
AcDbEntity
  8
0
100
AcDbLine
 62
2
  6
CONTINUOUS
 10
9.1256629901
 20
24.9166182581
 11
9.1256629901
 21
24.3307046088
  0
LINE
  5
2EC
100
AcDbEntity
  8
0
100
AcDbLine
 62
2
  6
CONTINUOUS
 10
9.29039667
 20
24.9166182581
 11
9.29039667
 21
24.6962344985
  0
LINE
  5
2ED
100
AcDbEntity
  8
0
100
AcDbLine
 62
2
  6
CONTINUOUS
 10
9.29039667
 20
24.5590292186
 11
9.29039667
 21
24.3307046088
  0
LINE
  5
2EE
100
AcDbEntity
  8
0
100
AcDbLine
 62
2
  6
CONTINUOUS
 10
9.438393481
 20
24.9166182581
 11
9.438393481
 21
24.6962344985
  0
LINE
  5
2EF
100
AcDbEntity
  8
0
100
AcDbLine
 62
2
  6
CONTINUOUS
 10
9.438393481
 20
24.5590292186
 11
9.438393481
 21
24.3307046088
  0
LINE
  5
2F0
100
AcDbEntity
  8
0
100
AcDbLine
 62
2
  6
CONTINUOUS
 10
9.6031271609
 20
24.9166182581
 11
9.6031271609
 21
24.3307046088
  0
LINE
  5
2F1
100
AcDbEntity
  8
0
100
AcDbLine
 62
2
  6
CONTINUOUS
 10
9.6481720051
 20
24.3307046088
 11
9.6481720051
 21
24.9166182581
  0
LINE
  5
2F2
100
AcDbEntity
  8
0
100
AcDbLine
 62
2
  6
CONTINUOUS
 10
9.7982180679
 20
24.9166182581
 11
9.7982180679
 21
24.4719313659
  0
LINE
  5
2F3
100
AcDbEntity
  8
0
100
AcDbLine
 62
2
  6
CONTINUOUS
 10
9.9609021378
 20
24.4719313659
 11
9.9609021378
 21
24.3307046088
  0
LINE
  5
2F4
100
AcDbEntity
  8
0
100
AcDbLine
 62
2
  6
CONTINUOUS
 10
9.9900498765
 20
24.3307046088
 11
9.9900498765
 21
24.9166182581
  0
LINE
  5
2F5
100
AcDbEntity
  8
0
100
AcDbLine
 62
2
  6
CONTINUOUS
 10
10.1482965284
 20
24.7738588614
 11
10.1482965284
 21
24.6962344985
  0
LINE
  5
2F6
100
AcDbEntity
  8
0
100
AcDbLine
 62
2
  6
CONTINUOUS
 10
10.1482965284
 20
24.5518528969
 11
10.1482965284
 21
24.4719313659
  0
LINE
  5
2F7
100
AcDbEntity
  8
0
100
AcDbLine
 62
2
  6
CONTINUOUS
 10
10.2991540518
 20
24.3307046088
 11
10.2991540518
 21
24.4719313659
  0
LINE
  5
2F8
100
AcDbEntity
  8
0
100
AcDbLine
 62
2
  6
CONTINUOUS
 10
10.2991540518
 20
24.5518528969
 11
10.2991540518
 21
24.6962344985
  0
LINE
  5
2F9
100
AcDbEntity
  8
0
100
AcDbLine
 62
2
  6
CONTINUOUS
 10
10.2991540518
 20
24.7738588614
 11
10.2991540518
 21
24.9166182581
  0
LINE
  5
2FA
100
AcDbEntity
  8
0
100
AcDbLine
 62
2
  6
CONTINUOUS
 10
10.3439742665
 20
24.3307046088
 11
10.3439742665
 21
24.9166182581
  0
LINE
  5
2FB
100
AcDbEntity
  8
0
100
AcDbLine
 62
2
  6
CONTINUOUS
 10
10.4946300891
 20
24.7740394248
 11
10.4946300891
 21
24.6669362903
  0
LINE
  5
2FC
100
AcDbEntity
  8
0
100
AcDbLine
 62
2
  6
CONTINUOUS
 10
10.4946300891
 20
24.5276609796
 11
10.4946300891
 21
24.3307046088
  0
LINE
  5
2FD
100
AcDbEntity
  8
0
100
AcDbLine
 62
2
  6
CONTINUOUS
 10
10.934288433
 20
24.297863918
 11
10.934288433
 21
24.3638301169
  0
LINE
  5
2FE
100
AcDbEntity
  8
0
100
AcDbLine
 62
2
  6
CONTINUOUS
 10
8.4176898935
 20
24.3307046088
 11
8.2639519534
 21
24.5322044428
  0
LINE
  5
2FF
100
AcDbEntity
  8
0
100
AcDbLine
 62
2
  6
CONTINUOUS
 10
8.6339823151
 20
24.3307046088
 11
8.3804744804
 21
24.6629699852
  0
LINE
  5
300
100
AcDbEntity
  8
0
100
AcDbLine
 62
2
  6
CONTINUOUS
 10
10.6194535183
 20
24.3307046088
 11
10.4946300891
 21
24.5276609796
  0
LINE
  5
301
100
AcDbEntity
  8
0
100
AcDbLine
 62
2
  6
CONTINUOUS
 10
10.8094044578
 20
24.3307046088
 11
10.6499612149
 21
24.5822871501
  0
LINE
  5
302
100
AcDbEntity
  8
0
100
AcDbLine
 62
2
  6
CONTINUOUS
 10
10.9458864092
 20
24.3301668594
 11
10.977754422
 21
24.297863918
  0
LINE
  5
303
100
AcDbEntity
  8
0
100
AcDbLine
 62
2
  6
CONTINUOUS
 10
9.29039667
 20
24.6962344985
 11
9.4447100684
 21
24.6152880674
  0
LINE
  5
304
100
AcDbEntity
  8
0
100
AcDbLine
 62
2
  6
CONTINUOUS
 10
8.2639519534
 20
24.3307046088
 11
8.0894517265
 21
24.3306806053
  0
LINE
  5
305
100
AcDbEntity
  8
0
100
AcDbLine
 62
2
  6
CONTINUOUS
 10
10.958567766
 20
24.3301668594
 11
10.934288433
 21
24.3301668594
  0
LINE
  5
306
100
AcDbEntity
  8
0
100
AcDbLine
 62
2
  6
CONTINUOUS
 10
9.6031271609
 20
24.3307046088
 11
9.438393481
 21
24.3307046088
  0
LINE
  5
307
100
AcDbEntity
  8
0
100
AcDbLine
 62
2
  6
CONTINUOUS
 10
9.29039667
 20
24.3307046088
 11
9.1256629901
 21
24.3307046088
  0
LINE
  5
308
100
AcDbEntity
  8
0
100
AcDbLine
 62
2
  6
CONTINUOUS
 10
8.4176898935
 20
24.3307046088
 11
8.6339823151
 21
24.3307046088
  0
LINE
  5
309
100
AcDbEntity
  8
0
100
AcDbLine
 62
2
  6
CONTINUOUS
 10
9.6481720051
 20
24.3307046088
 11
9.9609021378
 21
24.3307046088
  0
LINE
  5
30A
100
AcDbEntity
  8
0
100
AcDbLine
 62
2
  6
CONTINUOUS
 10
9.9900498765
 20
24.3307046088
 11
10.2991540518
 21
24.3307046088
  0
LINE
  5
30B
100
AcDbEntity
  8
0
100
AcDbLine
 62
2
  6
CONTINUOUS
 10
10.3439742665
 20
24.3307046088
 11
10.4946300891
 21
24.3307046088
  0
LINE
  5
30C
100
AcDbEntity
  8
0
100
AcDbLine
 62
2
  6
CONTINUOUS
 10
10.6194535183
 20
24.3307046088
 11
10.8094044578
 21
24.3307046088
  0
LINE
  5
30D
100
AcDbEntity
  8
0
100
AcDbLine
 62
2
  6
CONTINUOUS
 10
10.934288433
 20
24.3638301169
 11
10.958567766
 21
24.3638301169
  0
LINE
  5
30E
100
AcDbEntity
  8
0
100
AcDbLine
 62
2
  6
CONTINUOUS
 10
9.7982180679
 20
24.4719313659
 11
9.9609021378
 21
24.4719313659
  0
LINE
  5
30F
100
AcDbEntity
  8
0
100
AcDbLine
 62
2
  6
CONTINUOUS
 10
10.1482965284
 20
24.4719313659
 11
10.2991540518
 21
24.4719313659
  0
LINE
  5
310
100
AcDbEntity
  8
0
100
AcDbLine
 62
2
  6
CONTINUOUS
 10
10.1482965284
 20
24.5518528969
 11
10.2991540518
 21
24.5518528969
  0
LINE
  5
311
100
AcDbEntity
  8
0
100
AcDbLine
 62
2
  6
CONTINUOUS
 10
9.29039667
 20
24.5590292186
 11
9.438393481
 21
24.5590292186
  0
LINE
  5
312
100
AcDbEntity
  8
0
100
AcDbLine
 62
2
  6
CONTINUOUS
 10
10.4946300891
 20
24.6669362903
 11
10.5469698393
 21
24.6669362903
  0
LINE
  5
313
100
AcDbEntity
  8
0
100
AcDbLine
 62
2
  6
CONTINUOUS
 10
10.1482965284
 20
24.7738588614
 11
10.2991540518
 21
24.7738588614
  0
LINE
  5
314
100
AcDbEntity
  8
0
100
AcDbLine
 62
2
  6
CONTINUOUS
 10
10.5505599706
 20
24.7740394248
 11
10.4946300891
 21
24.7740394248
  0
LINE
  5
315
100
AcDbEntity
  8
0
100
AcDbLine
 62
2
  6
CONTINUOUS
 10
10.0940798832
 20
24.7025770482
 11
10.2991540518
 21
24.6962344985
  0
LINE
  5
316
100
AcDbEntity
  8
0
100
AcDbLine
 62
2
  6
CONTINUOUS
 10
8.0894517265
 20
24.9166182581
 11
8.2639519534
 21
24.9166182581
  0
LINE
  5
317
100
AcDbEntity
  8
0
100
AcDbLine
 62
2
  6
CONTINUOUS
 10
8.4017161202
 20
24.9166182581
 11
8.5937779322
 21
24.9166182581
  0
LINE
  5
318
100
AcDbEntity
  8
0
100
AcDbLine
 62
2
  6
CONTINUOUS
 10
9.1256629901
 20
24.9166182581
 11
9.29039667
 21
24.9166182581
  0
LINE
  5
319
100
AcDbEntity
  8
0
100
AcDbLine
 62
2
  6
CONTINUOUS
 10
9.438393481
 20
24.9166182581
 11
9.6031271609
 21
24.9166182581
  0
LINE
  5
31A
100
AcDbEntity
  8
0
100
AcDbLine
 62
2
  6
CONTINUOUS
 10
9.6481720051
 20
24.9166182581
 11
9.7982180679
 21
24.9166182581
  0
LINE
  5
31B
100
AcDbEntity
  8
0
100
AcDbLine
 62
2
  6
CONTINUOUS
 10
9.9900498765
 20
24.9166182581
 11
10.2991540518
 21
24.9166182581
  0
LINE
  5
31C
100
AcDbEntity
  8
0
100
AcDbLine
 62
2
  6
CONTINUOUS
 10
10.3439742665
 20
24.9166182581
 11
10.5775219672
 21
24.9166182581
  0
LINE
  5
31D
100
AcDbEntity
  8
_CURVE
100
AcDbLine
 62
8
 10
4.0764680105
 20
9.9040972831
 11
4.0764680105
 21
8.0340972831
  0
LINE
  5
31E
100
AcDbEntity
  8
_CURVE
100
AcDbLine
 62
8
 10
4.8264680105
 20
27.7540972831
 11
4.8264680105
 21
9.9040972831
  0
LINE
  5
31F
100
AcDbEntity
  8
_CURVE
100
AcDbLine
 62
7
  6
CONTINUOUS
 10
5.7064680105
 20
26.4800972831
 11
5.7064680105
 21
8.4040972831
  0
LINE
  5
320
100
AcDbEntity
  8
_CURVE
100
AcDbLine
 62
8
 10
4.2064680105
 20
7.9040972831
 11
39.4464680105
 21
7.9040972831
  0
LINE
  5
321
100
AcDbEntity
  8
_CURVE
100
AcDbLine
 62
7
  6
CONTINUOUS
 10
2.7064680105
 20
8.4040972831
 11
5.7064680105
 21
8.4040972831
  0
LINE
  5
322
100
AcDbEntity
  8
_CURVE
100
AcDbLine
 62
7
  6
CONTINUOUS
 10
37.9464680105
 20
8.4040972831
 11
40.9464680105
 21
8.4040972831
  0
LINE
  5
323
100
AcDbEntity
  8
_CURVE
100
AcDbLine
 62
8
 10
4.0764680105
 20
9.9040972831
 11
4.8264680105
 21
9.9040972831
  0
LINE
  5
324
100
AcDbEntity
  8
_CURVE
100
AcDbLine
 62
8
  6
DASHED
 10
4.8264680105
 20
9.9040972831
 11
38.8264680105
 21
9.9040972831
  0
LINE
  5
325
100
AcDbEntity
  8
_CURVE
100
AcDbLine
 62
8
 10
38.8264680105
 20
9.9040972831
 11
39.5764680105
 21
9.9040972831
  0
LINE
  5
326
100
AcDbEntity
  8
_CURVE
100
AcDbLine
 62
2
  6
CENTER
 10
21.8264680105
 20
28.9540972831
 11
21.8264680105
 21
6.7040972831
  0
LINE
  5
327
100
AcDbEntity
  8
_CURVE
100
AcDbLine
 62
7
  6
CONTINUOUS
 10
37.5524680105
 20
26.8740972831
 11
6.1004680105
 21
26.8740972831
  0
LINE
  5
328
100
AcDbEntity
  8
_CURVE
100
AcDbLine
 62
8
 10
38.5764680105
 20
28.0040972831
 11
5.0764680105
 21
28.0040972831
  0
LINE
  5
329
100
AcDbEntity
  8
_CURVE
100
AcDbLine
 62
7
  6
CONTINUOUS
 10
37.9464680105
 20
8.4040972831
 11
37.9464680105
 21
26.4800972831
  0
LINE
  5
32A
100
AcDbEntity
  8
_CURVE
100
AcDbLine
 62
8
 10
38.8264680105
 20
9.9040972831
 11
38.8264680105
 21
27.7540972831
  0
LINE
  5
32B
100
AcDbEntity
  8
_CURVE
100
AcDbLine
 62
8
 10
39.5764680105
 20
8.0340972831
 11
39.5764680105
 21
9.9040972831
  0
CIRCLE
  5
32C
100
AcDbEntity
  8
0
100
AcDbCircle
 62
2
  6
CONTINUOUS
 10
8.8104911517
 20
24.6225401816
 40
0.298056591
  0
ARC
  5
32D
100
AcDbEntity
  8
0
100
AcDbCircle
 62
2
  6
CONTINUOUS
 10
10.5775219672
 20
24.7416087474
 40
0.1750166163
100
AcDbArc
 50
294.4500166359
 51
90.0
  0
CIRCLE
  5
32E
100
AcDbEntity
  8
0
100
AcDbCircle
 62
2
  6
CONTINUOUS
 10
8.8104911517
 20
24.6225401816
 40
0.1247694151
  0
CIRCLE
  5
32F
100
AcDbEntity
  8
0
100
AcDbCircle
 62
2
  6
CONTINUOUS
 10
10.9501744325
 20
24.3307046088
 40
0.0653578721
  0
ARC
  5
330
100
AcDbEntity
  8
0
100
AcDbCircle
 62
2
  6
CONTINUOUS
 10
10.5505598686
 20
24.7204276898
 40
0.053611735
100
AcDbArc
 50
266.1604009902
 51
89.9998910512
  0
ARC
  5
331
100
AcDbEntity
  8
0
100
AcDbCircle
 62
2
  6
CONTINUOUS
 10
10.958567766
 20
24.3469986672
 40
0.0168314496
100
AcDbArc
 50
270.0
 51
90.0
  0
ARC
  5
332
100
AcDbEntity
  8
_CURVE
100
AcDbCircle
 62
7
  6
CONTINUOUS
 10
37.5524680105
 20
26.4800972831
 40
0.394
100
AcDbArc
 50
0.0
 51
90.0
  0
ARC
  5
333
100
AcDbEntity
  8
_CURVE
100
AcDbCircle
 62
7
  6
CONTINUOUS
 10
6.1004680105
 20
26.4800972831
 40
0.394
100
AcDbArc
 50
90.0
 51
180.0
  0
ARC
  5
334
100
AcDbEntity
  8
_CURVE
100
AcDbCircle
 62
8
 10
38.5764680105
 20
27.7540972831
 40
0.25
100
AcDbArc
 50
0.0
 51
90.0
  0
ARC
  5
335
100
AcDbEntity
  8
_CURVE
100
AcDbCircle
 62
8
 10
5.0764680105
 20
27.7540972831
 40
0.25
100
AcDbArc
 50
90.0
 51
180.0
  0
ARC
  5
336
100
AcDbEntity
  8
_CURVE
100
AcDbCircle
 62
8
 10
4.2064680105
 20
8.0340972831
 40
0.13
100
AcDbArc
 50
180.0
 51
270.0
  0
ARC
  5
337
100
AcDbEntity
  8
_CURVE
100
AcDbCircle
 62
8
 10
39.4464680105
 20
8.0340972831
 40
0.13
100
AcDbArc
 50
270.0
 51
360.0
  0
ENDSEC
  0
SECTION
  2
OBJECTS
  0
DICTIONARY
  5
C
100
AcDbDictionary
280
0
281
1
  3
ACAD_GROUP
350
D
  3
ACAD_MLINESTYLE
350
17
  3
ACAD_LAYOUT
350
1A
  3
ACAD_PLOTSETTINGS
350
19
  3
ACAD_PLOTSTYLENAME
350
E
  0
DICTIONARY
  5
D
102
{ACAD_REACTORS
330
C
102
}
100
AcDbDictionary
280
0
281
1
  0
ACDBDICTIONARYWDFLT
  5
E
102
{ACAD_REACTORS
330
C
102
}
100
AcDbDictionary
281
1
  3
Normal
350
F
100
AcDbDictionaryWithDefault
340
F
  0
DICTIONARY
  5
17
102
{ACAD_REACTORS
330
C
102
}
100
AcDbDictionary
280
0
281
1
  3
Standard
350
18
  0
DICTIONARY
  5
19
102
{ACAD_REACTORS
330
C
102
}
100
AcDbDictionary
281
1
  0
DICTIONARY
  5
1A
102
{ACAD_REACTORS
330
C
102
}
100
AcDbDictionary
281
1
  3
Model
350
338
  3
Layout1
350
339
  0
ACDBPLACEHOLDER
  5
F
102
{ACAD_REACTORS
330
E
102
}
  0
MLINESTYLE
  5
18
102
{ACAD_REACTORS
330
17
102
}
100
AcDbMlineStyle
  2
STANDARD
 70
0
  3

 62
256
 51
90.0
 52
90.0
 71
2
 49
0.5
 62
256
  6
BYLAYER
 49
-0.5
 62
256
  6
BYLAYER
  0
LAYOUT
  5
338
102
{ACAD_REACTORS
330
1A
102
}
100
AcDbPlotSettings
  1

  2
none_device
  4
ANSI_E_(44.00_x_34.00_Inches)
  6

 40
0.0
 41
0.0
 42
0.0
 43
0.0
 44
1117.6
 45
863.6
 46
0.0
 47
0.0
 48
0.0
 49
0.0
140
0.0
141
0.0
142
1.0
143
1.0
 70
1024
 72
0
 73
0
 74
0
  7

 75
0
147
1.0
148
0.0
149
0.0
100
AcDbLayout
  1
Model
 70
0
 71
0
 10
0.0
 20
0.0
 11
44.0
 21
34.0
 12
0.0
 22
0.0
 32
0.0
 14
0.0
 24
0.0
 34
0.0
 15
0.0
 25
0.0
 35
0.0
146
0.0
 13
0.0
 23
0.0
 33
0.0
 16
1.0
 26
0.0
 36
0.0
 17
0.0
 27
1.0
 37
0.0
 76
0
330
20C
345
0
346
0
  0
LAYOUT
  5
339
102
{ACAD_REACTORS
330
1A
102
}
100
AcDbPlotSettings
  1

  2
none_device
  4
ANSI_E_(44.00_x_34.00_Inches)
  6

 40
0.0
 41
0.0
 42
0.0
 43
0.0
 44
1117.6
 45
863.6
 46
0.0
 47
0.0
 48
0.0
 49
0.0
140
0.0
141
0.0
142
1.0
143
1.0
 70
0
 72
0
 73
0
 74
0
  7

 75
0
147
1.0
148
0.0
149
0.0
100
AcDbLayout
  1
Layout1
 70
0
 71
1
 10
0.0
 20
0.0
 11
44.0
 21
34.0
 12
0.0
 22
0.0
 32
0.0
 14
0.0
 24
0.0
 34
0.0
 15
0.0
 25
0.0
 35
0.0
146
0.0
 13
0.0
 23
0.0
 33
0.0
 16
1.0
 26
0.0
 36
0.0
 17
0.0
 27
1.0
 37
0.0
 76
0
330
20D
345
0
346
0
  0
ENDSEC
  0
EOF
