999
DXF file: 1564886-7.dxf
999
Pro/ENGINEER 2021304 by Parametric Technology Corporation
  0
SECTION
  2
HEADER
  9
$ACADVER
  1
AC1015
  9
$DWGCODEPAGE
  3
ANSI_1252
  9
$EXTMAX
 10
44.0
 20
34.0
 30
0.0
  9
$EXTMIN
 10
0.0
 20
0.0
 30
0.0
  9
$LIMMIN
 10
0.0
 20
0.0
  9
$LIMMAX
 10
44.0
 20
34.0
  9
$VIEWCTR
 10
22.0
 20
17.0
  9
$VIEWSIZE
 40
34.0
  9
$CLAYER
  8
0
  9
$LTSCALE
 40
2.42
  9
$CELTYPE
  6
BYLAYER
  9
$DIMSCALE
 40
1.0
  9
$DIMASZ
 40
0.1875
  9
$DIMEXO
 40
0.0625
  9
$DIMDLI
 40
1.672
  9
$DIMEXE
 40
0.125
  9
$DIMCEN
 40
0.396
  9
$DIMLFAC
 40
1.0
  9
$DIMBLK
  1
_FILLED
  9
$DIMALT
 70
1
  9
$DIMALTD
 70
2
  9
$DIMALTTD
 70
2
  9
$DIMALTF
 40
25.4
  9
$DIMTXT
 40
0.15625
  9
$DIMTOL
 70
1
  9
$DIMLIM
 70
0
  9
$DIMTFAC
 40
1.0
  9
$DIMTP
 40
0.01
  9
$DIMTM
 40
0.01
  9
$DIMGAP
 40
0.09
  9
$DIMDSEP
 70
46
  9
$AUNITS
 70
0
  9
$PDMODE
 70
3
  9
$PDSIZE
 40
0.3125
  9
$HANDSEED
  5
33A
  9
$TILEMODE
 70
1
  9
$MEASUREMENT
 70
0
  9
$INSUNITS
 70
1
  0
ENDSEC
  0
SECTION
  2
CLASSES
  0
CLASS
  1
ACDBDICTIONARYWDFLT
  2
AcDbDictionaryWithDefault
  3
AutoCAD 2000
 90
0
280
0
281
0
  0
CLASS
  1
ACDBPLACEHOLDER
  2
AcDbPlaceHolder
  3
AutoCAD 2000
 90
0
280
0
281
0
  0
CLASS
  1
LAYOUT
  2
AcDbLayout
  3
AutoCAD 2000
 90
0
280
0
281
0
  0
ENDSEC
  0
SECTION
  2
TABLES
  0
TABLE
  2
VPORT
  5
8
100
AcDbSymbolTable
 70
2
  0
VPORT
  5
1F4
100
AcDbSymbolTableRecord
100
AcDbViewportTableRecord
  2
*ACTIVE
 70
0
 10
0.0
 20
0.0
 11
1.0
 21
1.0
 12
22.0
 22
17.0
 13
0.0
 23
0.0
 14
1.0
 24
1.0
 15
0.0
 25
0.0
 16
0.0
 26
0.0
 36
1.0
 17
0.0
 27
0.0
 37
0.0
 40
34.0
 41
1.2941176471
 42
50.0
 43
0.0
 44
0.0
 50
0.0
 51
0.0
 71
0
 72
100
 73
1
 74
1
 75
0
 76
0
 77
0
 78
0
  0
ENDTAB
  0
TABLE
  2
LTYPE
  5
5
100
AcDbSymbolTable
 70
6
  0
LTYPE
  5
14
100
AcDbSymbolTableRecord
100
AcDbLinetypeTableRecord
  2
BYBLOCK
 70
0
  3

 72
65
 73
0
 40
0.0
  0
LTYPE
  5
15
100
AcDbSymbolTableRecord
100
AcDbLinetypeTableRecord
  2
BYLAYER
 70
0
  3

 72
65
 73
0
 40
0.0
  0
LTYPE
  5
16
100
AcDbSymbolTableRecord
100
AcDbLinetypeTableRecord
  2
CONTINUOUS
 70
64
  3
Solid line
 72
65
 73
0
 40
0.0
  0
LTYPE
  5
1F5
100
AcDbSymbolTableRecord
100
AcDbLinetypeTableRecord
  2
CENTER
 70
64
  3
____ _ ____ _ ____ _ ____ _ ____ _ ____ _ ____
 72
65
 73
4
 40
0.6
 49
0.375
 74
0
 49
-0.075
 74
0
 49
0.075
 74
0
 49
-0.075
 74
0
  0
LTYPE
  5
1F6
100
AcDbSymbolTableRecord
100
AcDbLinetypeTableRecord
  2
HIDDEN
 70
64
  3
- - - - - - - - - - - - - - - - - - - -
 72
65
 73
2
 40
0.2
 49
0.1
 74
0
 49
-0.1
 74
0
  0
LTYPE
  5
1F7
100
AcDbSymbolTableRecord
100
AcDbLinetypeTableRecord
  2
PHANTOM
 70
64
  3
_____ _ _ _____ _ _ _____ _ _ _____
 72
65
 73
6
 40
0.8
 49
0.45
 74
0
 49
-0.05
 74
0
 49
0.1
 74
0
 49
-0.05
 74
0
 49
0.1
 74
0
 49
-0.05
 74
0
  0
LTYPE
  5
1F8
100
AcDbSymbolTableRecord
100
AcDbLinetypeTableRecord
  2
DOT
 70
64
  3
. . . . . . . . . . . . . . . . . . . .
 72
65
 73
2
 40
0.2
 49
0.1
 74
0
 49
-0.1
 74
0
  0
LTYPE
  5
1F9
100
AcDbSymbolTableRecord
100
AcDbLinetypeTableRecord
  2
DASHED
 70
64
  3
- - - - - - - - - - - - - - - - - - - -
 72
65
 73
2
 40
0.2
 49
0.1
 74
0
 49
-0.1
 74
0
  0
ENDTAB
  0
TABLE
  2
LAYER
  5
2
100
AcDbSymbolTable
 70
36
  0
LAYER
  5
10
100
AcDbSymbolTableRecord
100
AcDbLayerTableRecord
  2
0
 70
0
 62
7
  6
CONTINUOUS
370
-3
390
F
  0
LAYER
  5
1FA
100
AcDbSymbolTableRecord
100
AcDbLayerTableRecord
  2
DEFAULT_1
 70
0
 62
7
  6
CENTER
370
-3
390
F
  0
LAYER
  5
1FB
100
AcDbSymbolTableRecord
100
AcDbLayerTableRecord
  2
DEFAULT_2
 70
0
 62
8
  6
HIDDEN
370
-3
390
F
  0
LAYER
  5
1FC
100
AcDbSymbolTableRecord
100
AcDbLayerTableRecord
  2
DEFAULT_3
 70
0
 62
7
  6
PHANTOM
370
-3
390
F
  0
LAYER
  5
1FD
100
AcDbSymbolTableRecord
100
AcDbLayerTableRecord
  2
DATUMS
 70
0
 62
7
  6
CONTINUOUS
370
-3
390
F
  0
LAYER
  5
1FE
100
AcDbSymbolTableRecord
100
AcDbLayerTableRecord
  2
DATUM_AXIS
 70
0
 62
7
  6
CONTINUOUS
370
-3
390
F
  0
LAYER
  5
1FF
100
AcDbSymbolTableRecord
100
AcDbLayerTableRecord
  2
DATUM_CSYS
 70
0
 62
7
  6
CONTINUOUS
370
-3
390
F
  0
LAYER
  5
200
100
AcDbSymbolTableRecord
100
AcDbLayerTableRecord
  2
DATUM_PLANE
 70
0
 62
7
  6
CONTINUOUS
370
-3
390
F
  0
LAYER
  5
201
100
AcDbSymbolTableRecord
100
AcDbLayerTableRecord
  2
DATUM_POINT
 70
0
 62
7
  6
CONTINUOUS
370
-3
390
F
  0
LAYER
  5
202
100
AcDbSymbolTableRecord
100
AcDbLayerTableRecord
  2
_CURVE
 70
0
 62
7
  6
CONTINUOUS
370
-3
390
F
  0
LAYER
  5
203
100
AcDbSymbolTableRecord
100
AcDbLayerTableRecord
  2
_SURFACE
 70
0
 62
7
  6
CONTINUOUS
370
-3
390
F
  0
LAYER
  5
204
100
AcDbSymbolTableRecord
100
AcDbLayerTableRecord
  2
__REF_CURVE
 70
0
 62
7
  6
CONTINUOUS
370
-3
390
F
  0
LAYER
  5
205
100
AcDbSymbolTableRecord
100
AcDbLayerTableRecord
  2
__REF_SURFACE
 70
0
 62
7
  6
CONTINUOUS
370
-3
390
F
  0
LAYER
  5
206
100
AcDbSymbolTableRecord
100
AcDbLayerTableRecord
  2
___NOTE
 70
0
 62
7
  6
CONTINUOUS
370
-3
390
F
  0
LAYER
  5
207
100
AcDbSymbolTableRecord
100
AcDbLayerTableRecord
  2
___SYMBOL
 70
0
 62
7
  6
CONTINUOUS
370
-3
390
F
  0
ENDTAB
  0
TABLE
  2
STYLE
  5
3
100
AcDbSymbolTable
 70
1
  0
STYLE
  5
11
100
AcDbSymbolTableRecord
100
AcDbTextStyleTableRecord
  2
STANDARD
 70
0
 40
0.0
 41
0.8
 50
0.0
 71
0
 42
0.2
  3
txt
  4

  0
STYLE
  5
208
100
AcDbSymbolTableRecord
100
AcDbTextStyleTableRecord
  2
TEXTSTYLE_1
 70
0
 40
0.0
 41
0.8
 50
0.0
 71
0
 42
0.2
  3
gdt
  4

  0
STYLE
  5
209
100
AcDbSymbolTableRecord
100
AcDbTextStyleTableRecord
  2
TEXTSTYLE_2
 70
0
 40
0.0
 41
1.0
 50
0.0
 71
0
 42
0.2
  3
txt
  4

  0
ENDTAB
  0
TABLE
  2
VIEW
  5
6
100
AcDbSymbolTable
 70
0
  0
ENDTAB
  0
TABLE
  2
UCS
  5
7
100
AcDbSymbolTable
 70
0
  0
ENDTAB
  0
TABLE
  2
APPID
  5
9
100
AcDbSymbolTable
 70
1
  0
APPID
  5
20A
100
AcDbSymbolTableRecord
100
AcDbRegAppTableRecord
  2
ACAD
 70
0
  0
ENDTAB
  0
TABLE
  2
BLOCK_RECORD
  5
1
100
AcDbSymbolTable
 70
0
  0
BLOCK_RECORD
  5
20B
100
AcDbSymbolTableRecord
100
AcDbBlockTableRecord
  2
*Model_Space
  0
BLOCK_RECORD
  5
20C
100
AcDbSymbolTableRecord
100
AcDbBlockTableRecord
  2
*Paper_Space
  0
BLOCK_RECORD
  5
20D
100
AcDbSymbolTableRecord
100
AcDbBlockTableRecord
  2
_FILLED
  0
BLOCK_RECORD
  5
20E
100
AcDbSymbolTableRecord
100
AcDbBlockTableRecord
  2
*D0
  0
BLOCK_RECORD
  5
20F
100
AcDbSymbolTableRecord
100
AcDbBlockTableRecord
  2
*D1
  0
BLOCK_RECORD
  5
210
100
AcDbSymbolTableRecord
100
AcDbBlockTableRecord
  2
*D2
  0
BLOCK_RECORD
  5
211
100
AcDbSymbolTableRecord
100
AcDbBlockTableRecord
  2
SCISSORS_BL3
  0
BLOCK_RECORD
  5
212
100
AcDbSymbolTableRecord
100
AcDbBlockTableRecord
  2
COPYRIGHT_YEAR_BL2
  0
BLOCK_RECORD
  5
213
100
AcDbSymbolTableRecord
100
AcDbBlockTableRecord
  2
CUT-OUT_TEMPLATE_SKU_SIN_BL1
  0
BLOCK_RECORD
  5
214
100
AcDbSymbolTableRecord
100
AcDbBlockTableRecord
  2
PLOTTING_TEMPLATE_NOTE_BL0
  0
ENDTAB
  0
TABLE
  2
DIMSTYLE
  5
A
100
AcDbSymbolTable
 70
1
100
AcDbDimStyleTable
 71
0
  0
DIMSTYLE
105
215
100
AcDbSymbolTableRecord
100
AcDbDimStyleTableRecord
  2
STANDARD
 70
0
  3

  4

 40
1.0
 41
0.1875
 42
0.0625
 43
0.38
 44
0.125
 45
0.0
 46
0.0
 47
0.01
 48
0.01
140
0.15625
141
0.09
142
0.0
143
2.54
144
1.0
145
0.0
146
1.0
147
0.09
 71
1
 72
0
 73
1
 74
1
 75
0
 76
0
 77
0
 78
4
 79
1
170
1
171
2
172
0
173
0
174
0
175
0
176
0
177
0
178
0
270
2
179
3
271
3
272
3
273
2
274
2
275
0
280
0
281
0
282
0
283
1
284
4
285
0
286
0
287
3
288
0
340
11
278
46
341
20D
342
20D
343
20D
344
20D
  0
DIMSTYLE
105
216
100
AcDbSymbolTableRecord
100
AcDbDimStyleTableRecord
  2
DIMSTYLE_1
 70
0
  3
<>
  4

 40
1.0
 41
0.1875
 42
0.0625
 43
0.38
 44
0.125
 45
0.0
 46
0.0
 47
0.01
 48
0.01
140
0.15625
141
0.09
142
0.0
143
2.54
144
1.0
145
0.0
146
1.0
147
0.09
 71
0
 72
0
 73
1
 74
1
 75
0
 76
0
 77
0
 78
4
 79
1
170
1
171
1
172
0
173
0
174
0
175
0
176
0
177
0
178
0
270
2
179
3
271
5
272
32
273
2
274
1
275
0
280
0
281
0
282
0
283
1
284
4
285
0
286
0
287
3
288
0
340
11
278
46
341
20D
342
20D
343
20D
344
20D
  0
DIMSTYLE
105
217
100
AcDbSymbolTableRecord
100
AcDbDimStyleTableRecord
  2
DIMSTYLE_2
 70
0
  3

  4

 40
1.0
 41
0.1875
 42
0.0625
 43
0.38
 44
0.125
 45
0.0
 46
0.0
 47
0.0625
 48
0.0625
140
0.15625
141
0.09
142
0.0
143
2.54
144
1.0
145
0.0
146
1.0
147
0.078125
 71
0
 72
0
 73
1
 74
1
 75
0
 76
0
 77
0
 78
4
 79
1
170
1
171
1
172
0
173
0
174
0
175
0
176
0
177
0
178
0
270
2
179
3
271
5
272
32
273
2
274
2
275
0
280
0
281
0
282
0
283
1
284
4
285
0
286
0
287
3
288
0
340
11
278
46
341
20D
342
20D
343
20D
344
20D
  0
DIMSTYLE
105
218
100
AcDbSymbolTableRecord
100
AcDbDimStyleTableRecord
  2
DIMSTYLE_3
 70
0
  3

  4

 40
1.0
 41
0.1875
 42
0.0625
 43
0.38
 44
0.125
 45
0.0
 46
0.0
 47
0.03125
 48
0.03125
140
0.15625
141
0.09
142
0.0
143
2.54
144
1.0
145
0.0
146
1.0
147
0.078125
 71
0
 72
0
 73
1
 74
1
 75
0
 76
0
 77
0
 78
4
 79
1
170
1
171
1
172
0
173
0
174
0
175
0
176
0
177
0
178
0
270
2
179
3
271
5
272
32
273
2
274
2
275
0
280
0
281
0
282
0
283
1
284
4
285
0
286
0
287
3
288
0
340
11
278
46
341
20D
342
20D
343
20D
344
20D
  0
ENDTAB
  0
ENDSEC
  0
SECTION
  2
BLOCKS
  0
BLOCK
  5
20
100
AcDbEntity
  8
0
100
AcDbBlockBegin
  2
*Model_Space
 70
0
 10
0.0
 20
0.0
 30
0.0
  3
*Model_Space
  1

  0
ENDBLK
  5
21
100
AcDbEntity
  8
0
100
AcDbBlockEnd
  0
BLOCK
  5
1C
100
AcDbEntity
  8
0
100
AcDbBlockBegin
  2
*Paper_Space
 70
0
 10
0.0
 20
0.0
 30
0.0
  3
*Paper_Space
  1

  0
ENDBLK
  5
1D
100
AcDbEntity
  8
0
100
AcDbBlockEnd
  0
BLOCK
  5
219
100
AcDbEntity
  8
___SYMBOL
100
AcDbBlockBegin
 62
2
  6
CONTINUOUS
  2
SCISSORS_BL3
 70
64
 10
32.6687074872
 20
21.259253446
  3
SCISSORS_BL3
  1

  0
LINE
  5
21A
100
AcDbEntity
  8
___SYMBOL
100
AcDbLine
 62
7
  6
CONTINUOUS
 10
32.6110662205
 20
21.3209519669
 11
32.4989864473
 21
21.8746102686
  0
LINE
  5
21B
100
AcDbEntity
  8
___SYMBOL
100
AcDbLine
 62
7
  6
CONTINUOUS
 10
32.5626865613
 20
21.2914508914
 11
32.4989864473
 21
21.8746102686
  0
LINE
  5
21C
100
AcDbEntity
  8
___SYMBOL
100
AcDbLine
 62
7
  6
CONTINUOUS
 10
32.6383283258
 20
21.2252679749
 11
32.6367607118
 21
21.2761213817
  0
LINE
  5
21D
100
AcDbEntity
  8
___SYMBOL
100
AcDbLine
 62
7
  6
CONTINUOUS
 10
32.6531384131
 20
21.2768013712
 11
32.6547168138
 21
21.2255980404
  0
LINE
  5
21E
100
AcDbEntity
  8
___SYMBOL
100
AcDbLine
 62
7
  6
CONTINUOUS
 10
32.6472203302
 20
21.454170821
 11
32.8349347198
 21
21.8648747876
  0
LINE
  5
21F
100
AcDbEntity
  8
___SYMBOL
100
AcDbLine
 62
7
  6
CONTINUOUS
 10
32.5331115084
 20
21.1959007204
 11
32.5656406023
 21
21.2573132884
  0
LINE
  5
220
100
AcDbEntity
  8
___SYMBOL
100
AcDbLine
 62
7
  6
CONTINUOUS
 10
32.7143675757
 20
21.263719419
 11
32.8349347198
 21
21.6494080318
  0
LINE
  5
221
100
AcDbEntity
  8
___SYMBOL
100
AcDbLine
 62
7
  6
CONTINUOUS
 10
32.6849989602
 20
21.3470183532
 11
32.6110662205
 21
21.3209519669
  0
LINE
  5
222
100
AcDbEntity
  8
___SYMBOL
100
AcDbLine
 62
7
  6
CONTINUOUS
 10
32.7389795996
 20
21.1939117238
 11
32.6816927978
 21
21.055647201
  0
LINE
  5
223
100
AcDbEntity
  8
___SYMBOL
100
AcDbLine
 62
7
  6
CONTINUOUS
 10
32.5869532714
 20
21.0601588108
 11
32.6310305466
 21
21.1059580126
  0
LINE
  5
224
100
AcDbEntity
  8
___SYMBOL
100
AcDbLine
 62
7
  6
CONTINUOUS
 10
32.4989864473
 20
21.8746102686
 11
32.7389795996
 21
21.1939117238
  0
LINE
  5
225
100
AcDbEntity
  8
___SYMBOL
100
AcDbLine
 62
7
  6
CONTINUOUS
 10
32.5869532714
 20
21.0601588108
 11
32.5331115084
 21
21.1959007204
  0
ARC
  5
226
100
AcDbEntity
  8
___SYMBOL
100
AcDbCircle
 62
7
  6
CONTINUOUS
 10
32.4903007205
 20
21.7571414097
 40
0.3610804262
100
AcDbArc
 50
342.6406360869
 51
17.3593639131
  0
ARC
  5
227
100
AcDbEntity
  8
___SYMBOL
100
AcDbCircle
 62
7
  6
CONTINUOUS
 10
32.87533853
 20
21.3013090991
 40
0.3128073492
100
AcDbArc
 50
181.8059909349
 51
231.752660067
  0
CIRCLE
  5
228
100
AcDbEntity
  8
___SYMBOL
100
AcDbCircle
 62
7
  6
CONTINUOUS
 10
32.6460085428
 20
21.2509555914
 40
0.0268111801
  0
ARC
  5
229
100
AcDbEntity
  8
___SYMBOL
100
AcDbCircle
 62
7
  6
CONTINUOUS
 10
32.8054663532
 20
20.878637994
 40
0.0146088562
100
AcDbArc
 50
185.3133793157
 51
314.0675041521
  0
ARC
  5
22A
100
AcDbEntity
  8
___SYMBOL
100
AcDbCircle
 62
7
  6
CONTINUOUS
 10
32.4708047582
 20
20.8711174247
 40
0.0146087357
100
AcDbArc
 50
233.3109272841
 51
359.4467240969
  0
SPLINE
  5
22B
100
AcDbEntity
  8
___SYMBOL
100
AcDbSpline
 62
7
  6
CONTINUOUS
 70
0
 71
3
 72
12
 73
8
 74
0
 42
0.0000001
 43
0.0000001
 44
0.0000000001
 40
0.0
 40
0.0
 40
0.0
 40
0.0
 40
0.4884256058
 40
0.6683914397
 40
0.8669439281
 40
0.9099489479
 40
1.0
 40
1.0
 40
1.0
 40
1.0
 10
32.7677222251
 20
20.6438966235
 30
0.0
 10
32.7444938768
 20
20.7119399111
 30
0.0
 10
32.7395241347
 20
20.8129643775
 30
0.0
 10
32.7411154732
 20
20.9398378031
 30
0.0
 10
32.7362314829
 20
21.0026553167
 30
0.0
 10
32.7176859823
 20
21.0485473802
 30
0.0
 10
32.694760577
 20
21.0578730833
 30
0.0
 10
32.6816927978
 20
21.055647201
 30
0.0
  0
SPLINE
  5
22C
100
AcDbEntity
  8
___SYMBOL
100
AcDbSpline
 62
7
  6
CONTINUOUS
 70
0
 71
3
 72
14
 73
10
 74
0
 42
0.0000001
 43
0.0000001
 44
0.0000000001
 40
0.0
 40
0.0
 40
0.0
 40
0.0
 40
0.0469735811
 40
0.2606095073
 40
0.5805460666
 40
0.7382389988
 40
0.8401572415
 40
0.925087268
 40
1.0
 40
1.0
 40
1.0
 40
1.0
 10
32.7909202698
 20
20.8772851686
 30
0.0
 10
32.7904458668
 20
20.8823861259
 30
0.0
 10
32.7884873798
 20
20.9107945734
 30
0.0
 10
32.7911714293
 20
20.9733352678
 30
0.0
 10
32.7970137111
 20
21.0528187763
 30
0.0
 10
32.7630611876
 20
21.1072179683
 30
0.0
 10
32.7420279315
 20
21.1392788934
 30
0.0
 10
32.7403444893
 20
21.1684592426
 30
0.0
 10
32.7402112564
 20
21.1858350626
 30
0.0
 10
32.7389795996
 20
21.1939117238
 30
0.0
  0
SPLINE
  5
22D
100
AcDbEntity
  8
___SYMBOL
100
AcDbSpline
 62
7
  6
CONTINUOUS
 70
0
 71
3
 72
12
 73
8
 74
0
 42
0.0000001
 43
0.0000001
 44
0.0000000001
 40
0.0
 40
0.0
 40
0.0
 40
0.0
 40
0.2870411994
 40
0.5613888029
 40
0.7613462239
 40
0.9013972407
 40
1.0
 40
1.0
 40
1.0
 40
1.0
 10
32.5282902305
 20
20.6825532069
 30
0.0
 10
32.5374917197
 20
20.7192403525
 30
0.0
 10
32.5413019103
 20
20.7939348385
 30
0.0
 10
32.5350055089
 20
20.8945922821
 30
0.0
 10
32.5425891529
 20
20.973936468
 30
0.0
 10
32.5466651831
 20
21.0348176388
 30
0.0
 10
32.574468769
 20
21.0565598341
 30
0.0
 10
32.5869532714
 20
21.0601588108
 30
0.0
  0
SPLINE
  5
22E
100
AcDbEntity
  8
___SYMBOL
100
AcDbSpline
 62
7
  6
CONTINUOUS
 70
0
 71
3
 72
13
 73
9
 74
0
 42
0.0000001
 43
0.0000001
 44
0.0000000001
 40
0.0
 40
0.0
 40
0.0
 40
0.0
 40
0.0902051637
 40
0.4170421866
 40
0.6587388922
 40
0.9356437381
 40
0.9595034934
 40
1.0
 40
1.0
 40
1.0
 40
1.0
 10
32.4854128127
 20
20.8709763579
 30
0.0
 10
32.4855091581
 20
20.8809533145
 30
0.0
 10
32.4852243535
 20
20.9270138312
 30
0.0
 10
32.4831022441
 20
21.0007703032
 30
0.0
 10
32.4984902199
 20
21.0911438017
 30
0.0
 10
32.5430548125
 20
21.1495091611
 30
0.0
 10
32.5279225872
 20
21.1844737562
 30
0.0
 10
32.5298672322
 20
21.1928123102
 30
0.0
 10
32.5331115084
 20
21.1959007204
 30
0.0
  0
ELLIPSE
  5
22F
100
AcDbEntity
  8
___SYMBOL
100
AcDbEllipse
 62
7
  6
CONTINUOUS
 10
32.887353166
 20
20.7159132596
 30
0.0
 11
0.0060666775
 21
-0.1237602215
 31
0.0
 40
0.774293327
 41
0.0
 42
6.2831853072
  0
ELLIPSE
  5
230
100
AcDbEntity
  8
___SYMBOL
100
AcDbEllipse
 62
7
  6
CONTINUOUS
 10
32.887353166
 20
20.7159132596
 30
0.0
 11
-0.0030333388
 21
-0.1844269968
 31
0.0
 40
0.700902774
 41
5.1250505418
 42
10.0362700851
  0
ELLIPSE
  5
231
100
AcDbEntity
  8
___SYMBOL
100
AcDbEllipse
 62
7
  6
CONTINUOUS
 10
32.3958529294
 20
20.7287665509
 30
0.0
 11
0.0151666938
 21
-0.1228502199
 31
0.0
 40
0.7501188416
 41
0.0
 42
6.2831853072
  0
ELLIPSE
  5
232
100
AcDbEntity
  8
___SYMBOL
100
AcDbEllipse
 62
7
  6
CONTINUOUS
 10
32.3981279335
 20
20.7082915142
 30
0.0
 11
0.0022750041
 21
-0.1736586442
 31
0.0
 40
0.7569683881
 41
2.6163261196
 42
7.6953125801
  0
LINE
  5
233
100
AcDbEntity
  8
___SYMBOL
100
AcDbLine
 62
7
  6
CONTINUOUS
 10
32.6375445188
 20
21.2506946783
 11
32.6457360661
 21
21.250947192
  0
ENDBLK
  5
234
100
AcDbEntity
  8
0
  6
BYBLOCK
 62
0
100
AcDbBlockEnd
  0
BLOCK
  5
235
100
AcDbEntity
  8
___SYMBOL
100
AcDbBlockBegin
 62
2
  6
CONTINUOUS
  2
COPYRIGHT_YEAR_BL2
 70
64
 10
30.6329582539
 20
11.0370793285
  3
COPYRIGHT_YEAR_BL2
  1

  0
TEXT
  5
236
100
AcDbEntity
  8
___SYMBOL
100
AcDbText
 62
2
  6
CONTINUOUS
 10
29.8599007359
 20
10.9550335423
  7
STANDARD
 40
0.15625
  1
2023 KOHLER CO.
 41
0.8
 72
0
100
AcDbText
  0
TEXT
  5
237
100
AcDbEntity
  8
___SYMBOL
100
AcDbText
 62
7
  6
CONTINUOUS
 10
29.5752032761
 20
10.960005349
  7
TEXTSTYLE_2
 40
0.15625
  1
C
 41
1.0
 72
0
100
AcDbText
  0
CIRCLE
  5
238
100
AcDbEntity
  8
___SYMBOL
100
AcDbCircle
 62
7
  6
CONTINUOUS
 10
29.6552675557
 20
11.0370793285
 40
0.1242517839
  0
ENDBLK
  5
239
100
AcDbEntity
  8
0
  6
BYBLOCK
 62
0
100
AcDbBlockEnd
  0
BLOCK
  5
23A
100
AcDbEntity
  8
___SYMBOL
100
AcDbBlockBegin
 62
2
  6
CONTINUOUS
  2
CUT-OUT_TEMPLATE_SKU_SIN_BL1
 70
64
 10
18.6325803931
 20
24.482109722
  3
CUT-OUT_TEMPLATE_SKU_SIN_BL1
  1

  0
TEXT
  5
23B
100
AcDbEntity
  8
___SYMBOL
100
AcDbText
 62
2
  6
CONTINUOUS
 10
12.834629024
 20
24.5537014271
  7
STANDARD
 40
0.25
  1
CUT-OUT TEMPLATE, UNDER-MOUNT SINK
 41
0.8
 72
0
100
AcDbText
  0
TEXT
  5
23C
100
AcDbEntity
  8
___SYMBOL
100
AcDbText
 62
2
  6
CONTINUOUS
 10
12.834629024
 20
24.1787014271
  7
STANDARD
 40
0.25
  1
PLANTILLA DE RECORTE DE MONTAJE POR ABAJO
 41
0.8
 72
0
100
AcDbText
  0
TEXT
  5
23D
100
AcDbEntity
  8
___SYMBOL
100
AcDbText
 62
2
  6
CONTINUOUS
 10
12.834629024
 20
23.8037014271
  7
STANDARD
 40
0.25
  1
GABARIT DE DÉCOUPE ÉVIER SOUS-COMPTOIR À MONTAGE SOUS PLAN
 41
0.8
 72
0
100
AcDbText
  0
TEXT
  5
23E
100
AcDbEntity
  8
___SYMBOL
100
AcDbText
 62
2
  6
CONTINUOUS
 10
12.8267611084
 20
22.8558772866
  7
STANDARD
 40
0.25
  1
                  
 41
0.8
 72
0
100
AcDbText
  0
TEXT
  5
23F
100
AcDbEntity
  8
___SYMBOL
100
AcDbText
 62
2
  6
CONTINUOUS
 10
12.8305317622
 20
23.2431087538
  7
STANDARD
 40
0.25
  1
33659                  
 41
0.8
 72
0
100
AcDbText
  0
LINE
  5
240
100
AcDbEntity
  8
___SYMBOL
100
AcDbLine
 62
2
  6
CONTINUOUS
 10
13.3612008001
 20
25.7171321758
 11
13.1478973483
 21
25.4634839029
  0
LINE
  5
241
100
AcDbEntity
  8
___SYMBOL
100
AcDbLine
 62
2
  6
CONTINUOUS
 10
13.1691389881
 20
25.7171321758
 11
13.3612008001
 21
25.7171321758
  0
LINE
  5
242
100
AcDbEntity
  8
___SYMBOL
100
AcDbLine
 62
2
  6
CONTINUOUS
 10
13.1691389881
 20
25.7171321758
 11
13.0313748213
 21
25.5533109861
  0
LINE
  5
243
100
AcDbEntity
  8
___SYMBOL
100
AcDbLine
 62
2
  6
CONTINUOUS
 10
13.0313748213
 20
25.7171321758
 11
13.0313748213
 21
25.5533109861
  0
LINE
  5
244
100
AcDbEntity
  8
___SYMBOL
100
AcDbLine
 62
2
  6
CONTINUOUS
 10
12.8568745944
 20
25.7171321758
 11
13.0313748213
 21
25.7171321758
  0
LINE
  5
245
100
AcDbEntity
  8
___SYMBOL
100
AcDbLine
 62
2
  6
CONTINUOUS
 10
12.8568745944
 20
25.7171321758
 11
12.8568745944
 21
25.131194523
  0
LINE
  5
246
100
AcDbEntity
  8
___SYMBOL
100
AcDbLine
 62
2
  6
CONTINUOUS
 10
13.0313748213
 20
25.1312185265
 11
12.8568745944
 21
25.131194523
  0
LINE
  5
247
100
AcDbEntity
  8
___SYMBOL
100
AcDbLine
 62
2
  6
CONTINUOUS
 10
13.0313748213
 20
25.3327183605
 11
13.0313748213
 21
25.1312185265
  0
LINE
  5
248
100
AcDbEntity
  8
___SYMBOL
100
AcDbLine
 62
2
  6
CONTINUOUS
 10
13.1851127614
 20
25.1312185265
 11
13.0313748213
 21
25.3327183605
  0
LINE
  5
249
100
AcDbEntity
  8
___SYMBOL
100
AcDbLine
 62
2
  6
CONTINUOUS
 10
13.1851127614
 20
25.1312185265
 11
13.401405183
 21
25.1312185265
  0
LINE
  5
24A
100
AcDbEntity
  8
___SYMBOL
100
AcDbLine
 62
2
  6
CONTINUOUS
 10
13.401405183
 20
25.1312185265
 11
13.1478973483
 21
25.4634839029
  0
SOLID
  5
24B
100
AcDbEntity
  8
___SYMBOL
100
AcDbTrace
 62
2
  6
CONTINUOUS
 10
13.0313748213
 20
25.5533109861
 11
13.1691389881
 21
25.7171321758
 12
13.3612008001
 22
25.7171321758
 13
13.3612008001
 23
25.7171321758
  0
SOLID
  5
24C
100
AcDbEntity
  8
___SYMBOL
100
AcDbTrace
 62
2
  6
CONTINUOUS
 10
13.3612008001
 20
25.7171321758
 11
13.1478973483
 21
25.4634839029
 12
13.0313748213
 22
25.5533109861
 13
13.0313748213
 23
25.5533109861
  0
SOLID
  5
24D
100
AcDbEntity
  8
___SYMBOL
100
AcDbTrace
 62
2
  6
CONTINUOUS
 10
13.0313748213
 20
25.3327183605
 11
13.1478973483
 21
25.4634839029
 12
13.1851127614
 22
25.1312185265
 13
13.1851127614
 23
25.1312185265
  0
SOLID
  5
24E
100
AcDbEntity
  8
___SYMBOL
100
AcDbTrace
 62
2
  6
CONTINUOUS
 10
13.1478973483
 20
25.4634839029
 11
13.401405183
 21
25.1312185265
 12
13.1851127614
 22
25.1312185265
 13
13.1851127614
 23
25.1312185265
  0
SOLID
  5
24F
100
AcDbEntity
  8
___SYMBOL
100
AcDbTrace
 62
2
  6
CONTINUOUS
 10
13.0313748213
 20
25.1312185265
 11
12.8568745944
 21
25.131194523
 12
13.0313748213
 22
25.3327183605
 13
13.0313748213
 23
25.3327183605
  0
SOLID
  5
250
100
AcDbEntity
  8
___SYMBOL
100
AcDbTrace
 62
2
  6
CONTINUOUS
 10
13.1478973483
 20
25.4634839029
 11
13.0313748213
 21
25.3327183605
 12
13.0313748213
 22
25.5533109861
 13
13.0313748213
 23
25.5533109861
  0
SOLID
  5
251
100
AcDbEntity
  8
___SYMBOL
100
AcDbTrace
 62
2
  6
CONTINUOUS
 10
13.0313748213
 20
25.3327183605
 11
12.8568745944
 21
25.131194523
 12
13.0313748213
 22
25.5533109861
 13
13.0313748213
 23
25.5533109861
  0
SOLID
  5
252
100
AcDbEntity
  8
___SYMBOL
100
AcDbTrace
 62
2
  6
CONTINUOUS
 10
13.0313748213
 20
25.5533109861
 11
12.8568745944
 21
25.131194523
 12
13.0313748213
 22
25.7171321758
 13
13.0313748213
 23
25.7171321758
  0
SOLID
  5
253
100
AcDbEntity
  8
___SYMBOL
100
AcDbTrace
 62
2
  6
CONTINUOUS
 10
12.8568745944
 20
25.131194523
 11
12.8568745944
 21
25.7171321758
 12
13.0313748213
 22
25.7171321758
 13
13.0313748213
 23
25.7171321758
  0
CIRCLE
  5
254
100
AcDbEntity
  8
___SYMBOL
100
AcDbCircle
 62
2
  6
CONTINUOUS
 10
13.5779140196
 20
25.4230540993
 40
0.298056591
  0
CIRCLE
  5
255
100
AcDbEntity
  8
___SYMBOL
100
AcDbCircle
 62
2
  6
CONTINUOUS
 10
13.5779140196
 20
25.4230540993
 40
0.1247694151
  0
SOLID
  5
256
100
AcDbEntity
  8
___SYMBOL
100
AcDbTrace
 62
2
  6
CONTINUOUS
 10
13.4858094677
 20
25.7065227624
 11
13.5467586222
 21
25.7194779051
 12
13.609069417
 22
25.7194779051
 13
13.609069417
 23
25.7194779051
  0
SOLID
  5
257
100
AcDbEntity
  8
___SYMBOL
100
AcDbTrace
 62
2
  6
CONTINUOUS
 10
13.609069417
 20
25.7194779051
 11
13.6700185715
 21
25.7065227624
 12
13.4858094677
 22
25.7065227624
 13
13.4858094677
 23
25.7065227624
  0
SOLID
  5
258
100
AcDbEntity
  8
___SYMBOL
100
AcDbTrace
 62
2
  6
CONTINUOUS
 10
13.4288857241
 20
25.6811786788
 11
13.4858094677
 21
25.7065227624
 12
13.6700185715
 22
25.7065227624
 13
13.6700185715
 23
25.7065227624
  0
SOLID
  5
259
100
AcDbEntity
  8
___SYMBOL
100
AcDbTrace
 62
2
  6
CONTINUOUS
 10
13.6700185715
 20
25.7065227624
 11
13.7269423151
 21
25.6811786788
 12
13.4288857241
 22
25.6811786788
 13
13.4288857241
 23
25.6811786788
  0
SOLID
  5
25A
100
AcDbEntity
  8
___SYMBOL
100
AcDbTrace
 62
2
  6
CONTINUOUS
 10
13.3784752322
 20
25.6445533126
 11
13.4288857241
 21
25.6811786788
 12
13.7269423151
 22
25.6811786788
 13
13.7269423151
 23
25.6811786788
  0
SOLID
  5
25B
100
AcDbEntity
  8
___SYMBOL
100
AcDbTrace
 62
2
  6
CONTINUOUS
 10
13.7269423151
 20
25.6811786788
 11
13.7773528071
 21
25.6445533126
 12
13.3784752322
 22
25.6445533126
 13
13.3784752322
 23
25.6445533126
  0
SOLID
  5
25C
100
AcDbEntity
  8
___SYMBOL
100
AcDbTrace
 62
2
  6
CONTINUOUS
 10
13.3367811722
 20
25.5982473678
 11
13.3784752322
 21
25.6445533126
 12
13.7773528071
 22
25.6445533126
 13
13.7773528071
 23
25.6445533126
  0
SOLID
  5
25D
100
AcDbEntity
  8
___SYMBOL
100
AcDbTrace
 62
2
  6
CONTINUOUS
 10
13.7773528071
 20
25.6445533126
 11
13.819046867
 21
25.5982473678
 12
13.3367811722
 22
25.5982473678
 13
13.3367811722
 23
25.5982473678
  0
SOLID
  5
25E
100
AcDbEntity
  8
___SYMBOL
100
AcDbTrace
 62
2
  6
CONTINUOUS
 10
13.5779140196
 20
25.5478235143
 11
13.3056257748
 21
25.5442846365
 12
13.819046867
 22
25.5982473678
 13
13.819046867
 23
25.5982473678
  0
SOLID
  5
25F
100
AcDbEntity
  8
___SYMBOL
100
AcDbTrace
 62
2
  6
CONTINUOUS
 10
13.3056257748
 20
25.5442846365
 11
13.3367811722
 21
25.5982473678
 12
13.819046867
 22
25.5982473678
 13
13.819046867
 23
25.5982473678
  0
SOLID
  5
260
100
AcDbEntity
  8
___SYMBOL
100
AcDbTrace
 62
2
  6
CONTINUOUS
 10
13.819046867
 20
25.5982473678
 11
13.8502022644
 21
25.5442846365
 12
13.5779140196
 22
25.5478235143
 13
13.5779140196
 23
25.5478235143
  0
SOLID
  5
261
100
AcDbEntity
  8
___SYMBOL
100
AcDbTrace
 62
2
  6
CONTINUOUS
 10
13.5779140196
 20
25.5478235143
 11
13.53935815
 21
25.5417168645
 12
13.3056257748
 22
25.5442846365
 13
13.3056257748
 23
25.5442846365
  0
SOLID
  5
262
100
AcDbEntity
  8
___SYMBOL
100
AcDbTrace
 62
2
  6
CONTINUOUS
 10
13.6164698892
 20
25.5417168645
 11
13.5779140196
 21
25.5478235143
 12
13.8502022644
 22
25.5442846365
 13
13.8502022644
 23
25.5442846365
  0
SOLID
  5
263
100
AcDbEntity
  8
___SYMBOL
100
AcDbTrace
 62
2
  6
CONTINUOUS
 10
13.4769734424
 20
25.4963917214
 11
13.2863706803
 21
25.4850235491
 12
13.5045763975
 22
25.5239946764
 13
13.5045763975
 23
25.5239946764
  0
SOLID
  5
264
100
AcDbEntity
  8
___SYMBOL
100
AcDbTrace
 62
2
  6
CONTINUOUS
 10
13.5045763975
 20
25.5239946764
 11
13.2863706803
 21
25.4850235491
 12
13.53935815
 22
25.5417168645
 13
13.53935815
 23
25.5417168645
  0
SOLID
  5
265
100
AcDbEntity
  8
___SYMBOL
100
AcDbTrace
 62
2
  6
CONTINUOUS
 10
13.2863706803
 20
25.4850235491
 11
13.3056257748
 21
25.5442846365
 12
13.53935815
 22
25.5417168645
 13
13.53935815
 23
25.5417168645
  0
SOLID
  5
266
100
AcDbEntity
  8
___SYMBOL
100
AcDbTrace
 62
2
  6
CONTINUOUS
 10
13.6164698892
 20
25.5417168645
 11
13.8502022644
 21
25.5442846365
 12
13.6512516417
 22
25.5239946764
 13
13.6512516417
 23
25.5239946764
  0
SOLID
  5
267
100
AcDbEntity
  8
___SYMBOL
100
AcDbTrace
 62
2
  6
CONTINUOUS
 10
13.6512516417
 20
25.5239946764
 11
13.8502022644
 21
25.5442846365
 12
13.6788545968
 22
25.4963917214
 13
13.6788545968
 23
25.4963917214
  0
SOLID
  5
268
100
AcDbEntity
  8
___SYMBOL
100
AcDbTrace
 62
2
  6
CONTINUOUS
 10
13.8502022644
 20
25.5442846365
 11
13.869457359
 21
25.4850235491
 12
13.6788545968
 22
25.4963917214
 13
13.6788545968
 23
25.4963917214
  0
SOLID
  5
269
100
AcDbEntity
  8
___SYMBOL
100
AcDbTrace
 62
2
  6
CONTINUOUS
 10
13.4769734424
 20
25.4963917214
 11
13.4592512544
 21
25.4616099689
 12
13.2863706803
 22
25.4850235491
 13
13.2863706803
 23
25.4850235491
  0
SOLID
  5
26A
100
AcDbEntity
  8
___SYMBOL
100
AcDbTrace
 62
2
  6
CONTINUOUS
 10
13.6965767849
 20
25.4616099689
 11
13.6788545968
 21
25.4963917214
 12
13.869457359
 22
25.4850235491
 13
13.869457359
 23
25.4850235491
  0
SOLID
  5
26B
100
AcDbEntity
  8
___SYMBOL
100
AcDbTrace
 62
2
  6
CONTINUOUS
 10
13.2798574286
 20
25.4230540993
 11
13.2863706803
 21
25.4850235491
 12
13.4592512544
 22
25.4616099689
 13
13.4592512544
 23
25.4616099689
  0
SOLID
  5
26C
100
AcDbEntity
  8
___SYMBOL
100
AcDbTrace
 62
2
  6
CONTINUOUS
 10
13.4592512544
 20
25.4616099689
 11
13.4531446045
 21
25.4230540993
 12
13.2798574286
 22
25.4230540993
 13
13.2798574286
 23
25.4230540993
  0
SOLID
  5
26D
100
AcDbEntity
  8
___SYMBOL
100
AcDbTrace
 62
2
  6
CONTINUOUS
 10
13.6965767849
 20
25.4616099689
 11
13.869457359
 21
25.4850235491
 12
13.7026834347
 22
25.4230540993
 13
13.7026834347
 23
25.4230540993
  0
SOLID
  5
26E
100
AcDbEntity
  8
___SYMBOL
100
AcDbTrace
 62
2
  6
CONTINUOUS
 10
13.869457359
 20
25.4850235491
 11
13.8759706106
 21
25.4230540993
 12
13.7026834347
 22
25.4230540993
 13
13.7026834347
 23
25.4230540993
  0
SOLID
  5
26F
100
AcDbEntity
  8
___SYMBOL
100
AcDbTrace
 62
2
  6
CONTINUOUS
 10
13.6965767849
 20
25.3844982296
 11
13.7026834347
 21
25.4230540993
 12
13.8759706106
 22
25.4230540993
 13
13.8759706106
 23
25.4230540993
  0
SOLID
  5
270
100
AcDbEntity
  8
___SYMBOL
100
AcDbTrace
 62
2
  6
CONTINUOUS
 10
13.4592512544
 20
25.3844982296
 11
13.2863706803
 21
25.3610846495
 12
13.4531446045
 22
25.4230540993
 13
13.4531446045
 23
25.4230540993
  0
SOLID
  5
271
100
AcDbEntity
  8
___SYMBOL
100
AcDbTrace
 62
2
  6
CONTINUOUS
 10
13.2863706803
 20
25.3610846495
 11
13.2798574286
 21
25.4230540993
 12
13.4531446045
 22
25.4230540993
 13
13.4531446045
 23
25.4230540993
  0
SOLID
  5
272
100
AcDbEntity
  8
___SYMBOL
100
AcDbTrace
 62
2
  6
CONTINUOUS
 10
13.8759706106
 20
25.4230540993
 11
13.869457359
 21
25.3610846495
 12
13.6965767849
 22
25.3844982296
 13
13.6965767849
 23
25.3844982296
  0
SOLID
  5
273
100
AcDbEntity
  8
___SYMBOL
100
AcDbTrace
 62
2
  6
CONTINUOUS
 10
13.4592512544
 20
25.3844982296
 11
13.4769734424
 21
25.3497164772
 12
13.2863706803
 22
25.3610846495
 13
13.2863706803
 23
25.3610846495
  0
SOLID
  5
274
100
AcDbEntity
  8
___SYMBOL
100
AcDbTrace
 62
2
  6
CONTINUOUS
 10
13.6788545968
 20
25.3497164772
 11
13.6965767849
 21
25.3844982296
 12
13.869457359
 22
25.3610846495
 13
13.869457359
 23
25.3610846495
  0
SOLID
  5
275
100
AcDbEntity
  8
___SYMBOL
100
AcDbTrace
 62
2
  6
CONTINUOUS
 10
13.53935815
 20
25.304391334
 11
13.3056257748
 21
25.301823562
 12
13.5045763975
 22
25.3221135221
 13
13.5045763975
 23
25.3221135221
  0
SOLID
  5
276
100
AcDbEntity
  8
___SYMBOL
100
AcDbTrace
 62
2
  6
CONTINUOUS
 10
13.5045763975
 20
25.3221135221
 11
13.3056257748
 21
25.301823562
 12
13.4769734424
 22
25.3497164772
 13
13.4769734424
 23
25.3497164772
  0
SOLID
  5
277
100
AcDbEntity
  8
___SYMBOL
100
AcDbTrace
 62
2
  6
CONTINUOUS
 10
13.3056257748
 20
25.301823562
 11
13.2863706803
 21
25.3610846495
 12
13.4769734424
 22
25.3497164772
 13
13.4769734424
 23
25.3497164772
  0
SOLID
  5
278
100
AcDbEntity
  8
___SYMBOL
100
AcDbTrace
 62
2
  6
CONTINUOUS
 10
13.6788545968
 20
25.3497164772
 11
13.869457359
 21
25.3610846495
 12
13.6512516417
 22
25.3221135221
 13
13.6512516417
 23
25.3221135221
  0
SOLID
  5
279
100
AcDbEntity
  8
___SYMBOL
100
AcDbTrace
 62
2
  6
CONTINUOUS
 10
13.6512516417
 20
25.3221135221
 11
13.869457359
 21
25.3610846495
 12
13.6164698892
 22
25.304391334
 13
13.6164698892
 23
25.304391334
  0
SOLID
  5
27A
100
AcDbEntity
  8
___SYMBOL
100
AcDbTrace
 62
2
  6
CONTINUOUS
 10
13.869457359
 20
25.3610846495
 11
13.8502022644
 21
25.301823562
 12
13.6164698892
 22
25.304391334
 13
13.6164698892
 23
25.304391334
  0
SOLID
  5
27B
100
AcDbEntity
  8
___SYMBOL
100
AcDbTrace
 62
2
  6
CONTINUOUS
 10
13.53935815
 20
25.304391334
 11
13.5779140196
 21
25.2982846842
 12
13.3056257748
 22
25.301823562
 13
13.3056257748
 23
25.301823562
  0
SOLID
  5
27C
100
AcDbEntity
  8
___SYMBOL
100
AcDbTrace
 62
2
  6
CONTINUOUS
 10
13.5779140196
 20
25.2982846842
 11
13.6164698892
 21
25.304391334
 12
13.8502022644
 22
25.301823562
 13
13.8502022644
 23
25.301823562
  0
SOLID
  5
27D
100
AcDbEntity
  8
___SYMBOL
100
AcDbTrace
 62
2
  6
CONTINUOUS
 10
13.3367811722
 20
25.2478608307
 11
13.3056257748
 21
25.301823562
 12
13.5779140196
 22
25.2982846842
 13
13.5779140196
 23
25.2982846842
  0
SOLID
  5
27E
100
AcDbEntity
  8
___SYMBOL
100
AcDbTrace
 62
2
  6
CONTINUOUS
 10
13.5779140196
 20
25.2982846842
 11
13.8502022644
 21
25.301823562
 12
13.3367811722
 22
25.2478608307
 13
13.3367811722
 23
25.2478608307
  0
SOLID
  5
27F
100
AcDbEntity
  8
___SYMBOL
100
AcDbTrace
 62
2
  6
CONTINUOUS
 10
13.8502022644
 20
25.301823562
 11
13.819046867
 21
25.2478608307
 12
13.3367811722
 22
25.2478608307
 13
13.3367811722
 23
25.2478608307
  0
SOLID
  5
280
100
AcDbEntity
  8
___SYMBOL
100
AcDbTrace
 62
2
  6
CONTINUOUS
 10
13.3784752322
 20
25.201554886
 11
13.3367811722
 21
25.2478608307
 12
13.819046867
 22
25.2478608307
 13
13.819046867
 23
25.2478608307
  0
SOLID
  5
281
100
AcDbEntity
  8
___SYMBOL
100
AcDbTrace
 62
2
  6
CONTINUOUS
 10
13.819046867
 20
25.2478608307
 11
13.7773528071
 21
25.201554886
 12
13.3784752322
 22
25.201554886
 13
13.3784752322
 23
25.201554886
  0
SOLID
  5
282
100
AcDbEntity
  8
___SYMBOL
100
AcDbTrace
 62
2
  6
CONTINUOUS
 10
13.4288857241
 20
25.1649295197
 11
13.3784752322
 21
25.201554886
 12
13.7773528071
 22
25.201554886
 13
13.7773528071
 23
25.201554886
  0
SOLID
  5
283
100
AcDbEntity
  8
___SYMBOL
100
AcDbTrace
 62
2
  6
CONTINUOUS
 10
13.7773528071
 20
25.201554886
 11
13.7269423151
 21
25.1649295197
 12
13.4288857241
 22
25.1649295197
 13
13.4288857241
 23
25.1649295197
  0
SOLID
  5
284
100
AcDbEntity
  8
___SYMBOL
100
AcDbTrace
 62
2
  6
CONTINUOUS
 10
13.4858094677
 20
25.1395854362
 11
13.4288857241
 21
25.1649295197
 12
13.7269423151
 22
25.1649295197
 13
13.7269423151
 23
25.1649295197
  0
SOLID
  5
285
100
AcDbEntity
  8
___SYMBOL
100
AcDbTrace
 62
2
  6
CONTINUOUS
 10
13.7269423151
 20
25.1649295197
 11
13.6700185715
 21
25.1395854362
 12
13.4858094677
 22
25.1395854362
 13
13.4858094677
 23
25.1395854362
  0
SOLID
  5
286
100
AcDbEntity
  8
___SYMBOL
100
AcDbTrace
 62
2
  6
CONTINUOUS
 10
13.5467586222
 20
25.1266302935
 11
13.4858094677
 21
25.1395854362
 12
13.6700185715
 22
25.1395854362
 13
13.6700185715
 23
25.1395854362
  0
SOLID
  5
287
100
AcDbEntity
  8
___SYMBOL
100
AcDbTrace
 62
2
  6
CONTINUOUS
 10
13.6700185715
 20
25.1395854362
 11
13.609069417
 21
25.1266302935
 12
13.5467586222
 22
25.1266302935
 13
13.5467586222
 23
25.1266302935
  0
LINE
  5
288
100
AcDbEntity
  8
___SYMBOL
100
AcDbLine
 62
2
  6
CONTINUOUS
 10
14.3705500288
 20
25.7171321758
 11
14.3705500288
 21
25.1312185265
  0
LINE
  5
289
100
AcDbEntity
  8
___SYMBOL
100
AcDbLine
 62
2
  6
CONTINUOUS
 10
14.3705500288
 20
25.1312185265
 11
14.2058163489
 21
25.1312185265
  0
LINE
  5
28A
100
AcDbEntity
  8
___SYMBOL
100
AcDbLine
 62
2
  6
CONTINUOUS
 10
14.2058163489
 20
25.3595431363
 11
14.2058163489
 21
25.1312185265
  0
LINE
  5
28B
100
AcDbEntity
  8
___SYMBOL
100
AcDbLine
 62
2
  6
CONTINUOUS
 10
14.0578195379
 20
25.3595431363
 11
14.2058163489
 21
25.3595431363
  0
LINE
  5
28C
100
AcDbEntity
  8
___SYMBOL
100
AcDbLine
 62
2
  6
CONTINUOUS
 10
14.0578195379
 20
25.3595431363
 11
14.0578195379
 21
25.1312185265
  0
LINE
  5
28D
100
AcDbEntity
  8
___SYMBOL
100
AcDbLine
 62
2
  6
CONTINUOUS
 10
14.0578195379
 20
25.1312185265
 11
13.893085858
 21
25.1312185265
  0
LINE
  5
28E
100
AcDbEntity
  8
___SYMBOL
100
AcDbLine
 62
2
  6
CONTINUOUS
 10
13.893085858
 20
25.7171321758
 11
13.893085858
 21
25.1312185265
  0
LINE
  5
28F
100
AcDbEntity
  8
___SYMBOL
100
AcDbLine
 62
2
  6
CONTINUOUS
 10
13.893085858
 20
25.7171321758
 11
14.0578195379
 21
25.7171321758
  0
LINE
  5
290
100
AcDbEntity
  8
___SYMBOL
100
AcDbLine
 62
2
  6
CONTINUOUS
 10
14.0578195379
 20
25.7171321758
 11
14.0578195379
 21
25.4967484162
  0
LINE
  5
291
100
AcDbEntity
  8
___SYMBOL
100
AcDbLine
 62
2
  6
CONTINUOUS
 10
14.0578195379
 20
25.4967484162
 11
14.2058163489
 21
25.4967484162
  0
LINE
  5
292
100
AcDbEntity
  8
___SYMBOL
100
AcDbLine
 62
2
  6
CONTINUOUS
 10
14.2058163489
 20
25.7171321758
 11
14.2058163489
 21
25.4967484162
  0
LINE
  5
293
100
AcDbEntity
  8
___SYMBOL
100
AcDbLine
 62
2
  6
CONTINUOUS
 10
14.2058163489
 20
25.7171321758
 11
14.3705500288
 21
25.7171321758
  0
SOLID
  5
294
100
AcDbEntity
  8
___SYMBOL
100
AcDbTrace
 62
2
  6
CONTINUOUS
 10
14.2058163489
 20
25.4967484162
 11
14.2058163489
 21
25.7171321758
 12
14.3705500288
 22
25.7171321758
 13
14.3705500288
 23
25.7171321758
  0
SOLID
  5
295
100
AcDbEntity
  8
___SYMBOL
100
AcDbTrace
 62
2
  6
CONTINUOUS
 10
14.2058163489
 20
25.4967484162
 11
14.0578195379
 21
25.3595431363
 12
14.0578195379
 22
25.4967484162
 13
14.0578195379
 23
25.4967484162
  0
SOLID
  5
296
100
AcDbEntity
  8
___SYMBOL
100
AcDbTrace
 62
2
  6
CONTINUOUS
 10
14.0578195379
 20
25.3595431363
 11
13.893085858
 21
25.1312185265
 12
14.0578195379
 22
25.4967484162
 13
14.0578195379
 23
25.4967484162
  0
SOLID
  5
297
100
AcDbEntity
  8
___SYMBOL
100
AcDbTrace
 62
2
  6
CONTINUOUS
 10
14.0578195379
 20
25.4967484162
 11
13.893085858
 21
25.1312185265
 12
14.0578195379
 22
25.7171321758
 13
14.0578195379
 23
25.7171321758
  0
SOLID
  5
298
100
AcDbEntity
  8
___SYMBOL
100
AcDbTrace
 62
2
  6
CONTINUOUS
 10
13.893085858
 20
25.1312185265
 11
13.893085858
 21
25.7171321758
 12
14.0578195379
 22
25.7171321758
 13
14.0578195379
 23
25.7171321758
  0
SOLID
  5
299
100
AcDbEntity
  8
___SYMBOL
100
AcDbTrace
 62
2
  6
CONTINUOUS
 10
14.0578195379
 20
25.3595431363
 11
14.0578195379
 21
25.1312185265
 12
13.893085858
 22
25.1312185265
 13
13.893085858
 23
25.1312185265
  0
SOLID
  5
29A
100
AcDbEntity
  8
___SYMBOL
100
AcDbTrace
 62
2
  6
CONTINUOUS
 10
14.0578195379
 20
25.3595431363
 11
14.2058163489
 21
25.4967484162
 12
14.2058163489
 22
25.3595431363
 13
14.2058163489
 23
25.3595431363
  0
SOLID
  5
29B
100
AcDbEntity
  8
___SYMBOL
100
AcDbTrace
 62
2
  6
CONTINUOUS
 10
14.2058163489
 20
25.4967484162
 11
14.3705500288
 21
25.7171321758
 12
14.2058163489
 22
25.3595431363
 13
14.2058163489
 23
25.3595431363
  0
SOLID
  5
29C
100
AcDbEntity
  8
___SYMBOL
100
AcDbTrace
 62
2
  6
CONTINUOUS
 10
14.2058163489
 20
25.3595431363
 11
14.3705500288
 21
25.7171321758
 12
14.2058163489
 22
25.1312185265
 13
14.2058163489
 23
25.1312185265
  0
SOLID
  5
29D
100
AcDbEntity
  8
___SYMBOL
100
AcDbTrace
 62
2
  6
CONTINUOUS
 10
14.3705500288
 20
25.7171321758
 11
14.3705500288
 21
25.1312185265
 12
14.2058163489
 22
25.1312185265
 13
14.2058163489
 23
25.1312185265
  0
LINE
  5
29E
100
AcDbEntity
  8
___SYMBOL
100
AcDbLine
 62
2
  6
CONTINUOUS
 10
14.5656409358
 20
25.1312185265
 11
14.7283250057
 21
25.1312185265
  0
LINE
  5
29F
100
AcDbEntity
  8
___SYMBOL
100
AcDbLine
 62
2
  6
CONTINUOUS
 10
14.5656409358
 20
25.1312185265
 11
14.415594873
 21
25.1312185265
  0
LINE
  5
2A0
100
AcDbEntity
  8
___SYMBOL
100
AcDbLine
 62
2
  6
CONTINUOUS
 10
14.415594873
 20
25.1312185265
 11
14.415594873
 21
25.7171321758
  0
LINE
  5
2A1
100
AcDbEntity
  8
___SYMBOL
100
AcDbLine
 62
2
  6
CONTINUOUS
 10
14.415594873
 20
25.7171321758
 11
14.5656409358
 21
25.7171321758
  0
LINE
  5
2A2
100
AcDbEntity
  8
___SYMBOL
100
AcDbLine
 62
2
  6
CONTINUOUS
 10
14.5656409358
 20
25.7171321758
 11
14.5656409358
 21
25.2724452836
  0
LINE
  5
2A3
100
AcDbEntity
  8
___SYMBOL
100
AcDbLine
 62
2
  6
CONTINUOUS
 10
14.5656409358
 20
25.2724452836
 11
14.7283250057
 21
25.2724452836
  0
LINE
  5
2A4
100
AcDbEntity
  8
___SYMBOL
100
AcDbLine
 62
2
  6
CONTINUOUS
 10
14.7283250057
 20
25.2724452836
 11
14.7283250057
 21
25.1312185265
  0
SOLID
  5
2A5
100
AcDbEntity
  8
___SYMBOL
100
AcDbTrace
 62
2
  6
CONTINUOUS
 10
14.7283250057
 20
25.2724452836
 11
14.415594873
 21
25.1312185265
 12
14.5656409358
 22
25.2724452836
 13
14.5656409358
 23
25.2724452836
  0
SOLID
  5
2A6
100
AcDbEntity
  8
___SYMBOL
100
AcDbTrace
 62
2
  6
CONTINUOUS
 10
14.5656409358
 20
25.2724452836
 11
14.415594873
 21
25.1312185265
 12
14.5656409358
 22
25.7171321758
 13
14.5656409358
 23
25.7171321758
  0
SOLID
  5
2A7
100
AcDbEntity
  8
___SYMBOL
100
AcDbTrace
 62
2
  6
CONTINUOUS
 10
14.415594873
 20
25.1312185265
 11
14.415594873
 21
25.7171321758
 12
14.5656409358
 22
25.7171321758
 13
14.5656409358
 23
25.7171321758
  0
SOLID
  5
2A8
100
AcDbEntity
  8
___SYMBOL
100
AcDbTrace
 62
2
  6
CONTINUOUS
 10
14.415594873
 20
25.1312185265
 11
14.7283250057
 21
25.2724452836
 12
14.5656409358
 22
25.1312185265
 13
14.5656409358
 23
25.1312185265
  0
SOLID
  5
2A9
100
AcDbEntity
  8
___SYMBOL
100
AcDbTrace
 62
2
  6
CONTINUOUS
 10
14.7283250057
 20
25.2724452836
 11
14.7283250057
 21
25.1312185265
 12
14.5656409358
 22
25.1312185265
 13
14.5656409358
 23
25.1312185265
  0
LINE
  5
2AA
100
AcDbEntity
  8
___SYMBOL
100
AcDbLine
 62
2
  6
CONTINUOUS
 10
15.0665769197
 20
25.3523668146
 11
15.0665769197
 21
25.4967484162
  0
LINE
  5
2AB
100
AcDbEntity
  8
___SYMBOL
100
AcDbLine
 62
2
  6
CONTINUOUS
 10
14.9157193963
 20
25.4967484162
 11
15.0665769197
 21
25.4967484162
  0
LINE
  5
2AC
100
AcDbEntity
  8
___SYMBOL
100
AcDbLine
 62
2
  6
CONTINUOUS
 10
14.9157193963
 20
25.574372779
 11
14.9157193963
 21
25.4967484162
  0
LINE
  5
2AD
100
AcDbEntity
  8
___SYMBOL
100
AcDbLine
 62
2
  6
CONTINUOUS
 10
14.9157193963
 20
25.574372779
 11
15.0665769197
 21
25.574372779
  0
LINE
  5
2AE
100
AcDbEntity
  8
___SYMBOL
100
AcDbLine
 62
2
  6
CONTINUOUS
 10
15.0665769197
 20
25.574372779
 11
15.0665769197
 21
25.7171321758
  0
LINE
  5
2AF
100
AcDbEntity
  8
___SYMBOL
100
AcDbLine
 62
2
  6
CONTINUOUS
 10
14.9299237197
 20
25.7171321758
 11
15.0665769197
 21
25.7171321758
  0
LINE
  5
2B0
100
AcDbEntity
  8
___SYMBOL
100
AcDbLine
 62
2
  6
CONTINUOUS
 10
14.7574727444
 20
25.7171321758
 11
14.9299237197
 21
25.7171321758
  0
LINE
  5
2B1
100
AcDbEntity
  8
___SYMBOL
100
AcDbLine
 62
2
  6
CONTINUOUS
 10
14.7574727444
 20
25.1312185265
 11
14.7574727444
 21
25.7171321758
  0
LINE
  5
2B2
100
AcDbEntity
  8
___SYMBOL
100
AcDbLine
 62
2
  6
CONTINUOUS
 10
14.7574727444
 20
25.1312185265
 11
15.0665769197
 21
25.1312185265
  0
LINE
  5
2B3
100
AcDbEntity
  8
___SYMBOL
100
AcDbLine
 62
2
  6
CONTINUOUS
 10
15.0665769197
 20
25.1312185265
 11
15.0665769197
 21
25.2724452836
  0
LINE
  5
2B4
100
AcDbEntity
  8
___SYMBOL
100
AcDbLine
 62
2
  6
CONTINUOUS
 10
14.9157193963
 20
25.2724452836
 11
15.0665769197
 21
25.2724452836
  0
LINE
  5
2B5
100
AcDbEntity
  8
___SYMBOL
100
AcDbLine
 62
2
  6
CONTINUOUS
 10
14.9157193963
 20
25.3523668146
 11
14.9157193963
 21
25.2724452836
  0
LINE
  5
2B6
100
AcDbEntity
  8
___SYMBOL
100
AcDbLine
 62
2
  6
CONTINUOUS
 10
14.9157193963
 20
25.3523668146
 11
15.0665769197
 21
25.3523668146
  0
SOLID
  5
2B7
100
AcDbEntity
  8
___SYMBOL
100
AcDbTrace
 62
2
  6
CONTINUOUS
 10
15.0665769197
 20
25.7171321758
 11
15.0665769197
 21
25.574372779
 12
14.9157193963
 22
25.574372779
 13
14.9157193963
 23
25.574372779
  0
SOLID
  5
2B8
100
AcDbEntity
  8
___SYMBOL
100
AcDbTrace
 62
2
  6
CONTINUOUS
 10
15.0665769197
 20
25.4967484162
 11
15.0665769197
 21
25.3523668146
 12
14.9157193963
 22
25.3523668146
 13
14.9157193963
 23
25.3523668146
  0
SOLID
  5
2B9
100
AcDbEntity
  8
___SYMBOL
100
AcDbTrace
 62
2
  6
CONTINUOUS
 10
15.0665769197
 20
25.2724452836
 11
14.7574727444
 21
25.1312185265
 12
14.9157193963
 22
25.2724452836
 13
14.9157193963
 23
25.2724452836
  0
SOLID
  5
2BA
100
AcDbEntity
  8
___SYMBOL
100
AcDbTrace
 62
2
  6
CONTINUOUS
 10
14.9157193963
 20
25.2724452836
 11
14.7574727444
 21
25.1312185265
 12
14.9157193963
 22
25.3523668146
 13
14.9157193963
 23
25.3523668146
  0
SOLID
  5
2BB
100
AcDbEntity
  8
___SYMBOL
100
AcDbTrace
 62
2
  6
CONTINUOUS
 10
15.0665769197
 20
25.4967484162
 11
14.9157193963
 21
25.3523668146
 12
14.9157193963
 22
25.4967484162
 13
14.9157193963
 23
25.4967484162
  0
SOLID
  5
2BC
100
AcDbEntity
  8
___SYMBOL
100
AcDbTrace
 62
2
  6
CONTINUOUS
 10
14.9157193963
 20
25.3523668146
 11
14.7574727444
 21
25.1312185265
 12
14.9157193963
 22
25.4967484162
 13
14.9157193963
 23
25.4967484162
  0
SOLID
  5
2BD
100
AcDbEntity
  8
___SYMBOL
100
AcDbTrace
 62
2
  6
CONTINUOUS
 10
14.9157193963
 20
25.4967484162
 11
14.7574727444
 21
25.1312185265
 12
14.9157193963
 22
25.574372779
 13
14.9157193963
 23
25.574372779
  0
SOLID
  5
2BE
100
AcDbEntity
  8
___SYMBOL
100
AcDbTrace
 62
2
  6
CONTINUOUS
 10
15.0665769197
 20
25.7171321758
 11
14.9157193963
 21
25.574372779
 12
14.9299237197
 22
25.7171321758
 13
14.9299237197
 23
25.7171321758
  0
SOLID
  5
2BF
100
AcDbEntity
  8
___SYMBOL
100
AcDbTrace
 62
2
  6
CONTINUOUS
 10
14.9157193963
 20
25.574372779
 11
14.7574727444
 21
25.1312185265
 12
14.9299237197
 22
25.7171321758
 13
14.9299237197
 23
25.7171321758
  0
SOLID
  5
2C0
100
AcDbEntity
  8
___SYMBOL
100
AcDbTrace
 62
2
  6
CONTINUOUS
 10
14.7574727444
 20
25.1312185265
 11
14.7574727444
 21
25.7171321758
 12
14.9299237197
 22
25.7171321758
 13
14.9299237197
 23
25.7171321758
  0
SOLID
  5
2C1
100
AcDbEntity
  8
___SYMBOL
100
AcDbTrace
 62
2
  6
CONTINUOUS
 10
15.0665769197
 20
25.2724452836
 11
15.0665769197
 21
25.1312185265
 12
14.7574727444
 22
25.1312185265
 13
14.7574727444
 23
25.1312185265
  0
LINE
  5
2C2
100
AcDbEntity
  8
___SYMBOL
100
AcDbLine
 62
2
  6
CONTINUOUS
 10
15.5768273257
 20
25.1312185265
 11
15.4173840828
 21
25.3828010677
  0
ARC
  5
2C3
100
AcDbEntity
  8
___SYMBOL
100
AcDbCircle
 62
2
  6
CONTINUOUS
 10
15.3449448351
 20
25.5421226651
 40
0.1750166163
100
AcDbArc
 50
294.4500166359
 51
90.0
  0
LINE
  5
2C4
100
AcDbEntity
  8
___SYMBOL
100
AcDbLine
 62
2
  6
CONTINUOUS
 10
15.1113971344
 20
25.7171321758
 11
15.3449448351
 21
25.7171321758
  0
LINE
  5
2C5
100
AcDbEntity
  8
___SYMBOL
100
AcDbLine
 62
2
  6
CONTINUOUS
 10
15.1113971344
 20
25.1312185265
 11
15.1113971344
 21
25.7171321758
  0
LINE
  5
2C6
100
AcDbEntity
  8
___SYMBOL
100
AcDbLine
 62
2
  6
CONTINUOUS
 10
15.1113971344
 20
25.1312185265
 11
15.262052957
 21
25.1312185265
  0
LINE
  5
2C7
100
AcDbEntity
  8
___SYMBOL
100
AcDbLine
 62
2
  6
CONTINUOUS
 10
15.262052957
 20
25.3281748973
 11
15.262052957
 21
25.1312185265
  0
LINE
  5
2C8
100
AcDbEntity
  8
___SYMBOL
100
AcDbLine
 62
2
  6
CONTINUOUS
 10
15.3868763862
 20
25.1312185265
 11
15.262052957
 21
25.3281748973
  0
LINE
  5
2C9
100
AcDbEntity
  8
___SYMBOL
100
AcDbLine
 62
2
  6
CONTINUOUS
 10
15.3868763862
 20
25.1312185265
 11
15.5768273257
 21
25.1312185265
  0
LINE
  5
2CA
100
AcDbEntity
  8
___SYMBOL
100
AcDbLine
 62
2
  6
CONTINUOUS
 10
15.262052957
 20
25.467450208
 11
15.3143927072
 21
25.467450208
  0
ARC
  5
2CB
100
AcDbEntity
  8
___SYMBOL
100
AcDbCircle
 62
2
  6
CONTINUOUS
 10
15.3179827365
 20
25.5209416075
 40
0.053611735
100
AcDbArc
 50
266.1604009902
 51
89.9998910512
  0
LINE
  5
2CC
100
AcDbEntity
  8
___SYMBOL
100
AcDbLine
 62
2
  6
CONTINUOUS
 10
15.3179828385
 20
25.5745533425
 11
15.262052957
 21
25.5745533425
  0
LINE
  5
2CD
100
AcDbEntity
  8
___SYMBOL
100
AcDbLine
 62
2
  6
CONTINUOUS
 10
15.262052957
 20
25.5745533425
 11
15.262052957
 21
25.467450208
  0
SOLID
  5
2CE
100
AcDbEntity
  8
___SYMBOL
100
AcDbTrace
 62
2
  6
CONTINUOUS
 10
15.3449448351
 20
25.7171392814
 11
15.3918778586
 21
25.710729033
 12
15.1113971344
 22
25.7171321758
 13
15.1113971344
 23
25.7171321758
  0
SOLID
  5
2CF
100
AcDbEntity
  8
___SYMBOL
100
AcDbTrace
 62
2
  6
CONTINUOUS
 10
15.262052957
 20
25.5745533425
 11
15.5159926981
 21
25.579182678
 12
15.3179828385
 22
25.5745533425
 13
15.3179828385
 23
25.5745533425
  0
SOLID
  5
2D0
100
AcDbEntity
  8
___SYMBOL
100
AcDbTrace
 62
2
  6
CONTINUOUS
 10
15.3179828385
 20
25.5745533425
 11
15.5159926981
 21
25.579182678
 12
15.3417054201
 22
25.5690191741
 13
15.3417054201
 23
25.5690191741
  0
SOLID
  5
2D1
100
AcDbEntity
  8
___SYMBOL
100
AcDbTrace
 62
2
  6
CONTINUOUS
 10
15.3417054201
 20
25.5690191741
 11
15.5159926981
 21
25.579182678
 12
15.3605304077
 22
25.5535592991
 13
15.3605304077
 23
25.5535592991
  0
SOLID
  5
2D2
100
AcDbEntity
  8
___SYMBOL
100
AcDbTrace
 62
2
  6
CONTINUOUS
 10
15.5159926981
 20
25.579182678
 11
15.5196659445
 21
25.5319565492
 12
15.3605304077
 22
25.5535592991
 13
15.3605304077
 23
25.5535592991
  0
SOLID
  5
2D3
100
AcDbEntity
  8
___SYMBOL
100
AcDbTrace
 62
2
  6
CONTINUOUS
 10
15.3705713463
 20
25.5313654385
 11
15.3605304077
 21
25.5535592991
 12
15.5196659445
 22
25.5319565492
 13
15.5196659445
 23
25.5319565492
  0
SOLID
  5
2D4
100
AcDbEntity
  8
___SYMBOL
100
AcDbTrace
 62
2
  6
CONTINUOUS
 10
15.3705713463
 20
25.5313654385
 11
15.5196659445
 21
25.5319565492
 12
15.3697552646
 22
25.5070195578
 13
15.3697552646
 23
25.5070195578
  0
SOLID
  5
2D5
100
AcDbEntity
  8
___SYMBOL
100
AcDbTrace
 62
2
  6
CONTINUOUS
 10
15.3697552646
 20
25.5070195578
 11
15.5196659445
 21
25.5319565492
 12
15.3582506443
 22
25.4855479112
 13
15.3582506443
 23
25.4855479112
  0
SOLID
  5
2D6
100
AcDbEntity
  8
___SYMBOL
100
AcDbTrace
 62
2
  6
CONTINUOUS
 10
15.5196659445
 20
25.5319565492
 11
15.5105403408
 21
25.4854751191
 12
15.3582506443
 22
25.4855479112
 13
15.3582506443
 23
25.4855479112
  0
SOLID
  5
2D7
100
AcDbEntity
  8
___SYMBOL
100
AcDbTrace
 62
2
  6
CONTINUOUS
 10
15.3384326364
 20
25.4713833617
 11
15.3582506443
 21
25.4855479112
 12
15.5105403408
 22
25.4854751191
 13
15.5105403408
 23
25.4854751191
  0
SOLID
  5
2D8
100
AcDbEntity
  8
___SYMBOL
100
AcDbTrace
 62
2
  6
CONTINUOUS
 10
15.3384326364
 20
25.4713833617
 11
15.5105403408
 21
25.4854751191
 12
15.3143927072
 22
25.467450208
 13
15.3143927072
 23
25.467450208
  0
SOLID
  5
2D9
100
AcDbEntity
  8
___SYMBOL
100
AcDbTrace
 62
2
  6
CONTINUOUS
 10
15.5105403408
 20
25.4854751191
 11
15.4892843652
 21
25.4431432933
 12
15.3143927072
 22
25.467450208
 13
15.3143927072
 23
25.467450208
  0
SOLID
  5
2DA
100
AcDbEntity
  8
___SYMBOL
100
AcDbTrace
 62
2
  6
CONTINUOUS
 10
15.4173840828
 20
25.3828010677
 11
15.262052957
 21
25.3281748973
 12
15.457455082
 22
25.408062006
 13
15.457455082
 23
25.408062006
  0
SOLID
  5
2DB
100
AcDbEntity
  8
___SYMBOL
100
AcDbTrace
 62
2
  6
CONTINUOUS
 10
15.457455082
 20
25.408062006
 11
15.262052957
 21
25.3281748973
 12
15.4892843652
 22
25.4431432933
 13
15.4892843652
 23
25.4431432933
  0
SOLID
  5
2DC
100
AcDbEntity
  8
___SYMBOL
100
AcDbTrace
 62
2
  6
CONTINUOUS
 10
15.4892843652
 20
25.4431432933
 11
15.262052957
 21
25.3281748973
 12
15.3143927072
 22
25.467450208
 13
15.3143927072
 23
25.467450208
  0
SOLID
  5
2DD
100
AcDbEntity
  8
___SYMBOL
100
AcDbTrace
 62
2
  6
CONTINUOUS
 10
15.262052957
 20
25.3281748973
 11
15.1113971344
 21
25.1312185265
 12
15.3143927072
 22
25.467450208
 13
15.3143927072
 23
25.467450208
  0
SOLID
  5
2DE
100
AcDbEntity
  8
___SYMBOL
100
AcDbTrace
 62
2
  6
CONTINUOUS
 10
15.3143927072
 20
25.467450208
 11
15.1113971344
 21
25.1312185265
 12
15.262052957
 22
25.467450208
 13
15.262052957
 23
25.467450208
  0
SOLID
  5
2DF
100
AcDbEntity
  8
___SYMBOL
100
AcDbTrace
 62
2
  6
CONTINUOUS
 10
15.262052957
 20
25.467450208
 11
15.1113971344
 21
25.1312185265
 12
15.262052957
 22
25.5745533425
 13
15.262052957
 23
25.5745533425
  0
SOLID
  5
2E0
100
AcDbEntity
  8
___SYMBOL
100
AcDbTrace
 62
2
  6
CONTINUOUS
 10
15.5159926981
 20
25.579182678
 11
15.262052957
 21
25.5745533425
 12
15.499789678
 22
25.6236940487
 13
15.499789678
 23
25.6236940487
  0
SOLID
  5
2E1
100
AcDbEntity
  8
___SYMBOL
100
AcDbTrace
 62
2
  6
CONTINUOUS
 10
15.499789678
 20
25.6236940487
 11
15.262052957
 21
25.5745533425
 12
15.4722438045
 22
25.6622300687
 13
15.4722438045
 23
25.6622300687
  0
SOLID
  5
2E2
100
AcDbEntity
  8
___SYMBOL
100
AcDbTrace
 62
2
  6
CONTINUOUS
 10
15.4722438045
 20
25.6622300687
 11
15.262052957
 21
25.5745533425
 12
15.4353728961
 22
25.6919678578
 13
15.4353728961
 23
25.6919678578
  0
SOLID
  5
2E3
100
AcDbEntity
  8
___SYMBOL
100
AcDbTrace
 62
2
  6
CONTINUOUS
 10
15.4353728961
 20
25.6919678578
 11
15.262052957
 21
25.5745533425
 12
15.3918778586
 22
25.710729033
 13
15.3918778586
 23
25.710729033
  0
SOLID
  5
2E4
100
AcDbEntity
  8
___SYMBOL
100
AcDbTrace
 62
2
  6
CONTINUOUS
 10
15.3918778586
 20
25.710729033
 11
15.262052957
 21
25.5745533425
 12
15.1113971344
 22
25.7171321758
 13
15.1113971344
 23
25.7171321758
  0
SOLID
  5
2E5
100
AcDbEntity
  8
___SYMBOL
100
AcDbTrace
 62
2
  6
CONTINUOUS
 10
15.1113971344
 20
25.1312185265
 11
15.1113971344
 21
25.7171321758
 12
15.262052957
 22
25.5745533425
 13
15.262052957
 23
25.5745533425
  0
SOLID
  5
2E6
100
AcDbEntity
  8
___SYMBOL
100
AcDbTrace
 62
2
  6
CONTINUOUS
 10
15.262052957
 20
25.3281748973
 11
15.262052957
 21
25.1312185265
 12
15.1113971344
 22
25.1312185265
 13
15.1113971344
 23
25.1312185265
  0
SOLID
  5
2E7
100
AcDbEntity
  8
___SYMBOL
100
AcDbTrace
 62
2
  6
CONTINUOUS
 10
15.262052957
 20
25.3281748973
 11
15.4173840828
 21
25.3828010677
 12
15.3868763862
 22
25.1312185265
 13
15.3868763862
 23
25.1312185265
  0
SOLID
  5
2E8
100
AcDbEntity
  8
___SYMBOL
100
AcDbTrace
 62
2
  6
CONTINUOUS
 10
15.4173840828
 20
25.3828010677
 11
15.5768273257
 21
25.1312185265
 12
15.3868763862
 22
25.1312185265
 13
15.3868763862
 23
25.1312185265
  0
CIRCLE
  5
2E9
100
AcDbEntity
  8
___SYMBOL
100
AcDbCircle
 62
2
  6
CONTINUOUS
 10
15.7175973004
 20
25.1312185265
 40
0.0653578721
  0
LINE
  5
2EA
100
AcDbEntity
  8
___SYMBOL
100
AcDbLine
 62
2
  6
CONTINUOUS
 10
15.7133092771
 20
25.130680777
 11
15.7451772899
 21
25.0983778357
  0
LINE
  5
2EB
100
AcDbEntity
  8
___SYMBOL
100
AcDbLine
 62
2
  6
CONTINUOUS
 10
15.7017113009
 20
25.0983778357
 11
15.7017113009
 21
25.1643440346
  0
LINE
  5
2EC
100
AcDbEntity
  8
___SYMBOL
100
AcDbLine
 62
2
  6
CONTINUOUS
 10
15.7017113009
 20
25.1643440346
 11
15.7259906339
 21
25.1643440346
  0
ARC
  5
2ED
100
AcDbEntity
  8
___SYMBOL
100
AcDbCircle
 62
2
  6
CONTINUOUS
 10
15.7259906339
 20
25.1475125849
 40
0.0168314496
100
AcDbArc
 50
270.0
 51
90.0
  0
LINE
  5
2EE
100
AcDbEntity
  8
___SYMBOL
100
AcDbLine
 62
2
  6
CONTINUOUS
 10
15.7259906339
 20
25.130680777
 11
15.7017113009
 21
25.130680777
  0
ENDBLK
  5
2EF
100
AcDbEntity
  8
0
  6
BYBLOCK
 62
0
100
AcDbBlockEnd
  0
BLOCK
  5
2F0
100
AcDbEntity
  8
___SYMBOL
100
AcDbBlockBegin
 62
2
  6
CONTINUOUS
  2
PLOTTING_TEMPLATE_NOTE_BL0
 70
64
 10
28.7156523201
 20
13.3149518746
  3
PLOTTING_TEMPLATE_NOTE_BL0
  1

  0
TEXT
  5
2F1
100
AcDbEntity
  8
___SYMBOL
100
AcDbText
 62
2
  6
CONTINUOUS
 10
25.4031523201
 20
14.5258893746
  7
STANDARD
 40
0.15625
  1
WHEN PLOTTING TEMPLATE FULL SIZE:
 41
0.8
 72
0
100
AcDbText
  0
TEXT
  5
2F2
100
AcDbEntity
  8
___SYMBOL
100
AcDbText
 62
2
  6
CONTINUOUS
 10
25.4031523201
 20
14.2915143746
  7
STANDARD
 40
0.15625
  1
Make sure horizontal and vertical dimensions
 41
0.8
 72
0
100
AcDbText
  0
TEXT
  5
2F3
100
AcDbEntity
  8
___SYMBOL
100
AcDbText
 62
2
  6
CONTINUOUS
 10
25.4031523201
 20
14.0571393746
  7
STANDARD
 40
0.15625
  1
match the dimensions labeled on the template.
 41
0.8
 72
0
100
AcDbText
  0
TEXT
  5
2F4
100
AcDbEntity
  8
___SYMBOL
100
AcDbText
 62
2
  6
CONTINUOUS
 10
25.4031523201
 20
13.8227643746
  7
STANDARD
 40
0.15625
  1
 
 41
0.8
 72
0
100
AcDbText
  0
TEXT
  5
2F5
100
AcDbEntity
  8
___SYMBOL
100
AcDbText
 62
2
  6
CONTINUOUS
 10
25.4031523201
 20
13.5883893746
  7
STANDARD
 40
0.15625
  1
AL TRAZAR LA PLANTILLA A ESCALA,
 41
0.8
 72
0
100
AcDbText
  0
TEXT
  5
2F6
100
AcDbEntity
  8
___SYMBOL
100
AcDbText
 62
2
  6
CONTINUOUS
 10
25.4031523201
 20
13.3540143746
  7
STANDARD
 40
0.15625
  1
asegúrese de que las dimensiones horizontales
 41
0.8
 72
0
100
AcDbText
  0
TEXT
  5
2F7
100
AcDbEntity
  8
___SYMBOL
100
AcDbText
 62
2
  6
CONTINUOUS
 10
25.4031523201
 20
13.1196393746
  7
STANDARD
 40
0.15625
  1
y verticales concuerden con las dimensiones marcadas
 41
0.8
 72
0
100
AcDbText
  0
TEXT
  5
2F8
100
AcDbEntity
  8
___SYMBOL
100
AcDbText
 62
2
  6
CONTINUOUS
 10
25.4031523201
 20
12.8852643746
  7
STANDARD
 40
0.15625
  1
en la plantilla.
 41
0.8
 72
0
100
AcDbText
  0
TEXT
  5
2F9
100
AcDbEntity
  8
___SYMBOL
100
AcDbText
 62
2
  6
CONTINUOUS
 10
25.4031523201
 20
12.6508893746
  7
STANDARD
 40
0.15625
  1
 
 41
0.8
 72
0
100
AcDbText
  0
TEXT
  5
2FA
100
AcDbEntity
  8
___SYMBOL
100
AcDbText
 62
2
  6
CONTINUOUS
 10
25.4031523201
 20
12.4165143746
  7
STANDARD
 40
0.15625
  1
AU MOMENT DE TRACER LA DÉCOUPE À L'ÉCHELLE,
 41
0.8
 72
0
100
AcDbText
  0
TEXT
  5
2FB
100
AcDbEntity
  8
___SYMBOL
100
AcDbText
 62
2
  6
CONTINUOUS
 10
25.4031523201
 20
12.1821393746
  7
STANDARD
 40
0.15625
  1
Assurez vos que les dimensions horizotales et
 41
0.8
 72
0
100
AcDbText
  0
TEXT
  5
2FC
100
AcDbEntity
  8
___SYMBOL
100
AcDbText
 62
2
  6
CONTINUOUS
 10
25.4031523201
 20
11.9477643746
  7
STANDARD
 40
0.15625
  1
verticales correspondent avec les dimensions du plan.
 41
0.8
 72
0
100
AcDbText
  0
ENDBLK
  5
2FD
100
AcDbEntity
  8
0
  6
BYBLOCK
 62
0
100
AcDbBlockEnd
  0
BLOCK
  5
2FE
100
AcDbEntity
  8
0
100
AcDbBlockBegin
  2
_FILLED
 70
64
 10
0.0
 20
0.0
  3
_FILLED
  1

  0
SOLID
  5
2FF
100
AcDbEntity
  8
0
  6
BYBLOCK
 62
0
100
AcDbTrace
 10
0.0
 20
0.0
 11
-1.0
 21
0.1666666667
 12
-1.0
 22
-0.1666666667
 13
-1.0
 23
-0.1666666667
  0
ENDBLK
  5
300
100
AcDbEntity
  8
0
  6
BYBLOCK
 62
0
100
AcDbBlockEnd
  0
BLOCK
  5
301
100
AcDbEntity
  8
0
100
AcDbBlockBegin
 62
2
  6
CONTINUOUS
  2
*D0
 70
65
 10
0.0
 20
0.0
  3
*D0
  1

  0
MTEXT
  5
302
100
AcDbEntity
  8
0
100
AcDbMText
 62
2
  6
CONTINUOUS
  7
STANDARD
 71
3
 72
1
 10
31.4294849834
 20
26.4481027009
 30
0.0
 11
1.0
 21
0.0
 31
0.0
 73
2
 44
0.9
  1
R13/32"\P[1]
 40
0.15625
 41
0.875
  0
LINE
  5
303
100
AcDbEntity
  8
0
100
AcDbLine
 62
2
  6
CONTINUOUS
 10
32.5889293159
 20
26.9196619699
 11
31.6794849834
 21
26.3699777009
  0
LINE
  5
304
100
AcDbEntity
  8
0
100
AcDbLine
 62
2
  6
CONTINUOUS
 10
31.6794849834
 20
26.3699777009
 11
31.5076099834
 21
26.3699777009
  0
INSERT
  5
305
100
AcDbEntity
  8
0
100
AcDbBlockReference
 62
2
  6
CONTINUOUS
  2
_FILLED
 10
32.5889293159
 20
26.9196619699
 41
0.1875
 42
0.1875
 43
0.1875
 50
31.1495090351
  0
ENDBLK
  5
306
100
AcDbEntity
  8
0
  6
BYBLOCK
 62
0
100
AcDbBlockEnd
  0
BLOCK
  5
307
100
AcDbEntity
  8
0
100
AcDbBlockBegin
 62
2
  6
CONTINUOUS
  2
*D1
 70
65
 10
0.0
 20
0.0
  3
*D1
  1

  0
MTEXT
  5
308
100
AcDbEntity
  8
0
100
AcDbMText
 62
2
  6
CONTINUOUS
  7
STANDARD
 71
1
 72
1
 10
24.2560289476
 20
18.912981395
 30
0.0
 11
1.0
 21
0.0
 31
0.0
 73
2
 44
0.9
  1
16-9/16"\P[42]
 40
0.15625
 41
1.0
  0
LINE
  5
309
100
AcDbEntity
  8
0
100
AcDbLine
 62
2
  6
CONTINUOUS
 10
24.8810289476
 20
27.109856395
 11
20.3234135825
 21
27.109856395
  0
LINE
  5
30A
100
AcDbEntity
  8
0
100
AcDbLine
 62
2
  6
CONTINUOUS
 10
24.7560289476
 20
10.559856395
 11
24.7560289476
 21
18.444231395
  0
LINE
  5
30B
100
AcDbEntity
  8
0
100
AcDbLine
 62
2
  6
CONTINUOUS
 10
24.7560289476
 20
27.109856395
 11
24.7560289476
 21
18.991106395
  0
INSERT
  5
30C
100
AcDbEntity
  8
0
100
AcDbBlockReference
 62
2
  6
CONTINUOUS
  2
_FILLED
 10
24.7560289476
 20
10.559856395
 41
0.1875
 42
0.1875
 43
0.1875
 50
270.0
  0
INSERT
  5
30D
100
AcDbEntity
  8
0
100
AcDbBlockReference
 62
2
  6
CONTINUOUS
  2
_FILLED
 10
24.7560289476
 20
27.109856395
 41
0.1875
 42
0.1875
 43
0.1875
 50
90.0
  0
ENDBLK
  5
30E
100
AcDbEntity
  8
0
  6
BYBLOCK
 62
0
100
AcDbBlockEnd
  0
BLOCK
  5
30F
100
AcDbEntity
  8
0
100
AcDbBlockBegin
 62
2
  6
CONTINUOUS
  2
*D2
 70
65
 10
0.0
 20
0.0
  3
*D2
  1

  0
MTEXT
  5
310
100
AcDbEntity
  8
0
100
AcDbMText
 62
2
  6
CONTINUOUS
  7
STANDARD
 71
1
 72
1
 10
21.5832360661
 20
16.214539295
 30
0.0
 11
1.0
 21
0.0
 31
0.0
 73
2
 44
0.9
  1
21-1/4"\P[54]
 40
0.15625
 41
0.875
  0
LINE
  5
311
100
AcDbEntity
  8
0
100
AcDbLine
 62
2
  6
CONTINUOUS
 10
11.3957360661
 20
16.4974534574
 11
11.3957360661
 21
16.011414295
  0
LINE
  5
312
100
AcDbEntity
  8
0
100
AcDbLine
 62
2
  6
CONTINUOUS
 10
32.6457360661
 20
16.136414295
 11
22.5363610661
 21
16.136414295
  0
LINE
  5
313
100
AcDbEntity
  8
0
100
AcDbLine
 62
2
  6
CONTINUOUS
 10
11.3957360661
 20
16.136414295
 11
21.5051110661
 21
16.136414295
  0
INSERT
  5
314
100
AcDbEntity
  8
0
100
AcDbBlockReference
 62
2
  6
CONTINUOUS
  2
_FILLED
 10
32.6457360661
 20
16.136414295
 41
0.1875
 42
0.1875
 43
0.1875
  0
INSERT
  5
315
100
AcDbEntity
  8
0
100
AcDbBlockReference
 62
2
  6
CONTINUOUS
  2
_FILLED
 10
11.3957360661
 20
16.136414295
 41
0.1875
 42
0.1875
 43
0.1875
 50
180.0
  0
ENDBLK
  5
316
100
AcDbEntity
  8
0
  6
BYBLOCK
 62
0
100
AcDbBlockEnd
  0
ENDSEC
  0
SECTION
  2
ENTITIES
  0
DIMENSION
  5
317
100
AcDbEntity
  8
0
100
AcDbDimension
 62
2
  6
CONTINUOUS
  2
*D0
 10
32.2517360661
 20
26.715856395
 11
30.9919849834
 21
26.2527902009
 70
164
 71
3
 72
2
 41
0.9
 42
0.394
  1
R<>"\P[]
  3
DIMSTYLE_1
100
AcDbRadialDimension
 15
32.5889293159
 25
26.9196619699
  0
DIMENSION
  5
318
100
AcDbEntity
  8
0
100
AcDbDimension
 62
2
  6
CONTINUOUS
  2
*D1
 10
24.7560289476
 20
27.109856395
 11
24.7560289476
 21
18.717668895
 70
160
 71
1
 72
2
 41
0.9
 42
16.55
  1
<>"\P[]
  3
DIMSTYLE_2
100
AcDbAlignedDimension
 13
32.2517360661
 23
10.559856395
 14
20.2609135825
 24
27.109856395
 50
90.0
100
AcDbRotatedDimension
  0
DIMENSION
  5
319
100
AcDbEntity
  8
0
100
AcDbDimension
 62
2
  6
CONTINUOUS
  2
*D2
 10
11.3957360661
 20
16.136414295
 11
22.0207360661
 21
16.019226795
 70
160
 71
1
 72
2
 41
0.9
 42
21.25
  1
<>"\P[]
  3
DIMSTYLE_3
100
AcDbAlignedDimension
 13
32.6457360661
 23
26.715856395
 14
11.3957360661
 24
16.5599534574
 50
180.0
100
AcDbRotatedDimension
  0
MTEXT
  5
31A
100
AcDbEntity
  8
___NOTE
100
AcDbMText
 62
2
  6
CONTINUOUS
  7
STANDARD
 71
1
 72
1
 10
13.1672836783
 20
14.9877821587
 30
0.0
 11
1.0
 21
0.0
 31
0.0
 73
2
 44
0.9
  3
IMPORTANT!\PFor proper fit of the included accessories, \Pcut the countertop according to the template cut line.\PIMPORTANT! \PPour bien adapter les accessoires inclus, \Pdécouper le comptoir selon la ligne de découpe du gabarit.\PIMPORTANTE! \PPara 
  1
que los accesorios incluidos queden bien,\Pcorte la encimera según la línea de corte de la plantilla.
 40
0.15625
 41
7.25
  0
MTEXT
  5
31B
100
AcDbEntity
  8
___NOTE
100
AcDbMText
 62
2
  6
CONTINUOUS
  7
STANDARD
 71
1
 72
1
 10
12.920698592
 20
11.5016067073
 30
0.0
 11
1.0
 21
0.0
 31
0.0
 73
2
 44
0.9
  1
1564886-7-A\P \P \P \P \P \P \P1564886-7-A
 40
0.25
 41
2.2
  0
LEADER
  5
31C
100
AcDbEntity
  8
___NOTE
100
AcDbLeader
 62
2
  6
CONTINUOUS
  3
STANDARD
 71
1
 72
0
 73
0
 75
0
 40
0.15625
 41
1.375
 76
3
 10
33.5207360661
 20
25.2053659369
 30
0.0
 10
31.5539353822
 20
23.9174873691
 30
0.0
 10
31.3039353822
 20
23.9174873691
 30
0.0
340
31D
1001
ACAD
1000
DSTYLE
1002
{
1070
77
1070
0
1002
}
  0
MTEXT
  5
31D
102
{ACAD_REACTORS
330
31C
102
}
100
AcDbEntity
  8
___NOTE
100
AcDbMText
 62
2
  6
CONTINUOUS
  7
STANDARD
 71
3
 72
1
 10
31.3039353822
 20
23.9956123691
 30
0.0
 11
1.0
 21
0.0
 31
0.0
 73
2
 44
0.9
  1
RIM OF SINK\PREBORD DE L'ÉVIER\PBORDE DEL FREGADERO
 40
0.15625
 41
2.375
  0
LEADER
  5
31E
100
AcDbEntity
  8
___NOTE
100
AcDbLeader
 62
2
  6
CONTINUOUS
  3
STANDARD
 71
1
 72
0
 73
0
 75
0
 40
0.15625
 41
3.5
 76
3
 10
32.6457360661
 20
22.2733323435
 30
0.0
 10
31.5180617747
 20
21.4540579851
 30
0.0
 10
31.2680617747
 20
21.4540579851
 30
0.0
340
31F
1001
ACAD
1000
DSTYLE
1002
{
1070
77
1070
0
1002
}
  0
MTEXT
  5
31F
102
{ACAD_REACTORS
330
31E
102
}
100
AcDbEntity
  8
___NOTE
100
AcDbMText
 62
2
  6
CONTINUOUS
  7
STANDARD
 71
3
 72
1
 10
31.2680617747
 20
21.5321829851
 30
0.0
 11
1.0
 21
0.0
 31
0.0
 73
2
 44
0.9
  1
FOR UNDER-MOUNT INSTALLATION\PCUT ALONG THIS LINE\PPARA INSTALACIÓN DE MONTAJE POR ABAJO\PCORTE A LO LARGO DE ESTA LÍNEA\PPOUR INSTALLATION À MONTAGE SOUS PLAN\PCOUPER LE LONG DE CETTE LIGNE\P 
 40
0.15625
 41
4.625
  0
INSERT
  5
320
100
AcDbEntity
  8
___SYMBOL
100
AcDbBlockReference
 62
2
  6
CONTINUOUS
  2
PLOTTING_TEMPLATE_NOTE_BL0
 10
28.7156523201
 20
13.3149518746
  0
INSERT
  5
321
100
AcDbEntity
  8
___SYMBOL
100
AcDbBlockReference
 62
2
  6
CONTINUOUS
  2
CUT-OUT_TEMPLATE_SKU_SIN_BL1
 10
18.6325803931
 20
24.482109722
  0
INSERT
  5
322
100
AcDbEntity
  8
___SYMBOL
100
AcDbBlockReference
 62
2
  6
CONTINUOUS
  2
COPYRIGHT_YEAR_BL2
 10
30.6329582539
 20
11.0370793285
  0
INSERT
  5
323
100
AcDbEntity
  8
___SYMBOL
100
AcDbBlockReference
 62
2
  6
CONTINUOUS
  2
SCISSORS_BL3
 10
32.6687074872
 20
21.259253446
  0
LINE
  5
324
100
AcDbEntity
  8
_CURVE
100
AcDbLine
 62
8
  6
PHANTOM
 10
10.5207360661
 20
27.734856395
 11
10.5207360661
 21
9.934856395
  0
LINE
  5
325
100
AcDbEntity
  8
_CURVE
100
AcDbLine
 62
7
  6
CONTINUOUS
 10
11.3957360661
 20
10.953856395
 11
11.3957360661
 21
26.715856395
  0
LINE
  5
326
100
AcDbEntity
  8
_CURVE
100
AcDbLine
 62
8
  6
PHANTOM
 10
10.7707360661
 20
9.684856395
 11
33.2707360661
 21
9.684856395
  0
LINE
  5
327
100
AcDbEntity
  8
_CURVE
100
AcDbLine
 62
7
  6
CONTINUOUS
 10
32.2517360661
 20
10.559856395
 11
11.7897360661
 21
10.559856395
  0
LINE
  5
328
100
AcDbEntity
  8
_CURVE
100
AcDbLine
 62
8
  6
CENTER
 10
22.0207360661
 20
29.984856395
 11
22.0207360661
 21
25.984856395
  0
LINE
  5
329
100
AcDbEntity
  8
_CURVE
100
AcDbLine
 62
8
  6
CENTER
 10
22.0207360661
 20
7.684856395
 11
22.0207360661
 21
11.684856395
  0
LINE
  5
32A
100
AcDbEntity
  8
_CURVE
100
AcDbLine
 62
8
  6
CENTER
 10
35.5207360661
 20
18.834856395
 11
31.5207360661
 21
18.834856395
  0
LINE
  5
32B
100
AcDbEntity
  8
_CURVE
100
AcDbLine
 62
8
  6
CENTER
 10
8.5207360661
 20
18.834856395
 11
12.5207360661
 21
18.834856395
  0
LINE
  5
32C
100
AcDbEntity
  8
_CURVE
100
AcDbLine
 62
7
  6
CONTINUOUS
 10
11.7897360661
 20
27.109856395
 11
32.2517360661
 21
27.109856395
  0
LINE
  5
32D
100
AcDbEntity
  8
_CURVE
100
AcDbLine
 62
8
  6
PHANTOM
 10
33.2707360661
 20
27.984856395
 11
10.7707360661
 21
27.984856395
  0
LINE
  5
32E
100
AcDbEntity
  8
_CURVE
100
AcDbLine
 62
7
  6
CONTINUOUS
 10
32.6457360661
 20
26.715856395
 11
32.6457360661
 21
10.953856395
  0
LINE
  5
32F
100
AcDbEntity
  8
_CURVE
100
AcDbLine
 62
8
  6
PHANTOM
 10
33.5207360661
 20
9.934856395
 11
33.5207360661
 21
27.734856395
  0
ARC
  5
330
100
AcDbEntity
  8
_CURVE
100
AcDbCircle
 62
7
  6
CONTINUOUS
 10
11.7897360661
 20
26.715856395
 40
0.394
100
AcDbArc
 50
90.0
 51
180.0
  0
ARC
  5
331
100
AcDbEntity
  8
_CURVE
100
AcDbCircle
 62
7
  6
CONTINUOUS
 10
11.7897360661
 20
10.953856395
 40
0.394
100
AcDbArc
 50
180.0
 51
270.0
  0
ARC
  5
332
100
AcDbEntity
  8
_CURVE
100
AcDbCircle
 62
7
  6
CONTINUOUS
 10
32.2517360661
 20
10.953856395
 40
0.394
100
AcDbArc
 50
270.0
 51
360.0
  0
ARC
  5
333
100
AcDbEntity
  8
_CURVE
100
AcDbCircle
 62
7
  6
CONTINUOUS
 10
32.2517360661
 20
26.715856395
 40
0.394
100
AcDbArc
 50
0.0
 51
90.0
  0
ARC
  5
334
100
AcDbEntity
  8
_CURVE
100
AcDbCircle
 62
8
  6
PHANTOM
 10
33.2707360661
 20
27.734856395
 40
0.25
100
AcDbArc
 50
0.0
 51
90.0
  0
ARC
  5
335
100
AcDbEntity
  8
_CURVE
100
AcDbCircle
 62
8
  6
PHANTOM
 10
10.7707360661
 20
27.734856395
 40
0.25
100
AcDbArc
 50
90.0
 51
180.0
  0
ARC
  5
336
100
AcDbEntity
  8
_CURVE
100
AcDbCircle
 62
8
  6
PHANTOM
 10
10.7707360661
 20
9.934856395
 40
0.25
100
AcDbArc
 50
180.0
 51
270.0
  0
ARC
  5
337
100
AcDbEntity
  8
_CURVE
100
AcDbCircle
 62
8
  6
PHANTOM
 10
33.2707360661
 20
9.934856395
 40
0.25
100
AcDbArc
 50
270.0
 51
360.0
  0
ENDSEC
  0
SECTION
  2
OBJECTS
  0
DICTIONARY
  5
C
100
AcDbDictionary
280
0
281
1
  3
ACAD_GROUP
350
D
  3
ACAD_MLINESTYLE
350
17
  3
ACAD_LAYOUT
350
1A
  3
ACAD_PLOTSETTINGS
350
19
  3
ACAD_PLOTSTYLENAME
350
E
  0
DICTIONARY
  5
D
102
{ACAD_REACTORS
330
C
102
}
100
AcDbDictionary
280
0
281
1
  0
ACDBDICTIONARYWDFLT
  5
E
102
{ACAD_REACTORS
330
C
102
}
100
AcDbDictionary
281
1
  3
Normal
350
F
100
AcDbDictionaryWithDefault
340
F
  0
DICTIONARY
  5
17
102
{ACAD_REACTORS
330
C
102
}
100
AcDbDictionary
280
0
281
1
  3
Standard
350
18
  0
DICTIONARY
  5
19
102
{ACAD_REACTORS
330
C
102
}
100
AcDbDictionary
281
1
  0
DICTIONARY
  5
1A
102
{ACAD_REACTORS
330
C
102
}
100
AcDbDictionary
281
1
  3
Model
350
338
  3
Layout1
350
339
  0
ACDBPLACEHOLDER
  5
F
102
{ACAD_REACTORS
330
E
102
}
  0
MLINESTYLE
  5
18
102
{ACAD_REACTORS
330
17
102
}
100
AcDbMlineStyle
  2
STANDARD
 70
0
  3

 62
256
 51
90.0
 52
90.0
 71
2
 49
0.5
 62
256
  6
BYLAYER
 49
-0.5
 62
256
  6
BYLAYER
  0
LAYOUT
  5
338
102
{ACAD_REACTORS
330
1A
102
}
100
AcDbPlotSettings
  1

  2
none_device
  4
ANSI_E_(44.00_x_34.00_Inches)
  6

 40
0.0
 41
0.0
 42
0.0
 43
0.0
 44
1117.6
 45
863.6
 46
0.0
 47
0.0
 48
0.0
 49
0.0
140
0.0
141
0.0
142
1.0
143
1.0
 70
1024
 72
0
 73
0
 74
0
  7

 75
0
147
1.0
148
0.0
149
0.0
100
AcDbLayout
  1
Model
 70
0
 71
0
 10
0.0
 20
0.0
 11
44.0
 21
34.0
 12
0.0
 22
0.0
 32
0.0
 14
0.0
 24
0.0
 34
0.0
 15
0.0
 25
0.0
 35
0.0
146
0.0
 13
0.0
 23
0.0
 33
0.0
 16
1.0
 26
0.0
 36
0.0
 17
0.0
 27
1.0
 37
0.0
 76
0
330
20B
345
0
346
0
  0
LAYOUT
  5
339
102
{ACAD_REACTORS
330
1A
102
}
100
AcDbPlotSettings
  1

  2
none_device
  4
ANSI_E_(44.00_x_34.00_Inches)
  6

 40
0.0
 41
0.0
 42
0.0
 43
0.0
 44
1117.6
 45
863.6
 46
0.0
 47
0.0
 48
0.0
 49
0.0
140
0.0
141
0.0
142
1.0
143
1.0
 70
0
 72
0
 73
0
 74
0
  7

 75
0
147
1.0
148
0.0
149
0.0
100
AcDbLayout
  1
Layout1
 70
0
 71
1
 10
0.0
 20
0.0
 11
44.0
 21
34.0
 12
0.0
 22
0.0
 32
0.0
 14
0.0
 24
0.0
 34
0.0
 15
0.0
 25
0.0
 35
0.0
146
0.0
 13
0.0
 23
0.0
 33
0.0
 16
1.0
 26
0.0
 36
0.0
 17
0.0
 27
1.0
 37
0.0
 76
0
330
20C
345
0
346
0
  0
ENDSEC
  0
EOF
