999
DXF file: 1564888-7.dxf
999
Pro/ENGINEER 2021304 by Parametric Technology Corporation
  0
SECTION
  2
HEADER
  9
$ACADVER
  1
AC1015
  9
$DWGCODEPAGE
  3
ANSI_1252
  9
$EXTMAX
 10
44.0
 20
34.0
 30
0.0
  9
$EXTMIN
 10
0.0
 20
0.0
 30
0.0
  9
$LIMMIN
 10
0.0
 20
0.0
  9
$LIMMAX
 10
44.0
 20
34.0
  9
$VIEWCTR
 10
22.0
 20
17.0
  9
$VIEWSIZE
 40
34.0
  9
$CLAYER
  8
0
  9
$LTSCALE
 40
2.42
  9
$CELTYPE
  6
BYLAYER
  9
$DIMSCALE
 40
1.0
  9
$DIMASZ
 40
0.1875
  9
$DIMEXO
 40
0.0625
  9
$DIMDLI
 40
1.672
  9
$DIMEXE
 40
0.125
  9
$DIMCEN
 40
0.396
  9
$DIMLFAC
 40
1.0
  9
$DIMBLK
  1
_FILLED
  9
$DIMALT
 70
1
  9
$DIMALTD
 70
2
  9
$DIMALTTD
 70
2
  9
$DIMALTF
 40
25.4
  9
$DIMTXT
 40
0.15625
  9
$DIMTOL
 70
1
  9
$DIMLIM
 70
0
  9
$DIMTFAC
 40
1.0
  9
$DIMTP
 40
0.01
  9
$DIMTM
 40
0.01
  9
$DIMGAP
 40
0.09
  9
$DIMDSEP
 70
46
  9
$AUNITS
 70
0
  9
$PDMODE
 70
3
  9
$PDSIZE
 40
0.3125
  9
$HANDSEED
  5
407
  9
$TILEMODE
 70
1
  9
$MEASUREMENT
 70
0
  9
$INSUNITS
 70
1
  0
ENDSEC
  0
SECTION
  2
CLASSES
  0
CLASS
  1
ACDBDICTIONARYWDFLT
  2
AcDbDictionaryWithDefault
  3
AutoCAD 2000
 90
0
280
0
281
0
  0
CLASS
  1
ACDBPLACEHOLDER
  2
AcDbPlaceHolder
  3
AutoCAD 2000
 90
0
280
0
281
0
  0
CLASS
  1
LAYOUT
  2
AcDbLayout
  3
AutoCAD 2000
 90
0
280
0
281
0
  0
ENDSEC
  0
SECTION
  2
TABLES
  0
TABLE
  2
VPORT
  5
8
100
AcDbSymbolTable
 70
2
  0
VPORT
  5
1F4
100
AcDbSymbolTableRecord
100
AcDbViewportTableRecord
  2
*ACTIVE
 70
0
 10
0.0
 20
0.0
 11
1.0
 21
1.0
 12
22.0
 22
17.0
 13
0.0
 23
0.0
 14
1.0
 24
1.0
 15
0.0
 25
0.0
 16
0.0
 26
0.0
 36
1.0
 17
0.0
 27
0.0
 37
0.0
 40
34.0
 41
1.2941176471
 42
50.0
 43
0.0
 44
0.0
 50
0.0
 51
0.0
 71
0
 72
100
 73
1
 74
1
 75
0
 76
0
 77
0
 78
0
  0
ENDTAB
  0
TABLE
  2
LTYPE
  5
5
100
AcDbSymbolTable
 70
6
  0
LTYPE
  5
14
100
AcDbSymbolTableRecord
100
AcDbLinetypeTableRecord
  2
BYBLOCK
 70
0
  3

 72
65
 73
0
 40
0.0
  0
LTYPE
  5
15
100
AcDbSymbolTableRecord
100
AcDbLinetypeTableRecord
  2
BYLAYER
 70
0
  3

 72
65
 73
0
 40
0.0
  0
LTYPE
  5
16
100
AcDbSymbolTableRecord
100
AcDbLinetypeTableRecord
  2
CONTINUOUS
 70
64
  3
Solid line
 72
65
 73
0
 40
0.0
  0
LTYPE
  5
1F5
100
AcDbSymbolTableRecord
100
AcDbLinetypeTableRecord
  2
CENTER
 70
64
  3
____ _ ____ _ ____ _ ____ _ ____ _ ____ _ ____
 72
65
 73
4
 40
0.6
 49
0.375
 74
0
 49
-0.075
 74
0
 49
0.075
 74
0
 49
-0.075
 74
0
  0
LTYPE
  5
1F6
100
AcDbSymbolTableRecord
100
AcDbLinetypeTableRecord
  2
HIDDEN
 70
64
  3
- - - - - - - - - - - - - - - - - - - -
 72
65
 73
2
 40
0.2
 49
0.1
 74
0
 49
-0.1
 74
0
  0
LTYPE
  5
1F7
100
AcDbSymbolTableRecord
100
AcDbLinetypeTableRecord
  2
PHANTOM
 70
64
  3
_____ _ _ _____ _ _ _____ _ _ _____
 72
65
 73
6
 40
0.8
 49
0.45
 74
0
 49
-0.05
 74
0
 49
0.1
 74
0
 49
-0.05
 74
0
 49
0.1
 74
0
 49
-0.05
 74
0
  0
LTYPE
  5
1F8
100
AcDbSymbolTableRecord
100
AcDbLinetypeTableRecord
  2
DOT
 70
64
  3
. . . . . . . . . . . . . . . . . . . .
 72
65
 73
2
 40
0.2
 49
0.1
 74
0
 49
-0.1
 74
0
  0
LTYPE
  5
1F9
100
AcDbSymbolTableRecord
100
AcDbLinetypeTableRecord
  2
DASHED
 70
64
  3
- - - - - - - - - - - - - - - - - - - -
 72
65
 73
2
 40
0.2
 49
0.1
 74
0
 49
-0.1
 74
0
  0
ENDTAB
  0
TABLE
  2
LAYER
  5
2
100
AcDbSymbolTable
 70
36
  0
LAYER
  5
10
100
AcDbSymbolTableRecord
100
AcDbLayerTableRecord
  2
0
 70
0
 62
7
  6
CONTINUOUS
370
-3
390
F
  0
LAYER
  5
1FA
100
AcDbSymbolTableRecord
100
AcDbLayerTableRecord
  2
DEFAULT_1
 70
0
 62
7
  6
CENTER
370
-3
390
F
  0
LAYER
  5
1FB
100
AcDbSymbolTableRecord
100
AcDbLayerTableRecord
  2
DEFAULT_2
 70
0
 62
8
  6
HIDDEN
370
-3
390
F
  0
LAYER
  5
1FC
100
AcDbSymbolTableRecord
100
AcDbLayerTableRecord
  2
DEFAULT_3
 70
0
 62
7
  6
PHANTOM
370
-3
390
F
  0
LAYER
  5
1FD
100
AcDbSymbolTableRecord
100
AcDbLayerTableRecord
  2
DATUMS
 70
0
 62
7
  6
CONTINUOUS
370
-3
390
F
  0
LAYER
  5
1FE
100
AcDbSymbolTableRecord
100
AcDbLayerTableRecord
  2
DATUM_AXIS
 70
0
 62
7
  6
CONTINUOUS
370
-3
390
F
  0
LAYER
  5
1FF
100
AcDbSymbolTableRecord
100
AcDbLayerTableRecord
  2
DATUM_CSYS
 70
0
 62
7
  6
CONTINUOUS
370
-3
390
F
  0
LAYER
  5
200
100
AcDbSymbolTableRecord
100
AcDbLayerTableRecord
  2
DATUM_PLANE
 70
0
 62
7
  6
CONTINUOUS
370
-3
390
F
  0
LAYER
  5
201
100
AcDbSymbolTableRecord
100
AcDbLayerTableRecord
  2
DATUM_POINT
 70
0
 62
7
  6
CONTINUOUS
370
-3
390
F
  0
LAYER
  5
202
100
AcDbSymbolTableRecord
100
AcDbLayerTableRecord
  2
_CURVE
 70
0
 62
7
  6
CONTINUOUS
370
-3
390
F
  0
LAYER
  5
203
100
AcDbSymbolTableRecord
100
AcDbLayerTableRecord
  2
_SURFACE
 70
0
 62
7
  6
CONTINUOUS
370
-3
390
F
  0
LAYER
  5
204
100
AcDbSymbolTableRecord
100
AcDbLayerTableRecord
  2
__REF_CURVE
 70
0
 62
7
  6
CONTINUOUS
370
-3
390
F
  0
LAYER
  5
205
100
AcDbSymbolTableRecord
100
AcDbLayerTableRecord
  2
__REF_SURFACE
 70
0
 62
7
  6
CONTINUOUS
370
-3
390
F
  0
LAYER
  5
206
100
AcDbSymbolTableRecord
100
AcDbLayerTableRecord
  2
___NOTE
 70
0
 62
7
  6
CONTINUOUS
370
-3
390
F
  0
LAYER
  5
207
100
AcDbSymbolTableRecord
100
AcDbLayerTableRecord
  2
___SYMBOL
 70
0
 62
7
  6
CONTINUOUS
370
-3
390
F
  0
ENDTAB
  0
TABLE
  2
STYLE
  5
3
100
AcDbSymbolTable
 70
1
  0
STYLE
  5
11
100
AcDbSymbolTableRecord
100
AcDbTextStyleTableRecord
  2
STANDARD
 70
0
 40
0.0
 41
0.8
 50
0.0
 71
0
 42
0.2
  3
txt
  4

  0
STYLE
  5
208
100
AcDbSymbolTableRecord
100
AcDbTextStyleTableRecord
  2
TEXTSTYLE_1
 70
0
 40
0.0
 41
0.8
 50
0.0
 71
0
 42
0.2
  3
gdt
  4

  0
STYLE
  5
209
100
AcDbSymbolTableRecord
100
AcDbTextStyleTableRecord
  2
TEXTSTYLE_2
 70
0
 40
0.0
 41
1.0
 50
0.0
 71
0
 42
0.2
  3
txt
  4

  0
ENDTAB
  0
TABLE
  2
VIEW
  5
6
100
AcDbSymbolTable
 70
0
  0
ENDTAB
  0
TABLE
  2
UCS
  5
7
100
AcDbSymbolTable
 70
0
  0
ENDTAB
  0
TABLE
  2
APPID
  5
9
100
AcDbSymbolTable
 70
1
  0
APPID
  5
20A
100
AcDbSymbolTableRecord
100
AcDbRegAppTableRecord
  2
ACAD
 70
0
  0
ENDTAB
  0
TABLE
  2
BLOCK_RECORD
  5
1
100
AcDbSymbolTable
 70
0
  0
BLOCK_RECORD
  5
20B
100
AcDbSymbolTableRecord
100
AcDbBlockTableRecord
  2
*Model_Space
  0
BLOCK_RECORD
  5
20C
100
AcDbSymbolTableRecord
100
AcDbBlockTableRecord
  2
*Paper_Space
  0
BLOCK_RECORD
  5
20D
100
AcDbSymbolTableRecord
100
AcDbBlockTableRecord
  2
_FILLED
  0
BLOCK_RECORD
  5
20E
100
AcDbSymbolTableRecord
100
AcDbBlockTableRecord
  2
*D0
  0
BLOCK_RECORD
  5
20F
100
AcDbSymbolTableRecord
100
AcDbBlockTableRecord
  2
*D1
  0
BLOCK_RECORD
  5
210
100
AcDbSymbolTableRecord
100
AcDbBlockTableRecord
  2
*D2
  0
BLOCK_RECORD
  5
211
100
AcDbSymbolTableRecord
100
AcDbBlockTableRecord
  2
SCISSORS_BL3
  0
BLOCK_RECORD
  5
212
100
AcDbSymbolTableRecord
100
AcDbBlockTableRecord
  2
COPYRIGHT_YEAR_BL2
  0
BLOCK_RECORD
  5
213
100
AcDbSymbolTableRecord
100
AcDbBlockTableRecord
  2
CUT-OUT_TEMPLATE_SKU_SIN_BL1
  0
BLOCK_RECORD
  5
214
100
AcDbSymbolTableRecord
100
AcDbBlockTableRecord
  2
PLOTTING_TEMPLATE_NOTE_BL0
  0
ENDTAB
  0
TABLE
  2
DIMSTYLE
  5
A
100
AcDbSymbolTable
 70
1
100
AcDbDimStyleTable
 71
0
  0
DIMSTYLE
105
215
100
AcDbSymbolTableRecord
100
AcDbDimStyleTableRecord
  2
STANDARD
 70
0
  3

  4

 40
1.0
 41
0.1875
 42
0.0625
 43
0.38
 44
0.125
 45
0.0
 46
0.0
 47
0.01
 48
0.01
140
0.15625
141
0.09
142
0.0
143
2.54
144
1.0
145
0.0
146
1.0
147
0.09
 71
1
 72
0
 73
1
 74
1
 75
0
 76
0
 77
0
 78
4
 79
1
170
1
171
2
172
0
173
0
174
0
175
0
176
0
177
0
178
0
270
2
179
3
271
3
272
3
273
2
274
2
275
0
280
0
281
0
282
0
283
1
284
4
285
0
286
0
287
3
288
0
340
11
278
46
341
20D
342
20D
343
20D
344
20D
  0
DIMSTYLE
105
216
100
AcDbSymbolTableRecord
100
AcDbDimStyleTableRecord
  2
DIMSTYLE_1
 70
0
  3
<>
  4

 40
1.0
 41
0.1875
 42
0.0625
 43
0.38
 44
0.125
 45
0.0
 46
0.0
 47
0.01
 48
0.01
140
0.15625
141
0.09
142
0.0
143
2.54
144
1.0
145
0.0
146
1.0
147
0.09
 71
0
 72
0
 73
1
 74
1
 75
0
 76
0
 77
0
 78
4
 79
1
170
1
171
1
172
0
173
0
174
0
175
0
176
0
177
0
178
0
270
2
179
3
271
5
272
32
273
2
274
1
275
0
280
0
281
0
282
0
283
1
284
4
285
0
286
0
287
3
288
0
340
11
278
46
341
20D
342
20D
343
20D
344
20D
  0
DIMSTYLE
105
217
100
AcDbSymbolTableRecord
100
AcDbDimStyleTableRecord
  2
DIMSTYLE_2
 70
0
  3

  4

 40
1.0
 41
0.1875
 42
0.0625
 43
0.38
 44
0.125
 45
0.0
 46
0.0
 47
0.0625
 48
0.0625
140
0.15625
141
0.09
142
0.0
143
2.54
144
1.0
145
0.0
146
1.0
147
0.078125
 71
0
 72
0
 73
1
 74
1
 75
0
 76
0
 77
0
 78
4
 79
1
170
1
171
1
172
0
173
0
174
0
175
0
176
0
177
0
178
0
270
2
179
3
271
5
272
32
273
2
274
2
275
0
280
0
281
0
282
0
283
1
284
4
285
0
286
0
287
3
288
0
340
11
278
46
341
20D
342
20D
343
20D
344
20D
  0
DIMSTYLE
105
218
100
AcDbSymbolTableRecord
100
AcDbDimStyleTableRecord
  2
DIMSTYLE_3
 70
0
  3

  4

 40
1.0
 41
0.1875
 42
0.0625
 43
0.38
 44
0.125
 45
0.0
 46
0.0
 47
0.03125
 48
0.03125
140
0.15625
141
0.09
142
0.0
143
2.54
144
1.0
145
0.0
146
1.0
147
0.078125
 71
0
 72
0
 73
1
 74
1
 75
0
 76
0
 77
0
 78
4
 79
1
170
1
171
1
172
0
173
0
174
0
175
0
176
0
177
0
178
0
270
2
179
3
271
5
272
32
273
2
274
2
275
0
280
0
281
0
282
0
283
1
284
4
285
0
286
0
287
3
288
0
340
11
278
46
341
20D
342
20D
343
20D
344
20D
  0
ENDTAB
  0
ENDSEC
  0
SECTION
  2
BLOCKS
  0
BLOCK
  5
20
100
AcDbEntity
  8
0
100
AcDbBlockBegin
  2
*Model_Space
 70
0
 10
0.0
 20
0.0
 30
0.0
  3
*Model_Space
  1

  0
ENDBLK
  5
21
100
AcDbEntity
  8
0
100
AcDbBlockEnd
  0
BLOCK
  5
1C
100
AcDbEntity
  8
0
100
AcDbBlockBegin
  2
*Paper_Space
 70
0
 10
0.0
 20
0.0
 30
0.0
  3
*Paper_Space
  1

  0
ENDBLK
  5
1D
100
AcDbEntity
  8
0
100
AcDbBlockEnd
  0
BLOCK
  5
219
100
AcDbEntity
  8
___SYMBOL
100
AcDbBlockBegin
 62
2
  6
CONTINUOUS
  2
SCISSORS_BL3
 70
64
 10
37.1687074872
 20
21.259253446
  3
SCISSORS_BL3
  1

  0
LINE
  5
21A
100
AcDbEntity
  8
___SYMBOL
100
AcDbLine
 62
7
  6
CONTINUOUS
 10
37.1110662205
 20
21.3209519669
 11
36.9989864473
 21
21.8746102686
  0
LINE
  5
21B
100
AcDbEntity
  8
___SYMBOL
100
AcDbLine
 62
7
  6
CONTINUOUS
 10
37.0626865613
 20
21.2914508914
 11
36.9989864473
 21
21.8746102686
  0
LINE
  5
21C
100
AcDbEntity
  8
___SYMBOL
100
AcDbLine
 62
7
  6
CONTINUOUS
 10
37.1383283258
 20
21.2252679749
 11
37.1367607118
 21
21.2761213817
  0
LINE
  5
21D
100
AcDbEntity
  8
___SYMBOL
100
AcDbLine
 62
7
  6
CONTINUOUS
 10
37.1531384131
 20
21.2768013712
 11
37.1547168138
 21
21.2255980404
  0
LINE
  5
21E
100
AcDbEntity
  8
___SYMBOL
100
AcDbLine
 62
7
  6
CONTINUOUS
 10
37.1472203302
 20
21.454170821
 11
37.3349347198
 21
21.8648747876
  0
LINE
  5
21F
100
AcDbEntity
  8
___SYMBOL
100
AcDbLine
 62
7
  6
CONTINUOUS
 10
37.0331115084
 20
21.1959007204
 11
37.0656406023
 21
21.2573132884
  0
LINE
  5
220
100
AcDbEntity
  8
___SYMBOL
100
AcDbLine
 62
7
  6
CONTINUOUS
 10
37.2143675757
 20
21.263719419
 11
37.3349347198
 21
21.6494080318
  0
LINE
  5
221
100
AcDbEntity
  8
___SYMBOL
100
AcDbLine
 62
7
  6
CONTINUOUS
 10
37.1849989602
 20
21.3470183532
 11
37.1110662205
 21
21.3209519669
  0
LINE
  5
222
100
AcDbEntity
  8
___SYMBOL
100
AcDbLine
 62
7
  6
CONTINUOUS
 10
37.2389795996
 20
21.1939117238
 11
37.1816927978
 21
21.055647201
  0
LINE
  5
223
100
AcDbEntity
  8
___SYMBOL
100
AcDbLine
 62
7
  6
CONTINUOUS
 10
37.0869532714
 20
21.0601588108
 11
37.1310305466
 21
21.1059580126
  0
LINE
  5
224
100
AcDbEntity
  8
___SYMBOL
100
AcDbLine
 62
7
  6
CONTINUOUS
 10
36.9989864473
 20
21.8746102686
 11
37.2389795996
 21
21.1939117238
  0
LINE
  5
225
100
AcDbEntity
  8
___SYMBOL
100
AcDbLine
 62
7
  6
CONTINUOUS
 10
37.0869532714
 20
21.0601588108
 11
37.0331115084
 21
21.1959007204
  0
ARC
  5
226
100
AcDbEntity
  8
___SYMBOL
100
AcDbCircle
 62
7
  6
CONTINUOUS
 10
36.9903007205
 20
21.7571414097
 40
0.3610804262
100
AcDbArc
 50
342.6406360869
 51
17.3593639131
  0
ARC
  5
227
100
AcDbEntity
  8
___SYMBOL
100
AcDbCircle
 62
7
  6
CONTINUOUS
 10
37.37533853
 20
21.3013090991
 40
0.3128073492
100
AcDbArc
 50
181.8059909349
 51
231.752660067
  0
CIRCLE
  5
228
100
AcDbEntity
  8
___SYMBOL
100
AcDbCircle
 62
7
  6
CONTINUOUS
 10
37.1460085428
 20
21.2509555914
 40
0.0268111801
  0
ARC
  5
229
100
AcDbEntity
  8
___SYMBOL
100
AcDbCircle
 62
7
  6
CONTINUOUS
 10
37.3054663532
 20
20.878637994
 40
0.0146088562
100
AcDbArc
 50
185.3133793157
 51
314.0675041521
  0
ARC
  5
22A
100
AcDbEntity
  8
___SYMBOL
100
AcDbCircle
 62
7
  6
CONTINUOUS
 10
36.9708047582
 20
20.8711174247
 40
0.0146087357
100
AcDbArc
 50
233.3109272841
 51
359.4467240969
  0
SPLINE
  5
22B
100
AcDbEntity
  8
___SYMBOL
100
AcDbSpline
 62
7
  6
CONTINUOUS
 70
0
 71
3
 72
12
 73
8
 74
0
 42
0.0000001
 43
0.0000001
 44
0.0000000001
 40
0.0
 40
0.0
 40
0.0
 40
0.0
 40
0.4884256058
 40
0.6683914397
 40
0.8669439281
 40
0.9099489479
 40
1.0
 40
1.0
 40
1.0
 40
1.0
 10
37.2677222251
 20
20.6438966235
 30
0.0
 10
37.2444938768
 20
20.7119399111
 30
0.0
 10
37.2395241347
 20
20.8129643775
 30
0.0
 10
37.2411154732
 20
20.9398378031
 30
0.0
 10
37.2362314829
 20
21.0026553167
 30
0.0
 10
37.2176859823
 20
21.0485473802
 30
0.0
 10
37.194760577
 20
21.0578730833
 30
0.0
 10
37.1816927978
 20
21.055647201
 30
0.0
  0
SPLINE
  5
22C
100
AcDbEntity
  8
___SYMBOL
100
AcDbSpline
 62
7
  6
CONTINUOUS
 70
0
 71
3
 72
14
 73
10
 74
0
 42
0.0000001
 43
0.0000001
 44
0.0000000001
 40
0.0
 40
0.0
 40
0.0
 40
0.0
 40
0.0469735811
 40
0.2606095073
 40
0.5805460666
 40
0.7382389988
 40
0.8401572415
 40
0.925087268
 40
1.0
 40
1.0
 40
1.0
 40
1.0
 10
37.2909202698
 20
20.8772851686
 30
0.0
 10
37.2904458668
 20
20.8823861259
 30
0.0
 10
37.2884873798
 20
20.9107945734
 30
0.0
 10
37.2911714293
 20
20.9733352678
 30
0.0
 10
37.2970137111
 20
21.0528187763
 30
0.0
 10
37.2630611876
 20
21.1072179683
 30
0.0
 10
37.2420279315
 20
21.1392788934
 30
0.0
 10
37.2403444893
 20
21.1684592426
 30
0.0
 10
37.2402112564
 20
21.1858350626
 30
0.0
 10
37.2389795996
 20
21.1939117238
 30
0.0
  0
SPLINE
  5
22D
100
AcDbEntity
  8
___SYMBOL
100
AcDbSpline
 62
7
  6
CONTINUOUS
 70
0
 71
3
 72
12
 73
8
 74
0
 42
0.0000001
 43
0.0000001
 44
0.0000000001
 40
0.0
 40
0.0
 40
0.0
 40
0.0
 40
0.2870411994
 40
0.5613888029
 40
0.7613462239
 40
0.9013972407
 40
1.0
 40
1.0
 40
1.0
 40
1.0
 10
37.0282902305
 20
20.6825532069
 30
0.0
 10
37.0374917197
 20
20.7192403525
 30
0.0
 10
37.0413019103
 20
20.7939348385
 30
0.0
 10
37.0350055089
 20
20.8945922821
 30
0.0
 10
37.0425891529
 20
20.973936468
 30
0.0
 10
37.0466651831
 20
21.0348176388
 30
0.0
 10
37.074468769
 20
21.0565598341
 30
0.0
 10
37.0869532714
 20
21.0601588108
 30
0.0
  0
SPLINE
  5
22E
100
AcDbEntity
  8
___SYMBOL
100
AcDbSpline
 62
7
  6
CONTINUOUS
 70
0
 71
3
 72
13
 73
9
 74
0
 42
0.0000001
 43
0.0000001
 44
0.0000000001
 40
0.0
 40
0.0
 40
0.0
 40
0.0
 40
0.0902051637
 40
0.4170421866
 40
0.6587388922
 40
0.9356437381
 40
0.9595034934
 40
1.0
 40
1.0
 40
1.0
 40
1.0
 10
36.9854128127
 20
20.8709763579
 30
0.0
 10
36.9855091581
 20
20.8809533145
 30
0.0
 10
36.9852243535
 20
20.9270138312
 30
0.0
 10
36.9831022441
 20
21.0007703032
 30
0.0
 10
36.9984902199
 20
21.0911438017
 30
0.0
 10
37.0430548125
 20
21.1495091611
 30
0.0
 10
37.0279225872
 20
21.1844737562
 30
0.0
 10
37.0298672322
 20
21.1928123102
 30
0.0
 10
37.0331115084
 20
21.1959007204
 30
0.0
  0
ELLIPSE
  5
22F
100
AcDbEntity
  8
___SYMBOL
100
AcDbEllipse
 62
7
  6
CONTINUOUS
 10
37.387353166
 20
20.7159132596
 30
0.0
 11
0.0060666775
 21
-0.1237602215
 31
0.0
 40
0.774293327
 41
0.0
 42
6.2831853072
  0
ELLIPSE
  5
230
100
AcDbEntity
  8
___SYMBOL
100
AcDbEllipse
 62
7
  6
CONTINUOUS
 10
37.387353166
 20
20.7159132596
 30
0.0
 11
-0.0030333388
 21
-0.1844269968
 31
0.0
 40
0.700902774
 41
5.1250505418
 42
10.0362700851
  0
ELLIPSE
  5
231
100
AcDbEntity
  8
___SYMBOL
100
AcDbEllipse
 62
7
  6
CONTINUOUS
 10
36.8958529294
 20
20.7287665509
 30
0.0
 11
0.0151666938
 21
-0.1228502199
 31
0.0
 40
0.7501188416
 41
0.0
 42
6.2831853072
  0
ELLIPSE
  5
232
100
AcDbEntity
  8
___SYMBOL
100
AcDbEllipse
 62
7
  6
CONTINUOUS
 10
36.8981279335
 20
20.7082915142
 30
0.0
 11
0.0022750041
 21
-0.1736586442
 31
0.0
 40
0.7569683881
 41
2.6163261196
 42
7.6953125801
  0
LINE
  5
233
100
AcDbEntity
  8
___SYMBOL
100
AcDbLine
 62
7
  6
CONTINUOUS
 10
37.1375445188
 20
21.2506946783
 11
37.1457360661
 21
21.250947192
  0
ENDBLK
  5
234
100
AcDbEntity
  8
0
  6
BYBLOCK
 62
0
100
AcDbBlockEnd
  0
BLOCK
  5
235
100
AcDbEntity
  8
___SYMBOL
100
AcDbBlockBegin
 62
2
  6
CONTINUOUS
  2
COPYRIGHT_YEAR_BL2
 70
64
 10
33.1938989201
 20
11.0370793285
  3
COPYRIGHT_YEAR_BL2
  1

  0
TEXT
  5
236
100
AcDbEntity
  8
___SYMBOL
100
AcDbText
 62
2
  6
CONTINUOUS
 10
32.4208414021
 20
10.9550335423
  7
STANDARD
 40
0.15625
  1
2023 KOHLER CO.
 41
0.8
 72
0
100
AcDbText
  0
TEXT
  5
237
100
AcDbEntity
  8
___SYMBOL
100
AcDbText
 62
7
  6
CONTINUOUS
 10
32.1361439423
 20
10.960005349
  7
TEXTSTYLE_2
 40
0.15625
  1
C
 41
1.0
 72
0
100
AcDbText
  0
CIRCLE
  5
238
100
AcDbEntity
  8
___SYMBOL
100
AcDbCircle
 62
7
  6
CONTINUOUS
 10
32.2162082219
 20
11.0370793285
 40
0.1242517839
  0
ENDBLK
  5
239
100
AcDbEntity
  8
0
  6
BYBLOCK
 62
0
100
AcDbBlockEnd
  0
BLOCK
  5
23A
100
AcDbEntity
  8
___SYMBOL
100
AcDbBlockBegin
 62
2
  6
CONTINUOUS
  2
CUT-OUT_TEMPLATE_SKU_SIN_BL1
 70
64
 10
15.9155974373
 20
22.0826962667
  3
CUT-OUT_TEMPLATE_SKU_SIN_BL1
  1

  0
TEXT
  5
23B
100
AcDbEntity
  8
___SYMBOL
100
AcDbText
 62
2
  6
CONTINUOUS
 10
10.1155974373
 20
24.8574733589
  7
STANDARD
 40
0.25
  1
CUT-OUT TEMPLATE, UNDER-MOUNT SINK
 41
0.8
 72
0
100
AcDbText
  0
TEXT
  5
23C
100
AcDbEntity
  8
___SYMBOL
100
AcDbText
 62
2
  6
CONTINUOUS
 10
10.1155974373
 20
24.4824733589
  7
STANDARD
 40
0.25
  1
PLANTILLA DE RECORTE DE MONTAJE POR ABAJO
 41
0.8
 72
0
100
AcDbText
  0
TEXT
  5
23D
100
AcDbEntity
  8
___SYMBOL
100
AcDbText
 62
2
  6
CONTINUOUS
 10
10.1155974373
 20
24.1074733589
  7
STANDARD
 40
0.25
  1
GABARIT DE DÉCOUPE ÉVIER SOUS-COMPTOIR À MONTAGE SOUS PLAN
 41
0.8
 72
0
100
AcDbText
  0
TEXT
  5
23E
100
AcDbEntity
  8
___SYMBOL
100
AcDbText
 62
2
  6
CONTINUOUS
 10
10.1155974373
 20
23.7324733589
  7
STANDARD
 40
0.25
  1
 
 41
0.8
 72
0
100
AcDbText
  0
TEXT
  5
23F
100
AcDbEntity
  8
___SYMBOL
100
AcDbText
 62
2
  6
CONTINUOUS
 10
10.1155974373
 20
23.3574733589
  7
STANDARD
 40
0.25
  1
5281                  20022
 41
0.8
 72
0
100
AcDbText
  0
TEXT
  5
240
100
AcDbEntity
  8
___SYMBOL
100
AcDbText
 62
2
  6
CONTINUOUS
 10
10.1206867464
 20
22.2198671931
  7
STANDARD
 40
0.25
  1
3821                  32024
 41
0.8
 72
0
100
AcDbText
  0
TEXT
  5
241
100
AcDbEntity
  8
___SYMBOL
100
AcDbText
 62
2
  6
CONTINUOUS
 10
10.1214832053
 20
22.5941161781
  7
STANDARD
 40
0.25
  1
5284                  20025
 41
0.8
 72
0
100
AcDbText
  0
TEXT
  5
242
100
AcDbEntity
  8
___SYMBOL
100
AcDbText
 62
2
  6
CONTINUOUS
 10
10.1282067654
 20
21.8411860534
  7
STANDARD
 40
0.25
  1
3820                  32026
 41
0.8
 72
0
100
AcDbText
  0
TEXT
  5
243
100
AcDbEntity
  8
___SYMBOL
100
AcDbText
 62
2
  6
CONTINUOUS
 10
10.1205183502
 20
21.4630643879
  7
STANDARD
 40
0.25
  1
20909
 41
0.8
 72
0
100
AcDbText
  0
TEXT
  5
244
100
AcDbEntity
  8
___SYMBOL
100
AcDbText
 62
2
  6
CONTINUOUS
 10
10.1242348488
 20
21.0828375681
  7
STANDARD
 40
0.25
  1
20912
 41
0.8
 72
0
100
AcDbText
  0
TEXT
  5
245
100
AcDbEntity
  8
___SYMBOL
100
AcDbText
 62
2
  6
CONTINUOUS
 10
10.126616327
 20
20.7032093434
  7
STANDARD
 40
0.25
  1
25939
 41
0.8
 72
0
100
AcDbText
  0
TEXT
  5
246
100
AcDbEntity
  8
___SYMBOL
100
AcDbText
 62
2
  6
CONTINUOUS
 10
10.1283374421
 20
20.3222029642
  7
STANDARD
 40
0.25
  1
25940
 41
0.8
 72
0
100
AcDbText
  0
TEXT
  5
247
100
AcDbEntity
  8
___SYMBOL
100
AcDbText
 62
2
  6
CONTINUOUS
 10
10.1269555741
 20
19.9413454943
  7
STANDARD
 40
0.25
  1
28876
 41
0.8
 72
0
100
AcDbText
  0
TEXT
  5
248
100
AcDbEntity
  8
___SYMBOL
100
AcDbText
 62
2
  6
CONTINUOUS
 10
10.1244551115
 20
22.9750051222
  7
STANDARD
 40
0.25
  1
5285                  20024
 41
0.8
 72
0
100
AcDbText
  0
TEXT
  5
249
100
AcDbEntity
  8
___SYMBOL
100
AcDbText
 62
2
  6
CONTINUOUS
 10
10.1260530252
 20
19.5651613094
  7
STANDARD
 40
0.25
  1
33662
 41
0.8
 72
0
100
AcDbText
  0
TEXT
  5
24A
100
AcDbEntity
  8
___SYMBOL
100
AcDbText
 62
2
  6
CONTINUOUS
 10
10.1232343239
 20
19.185308077
  7
STANDARD
 40
0.25
  1
33663
 41
0.8
 72
0
100
AcDbText
  0
TEXT
  5
24B
100
AcDbEntity
  8
___SYMBOL
100
AcDbText
 62
2
  6
CONTINUOUS
 10
10.1184488164
 20
18.8068997628
  7
STANDARD
 40
0.25
  1
33664
 41
0.8
 72
0
100
AcDbText
  0
TEXT
  5
24C
100
AcDbEntity
  8
___SYMBOL
100
AcDbText
 62
2
  6
CONTINUOUS
 10
10.12344156
 20
18.4269890481
  7
STANDARD
 40
0.25
  1
33158
 41
0.8
 72
0
100
AcDbText
  0
TEXT
  5
24D
100
AcDbEntity
  8
___SYMBOL
100
AcDbText
 62
2
  6
CONTINUOUS
 10
10.116966069
 20
18.0474184139
  7
STANDARD
 40
0.25
  1
33160
 41
0.8
 72
0
100
AcDbText
  0
LINE
  5
24E
100
AcDbEntity
  8
___SYMBOL
100
AcDbLine
 62
2
  6
CONTINUOUS
 10
10.6311394621
 20
26.0638031155
 11
10.4178360102
 21
25.8101548426
  0
LINE
  5
24F
100
AcDbEntity
  8
___SYMBOL
100
AcDbLine
 62
2
  6
CONTINUOUS
 10
10.43907765
 20
26.0638031155
 11
10.6311394621
 21
26.0638031155
  0
LINE
  5
250
100
AcDbEntity
  8
___SYMBOL
100
AcDbLine
 62
2
  6
CONTINUOUS
 10
10.43907765
 20
26.0638031155
 11
10.3013134833
 21
25.8999819259
  0
LINE
  5
251
100
AcDbEntity
  8
___SYMBOL
100
AcDbLine
 62
2
  6
CONTINUOUS
 10
10.3013134833
 20
26.0638031155
 11
10.3013134833
 21
25.8999819259
  0
LINE
  5
252
100
AcDbEntity
  8
___SYMBOL
100
AcDbLine
 62
2
  6
CONTINUOUS
 10
10.1268132564
 20
26.0638031155
 11
10.3013134833
 21
26.0638031155
  0
LINE
  5
253
100
AcDbEntity
  8
___SYMBOL
100
AcDbLine
 62
2
  6
CONTINUOUS
 10
10.1268132564
 20
26.0638031155
 11
10.1268132564
 21
25.4778654627
  0
LINE
  5
254
100
AcDbEntity
  8
___SYMBOL
100
AcDbLine
 62
2
  6
CONTINUOUS
 10
10.3013134833
 20
25.4778894662
 11
10.1268132564
 21
25.4778654627
  0
LINE
  5
255
100
AcDbEntity
  8
___SYMBOL
100
AcDbLine
 62
2
  6
CONTINUOUS
 10
10.3013134833
 20
25.6793893002
 11
10.3013134833
 21
25.4778894662
  0
LINE
  5
256
100
AcDbEntity
  8
___SYMBOL
100
AcDbLine
 62
2
  6
CONTINUOUS
 10
10.4550514234
 20
25.4778894662
 11
10.3013134833
 21
25.6793893002
  0
LINE
  5
257
100
AcDbEntity
  8
___SYMBOL
100
AcDbLine
 62
2
  6
CONTINUOUS
 10
10.4550514234
 20
25.4778894662
 11
10.6713438449
 21
25.4778894662
  0
LINE
  5
258
100
AcDbEntity
  8
___SYMBOL
100
AcDbLine
 62
2
  6
CONTINUOUS
 10
10.6713438449
 20
25.4778894662
 11
10.4178360102
 21
25.8101548426
  0
SOLID
  5
259
100
AcDbEntity
  8
___SYMBOL
100
AcDbTrace
 62
2
  6
CONTINUOUS
 10
10.3013134833
 20
25.8999819259
 11
10.43907765
 21
26.0638031155
 12
10.6311394621
 22
26.0638031155
 13
10.6311394621
 23
26.0638031155
  0
SOLID
  5
25A
100
AcDbEntity
  8
___SYMBOL
100
AcDbTrace
 62
2
  6
CONTINUOUS
 10
10.6311394621
 20
26.0638031155
 11
10.4178360102
 21
25.8101548426
 12
10.3013134833
 22
25.8999819259
 13
10.3013134833
 23
25.8999819259
  0
SOLID
  5
25B
100
AcDbEntity
  8
___SYMBOL
100
AcDbTrace
 62
2
  6
CONTINUOUS
 10
10.3013134833
 20
25.6793893002
 11
10.4178360102
 21
25.8101548426
 12
10.4550514234
 22
25.4778894662
 13
10.4550514234
 23
25.4778894662
  0
SOLID
  5
25C
100
AcDbEntity
  8
___SYMBOL
100
AcDbTrace
 62
2
  6
CONTINUOUS
 10
10.4178360102
 20
25.8101548426
 11
10.6713438449
 21
25.4778894662
 12
10.4550514234
 22
25.4778894662
 13
10.4550514234
 23
25.4778894662
  0
SOLID
  5
25D
100
AcDbEntity
  8
___SYMBOL
100
AcDbTrace
 62
2
  6
CONTINUOUS
 10
10.3013134833
 20
25.4778894662
 11
10.1268132564
 21
25.4778654627
 12
10.3013134833
 22
25.6793893002
 13
10.3013134833
 23
25.6793893002
  0
SOLID
  5
25E
100
AcDbEntity
  8
___SYMBOL
100
AcDbTrace
 62
2
  6
CONTINUOUS
 10
10.4178360102
 20
25.8101548426
 11
10.3013134833
 21
25.6793893002
 12
10.3013134833
 22
25.8999819259
 13
10.3013134833
 23
25.8999819259
  0
SOLID
  5
25F
100
AcDbEntity
  8
___SYMBOL
100
AcDbTrace
 62
2
  6
CONTINUOUS
 10
10.3013134833
 20
25.6793893002
 11
10.1268132564
 21
25.4778654627
 12
10.3013134833
 22
25.8999819259
 13
10.3013134833
 23
25.8999819259
  0
SOLID
  5
260
100
AcDbEntity
  8
___SYMBOL
100
AcDbTrace
 62
2
  6
CONTINUOUS
 10
10.3013134833
 20
25.8999819259
 11
10.1268132564
 21
25.4778654627
 12
10.3013134833
 22
26.0638031155
 13
10.3013134833
 23
26.0638031155
  0
SOLID
  5
261
100
AcDbEntity
  8
___SYMBOL
100
AcDbTrace
 62
2
  6
CONTINUOUS
 10
10.1268132564
 20
25.4778654627
 11
10.1268132564
 21
26.0638031155
 12
10.3013134833
 22
26.0638031155
 13
10.3013134833
 23
26.0638031155
  0
CIRCLE
  5
262
100
AcDbEntity
  8
___SYMBOL
100
AcDbCircle
 62
2
  6
CONTINUOUS
 10
10.8478526816
 20
25.769725039
 40
0.298056591
  0
CIRCLE
  5
263
100
AcDbEntity
  8
___SYMBOL
100
AcDbCircle
 62
2
  6
CONTINUOUS
 10
10.8478526816
 20
25.769725039
 40
0.1247694151
  0
SOLID
  5
264
100
AcDbEntity
  8
___SYMBOL
100
AcDbTrace
 62
2
  6
CONTINUOUS
 10
10.7557481297
 20
26.0531937021
 11
10.8166972841
 21
26.0661488448
 12
10.879008079
 22
26.0661488448
 13
10.879008079
 23
26.0661488448
  0
SOLID
  5
265
100
AcDbEntity
  8
___SYMBOL
100
AcDbTrace
 62
2
  6
CONTINUOUS
 10
10.879008079
 20
26.0661488448
 11
10.9399572335
 21
26.0531937021
 12
10.7557481297
 22
26.0531937021
 13
10.7557481297
 23
26.0531937021
  0
SOLID
  5
266
100
AcDbEntity
  8
___SYMBOL
100
AcDbTrace
 62
2
  6
CONTINUOUS
 10
10.6988243861
 20
26.0278496186
 11
10.7557481297
 21
26.0531937021
 12
10.9399572335
 22
26.0531937021
 13
10.9399572335
 23
26.0531937021
  0
SOLID
  5
267
100
AcDbEntity
  8
___SYMBOL
100
AcDbTrace
 62
2
  6
CONTINUOUS
 10
10.9399572335
 20
26.0531937021
 11
10.9968809771
 21
26.0278496186
 12
10.6988243861
 22
26.0278496186
 13
10.6988243861
 23
26.0278496186
  0
SOLID
  5
268
100
AcDbEntity
  8
___SYMBOL
100
AcDbTrace
 62
2
  6
CONTINUOUS
 10
10.6484138941
 20
25.9912242523
 11
10.6988243861
 21
26.0278496186
 12
10.9968809771
 22
26.0278496186
 13
10.9968809771
 23
26.0278496186
  0
SOLID
  5
269
100
AcDbEntity
  8
___SYMBOL
100
AcDbTrace
 62
2
  6
CONTINUOUS
 10
10.9968809771
 20
26.0278496186
 11
11.047291469
 21
25.9912242523
 12
10.6484138941
 22
25.9912242523
 13
10.6484138941
 23
25.9912242523
  0
SOLID
  5
26A
100
AcDbEntity
  8
___SYMBOL
100
AcDbTrace
 62
2
  6
CONTINUOUS
 10
10.6067198342
 20
25.9449183075
 11
10.6484138941
 21
25.9912242523
 12
11.047291469
 22
25.9912242523
 13
11.047291469
 23
25.9912242523
  0
SOLID
  5
26B
100
AcDbEntity
  8
___SYMBOL
100
AcDbTrace
 62
2
  6
CONTINUOUS
 10
11.047291469
 20
25.9912242523
 11
11.088985529
 21
25.9449183075
 12
10.6067198342
 22
25.9449183075
 13
10.6067198342
 23
25.9449183075
  0
SOLID
  5
26C
100
AcDbEntity
  8
___SYMBOL
100
AcDbTrace
 62
2
  6
CONTINUOUS
 10
10.8478526816
 20
25.8944944541
 11
10.5755644367
 21
25.8909555763
 12
11.088985529
 22
25.9449183075
 13
11.088985529
 23
25.9449183075
  0
SOLID
  5
26D
100
AcDbEntity
  8
___SYMBOL
100
AcDbTrace
 62
2
  6
CONTINUOUS
 10
10.5755644367
 20
25.8909555763
 11
10.6067198342
 21
25.9449183075
 12
11.088985529
 22
25.9449183075
 13
11.088985529
 23
25.9449183075
  0
SOLID
  5
26E
100
AcDbEntity
  8
___SYMBOL
100
AcDbTrace
 62
2
  6
CONTINUOUS
 10
11.088985529
 20
25.9449183075
 11
11.1201409264
 21
25.8909555763
 12
10.8478526816
 22
25.8944944541
 13
10.8478526816
 23
25.8944944541
  0
SOLID
  5
26F
100
AcDbEntity
  8
___SYMBOL
100
AcDbTrace
 62
2
  6
CONTINUOUS
 10
10.8478526816
 20
25.8944944541
 11
10.8092968119
 21
25.8883878042
 12
10.5755644367
 22
25.8909555763
 13
10.5755644367
 23
25.8909555763
  0
SOLID
  5
270
100
AcDbEntity
  8
___SYMBOL
100
AcDbTrace
 62
2
  6
CONTINUOUS
 10
10.8864085512
 20
25.8883878042
 11
10.8478526816
 21
25.8944944541
 12
11.1201409264
 22
25.8909555763
 13
11.1201409264
 23
25.8909555763
  0
SOLID
  5
271
100
AcDbEntity
  8
___SYMBOL
100
AcDbTrace
 62
2
  6
CONTINUOUS
 10
10.7469121044
 20
25.8430626611
 11
10.5563093422
 21
25.8316944888
 12
10.7745150594
 22
25.8706656162
 13
10.7745150594
 23
25.8706656162
  0
SOLID
  5
272
100
AcDbEntity
  8
___SYMBOL
100
AcDbTrace
 62
2
  6
CONTINUOUS
 10
10.7745150594
 20
25.8706656162
 11
10.5563093422
 21
25.8316944888
 12
10.8092968119
 22
25.8883878042
 13
10.8092968119
 23
25.8883878042
  0
SOLID
  5
273
100
AcDbEntity
  8
___SYMBOL
100
AcDbTrace
 62
2
  6
CONTINUOUS
 10
10.5563093422
 20
25.8316944888
 11
10.5755644367
 21
25.8909555763
 12
10.8092968119
 22
25.8883878042
 13
10.8092968119
 23
25.8883878042
  0
SOLID
  5
274
100
AcDbEntity
  8
___SYMBOL
100
AcDbTrace
 62
2
  6
CONTINUOUS
 10
10.8864085512
 20
25.8883878042
 11
11.1201409264
 21
25.8909555763
 12
10.9211903037
 22
25.8706656162
 13
10.9211903037
 23
25.8706656162
  0
SOLID
  5
275
100
AcDbEntity
  8
___SYMBOL
100
AcDbTrace
 62
2
  6
CONTINUOUS
 10
10.9211903037
 20
25.8706656162
 11
11.1201409264
 21
25.8909555763
 12
10.9487932587
 22
25.8430626611
 13
10.9487932587
 23
25.8430626611
  0
SOLID
  5
276
100
AcDbEntity
  8
___SYMBOL
100
AcDbTrace
 62
2
  6
CONTINUOUS
 10
11.1201409264
 20
25.8909555763
 11
11.1393960209
 21
25.8316944888
 12
10.9487932587
 22
25.8430626611
 13
10.9487932587
 23
25.8430626611
  0
SOLID
  5
277
100
AcDbEntity
  8
___SYMBOL
100
AcDbTrace
 62
2
  6
CONTINUOUS
 10
10.7469121044
 20
25.8430626611
 11
10.7291899163
 21
25.8082809086
 12
10.5563093422
 22
25.8316944888
 13
10.5563093422
 23
25.8316944888
  0
SOLID
  5
278
100
AcDbEntity
  8
___SYMBOL
100
AcDbTrace
 62
2
  6
CONTINUOUS
 10
10.9665154468
 20
25.8082809086
 11
10.9487932587
 21
25.8430626611
 12
11.1393960209
 22
25.8316944888
 13
11.1393960209
 23
25.8316944888
  0
SOLID
  5
279
100
AcDbEntity
  8
___SYMBOL
100
AcDbTrace
 62
2
  6
CONTINUOUS
 10
10.5497960906
 20
25.769725039
 11
10.5563093422
 21
25.8316944888
 12
10.7291899163
 22
25.8082809086
 13
10.7291899163
 23
25.8082809086
  0
SOLID
  5
27A
100
AcDbEntity
  8
___SYMBOL
100
AcDbTrace
 62
2
  6
CONTINUOUS
 10
10.7291899163
 20
25.8082809086
 11
10.7230832665
 21
25.769725039
 12
10.5497960906
 22
25.769725039
 13
10.5497960906
 23
25.769725039
  0
SOLID
  5
27B
100
AcDbEntity
  8
___SYMBOL
100
AcDbTrace
 62
2
  6
CONTINUOUS
 10
10.9665154468
 20
25.8082809086
 11
11.1393960209
 21
25.8316944888
 12
10.9726220966
 22
25.769725039
 13
10.9726220966
 23
25.769725039
  0
SOLID
  5
27C
100
AcDbEntity
  8
___SYMBOL
100
AcDbTrace
 62
2
  6
CONTINUOUS
 10
11.1393960209
 20
25.8316944888
 11
11.1459092726
 21
25.769725039
 12
10.9726220966
 22
25.769725039
 13
10.9726220966
 23
25.769725039
  0
SOLID
  5
27D
100
AcDbEntity
  8
___SYMBOL
100
AcDbTrace
 62
2
  6
CONTINUOUS
 10
10.9665154468
 20
25.7311691694
 11
10.9726220966
 21
25.769725039
 12
11.1459092726
 22
25.769725039
 13
11.1459092726
 23
25.769725039
  0
SOLID
  5
27E
100
AcDbEntity
  8
___SYMBOL
100
AcDbTrace
 62
2
  6
CONTINUOUS
 10
10.7291899163
 20
25.7311691694
 11
10.5563093422
 21
25.7077555892
 12
10.7230832665
 22
25.769725039
 13
10.7230832665
 23
25.769725039
  0
SOLID
  5
27F
100
AcDbEntity
  8
___SYMBOL
100
AcDbTrace
 62
2
  6
CONTINUOUS
 10
10.5563093422
 20
25.7077555892
 11
10.5497960906
 21
25.769725039
 12
10.7230832665
 22
25.769725039
 13
10.7230832665
 23
25.769725039
  0
SOLID
  5
280
100
AcDbEntity
  8
___SYMBOL
100
AcDbTrace
 62
2
  6
CONTINUOUS
 10
11.1459092726
 20
25.769725039
 11
11.1393960209
 21
25.7077555892
 12
10.9665154468
 22
25.7311691694
 13
10.9665154468
 23
25.7311691694
  0
SOLID
  5
281
100
AcDbEntity
  8
___SYMBOL
100
AcDbTrace
 62
2
  6
CONTINUOUS
 10
10.7291899163
 20
25.7311691694
 11
10.7469121044
 21
25.6963874169
 12
10.5563093422
 22
25.7077555892
 13
10.5563093422
 23
25.7077555892
  0
SOLID
  5
282
100
AcDbEntity
  8
___SYMBOL
100
AcDbTrace
 62
2
  6
CONTINUOUS
 10
10.9487932587
 20
25.6963874169
 11
10.9665154468
 21
25.7311691694
 12
11.1393960209
 22
25.7077555892
 13
11.1393960209
 23
25.7077555892
  0
SOLID
  5
283
100
AcDbEntity
  8
___SYMBOL
100
AcDbTrace
 62
2
  6
CONTINUOUS
 10
10.8092968119
 20
25.6510622737
 11
10.5755644367
 21
25.6484945017
 12
10.7745150594
 22
25.6687844618
 13
10.7745150594
 23
25.6687844618
  0
SOLID
  5
284
100
AcDbEntity
  8
___SYMBOL
100
AcDbTrace
 62
2
  6
CONTINUOUS
 10
10.7745150594
 20
25.6687844618
 11
10.5755644367
 21
25.6484945017
 12
10.7469121044
 22
25.6963874169
 13
10.7469121044
 23
25.6963874169
  0
SOLID
  5
285
100
AcDbEntity
  8
___SYMBOL
100
AcDbTrace
 62
2
  6
CONTINUOUS
 10
10.5755644367
 20
25.6484945017
 11
10.5563093422
 21
25.7077555892
 12
10.7469121044
 22
25.6963874169
 13
10.7469121044
 23
25.6963874169
  0
SOLID
  5
286
100
AcDbEntity
  8
___SYMBOL
100
AcDbTrace
 62
2
  6
CONTINUOUS
 10
10.9487932587
 20
25.6963874169
 11
11.1393960209
 21
25.7077555892
 12
10.9211903037
 22
25.6687844618
 13
10.9211903037
 23
25.6687844618
  0
SOLID
  5
287
100
AcDbEntity
  8
___SYMBOL
100
AcDbTrace
 62
2
  6
CONTINUOUS
 10
10.9211903037
 20
25.6687844618
 11
11.1393960209
 21
25.7077555892
 12
10.8864085512
 22
25.6510622737
 13
10.8864085512
 23
25.6510622737
  0
SOLID
  5
288
100
AcDbEntity
  8
___SYMBOL
100
AcDbTrace
 62
2
  6
CONTINUOUS
 10
11.1393960209
 20
25.7077555892
 11
11.1201409264
 21
25.6484945017
 12
10.8864085512
 22
25.6510622737
 13
10.8864085512
 23
25.6510622737
  0
SOLID
  5
289
100
AcDbEntity
  8
___SYMBOL
100
AcDbTrace
 62
2
  6
CONTINUOUS
 10
10.8092968119
 20
25.6510622737
 11
10.8478526816
 21
25.6449556239
 12
10.5755644367
 22
25.6484945017
 13
10.5755644367
 23
25.6484945017
  0
SOLID
  5
28A
100
AcDbEntity
  8
___SYMBOL
100
AcDbTrace
 62
2
  6
CONTINUOUS
 10
10.8478526816
 20
25.6449556239
 11
10.8864085512
 21
25.6510622737
 12
11.1201409264
 22
25.6484945017
 13
11.1201409264
 23
25.6484945017
  0
SOLID
  5
28B
100
AcDbEntity
  8
___SYMBOL
100
AcDbTrace
 62
2
  6
CONTINUOUS
 10
10.6067198342
 20
25.5945317705
 11
10.5755644367
 21
25.6484945017
 12
10.8478526816
 22
25.6449556239
 13
10.8478526816
 23
25.6449556239
  0
SOLID
  5
28C
100
AcDbEntity
  8
___SYMBOL
100
AcDbTrace
 62
2
  6
CONTINUOUS
 10
10.8478526816
 20
25.6449556239
 11
11.1201409264
 21
25.6484945017
 12
10.6067198342
 22
25.5945317705
 13
10.6067198342
 23
25.5945317705
  0
SOLID
  5
28D
100
AcDbEntity
  8
___SYMBOL
100
AcDbTrace
 62
2
  6
CONTINUOUS
 10
11.1201409264
 20
25.6484945017
 11
11.088985529
 21
25.5945317705
 12
10.6067198342
 22
25.5945317705
 13
10.6067198342
 23
25.5945317705
  0
SOLID
  5
28E
100
AcDbEntity
  8
___SYMBOL
100
AcDbTrace
 62
2
  6
CONTINUOUS
 10
10.6484138941
 20
25.5482258257
 11
10.6067198342
 21
25.5945317705
 12
11.088985529
 22
25.5945317705
 13
11.088985529
 23
25.5945317705
  0
SOLID
  5
28F
100
AcDbEntity
  8
___SYMBOL
100
AcDbTrace
 62
2
  6
CONTINUOUS
 10
11.088985529
 20
25.5945317705
 11
11.047291469
 21
25.5482258257
 12
10.6484138941
 22
25.5482258257
 13
10.6484138941
 23
25.5482258257
  0
SOLID
  5
290
100
AcDbEntity
  8
___SYMBOL
100
AcDbTrace
 62
2
  6
CONTINUOUS
 10
10.6988243861
 20
25.5116004594
 11
10.6484138941
 21
25.5482258257
 12
11.047291469
 22
25.5482258257
 13
11.047291469
 23
25.5482258257
  0
SOLID
  5
291
100
AcDbEntity
  8
___SYMBOL
100
AcDbTrace
 62
2
  6
CONTINUOUS
 10
11.047291469
 20
25.5482258257
 11
10.9968809771
 21
25.5116004594
 12
10.6988243861
 22
25.5116004594
 13
10.6988243861
 23
25.5116004594
  0
SOLID
  5
292
100
AcDbEntity
  8
___SYMBOL
100
AcDbTrace
 62
2
  6
CONTINUOUS
 10
10.7557481297
 20
25.4862563759
 11
10.6988243861
 21
25.5116004594
 12
10.9968809771
 22
25.5116004594
 13
10.9968809771
 23
25.5116004594
  0
SOLID
  5
293
100
AcDbEntity
  8
___SYMBOL
100
AcDbTrace
 62
2
  6
CONTINUOUS
 10
10.9968809771
 20
25.5116004594
 11
10.9399572335
 21
25.4862563759
 12
10.7557481297
 22
25.4862563759
 13
10.7557481297
 23
25.4862563759
  0
SOLID
  5
294
100
AcDbEntity
  8
___SYMBOL
100
AcDbTrace
 62
2
  6
CONTINUOUS
 10
10.8166972841
 20
25.4733012332
 11
10.7557481297
 21
25.4862563759
 12
10.9399572335
 22
25.4862563759
 13
10.9399572335
 23
25.4862563759
  0
SOLID
  5
295
100
AcDbEntity
  8
___SYMBOL
100
AcDbTrace
 62
2
  6
CONTINUOUS
 10
10.9399572335
 20
25.4862563759
 11
10.879008079
 21
25.4733012332
 12
10.8166972841
 22
25.4733012332
 13
10.8166972841
 23
25.4733012332
  0
LINE
  5
296
100
AcDbEntity
  8
___SYMBOL
100
AcDbLine
 62
2
  6
CONTINUOUS
 10
11.6404886908
 20
26.0638031155
 11
11.6404886908
 21
25.4778894662
  0
LINE
  5
297
100
AcDbEntity
  8
___SYMBOL
100
AcDbLine
 62
2
  6
CONTINUOUS
 10
11.6404886908
 20
25.4778894662
 11
11.4757550109
 21
25.4778894662
  0
LINE
  5
298
100
AcDbEntity
  8
___SYMBOL
100
AcDbLine
 62
2
  6
CONTINUOUS
 10
11.4757550109
 20
25.706214076
 11
11.4757550109
 21
25.4778894662
  0
LINE
  5
299
100
AcDbEntity
  8
___SYMBOL
100
AcDbLine
 62
2
  6
CONTINUOUS
 10
11.3277581998
 20
25.706214076
 11
11.4757550109
 21
25.706214076
  0
LINE
  5
29A
100
AcDbEntity
  8
___SYMBOL
100
AcDbLine
 62
2
  6
CONTINUOUS
 10
11.3277581998
 20
25.706214076
 11
11.3277581998
 21
25.4778894662
  0
LINE
  5
29B
100
AcDbEntity
  8
___SYMBOL
100
AcDbLine
 62
2
  6
CONTINUOUS
 10
11.3277581998
 20
25.4778894662
 11
11.16302452
 21
25.4778894662
  0
LINE
  5
29C
100
AcDbEntity
  8
___SYMBOL
100
AcDbLine
 62
2
  6
CONTINUOUS
 10
11.16302452
 20
26.0638031155
 11
11.16302452
 21
25.4778894662
  0
LINE
  5
29D
100
AcDbEntity
  8
___SYMBOL
100
AcDbLine
 62
2
  6
CONTINUOUS
 10
11.16302452
 20
26.0638031155
 11
11.3277581998
 21
26.0638031155
  0
LINE
  5
29E
100
AcDbEntity
  8
___SYMBOL
100
AcDbLine
 62
2
  6
CONTINUOUS
 10
11.3277581998
 20
26.0638031155
 11
11.3277581998
 21
25.8434193559
  0
LINE
  5
29F
100
AcDbEntity
  8
___SYMBOL
100
AcDbLine
 62
2
  6
CONTINUOUS
 10
11.3277581998
 20
25.8434193559
 11
11.4757550109
 21
25.8434193559
  0
LINE
  5
2A0
100
AcDbEntity
  8
___SYMBOL
100
AcDbLine
 62
2
  6
CONTINUOUS
 10
11.4757550109
 20
26.0638031155
 11
11.4757550109
 21
25.8434193559
  0
LINE
  5
2A1
100
AcDbEntity
  8
___SYMBOL
100
AcDbLine
 62
2
  6
CONTINUOUS
 10
11.4757550109
 20
26.0638031155
 11
11.6404886908
 21
26.0638031155
  0
SOLID
  5
2A2
100
AcDbEntity
  8
___SYMBOL
100
AcDbTrace
 62
2
  6
CONTINUOUS
 10
11.4757550109
 20
25.8434193559
 11
11.4757550109
 21
26.0638031155
 12
11.6404886908
 22
26.0638031155
 13
11.6404886908
 23
26.0638031155
  0
SOLID
  5
2A3
100
AcDbEntity
  8
___SYMBOL
100
AcDbTrace
 62
2
  6
CONTINUOUS
 10
11.4757550109
 20
25.8434193559
 11
11.3277581998
 21
25.706214076
 12
11.3277581998
 22
25.8434193559
 13
11.3277581998
 23
25.8434193559
  0
SOLID
  5
2A4
100
AcDbEntity
  8
___SYMBOL
100
AcDbTrace
 62
2
  6
CONTINUOUS
 10
11.3277581998
 20
25.706214076
 11
11.16302452
 21
25.4778894662
 12
11.3277581998
 22
25.8434193559
 13
11.3277581998
 23
25.8434193559
  0
SOLID
  5
2A5
100
AcDbEntity
  8
___SYMBOL
100
AcDbTrace
 62
2
  6
CONTINUOUS
 10
11.3277581998
 20
25.8434193559
 11
11.16302452
 21
25.4778894662
 12
11.3277581998
 22
26.0638031155
 13
11.3277581998
 23
26.0638031155
  0
SOLID
  5
2A6
100
AcDbEntity
  8
___SYMBOL
100
AcDbTrace
 62
2
  6
CONTINUOUS
 10
11.16302452
 20
25.4778894662
 11
11.16302452
 21
26.0638031155
 12
11.3277581998
 22
26.0638031155
 13
11.3277581998
 23
26.0638031155
  0
SOLID
  5
2A7
100
AcDbEntity
  8
___SYMBOL
100
AcDbTrace
 62
2
  6
CONTINUOUS
 10
11.3277581998
 20
25.706214076
 11
11.3277581998
 21
25.4778894662
 12
11.16302452
 22
25.4778894662
 13
11.16302452
 23
25.4778894662
  0
SOLID
  5
2A8
100
AcDbEntity
  8
___SYMBOL
100
AcDbTrace
 62
2
  6
CONTINUOUS
 10
11.3277581998
 20
25.706214076
 11
11.4757550109
 21
25.8434193559
 12
11.4757550109
 22
25.706214076
 13
11.4757550109
 23
25.706214076
  0
SOLID
  5
2A9
100
AcDbEntity
  8
___SYMBOL
100
AcDbTrace
 62
2
  6
CONTINUOUS
 10
11.4757550109
 20
25.8434193559
 11
11.6404886908
 21
26.0638031155
 12
11.4757550109
 22
25.706214076
 13
11.4757550109
 23
25.706214076
  0
SOLID
  5
2AA
100
AcDbEntity
  8
___SYMBOL
100
AcDbTrace
 62
2
  6
CONTINUOUS
 10
11.4757550109
 20
25.706214076
 11
11.6404886908
 21
26.0638031155
 12
11.4757550109
 22
25.4778894662
 13
11.4757550109
 23
25.4778894662
  0
SOLID
  5
2AB
100
AcDbEntity
  8
___SYMBOL
100
AcDbTrace
 62
2
  6
CONTINUOUS
 10
11.6404886908
 20
26.0638031155
 11
11.6404886908
 21
25.4778894662
 12
11.4757550109
 22
25.4778894662
 13
11.4757550109
 23
25.4778894662
  0
LINE
  5
2AC
100
AcDbEntity
  8
___SYMBOL
100
AcDbLine
 62
2
  6
CONTINUOUS
 10
11.8355795977
 20
25.4778894662
 11
11.9982636677
 21
25.4778894662
  0
LINE
  5
2AD
100
AcDbEntity
  8
___SYMBOL
100
AcDbLine
 62
2
  6
CONTINUOUS
 10
11.8355795977
 20
25.4778894662
 11
11.685533535
 21
25.4778894662
  0
LINE
  5
2AE
100
AcDbEntity
  8
___SYMBOL
100
AcDbLine
 62
2
  6
CONTINUOUS
 10
11.685533535
 20
25.4778894662
 11
11.685533535
 21
26.0638031155
  0
LINE
  5
2AF
100
AcDbEntity
  8
___SYMBOL
100
AcDbLine
 62
2
  6
CONTINUOUS
 10
11.685533535
 20
26.0638031155
 11
11.8355795977
 21
26.0638031155
  0
LINE
  5
2B0
100
AcDbEntity
  8
___SYMBOL
100
AcDbLine
 62
2
  6
CONTINUOUS
 10
11.8355795977
 20
26.0638031155
 11
11.8355795977
 21
25.6191162233
  0
LINE
  5
2B1
100
AcDbEntity
  8
___SYMBOL
100
AcDbLine
 62
2
  6
CONTINUOUS
 10
11.8355795977
 20
25.6191162233
 11
11.9982636677
 21
25.6191162233
  0
LINE
  5
2B2
100
AcDbEntity
  8
___SYMBOL
100
AcDbLine
 62
2
  6
CONTINUOUS
 10
11.9982636677
 20
25.6191162233
 11
11.9982636677
 21
25.4778894662
  0
SOLID
  5
2B3
100
AcDbEntity
  8
___SYMBOL
100
AcDbTrace
 62
2
  6
CONTINUOUS
 10
11.9982636677
 20
25.6191162233
 11
11.685533535
 21
25.4778894662
 12
11.8355795977
 22
25.6191162233
 13
11.8355795977
 23
25.6191162233
  0
SOLID
  5
2B4
100
AcDbEntity
  8
___SYMBOL
100
AcDbTrace
 62
2
  6
CONTINUOUS
 10
11.8355795977
 20
25.6191162233
 11
11.685533535
 21
25.4778894662
 12
11.8355795977
 22
26.0638031155
 13
11.8355795977
 23
26.0638031155
  0
SOLID
  5
2B5
100
AcDbEntity
  8
___SYMBOL
100
AcDbTrace
 62
2
  6
CONTINUOUS
 10
11.685533535
 20
25.4778894662
 11
11.685533535
 21
26.0638031155
 12
11.8355795977
 22
26.0638031155
 13
11.8355795977
 23
26.0638031155
  0
SOLID
  5
2B6
100
AcDbEntity
  8
___SYMBOL
100
AcDbTrace
 62
2
  6
CONTINUOUS
 10
11.685533535
 20
25.4778894662
 11
11.9982636677
 21
25.6191162233
 12
11.8355795977
 22
25.4778894662
 13
11.8355795977
 23
25.4778894662
  0
SOLID
  5
2B7
100
AcDbEntity
  8
___SYMBOL
100
AcDbTrace
 62
2
  6
CONTINUOUS
 10
11.9982636677
 20
25.6191162233
 11
11.9982636677
 21
25.4778894662
 12
11.8355795977
 22
25.4778894662
 13
11.8355795977
 23
25.4778894662
  0
LINE
  5
2B8
100
AcDbEntity
  8
___SYMBOL
100
AcDbLine
 62
2
  6
CONTINUOUS
 10
12.3365155817
 20
25.6990377543
 11
12.3365155817
 21
25.8434193559
  0
LINE
  5
2B9
100
AcDbEntity
  8
___SYMBOL
100
AcDbLine
 62
2
  6
CONTINUOUS
 10
12.1856580583
 20
25.8434193559
 11
12.3365155817
 21
25.8434193559
  0
LINE
  5
2BA
100
AcDbEntity
  8
___SYMBOL
100
AcDbLine
 62
2
  6
CONTINUOUS
 10
12.1856580583
 20
25.9210437188
 11
12.1856580583
 21
25.8434193559
  0
LINE
  5
2BB
100
AcDbEntity
  8
___SYMBOL
100
AcDbLine
 62
2
  6
CONTINUOUS
 10
12.1856580583
 20
25.9210437188
 11
12.3365155817
 21
25.9210437188
  0
LINE
  5
2BC
100
AcDbEntity
  8
___SYMBOL
100
AcDbLine
 62
2
  6
CONTINUOUS
 10
12.3365155817
 20
25.9210437188
 11
12.3365155817
 21
26.0638031155
  0
LINE
  5
2BD
100
AcDbEntity
  8
___SYMBOL
100
AcDbLine
 62
2
  6
CONTINUOUS
 10
12.1998623817
 20
26.0638031155
 11
12.3365155817
 21
26.0638031155
  0
LINE
  5
2BE
100
AcDbEntity
  8
___SYMBOL
100
AcDbLine
 62
2
  6
CONTINUOUS
 10
12.0274114064
 20
26.0638031155
 11
12.1998623817
 21
26.0638031155
  0
LINE
  5
2BF
100
AcDbEntity
  8
___SYMBOL
100
AcDbLine
 62
2
  6
CONTINUOUS
 10
12.0274114064
 20
25.4778894662
 11
12.0274114064
 21
26.0638031155
  0
LINE
  5
2C0
100
AcDbEntity
  8
___SYMBOL
100
AcDbLine
 62
2
  6
CONTINUOUS
 10
12.0274114064
 20
25.4778894662
 11
12.3365155817
 21
25.4778894662
  0
LINE
  5
2C1
100
AcDbEntity
  8
___SYMBOL
100
AcDbLine
 62
2
  6
CONTINUOUS
 10
12.3365155817
 20
25.4778894662
 11
12.3365155817
 21
25.6191162233
  0
LINE
  5
2C2
100
AcDbEntity
  8
___SYMBOL
100
AcDbLine
 62
2
  6
CONTINUOUS
 10
12.1856580583
 20
25.6191162233
 11
12.3365155817
 21
25.6191162233
  0
LINE
  5
2C3
100
AcDbEntity
  8
___SYMBOL
100
AcDbLine
 62
2
  6
CONTINUOUS
 10
12.1856580583
 20
25.6990377543
 11
12.1856580583
 21
25.6191162233
  0
LINE
  5
2C4
100
AcDbEntity
  8
___SYMBOL
100
AcDbLine
 62
2
  6
CONTINUOUS
 10
12.1856580583
 20
25.6990377543
 11
12.3365155817
 21
25.6990377543
  0
SOLID
  5
2C5
100
AcDbEntity
  8
___SYMBOL
100
AcDbTrace
 62
2
  6
CONTINUOUS
 10
12.3365155817
 20
26.0638031155
 11
12.3365155817
 21
25.9210437188
 12
12.1856580583
 22
25.9210437188
 13
12.1856580583
 23
25.9210437188
  0
SOLID
  5
2C6
100
AcDbEntity
  8
___SYMBOL
100
AcDbTrace
 62
2
  6
CONTINUOUS
 10
12.3365155817
 20
25.8434193559
 11
12.3365155817
 21
25.6990377543
 12
12.1856580583
 22
25.6990377543
 13
12.1856580583
 23
25.6990377543
  0
SOLID
  5
2C7
100
AcDbEntity
  8
___SYMBOL
100
AcDbTrace
 62
2
  6
CONTINUOUS
 10
12.3365155817
 20
25.6191162233
 11
12.0274114064
 21
25.4778894662
 12
12.1856580583
 22
25.6191162233
 13
12.1856580583
 23
25.6191162233
  0
SOLID
  5
2C8
100
AcDbEntity
  8
___SYMBOL
100
AcDbTrace
 62
2
  6
CONTINUOUS
 10
12.1856580583
 20
25.6191162233
 11
12.0274114064
 21
25.4778894662
 12
12.1856580583
 22
25.6990377543
 13
12.1856580583
 23
25.6990377543
  0
SOLID
  5
2C9
100
AcDbEntity
  8
___SYMBOL
100
AcDbTrace
 62
2
  6
CONTINUOUS
 10
12.3365155817
 20
25.8434193559
 11
12.1856580583
 21
25.6990377543
 12
12.1856580583
 22
25.8434193559
 13
12.1856580583
 23
25.8434193559
  0
SOLID
  5
2CA
100
AcDbEntity
  8
___SYMBOL
100
AcDbTrace
 62
2
  6
CONTINUOUS
 10
12.1856580583
 20
25.6990377543
 11
12.0274114064
 21
25.4778894662
 12
12.1856580583
 22
25.8434193559
 13
12.1856580583
 23
25.8434193559
  0
SOLID
  5
2CB
100
AcDbEntity
  8
___SYMBOL
100
AcDbTrace
 62
2
  6
CONTINUOUS
 10
12.1856580583
 20
25.8434193559
 11
12.0274114064
 21
25.4778894662
 12
12.1856580583
 22
25.9210437188
 13
12.1856580583
 23
25.9210437188
  0
SOLID
  5
2CC
100
AcDbEntity
  8
___SYMBOL
100
AcDbTrace
 62
2
  6
CONTINUOUS
 10
12.3365155817
 20
26.0638031155
 11
12.1856580583
 21
25.9210437188
 12
12.1998623817
 22
26.0638031155
 13
12.1998623817
 23
26.0638031155
  0
SOLID
  5
2CD
100
AcDbEntity
  8
___SYMBOL
100
AcDbTrace
 62
2
  6
CONTINUOUS
 10
12.1856580583
 20
25.9210437188
 11
12.0274114064
 21
25.4778894662
 12
12.1998623817
 22
26.0638031155
 13
12.1998623817
 23
26.0638031155
  0
SOLID
  5
2CE
100
AcDbEntity
  8
___SYMBOL
100
AcDbTrace
 62
2
  6
CONTINUOUS
 10
12.0274114064
 20
25.4778894662
 11
12.0274114064
 21
26.0638031155
 12
12.1998623817
 22
26.0638031155
 13
12.1998623817
 23
26.0638031155
  0
SOLID
  5
2CF
100
AcDbEntity
  8
___SYMBOL
100
AcDbTrace
 62
2
  6
CONTINUOUS
 10
12.3365155817
 20
25.6191162233
 11
12.3365155817
 21
25.4778894662
 12
12.0274114064
 22
25.4778894662
 13
12.0274114064
 23
25.4778894662
  0
LINE
  5
2D0
100
AcDbEntity
  8
___SYMBOL
100
AcDbLine
 62
2
  6
CONTINUOUS
 10
12.8467659877
 20
25.4778894662
 11
12.6873227447
 21
25.7294720075
  0
ARC
  5
2D1
100
AcDbEntity
  8
___SYMBOL
100
AcDbCircle
 62
2
  6
CONTINUOUS
 10
12.6148834971
 20
25.8887936048
 40
0.1750166163
100
AcDbArc
 50
294.4500166359
 51
90.0
  0
LINE
  5
2D2
100
AcDbEntity
  8
___SYMBOL
100
AcDbLine
 62
2
  6
CONTINUOUS
 10
12.3813357964
 20
26.0638031155
 11
12.6148834971
 21
26.0638031155
  0
LINE
  5
2D3
100
AcDbEntity
  8
___SYMBOL
100
AcDbLine
 62
2
  6
CONTINUOUS
 10
12.3813357964
 20
25.4778894662
 11
12.3813357964
 21
26.0638031155
  0
LINE
  5
2D4
100
AcDbEntity
  8
___SYMBOL
100
AcDbLine
 62
2
  6
CONTINUOUS
 10
12.3813357964
 20
25.4778894662
 11
12.531991619
 21
25.4778894662
  0
LINE
  5
2D5
100
AcDbEntity
  8
___SYMBOL
100
AcDbLine
 62
2
  6
CONTINUOUS
 10
12.531991619
 20
25.674845837
 11
12.531991619
 21
25.4778894662
  0
LINE
  5
2D6
100
AcDbEntity
  8
___SYMBOL
100
AcDbLine
 62
2
  6
CONTINUOUS
 10
12.6568150481
 20
25.4778894662
 11
12.531991619
 21
25.674845837
  0
LINE
  5
2D7
100
AcDbEntity
  8
___SYMBOL
100
AcDbLine
 62
2
  6
CONTINUOUS
 10
12.6568150481
 20
25.4778894662
 11
12.8467659877
 21
25.4778894662
  0
LINE
  5
2D8
100
AcDbEntity
  8
___SYMBOL
100
AcDbLine
 62
2
  6
CONTINUOUS
 10
12.531991619
 20
25.8141211477
 11
12.5843313692
 21
25.8141211477
  0
ARC
  5
2D9
100
AcDbEntity
  8
___SYMBOL
100
AcDbCircle
 62
2
  6
CONTINUOUS
 10
12.5879213985
 20
25.8676125472
 40
0.053611735
100
AcDbArc
 50
266.1604009902
 51
89.9998910512
  0
LINE
  5
2DA
100
AcDbEntity
  8
___SYMBOL
100
AcDbLine
 62
2
  6
CONTINUOUS
 10
12.5879215004
 20
25.9212242822
 11
12.531991619
 21
25.9212242822
  0
LINE
  5
2DB
100
AcDbEntity
  8
___SYMBOL
100
AcDbLine
 62
2
  6
CONTINUOUS
 10
12.531991619
 20
25.9212242822
 11
12.531991619
 21
25.8141211477
  0
SOLID
  5
2DC
100
AcDbEntity
  8
___SYMBOL
100
AcDbTrace
 62
2
  6
CONTINUOUS
 10
12.6148834971
 20
26.0638102211
 11
12.6618165206
 21
26.0573999727
 12
12.3813357964
 22
26.0638031155
 13
12.3813357964
 23
26.0638031155
  0
SOLID
  5
2DD
100
AcDbEntity
  8
___SYMBOL
100
AcDbTrace
 62
2
  6
CONTINUOUS
 10
12.531991619
 20
25.9212242822
 11
12.7859313601
 21
25.9258536177
 12
12.5879215004
 22
25.9212242822
 13
12.5879215004
 23
25.9212242822
  0
SOLID
  5
2DE
100
AcDbEntity
  8
___SYMBOL
100
AcDbTrace
 62
2
  6
CONTINUOUS
 10
12.5879215004
 20
25.9212242822
 11
12.7859313601
 21
25.9258536177
 12
12.611644082
 22
25.9156901139
 13
12.611644082
 23
25.9156901139
  0
SOLID
  5
2DF
100
AcDbEntity
  8
___SYMBOL
100
AcDbTrace
 62
2
  6
CONTINUOUS
 10
12.611644082
 20
25.9156901139
 11
12.7859313601
 21
25.9258536177
 12
12.6304690697
 22
25.9002302388
 13
12.6304690697
 23
25.9002302388
  0
SOLID
  5
2E0
100
AcDbEntity
  8
___SYMBOL
100
AcDbTrace
 62
2
  6
CONTINUOUS
 10
12.7859313601
 20
25.9258536177
 11
12.7896046065
 21
25.8786274889
 12
12.6304690697
 22
25.9002302388
 13
12.6304690697
 23
25.9002302388
  0
SOLID
  5
2E1
100
AcDbEntity
  8
___SYMBOL
100
AcDbTrace
 62
2
  6
CONTINUOUS
 10
12.6405100083
 20
25.8780363782
 11
12.6304690697
 21
25.9002302388
 12
12.7896046065
 22
25.8786274889
 13
12.7896046065
 23
25.8786274889
  0
SOLID
  5
2E2
100
AcDbEntity
  8
___SYMBOL
100
AcDbTrace
 62
2
  6
CONTINUOUS
 10
12.6405100083
 20
25.8780363782
 11
12.7896046065
 21
25.8786274889
 12
12.6396939266
 22
25.8536904975
 13
12.6396939266
 23
25.8536904975
  0
SOLID
  5
2E3
100
AcDbEntity
  8
___SYMBOL
100
AcDbTrace
 62
2
  6
CONTINUOUS
 10
12.6396939266
 20
25.8536904975
 11
12.7896046065
 21
25.8786274889
 12
12.6281893062
 22
25.8322188509
 13
12.6281893062
 23
25.8322188509
  0
SOLID
  5
2E4
100
AcDbEntity
  8
___SYMBOL
100
AcDbTrace
 62
2
  6
CONTINUOUS
 10
12.7896046065
 20
25.8786274889
 11
12.7804790028
 21
25.8321460588
 12
12.6281893062
 22
25.8322188509
 13
12.6281893062
 23
25.8322188509
  0
SOLID
  5
2E5
100
AcDbEntity
  8
___SYMBOL
100
AcDbTrace
 62
2
  6
CONTINUOUS
 10
12.6083712984
 20
25.8180543014
 11
12.6281893062
 21
25.8322188509
 12
12.7804790028
 22
25.8321460588
 13
12.7804790028
 23
25.8321460588
  0
SOLID
  5
2E6
100
AcDbEntity
  8
___SYMBOL
100
AcDbTrace
 62
2
  6
CONTINUOUS
 10
12.6083712984
 20
25.8180543014
 11
12.7804790028
 21
25.8321460588
 12
12.5843313692
 22
25.8141211477
 13
12.5843313692
 23
25.8141211477
  0
SOLID
  5
2E7
100
AcDbEntity
  8
___SYMBOL
100
AcDbTrace
 62
2
  6
CONTINUOUS
 10
12.7804790028
 20
25.8321460588
 11
12.7592230271
 21
25.789814233
 12
12.5843313692
 22
25.8141211477
 13
12.5843313692
 23
25.8141211477
  0
SOLID
  5
2E8
100
AcDbEntity
  8
___SYMBOL
100
AcDbTrace
 62
2
  6
CONTINUOUS
 10
12.6873227447
 20
25.7294720075
 11
12.531991619
 21
25.674845837
 12
12.727393744
 22
25.7547329457
 13
12.727393744
 23
25.7547329457
  0
SOLID
  5
2E9
100
AcDbEntity
  8
___SYMBOL
100
AcDbTrace
 62
2
  6
CONTINUOUS
 10
12.727393744
 20
25.7547329457
 11
12.531991619
 21
25.674845837
 12
12.7592230271
 22
25.789814233
 13
12.7592230271
 23
25.789814233
  0
SOLID
  5
2EA
100
AcDbEntity
  8
___SYMBOL
100
AcDbTrace
 62
2
  6
CONTINUOUS
 10
12.7592230271
 20
25.789814233
 11
12.531991619
 21
25.674845837
 12
12.5843313692
 22
25.8141211477
 13
12.5843313692
 23
25.8141211477
  0
SOLID
  5
2EB
100
AcDbEntity
  8
___SYMBOL
100
AcDbTrace
 62
2
  6
CONTINUOUS
 10
12.531991619
 20
25.674845837
 11
12.3813357964
 21
25.4778894662
 12
12.5843313692
 22
25.8141211477
 13
12.5843313692
 23
25.8141211477
  0
SOLID
  5
2EC
100
AcDbEntity
  8
___SYMBOL
100
AcDbTrace
 62
2
  6
CONTINUOUS
 10
12.5843313692
 20
25.8141211477
 11
12.3813357964
 21
25.4778894662
 12
12.531991619
 22
25.8141211477
 13
12.531991619
 23
25.8141211477
  0
SOLID
  5
2ED
100
AcDbEntity
  8
___SYMBOL
100
AcDbTrace
 62
2
  6
CONTINUOUS
 10
12.531991619
 20
25.8141211477
 11
12.3813357964
 21
25.4778894662
 12
12.531991619
 22
25.9212242822
 13
12.531991619
 23
25.9212242822
  0
SOLID
  5
2EE
100
AcDbEntity
  8
___SYMBOL
100
AcDbTrace
 62
2
  6
CONTINUOUS
 10
12.7859313601
 20
25.9258536177
 11
12.531991619
 21
25.9212242822
 12
12.7697283399
 22
25.9703649884
 13
12.7697283399
 23
25.9703649884
  0
SOLID
  5
2EF
100
AcDbEntity
  8
___SYMBOL
100
AcDbTrace
 62
2
  6
CONTINUOUS
 10
12.7697283399
 20
25.9703649884
 11
12.531991619
 21
25.9212242822
 12
12.7421824664
 22
26.0089010084
 13
12.7421824664
 23
26.0089010084
  0
SOLID
  5
2F0
100
AcDbEntity
  8
___SYMBOL
100
AcDbTrace
 62
2
  6
CONTINUOUS
 10
12.7421824664
 20
26.0089010084
 11
12.531991619
 21
25.9212242822
 12
12.7053115581
 22
26.0386387975
 13
12.7053115581
 23
26.0386387975
  0
SOLID
  5
2F1
100
AcDbEntity
  8
___SYMBOL
100
AcDbTrace
 62
2
  6
CONTINUOUS
 10
12.7053115581
 20
26.0386387975
 11
12.531991619
 21
25.9212242822
 12
12.6618165206
 22
26.0573999727
 13
12.6618165206
 23
26.0573999727
  0
SOLID
  5
2F2
100
AcDbEntity
  8
___SYMBOL
100
AcDbTrace
 62
2
  6
CONTINUOUS
 10
12.6618165206
 20
26.0573999727
 11
12.531991619
 21
25.9212242822
 12
12.3813357964
 22
26.0638031155
 13
12.3813357964
 23
26.0638031155
  0
SOLID
  5
2F3
100
AcDbEntity
  8
___SYMBOL
100
AcDbTrace
 62
2
  6
CONTINUOUS
 10
12.3813357964
 20
25.4778894662
 11
12.3813357964
 21
26.0638031155
 12
12.531991619
 22
25.9212242822
 13
12.531991619
 23
25.9212242822
  0
SOLID
  5
2F4
100
AcDbEntity
  8
___SYMBOL
100
AcDbTrace
 62
2
  6
CONTINUOUS
 10
12.531991619
 20
25.674845837
 11
12.531991619
 21
25.4778894662
 12
12.3813357964
 22
25.4778894662
 13
12.3813357964
 23
25.4778894662
  0
SOLID
  5
2F5
100
AcDbEntity
  8
___SYMBOL
100
AcDbTrace
 62
2
  6
CONTINUOUS
 10
12.531991619
 20
25.674845837
 11
12.6873227447
 21
25.7294720075
 12
12.6568150481
 22
25.4778894662
 13
12.6568150481
 23
25.4778894662
  0
SOLID
  5
2F6
100
AcDbEntity
  8
___SYMBOL
100
AcDbTrace
 62
2
  6
CONTINUOUS
 10
12.6873227447
 20
25.7294720075
 11
12.8467659877
 21
25.4778894662
 12
12.6568150481
 22
25.4778894662
 13
12.6568150481
 23
25.4778894662
  0
CIRCLE
  5
2F7
100
AcDbEntity
  8
___SYMBOL
100
AcDbCircle
 62
2
  6
CONTINUOUS
 10
12.9875359623
 20
25.4778894662
 40
0.0653578721
  0
LINE
  5
2F8
100
AcDbEntity
  8
___SYMBOL
100
AcDbLine
 62
2
  6
CONTINUOUS
 10
12.9832479391
 20
25.4773517167
 11
13.0151159518
 21
25.4450487754
  0
LINE
  5
2F9
100
AcDbEntity
  8
___SYMBOL
100
AcDbLine
 62
2
  6
CONTINUOUS
 10
12.9716499629
 20
25.4450487754
 11
12.9716499629
 21
25.5110149743
  0
LINE
  5
2FA
100
AcDbEntity
  8
___SYMBOL
100
AcDbLine
 62
2
  6
CONTINUOUS
 10
12.9716499629
 20
25.5110149743
 11
12.9959292959
 21
25.5110149743
  0
ARC
  5
2FB
100
AcDbEntity
  8
___SYMBOL
100
AcDbCircle
 62
2
  6
CONTINUOUS
 10
12.9959292959
 20
25.4941835246
 40
0.0168314496
100
AcDbArc
 50
270.0
 51
90.0
  0
LINE
  5
2FC
100
AcDbEntity
  8
___SYMBOL
100
AcDbLine
 62
2
  6
CONTINUOUS
 10
12.9959292959
 20
25.4773517167
 11
12.9716499629
 21
25.4773517167
  0
SPLINE
  5
2FD
100
AcDbEntity
  8
___SYMBOL
100
AcDbSpline
 62
2
  6
CONTINUOUS
 70
0
 71
1
 72
7
 73
5
 74
0
 42
0.0000001
 43
0.0000001
 44
0.0000000001
 40
0.0
 40
0.0
 40
0.6323375
 40
4.1135388889
 40
4.7458763889
 40
8.2270777778
 40
8.2270777778
 10
14.4046250608
 20
25.4812074528
 30
0.0
 10
14.4046250608
 20
26.1135449528
 30
0.0
 10
17.8858264497
 20
26.1135449528
 30
0.0
 10
17.8858264497
 20
25.4812074528
 30
0.0
 10
14.4046250608
 20
25.4812074528
 30
0.0
  0
LINE
  5
2FE
100
AcDbEntity
  8
___SYMBOL
100
AcDbLine
 62
2
  6
CONTINUOUS
 10
16.5380820053
 20
25.3929505083
 11
16.5738695053
 21
25.3929505083
  0
LINE
  5
2FF
100
AcDbEntity
  8
___SYMBOL
100
AcDbLine
 62
2
  6
CONTINUOUS
 10
16.5738695053
 20
25.3929505083
 11
16.5560945053
 21
25.4371393972
  0
LINE
  5
300
100
AcDbEntity
  8
___SYMBOL
100
AcDbLine
 62
2
  6
CONTINUOUS
 10
16.5560945053
 20
25.4371393972
 11
16.5380820053
 21
25.3929505083
  0
SPLINE
  5
301
100
AcDbEntity
  8
___SYMBOL
100
AcDbSpline
 62
2
  6
CONTINUOUS
 70
0
 71
1
 72
11
 73
9
 74
0
 42
0.0000001
 43
0.0000001
 44
0.0000000001
 40
0.0
 40
0.0
 40
0.1134275086
 40
0.1216747308
 40
0.1564300811
 40
0.1991078933
 40
0.2343111597
 40
0.2421375485
 40
0.3533508685
 40
0.3556574216
 40
0.3556574216
 10
16.5560945053
 20
25.4580268972
 30
0.0
 10
16.5985820053
 20
25.3528574528
 30
0.0
 10
16.5903347831
 20
25.3528574528
 30
0.0
 10
16.5776264497
 20
25.3852060639
 30
0.0
 10
16.5349486719
 20
25.3852602306
 30
0.0
 10
16.5211889497
 20
25.3528574528
 30
0.0
 10
16.5133625608
 20
25.3528574528
 30
0.0
 10
16.5552736719
 20
25.4558713417
 30
0.0
 10
16.5560945053
 20
25.4580268972
 30
0.0
  0
LINE
  5
302
100
AcDbEntity
  8
___SYMBOL
100
AcDbLine
 62
2
  6
CONTINUOUS
 10
17.6454570053
 20
25.3929505083
 11
17.6812500608
 21
25.3929505083
  0
LINE
  5
303
100
AcDbEntity
  8
___SYMBOL
100
AcDbLine
 62
2
  6
CONTINUOUS
 10
17.6812500608
 20
25.3929505083
 11
17.6634820053
 21
25.4371935639
  0
LINE
  5
304
100
AcDbEntity
  8
___SYMBOL
100
AcDbLine
 62
2
  6
CONTINUOUS
 10
17.6634820053
 20
25.4371935639
 11
17.6454570053
 21
25.3929505083
  0
SPLINE
  5
305
100
AcDbEntity
  8
___SYMBOL
100
AcDbSpline
 62
2
  6
CONTINUOUS
 70
0
 71
1
 72
11
 73
9
 74
0
 42
0.0000001
 43
0.0000001
 44
0.0000000001
 40
0.0
 40
0.0
 40
0.11343011
 40
0.1213787211
 40
0.1562542199
 40
0.1988986988
 40
0.2341150074
 40
0.2419275074
 40
0.3531303621
 40
0.3554489868
 40
0.3554489868
 10
17.6634820053
 20
25.4580268972
 30
0.0
 10
17.7059764497
 20
25.3528574528
 30
0.0
 10
17.6980278386
 20
25.3528574528
 30
0.0
 10
17.6849945053
 20
25.3852060639
 30
0.0
 10
17.6423500608
 20
25.3852602306
 30
0.0
 10
17.6285570053
 20
25.3528574528
 30
0.0
 10
17.6207445053
 20
25.3528574528
 30
0.0
 10
17.6626278386
 20
25.4558713417
 30
0.0
 10
17.6634820053
 20
25.4580268972
 30
0.0
  0
LINE
  5
306
100
AcDbEntity
  8
___SYMBOL
100
AcDbLine
 62
2
  6
CONTINUOUS
 10
17.5961125608
 20
25.4455227306
 11
17.5961125608
 21
25.4073282861
  0
SPLINE
  5
307
100
AcDbEntity
  8
___SYMBOL
100
AcDbSpline
 62
2
  6
CONTINUOUS
 70
0
 71
3
 72
23
 73
19
 74
0
 42
0.0000001
 43
0.0000001
 44
0.0000000001
 40
0.0381944444
 40
0.0381944444
 40
0.0381944444
 40
0.0381944444
 40
0.0486388889
 40
0.0486388889
 40
0.0486388889
 40
1.0486388889
 40
1.0486388889
 40
1.0486388889
 40
2.0486388889
 40
2.0486388889
 40
2.0486388889
 40
3.0486388889
 40
3.0486388889
 40
3.0486388889
 40
4.0486388889
 40
4.0486388889
 40
4.0486388889
 40
4.0580652778
 40
4.0580652778
 40
4.0580652778
 40
4.0580652778
 10
17.5961125608
 20
25.4073282861
 30
0.0
 10
17.5995940423
 20
25.4073282861
 30
0.0
 10
17.6030755238
 20
25.4073282861
 30
0.0
 10
17.6065570053
 20
25.4073282861
 30
0.0
 10
17.6131764497
 20
25.4073282861
 30
0.0
 10
17.618570328
 20
25.4081238627
 30
0.0
 10
17.6232667275
 20
25.4124685639
 30
0.0
 10
17.6272542275
 20
25.4161574528
 30
0.0
 10
17.6293431164
 20
25.420904675
 30
0.0
 10
17.6293431164
 20
25.4265199528
 30
0.0
 10
17.6293431164
 20
25.4328268972
 30
0.0
 10
17.6265691525
 20
25.4384105513
 30
0.0
 10
17.6222361719
 20
25.4417643972
 30
0.0
 10
17.6173806164
 20
25.4455227306
 30
0.0
 10
17.6107611719
 20
25.4455227306
 30
0.0
 10
17.6055389497
 20
25.4455227306
 30
0.0
 10
17.6023968201
 20
25.4455227306
 30
0.0
 10
17.5992546905
 20
25.4455227306
 30
0.0
 10
17.5961125608
 20
25.4455227306
 30
0.0
  0
LINE
  5
308
100
AcDbEntity
  8
___SYMBOL
100
AcDbLine
 62
2
  6
CONTINUOUS
 10
17.5961125608
 20
25.3996102306
 11
17.5961125608
 21
25.3528574528
  0
LINE
  5
309
100
AcDbEntity
  8
___SYMBOL
100
AcDbLine
 62
2
  6
CONTINUOUS
 10
17.5961125608
 20
25.3528574528
 11
17.5879889497
 21
25.3528574528
  0
LINE
  5
30A
100
AcDbEntity
  8
___SYMBOL
100
AcDbLine
 62
2
  6
CONTINUOUS
 10
17.5879889497
 20
25.3528574528
 11
17.5879889497
 21
25.4532532861
  0
LINE
  5
30B
100
AcDbEntity
  8
___SYMBOL
100
AcDbLine
 62
2
  6
CONTINUOUS
 10
17.5879889497
 20
25.4532532861
 11
17.6062986719
 21
25.4532532861
  0
ARC
  5
30C
100
AcDbEntity
  8
___SYMBOL
100
AcDbCircle
 62
2
  6
CONTINUOUS
 10
17.6107972954
 20
25.4264317583
 40
0.0271961756
100
AcDbArc
 50
260.4787245939
 51
99.5212754061
  0
LINE
  5
30D
100
AcDbEntity
  8
___SYMBOL
100
AcDbLine
 62
2
  6
CONTINUOUS
 10
17.6062986719
 20
25.3996102306
 11
17.5961125608
 21
25.3996102306
  0
LINE
  5
30E
100
AcDbEntity
  8
___SYMBOL
100
AcDbLine
 62
2
  6
CONTINUOUS
 10
17.4620528386
 20
25.3528574528
 11
17.4700139497
 21
25.3528574528
  0
LINE
  5
30F
100
AcDbEntity
  8
___SYMBOL
100
AcDbLine
 62
2
  6
CONTINUOUS
 10
17.4700139497
 20
25.3528574528
 11
17.4864264497
 21
25.4325560639
  0
LINE
  5
310
100
AcDbEntity
  8
___SYMBOL
100
AcDbLine
 62
2
  6
CONTINUOUS
 10
17.4864264497
 20
25.4325560639
 11
17.5205653386
 21
25.3480282861
  0
LINE
  5
311
100
AcDbEntity
  8
___SYMBOL
100
AcDbLine
 62
2
  6
CONTINUOUS
 10
17.5205653386
 20
25.3480282861
 11
17.5548264497
 21
25.4325560639
  0
LINE
  5
312
100
AcDbEntity
  8
___SYMBOL
100
AcDbLine
 62
2
  6
CONTINUOUS
 10
17.5548264497
 20
25.4325560639
 11
17.5713056164
 21
25.3528574528
  0
LINE
  5
313
100
AcDbEntity
  8
___SYMBOL
100
AcDbLine
 62
2
  6
CONTINUOUS
 10
17.5713056164
 20
25.3528574528
 11
17.5792000608
 21
25.3528574528
  0
LINE
  5
314
100
AcDbEntity
  8
___SYMBOL
100
AcDbLine
 62
2
  6
CONTINUOUS
 10
17.5792000608
 20
25.3528574528
 11
17.5571861719
 21
25.4587324528
  0
LINE
  5
315
100
AcDbEntity
  8
___SYMBOL
100
AcDbLine
 62
2
  6
CONTINUOUS
 10
17.5571861719
 20
25.4587324528
 11
17.5205653386
 21
25.3683741194
  0
LINE
  5
316
100
AcDbEntity
  8
___SYMBOL
100
AcDbLine
 62
2
  6
CONTINUOUS
 10
17.5205653386
 20
25.3683741194
 11
17.4840931164
 21
25.4587324528
  0
LINE
  5
317
100
AcDbEntity
  8
___SYMBOL
100
AcDbLine
 62
2
  6
CONTINUOUS
 10
17.4840931164
 20
25.4587324528
 11
17.4620528386
 21
25.3528574528
  0
CIRCLE
  5
318
100
AcDbEntity
  8
___SYMBOL
100
AcDbCircle
 62
2
  6
CONTINUOUS
 10
17.4111763815
 20
25.4030143972
 40
0.043795935
  0
CIRCLE
  5
319
100
AcDbEntity
  8
___SYMBOL
100
AcDbCircle
 62
2
  6
CONTINUOUS
 10
17.4116078196
 20
25.4030150917
 40
0.0514756023
  0
LINE
  5
31A
100
AcDbEntity
  8
___SYMBOL
100
AcDbLine
 62
2
  6
CONTINUOUS
 10
17.1752695053
 20
25.4245393972
 11
17.1752695053
 21
25.4007768972
  0
SPLINE
  5
31B
100
AcDbEntity
  8
___SYMBOL
100
AcDbSpline
 62
2
  6
CONTINUOUS
 70
0
 71
3
 72
17
 73
13
 74
0
 42
0.0000001
 43
0.0000001
 44
0.0000000001
 40
0.0237625
 40
0.0237625
 40
0.0237625
 40
0.0237625
 40
0.0333111111
 40
0.0333111111
 40
0.0333111111
 40
1.0333111111
 40
1.0333111111
 40
1.0333111111
 40
2.0333111111
 40
2.0333111111
 40
2.0333111111
 40
2.0428597222
 40
2.0428597222
 40
2.0428597222
 40
2.0428597222
 10
17.1752695053
 20
25.4007768972
 30
0.0
 10
17.1784523756
 20
25.4007768972
 30
0.0
 10
17.181635246
 20
25.4007768972
 30
0.0
 10
17.1848181164
 20
25.4007768972
 30
0.0
 10
17.1913139497
 20
25.4007768972
 30
0.0
 10
17.1966583942
 20
25.4060393972
 30
0.0
 10
17.1966583942
 20
25.4125907861
 30
0.0
 10
17.1966583942
 20
25.4191824528
 30
0.0
 10
17.1913139497
 20
25.4245393972
 30
0.0
 10
17.1848181164
 20
25.4245393972
 30
0.0
 10
17.181635246
 20
25.4245393972
 30
0.0
 10
17.1784523756
 20
25.4245393972
 30
0.0
 10
17.1752695053
 20
25.4245393972
 30
0.0
  0
LINE
  5
31C
100
AcDbEntity
  8
___SYMBOL
100
AcDbLine
 62
2
  6
CONTINUOUS
 10
17.2045528386
 20
25.3790616194
 11
17.2396681164
 21
25.3296768972
  0
LINE
  5
31D
100
AcDbEntity
  8
___SYMBOL
100
AcDbLine
 62
2
  6
CONTINUOUS
 10
17.2396681164
 20
25.3296768972
 11
17.2028431164
 21
25.3297449528
  0
LINE
  5
31E
100
AcDbEntity
  8
___SYMBOL
100
AcDbLine
 62
2
  6
CONTINUOUS
 10
17.2028431164
 20
25.3297449528
 11
17.1753236719
 21
25.3676005083
  0
LINE
  5
31F
100
AcDbEntity
  8
___SYMBOL
100
AcDbLine
 62
2
  6
CONTINUOUS
 10
17.1753236719
 20
25.3676005083
 11
17.1753236719
 21
25.3298268972
  0
LINE
  5
320
100
AcDbEntity
  8
___SYMBOL
100
AcDbLine
 62
2
  6
CONTINUOUS
 10
17.1753236719
 20
25.3298268972
 11
17.1423375608
 21
25.3298268972
  0
LINE
  5
321
100
AcDbEntity
  8
___SYMBOL
100
AcDbLine
 62
2
  6
CONTINUOUS
 10
17.1423375608
 20
25.3298268972
 11
17.1423375608
 21
25.453117175
  0
SPLINE
  5
322
100
AcDbEntity
  8
___SYMBOL
100
AcDbSpline
 62
2
  6
CONTINUOUS
 70
0
 71
3
 72
11
 73
7
 74
0
 42
0.0000001
 43
0.0000001
 44
0.0000000001
 40
0.3382728571
 40
0.3382728571
 40
0.3382728571
 40
0.3382728571
 40
0.380549246
 40
0.380549246
 40
0.380549246
 40
1.380549246
 40
1.380549246
 40
1.380549246
 40
1.380549246
 10
17.1423375608
 20
25.453117175
 30
0.0
 10
17.1564296905
 20
25.453117175
 30
0.0
 10
17.1705218201
 20
25.453117175
 30
0.0
 10
17.1846139497
 20
25.453117175
 30
0.0
 10
17.2217236719
 20
25.453117175
 30
0.0
 10
17.2454056164
 20
25.4065268972
 30
0.0
 10
17.2045528386
 20
25.3790616194
 30
0.0
  0
SPLINE
  5
323
100
AcDbEntity
  8
___SYMBOL
100
AcDbSpline
 62
2
  6
CONTINUOUS
 70
0
 71
1
 72
15
 73
13
 74
0
 42
0.0000001
 43
0.0000001
 44
0.0000000001
 40
0.0
 40
0.0
 40
0.0284416667
 40
0.0623097655
 40
0.0817742218
 40
0.1130783884
 40
0.1407200551
 40
0.1719297773
 40
0.1907561662
 40
0.2249367218
 40
0.2538811662
 40
0.3225672773
 40
0.4459394995
 40
0.5143672773
 40
0.5143672773
 10
17.1331681164
 20
25.453117175
 30
0.0
 10
17.1331681164
 20
25.4246755083
 30
0.0
 10
17.0993000608
 20
25.4246213417
 30
0.0
 10
17.0991514497
 20
25.4051574528
 30
0.0
 10
17.1304556164
 20
25.4051574528
 30
0.0
 10
17.1304556164
 20
25.3775157861
 30
0.0
 10
17.0992458942
 20
25.3775157861
 30
0.0
 10
17.0992458942
 20
25.3586893972
 30
0.0
 10
17.1334264497
 20
25.3586893972
 30
0.0
 10
17.1334264497
 20
25.3297449528
 30
0.0
 10
17.0647403386
 20
25.3297449528
 30
0.0
 10
17.0647403386
 20
25.453117175
 30
0.0
 10
17.1331681164
 20
25.453117175
 30
0.0
  0
SPLINE
  5
324
100
AcDbEntity
  8
___SYMBOL
100
AcDbSpline
 62
2
  6
CONTINUOUS
 70
0
 71
1
 72
16
 73
14
 74
0
 42
0.0000001
 43
0.0000001
 44
0.0000000001
 40
0.0
 40
0.0
 40
0.0762702112
 40
0.1616203838
 40
0.2062773801
 40
0.2642685662
 40
0.2643296773
 40
0.3082893996
 40
0.3420074551
 40
0.4653796773
 40
0.4990977329
 40
0.5360574551
 40
0.536321344
 40
0.5852365517
 40
0.6289171073
 40
0.6289171073
 10
16.7552111719
 20
25.4530630083
 30
0.0
 10
16.7065320053
 20
25.3943477306
 30
0.0
 10
16.7622306164
 20
25.3296768972
 30
0.0
 10
16.7175736719
 20
25.3297449528
 30
0.0
 10
16.6797514497
 20
25.373704675
 30
0.0
 10
16.6796903386
 20
25.373704675
 30
0.0
 10
16.6796903386
 20
25.3297449528
 30
0.0
 10
16.6459722831
 20
25.3297449528
 30
0.0
 10
16.6459722831
 20
25.453117175
 30
0.0
 10
16.6796903386
 20
25.453117175
 30
0.0
 10
16.6796903386
 20
25.4161574528
 30
0.0
 10
16.6794264497
 20
25.4161574528
 30
0.0
 10
16.7115306164
 20
25.4530630083
 30
0.0
 10
16.7552111719
 20
25.4530630083
 30
0.0
  0
SPLINE
  5
325
100
AcDbEntity
  8
___SYMBOL
100
AcDbSpline
 62
2
  6
CONTINUOUS
 70
0
 71
1
 72
15
 73
13
 74
0
 42
0.0000001
 43
0.0000001
 44
0.0000000001
 40
0.0
 40
0.0
 40
0.1233722222
 40
0.1570361111
 40
0.2003027778
 40
0.2343472222
 40
0.2776138889
 40
0.3112708333
 40
0.4346430556
 40
0.4683
 40
0.5141986111
 40
0.5482430556
 40
0.5941416667
 40
0.6278055556
 40
0.6278055556
 10
16.8731111719
 20
25.3297449528
 30
0.0
 10
16.8731111719
 20
25.453117175
 30
0.0
 10
16.9067750608
 20
25.453117175
 30
0.0
 10
16.9067750608
 20
25.4098505083
 30
0.0
 10
16.9408195053
 20
25.4098505083
 30
0.0
 10
16.9408195053
 20
25.453117175
 30
0.0
 10
16.9744764497
 20
25.453117175
 30
0.0
 10
16.9744764497
 20
25.3297449528
 30
0.0
 10
16.9408195053
 20
25.3297449528
 30
0.0
 10
16.9408195053
 20
25.3756435639
 30
0.0
 10
16.9067750608
 20
25.3756435639
 30
0.0
 10
16.9067750608
 20
25.3297449528
 30
0.0
 10
16.8731111719
 20
25.3297449528
 30
0.0
  0
SPLINE
  5
326
100
AcDbEntity
  8
___SYMBOL
100
AcDbSpline
 62
2
  6
CONTINUOUS
 70
0
 71
1
 72
9
 73
7
 74
0
 42
0.0000001
 43
0.0000001
 44
0.0000000001
 40
0.0
 40
0.0
 40
0.1233722222
 40
0.1570916667
 40
0.2489694444
 40
0.286825
 40
0.3183194444
 40
0.3898944444
 40
0.3898944444
 10
16.9842417275
 20
25.3297449528
 30
0.0
 10
16.9842417275
 20
25.453117175
 30
0.0
 10
17.0179611719
 20
25.453117175
 30
0.0
 10
17.0179611719
 20
25.3612393972
 30
0.0
 10
17.0558167275
 20
25.3612393972
 30
0.0
 10
17.0558167275
 20
25.3297449528
 30
0.0
 10
16.9842417275
 20
25.3297449528
 30
0.0
  0
LINE
  5
327
100
AcDbEntity
  8
___SYMBOL
100
AcDbLine
 62
2
  6
CONTINUOUS
 10
17.8738236719
 20
25.4532532861
 11
17.8448375608
 21
25.4042352306
  0
LINE
  5
328
100
AcDbEntity
  8
___SYMBOL
100
AcDbLine
 62
2
  6
CONTINUOUS
 10
17.8448375608
 20
25.4042352306
 11
17.8165042275
 21
25.4532532861
  0
LINE
  5
329
100
AcDbEntity
  8
___SYMBOL
100
AcDbLine
 62
2
  6
CONTINUOUS
 10
17.8165042275
 20
25.4532532861
 11
17.8072264497
 21
25.4532532861
  0
LINE
  5
32A
100
AcDbEntity
  8
___SYMBOL
100
AcDbLine
 62
2
  6
CONTINUOUS
 10
17.8072264497
 20
25.4532532861
 11
17.8408639497
 21
25.3953782861
  0
LINE
  5
32B
100
AcDbEntity
  8
___SYMBOL
100
AcDbLine
 62
2
  6
CONTINUOUS
 10
17.8408639497
 20
25.3953782861
 11
17.8407153386
 21
25.3528574528
  0
LINE
  5
32C
100
AcDbEntity
  8
___SYMBOL
100
AcDbLine
 62
2
  6
CONTINUOUS
 10
17.8407153386
 20
25.3528574528
 11
17.8488389497
 21
25.3528574528
  0
LINE
  5
32D
100
AcDbEntity
  8
___SYMBOL
100
AcDbLine
 62
2
  6
CONTINUOUS
 10
17.8488389497
 20
25.3528574528
 11
17.8488389497
 21
25.395867175
  0
LINE
  5
32E
100
AcDbEntity
  8
___SYMBOL
100
AcDbLine
 62
2
  6
CONTINUOUS
 10
17.8488389497
 20
25.395867175
 11
17.8823403386
 21
25.4532532861
  0
LINE
  5
32F
100
AcDbEntity
  8
___SYMBOL
100
AcDbLine
 62
2
  6
CONTINUOUS
 10
17.8823403386
 20
25.4532532861
 11
17.8738236719
 21
25.4532532861
  0
LINE
  5
330
100
AcDbEntity
  8
___SYMBOL
100
AcDbLine
 62
2
  6
CONTINUOUS
 10
17.7113750608
 20
25.3528574528
 11
17.7194722831
 21
25.3528574528
  0
LINE
  5
331
100
AcDbEntity
  8
___SYMBOL
100
AcDbLine
 62
2
  6
CONTINUOUS
 10
17.7194722831
 20
25.3528574528
 11
17.7194722831
 21
25.4360824528
  0
LINE
  5
332
100
AcDbEntity
  8
___SYMBOL
100
AcDbLine
 62
2
  6
CONTINUOUS
 10
17.7194722831
 20
25.4360824528
 11
17.8022222831
 21
25.3481782861
  0
LINE
  5
333
100
AcDbEntity
  8
___SYMBOL
100
AcDbLine
 62
2
  6
CONTINUOUS
 10
17.8022222831
 20
25.3481782861
 11
17.8022222831
 21
25.4532532861
  0
LINE
  5
334
100
AcDbEntity
  8
___SYMBOL
100
AcDbLine
 62
2
  6
CONTINUOUS
 10
17.8022222831
 20
25.4532532861
 11
17.7941250608
 21
25.4532532861
  0
LINE
  5
335
100
AcDbEntity
  8
___SYMBOL
100
AcDbLine
 62
2
  6
CONTINUOUS
 10
17.7941250608
 20
25.4532532861
 11
17.7941250608
 21
25.3685630083
  0
LINE
  5
336
100
AcDbEntity
  8
___SYMBOL
100
AcDbLine
 62
2
  6
CONTINUOUS
 10
17.7941250608
 20
25.3685630083
 11
17.7113750608
 21
25.4558713417
  0
LINE
  5
337
100
AcDbEntity
  8
___SYMBOL
100
AcDbLine
 62
2
  6
CONTINUOUS
 10
17.7113750608
 20
25.4558713417
 11
17.7113750608
 21
25.3528574528
  0
LINE
  5
338
100
AcDbEntity
  8
___SYMBOL
100
AcDbLine
 62
2
  6
CONTINUOUS
 10
17.3529764497
 20
25.3640060639
 11
17.3533292275
 21
25.3733518972
  0
LINE
  5
339
100
AcDbEntity
  8
___SYMBOL
100
AcDbLine
 62
2
  6
CONTINUOUS
 10
17.3533292275
 20
25.3733518972
 11
17.3533292275
 21
25.3759018972
  0
LINE
  5
33A
100
AcDbEntity
  8
___SYMBOL
100
AcDbLine
 62
2
  6
CONTINUOUS
 10
17.3533292275
 20
25.3759018972
 11
17.3516472831
 21
25.3738810639
  0
LINE
  5
33B
100
AcDbEntity
  8
___SYMBOL
100
AcDbLine
 62
2
  6
CONTINUOUS
 10
17.3516472831
 20
25.3738810639
 11
17.3193792275
 21
25.3592185639
  0
SPLINE
  5
33C
100
AcDbEntity
  8
___SYMBOL
100
AcDbSpline
 62
2
  6
CONTINUOUS
 70
0
 71
3
 72
8
 73
4
 74
0
 42
0.0000001
 43
0.0000001
 44
0.0000000001
 40
0.0506940081
 40
0.0506940081
 40
0.0506940081
 40
0.0506940081
 40
0.1856215675
 40
0.1856215675
 40
0.1856215675
 40
0.1856215675
 10
17.3193792275
 20
25.3592185639
 30
0.0
 10
17.2611248501
 20
25.3620754805
 30
0.0
 10
17.2610057361
 20
25.4457042663
 30
0.0
 10
17.3193792275
 20
25.4468102306
 30
0.0
  0
LINE
  5
33D
100
AcDbEntity
  8
___SYMBOL
100
AcDbLine
 62
2
  6
CONTINUOUS
 10
17.3193792275
 20
25.4468102306
 11
17.3533292275
 21
25.4295852306
  0
LINE
  5
33E
100
AcDbEntity
  8
___SYMBOL
100
AcDbLine
 62
2
  6
CONTINUOUS
 10
17.3533292275
 20
25.4295852306
 11
17.3533292275
 21
25.4407880083
  0
ARC
  5
33F
100
AcDbEntity
  8
___SYMBOL
100
AcDbCircle
 62
2
  6
CONTINUOUS
 10
17.3186541124
 20
25.4029402795
 40
0.0513304411
100
AcDbArc
 50
47.5048873671
 51
180.0087362707
  0
ARC
  5
340
100
AcDbEntity
  8
___SYMBOL
100
AcDbCircle
 62
2
  6
CONTINUOUS
 10
17.3192291028
 20
25.4034465844
 40
0.0519079771
100
AcDbArc
 50
180.5675053294
 51
310.5520051654
  0
CIRCLE
  5
341
100
AcDbEntity
  8
___SYMBOL
100
AcDbCircle
 62
2
  6
CONTINUOUS
 10
16.8057761886
 20
25.3924553694
 40
0.0317997452
  0
SPLINE
  5
342
100
AcDbEntity
  8
___SYMBOL
100
AcDbSpline
 62
2
  6
CONTINUOUS
 70
0
 71
3
 72
14
 73
10
 74
0
 42
0.0000001
 43
0.0000001
 44
0.0000000001
 40
0.0
 40
0.0
 40
0.0
 40
0.0
 40
0.0987956343
 40
0.0987956343
 40
0.1968605605
 40
0.1968605605
 40
0.2954509101
 40
0.2954509101
 40
0.3933711843
 40
0.3933711843
 40
0.3933711843
 40
0.3933711843
 10
16.7390028386
 20
25.3924755083
 30
0.0
 10
16.7388311565
 20
25.4277831541
 30
0.0
 10
16.7668382922
 20
25.4568861333
 30
0.0
 10
16.8377689626
 20
25.4565950261
 30
0.0
 10
16.8660703192
 20
25.4274997047
 30
0.0
 10
16.8663034832
 20
25.3570588337
 30
0.0
 10
16.838225749
 20
25.3280131368
 30
0.0
 10
16.7673002511
 20
25.3283276531
 30
0.0
 10
16.7387924537
 20
25.3571342694
 30
0.0
 10
16.7390028386
 20
25.3924755083
 30
0.0
  0
SPLINE
  5
343
100
AcDbEntity
  8
___SYMBOL
100
AcDbSpline
 62
2
  6
CONTINUOUS
 70
0
 71
3
 72
17
 73
13
 74
0
 42
0.0000001
 43
0.0000001
 44
0.0000000001
 40
0.0
 40
0.0
 40
0.0
 40
0.0
 40
0.0032416667
 40
0.0032416667
 40
0.0032416667
 40
1.0032416667
 40
1.0032416667
 40
1.0032416667
 40
2.0032416667
 40
2.0032416667
 40
2.0032416667
 40
3.0032416667
 40
3.0032416667
 40
3.0032416667
 40
3.0032416667
 10
17.7390028386
 20
25.6605755083
 30
0.0
 10
17.7400833942
 20
25.6605755083
 30
0.0
 10
17.7411639497
 20
25.6605755083
 30
0.0
 10
17.7422445053
 20
25.6605755083
 30
0.0
 10
17.7459472831
 20
25.6605755083
 30
0.0
 10
17.7490806164
 20
25.6619185639
 30
0.0
 10
17.7490806164
 20
25.6653838417
 30
0.0
 10
17.7490806164
 20
25.6678532861
 30
0.0
 10
17.7472903386
 20
25.6703213417
 30
0.0
 10
17.7422445053
 20
25.6703213417
 30
0.0
 10
17.7407931164
 20
25.6703213417
 30
0.0
 10
17.7397903386
 20
25.6701991194
 30
0.0
 10
17.7390028386
 20
25.6700838417
 30
0.0
  0
LINE
  5
344
100
AcDbEntity
  8
___SYMBOL
100
AcDbLine
 62
2
  6
CONTINUOUS
 10
17.7390028386
 20
25.6700838417
 11
17.7390028386
 21
25.6605755083
  0
LINE
  5
345
100
AcDbEntity
  8
___SYMBOL
100
AcDbLine
 62
2
  6
CONTINUOUS
 10
17.7390028386
 20
25.6450116194
 11
17.7345278386
 21
25.6450116194
  0
LINE
  5
346
100
AcDbEntity
  8
___SYMBOL
100
AcDbLine
 62
2
  6
CONTINUOUS
 10
17.7345278386
 20
25.6450116194
 11
17.7345278386
 21
25.6731088417
  0
SPLINE
  5
347
100
AcDbEntity
  8
___SYMBOL
100
AcDbSpline
 62
2
  6
CONTINUOUS
 70
0
 71
3
 72
17
 73
13
 74
0
 42
0.0000001
 43
0.0000001
 44
0.0000000001
 40
0.0325722222
 40
0.0325722222
 40
0.0325722222
 40
0.0325722222
 40
1.0325722222
 40
1.0325722222
 40
1.0325722222
 40
2.0325722222
 40
2.0325722222
 40
2.0325722222
 40
3.0325722222
 40
3.0325722222
 40
3.0325722222
 40
4.0325722222
 40
4.0325722222
 40
4.0325722222
 40
4.0325722222
 10
17.7345278386
 20
25.6731088417
 30
0.0
 10
17.7368736719
 20
25.673454675
 30
0.0
 10
17.7391111719
 20
25.673779675
 30
0.0
 10
17.7424750608
 20
25.673779675
 30
0.0
 10
17.7467347831
 20
25.673779675
 30
0.0
 10
17.749532706
 20
25.6728918709
 30
0.0
 10
17.7512097831
 20
25.6716574528
 30
0.0
 10
17.7528778386
 20
25.670429675
 30
0.0
 10
17.7537875608
 20
25.668517175
 30
0.0
 10
17.7537875608
 20
25.6658380083
 30
0.0
 10
17.7537875608
 20
25.662142175
 30
0.0
 10
17.7513181164
 20
25.6598977306
 30
0.0
 10
17.7482945053
 20
25.6590088417
 30
0.0
  0
LINE
  5
348
100
AcDbEntity
  8
___SYMBOL
100
AcDbLine
 62
2
  6
CONTINUOUS
 10
17.7482945053
 20
25.6590088417
 11
17.7482945053
 21
25.6587852306
  0
LINE
  5
349
100
AcDbEntity
  8
___SYMBOL
100
AcDbLine
 62
2
  6
CONTINUOUS
 10
17.7482945053
 20
25.6587852306
 11
17.7547778386
 21
25.6450116194
  0
LINE
  5
34A
100
AcDbEntity
  8
___SYMBOL
100
AcDbLine
 62
2
  6
CONTINUOUS
 10
17.7547778386
 20
25.6450116194
 11
17.7500847831
 21
25.6450116194
  0
LINE
  5
34B
100
AcDbEntity
  8
___SYMBOL
100
AcDbLine
 62
2
  6
CONTINUOUS
 10
17.7500847831
 20
25.6450116194
 11
17.7481861719
 21
25.6521741194
  0
LINE
  5
34C
100
AcDbEntity
  8
___SYMBOL
100
AcDbLine
 62
2
  6
CONTINUOUS
 10
17.7481861719
 20
25.6521741194
 11
17.7390028386
 21
25.6571102306
  0
LINE
  5
34D
100
AcDbEntity
  8
___SYMBOL
100
AcDbLine
 62
2
  6
CONTINUOUS
 10
17.7390028386
 20
25.6571102306
 11
17.7390028386
 21
25.6450116194
  0
CIRCLE
  5
34E
100
AcDbEntity
  8
___SYMBOL
100
AcDbCircle
 62
2
  6
CONTINUOUS
 10
17.7437639497
 20
25.6607141829
 40
0.0202280646
  0
SPLINE
  5
34F
100
AcDbEntity
  8
___SYMBOL
100
AcDbSpline
 62
2
  6
CONTINUOUS
 70
0
 71
3
 72
12
 73
8
 74
0
 42
0.0000001
 43
0.0000001
 44
0.0000000001
 40
0.039009476
 40
0.039009476
 40
0.039009476
 40
0.039009476
 40
0.0793449376
 40
0.0793449376
 40
0.1196515026
 40
0.1196515026
 40
0.1957701011
 40
0.1957701011
 40
0.1957701011
 40
0.1957701011
 10
17.7685583942
 20
25.6596810639
 30
0.0
 10
17.7688917933
 20
25.6418697817
 30
0.0
 10
17.7615723345
 20
25.6344119818
 30
0.0
 10
17.7259615289
 20
25.6343723915
 30
0.0
 10
17.7189341781
 20
25.6419933364
 30
0.0
 10
17.7184129169
 20
25.6927757182
 30
0.0
 10
17.7690085218
 20
25.6928812073
 30
0.0
 10
17.7685583942
 20
25.6596810639
 30
0.0
  0
SPLINE
  5
350
100
AcDbEntity
  8
___SYMBOL
100
AcDbSpline
 62
2
  6
CONTINUOUS
 70
0
 71
1
 72
7
 73
5
 74
0
 42
0.0000001
 43
0.0000001
 44
0.0000000001
 40
0.0
 40
0.0
 40
0.5096027778
 40
3.8794430556
 40
4.3890458333
 40
7.7588861111
 40
7.7588861111
 10
17.8289153386
 20
26.0656657861
 30
0.0
 10
17.8289153386
 20
25.5560630083
 30
0.0
 10
14.4590750608
 20
25.5560630083
 30
0.0
 10
14.4590750608
 20
26.0656657861
 30
0.0
 10
17.8289153386
 20
26.0656657861
 30
0.0
  0
SPLINE
  5
351
100
AcDbEntity
  8
___SYMBOL
100
AcDbSpline
 62
2
  6
CONTINUOUS
 70
0
 71
1
 72
7
 73
5
 74
0
 42
0.0000001
 43
0.0000001
 44
0.0000000001
 40
0.0
 40
0.0
 40
0.496175
 40
3.8525736111
 40
4.3487486111
 40
7.7051472222
 40
7.7051472222
 10
17.8221875608
 20
26.0589518972
 30
0.0
 10
17.8221875608
 20
25.5627768972
 30
0.0
 10
14.4657889497
 20
25.5627768972
 30
0.0
 10
14.4657889497
 20
26.0589518972
 30
0.0
 10
17.8221875608
 20
26.0589518972
 30
0.0
  0
SPLINE
  5
352
100
AcDbEntity
  8
___SYMBOL
100
AcDbSpline
 62
2
  6
CONTINUOUS
 70
0
 71
1
 72
7
 73
5
 74
0
 42
0.0000001
 43
0.0000001
 44
0.0000000001
 40
0.0
 40
0.0
 40
0.6142111111
 40
4.0886777778
 40
4.7028888889
 40
8.1773555556
 40
8.1773555556
 10
14.4067486719
 20
26.1179741194
 30
0.0
 10
14.4067486719
 20
25.5037630083
 30
0.0
 10
17.8812153386
 20
25.5037630083
 30
0.0
 10
17.8812153386
 20
26.1179741194
 30
0.0
 10
14.4067486719
 20
26.1179741194
 30
0.0
  0
LINE
  5
353
100
AcDbEntity
  8
___SYMBOL
100
AcDbLine
 62
2
  6
CONTINUOUS
 10
17.6528208942
 20
25.9217185639
 11
17.6506514497
 21
25.9217185639
  0
ARC
  5
354
100
AcDbEntity
  8
___SYMBOL
100
AcDbCircle
 62
2
  6
CONTINUOUS
 10
17.535697921
 20
25.7288167428
 40
0.2245560651
100
AcDbArc
 50
59.208555199
 51
93.5831215674
  0
SPLINE
  5
355
100
AcDbEntity
  8
___SYMBOL
100
AcDbSpline
 62
2
  6
CONTINUOUS
 70
0
 71
3
 72
14
 73
10
 74
0
 42
0.0000001
 43
0.0000001
 44
0.0000000001
 40
0.1363871571
 40
0.1363871571
 40
0.1363871571
 40
0.1363871571
 40
1.1363871571
 40
1.1363871571
 40
1.1363871571
 40
2.1363871571
 40
2.1363871571
 40
2.1363871571
 40
3.1363871571
 40
3.1363871571
 40
3.1363871571
 40
3.1363871571
 10
17.5216639497
 20
25.9529338417
 30
0.0
 10
17.4086264497
 20
25.9529338417
 30
0.0
 10
17.3224042275
 20
25.899867175
 30
0.0
 10
17.3224042275
 20
25.8161074528
 30
0.0
 10
17.3224042275
 20
25.7323393972
 30
0.0
 10
17.4151500608
 20
25.6688699528
 30
0.0
 10
17.5296389497
 20
25.6688699528
 30
0.0
 10
17.5629778386
 20
25.6688699528
 30
0.0
 10
17.5977542275
 20
25.6719893972
 30
0.0
 10
17.6303611719
 20
25.6787435639
 30
0.0
  0
SPLINE
  5
356
100
AcDbEntity
  8
___SYMBOL
100
AcDbSpline
 62
2
  6
CONTINUOUS
 70
0
 71
3
 72
11
 73
7
 74
0
 42
0.0000001
 43
0.0000001
 44
0.0000000001
 40
3.1363871571
 40
3.1363871571
 40
3.1363871571
 40
3.1363871571
 40
3.2113121571
 40
3.2113121571
 40
3.2113121571
 40
4.2113121571
 40
4.2113121571
 40
4.2113121571
 40
4.2113121571
 10
17.6303611719
 20
25.6787435639
 30
0.0
 10
17.6303611719
 20
25.7037185639
 30
0.0
 10
17.6303611719
 20
25.7286935639
 30
0.0
 10
17.6303611719
 20
25.7536685639
 30
0.0
 10
17.6303611719
 20
25.7776074528
 30
0.0
 10
17.6296278386
 20
25.8030935639
 30
0.0
 10
17.5970347831
 20
25.8124588417
 30
0.0
  0
LINE
  5
357
100
AcDbEntity
  8
___SYMBOL
100
AcDbLine
 62
2
  6
CONTINUOUS
 10
17.5970347831
 20
25.8124588417
 11
17.5970347831
 21
25.8140116194
  0
LINE
  5
358
100
AcDbEntity
  8
___SYMBOL
100
AcDbLine
 62
2
  6
CONTINUOUS
 10
17.5970347831
 20
25.8140116194
 11
17.7078889497
 21
25.8140116194
  0
LINE
  5
359
100
AcDbEntity
  8
___SYMBOL
100
AcDbLine
 62
2
  6
CONTINUOUS
 10
17.7078889497
 20
25.8140116194
 11
17.7078889497
 21
25.8124588417
  0
LINE
  5
35A
100
AcDbEntity
  8
___SYMBOL
100
AcDbLine
 62
2
  6
CONTINUOUS
 10
17.7078889497
 20
25.8124588417
 11
17.7042667275
 21
25.7900852306
  0
LINE
  5
35B
100
AcDbEntity
  8
___SYMBOL
100
AcDbLine
 62
2
  6
CONTINUOUS
 10
17.7042667275
 20
25.7900852306
 11
17.7042667275
 21
25.6704227306
  0
LINE
  5
35C
100
AcDbEntity
  8
___SYMBOL
100
AcDbLine
 62
2
  6
CONTINUOUS
 10
17.7042667275
 20
25.6704227306
 11
17.7078889497
 21
25.6470060639
  0
SPLINE
  5
35D
100
AcDbEntity
  8
___SYMBOL
100
AcDbSpline
 62
2
  6
CONTINUOUS
 70
0
 71
3
 72
17
 73
13
 74
0
 42
0.0000001
 43
0.0000001
 44
0.0000000001
 40
4.4917022773
 40
4.4917022773
 40
4.4917022773
 40
4.4917022773
 40
5.4917022773
 40
5.4917022773
 40
5.4917022773
 40
6.4917022773
 40
6.4917022773
 40
6.4917022773
 40
7.4917022773
 40
7.4917022773
 40
7.4917022773
 40
8.4917022773
 40
8.4917022773
 40
8.4917022773
 40
8.4917022773
 10
17.7078889497
 20
25.6470060639
 30
0.0
 10
17.6499320053
 20
25.6392199528
 30
0.0
 10
17.5934139497
 20
25.6313949528
 30
0.0
 10
17.5347250608
 20
25.6313949528
 30
0.0
 10
17.3492195053
 20
25.6313949528
 30
0.0
 10
17.2398028386
 20
25.7042505083
 30
0.0
 10
17.2398028386
 20
25.8088102306
 30
0.0
 10
17.2398028386
 20
25.9206741194
 30
0.0
 10
17.3637042275
 20
25.9904032861
 30
0.0
 10
17.5390653386
 20
25.9904032861
 30
0.0
 10
17.5774639497
 20
25.9904032861
 30
0.0
 10
17.6151431164
 20
25.9872768972
 30
0.0
 10
17.6528208942
 20
25.9815532861
 30
0.0
  0
LINE
  5
35E
100
AcDbEntity
  8
___SYMBOL
100
AcDbLine
 62
2
  6
CONTINUOUS
 10
17.6528208942
 20
25.9815532861
 11
17.6528208942
 21
25.9217185639
  0
LINE
  5
35F
100
AcDbEntity
  8
___SYMBOL
100
AcDbLine
 62
2
  6
CONTINUOUS
 10
16.8622736719
 20
25.6412963417
 11
16.8622736719
 21
25.6397227306
  0
LINE
  5
360
100
AcDbEntity
  8
___SYMBOL
100
AcDbLine
 62
2
  6
CONTINUOUS
 10
16.8622736719
 20
25.6397227306
 11
16.7340250608
 21
25.6397227306
  0
LINE
  5
361
100
AcDbEntity
  8
___SYMBOL
100
AcDbLine
 62
2
  6
CONTINUOUS
 10
16.7340250608
 20
25.6397227306
 11
16.7340250608
 21
25.6412963417
  0
SPLINE
  5
362
100
AcDbEntity
  8
___SYMBOL
100
AcDbSpline
 62
2
  6
CONTINUOUS
 70
0
 71
3
 72
14
 73
10
 74
0
 42
0.0000001
 43
0.0000001
 44
0.0000000001
 40
0.1313958333
 40
0.1313958333
 40
0.1313958333
 40
0.1313958333
 40
1.1313958333
 40
1.1313958333
 40
1.1313958333
 40
1.3390027778
 40
1.3390027778
 40
1.3390027778
 40
2.3390027778
 40
2.3390027778
 40
2.3390027778
 40
2.3390027778
 10
16.7340250608
 20
25.6412963417
 30
0.0
 10
16.7724306164
 20
25.6574088417
 30
0.0
 10
16.7724306164
 20
25.6782352306
 30
0.0
 10
16.7724306164
 20
25.7073630083
 30
0.0
 10
16.7724306164
 20
25.7765653232
 30
0.0
 10
16.7724306164
 20
25.845767638
 30
0.0
 10
16.7724306164
 20
25.9149699528
 30
0.0
 10
16.7724306164
 20
25.9440977306
 30
0.0
 10
16.7724306164
 20
25.964917175
 30
0.0
 10
16.7347514497
 20
25.9805157861
 30
0.0
  0
LINE
  5
363
100
AcDbEntity
  8
___SYMBOL
100
AcDbLine
 62
2
  6
CONTINUOUS
 10
16.7347514497
 20
25.9805157861
 11
16.7347514497
 21
25.9820824528
  0
LINE
  5
364
100
AcDbEntity
  8
___SYMBOL
100
AcDbLine
 62
2
  6
CONTINUOUS
 10
16.7347514497
 20
25.9820824528
 11
16.8405389497
 21
25.9820824528
  0
LINE
  5
365
100
AcDbEntity
  8
___SYMBOL
100
AcDbLine
 62
2
  6
CONTINUOUS
 10
16.8405389497
 20
25.9820824528
 11
16.8405389497
 21
25.9815532861
  0
LINE
  5
366
100
AcDbEntity
  8
___SYMBOL
100
AcDbLine
 62
2
  6
CONTINUOUS
 10
16.8405389497
 20
25.9815532861
 11
16.8514236719
 21
25.9685463417
  0
LINE
  5
367
100
AcDbEntity
  8
___SYMBOL
100
AcDbLine
 62
2
  6
CONTINUOUS
 10
16.8514236719
 20
25.9685463417
 11
16.8615556164
 21
25.958142175
  0
LINE
  5
368
100
AcDbEntity
  8
___SYMBOL
100
AcDbLine
 62
2
  6
CONTINUOUS
 10
16.8615556164
 20
25.958142175
 11
17.1267667275
 21
25.7177657861
  0
SPLINE
  5
369
100
AcDbEntity
  8
___SYMBOL
100
AcDbSpline
 62
2
  6
CONTINUOUS
 70
0
 71
3
 72
11
 73
7
 74
0
 42
0.0000001
 43
0.0000001
 44
0.0000000001
 40
3.819343998
 40
3.819343998
 40
3.819343998
 40
3.819343998
 40
4.0165481647
 40
4.0165481647
 40
4.0165481647
 40
5.0165481647
 40
5.0165481647
 40
5.0165481647
 40
5.0165481647
 10
17.1267667275
 20
25.7177657861
 30
0.0
 10
17.1267667275
 20
25.7835005083
 30
0.0
 10
17.1267667275
 20
25.8492352306
 30
0.0
 10
17.1267667275
 20
25.9149699528
 30
0.0
 10
17.1267667275
 20
25.9440977306
 30
0.0
 10
17.1274847831
 20
25.964917175
 30
0.0
 10
17.0890875608
 20
25.9805157861
 30
0.0
  0
LINE
  5
36A
100
AcDbEntity
  8
___SYMBOL
100
AcDbLine
 62
2
  6
CONTINUOUS
 10
17.0890875608
 20
25.9805157861
 11
17.0890875608
 21
25.9820824528
  0
LINE
  5
36B
100
AcDbEntity
  8
___SYMBOL
100
AcDbLine
 62
2
  6
CONTINUOUS
 10
17.0890875608
 20
25.9820824528
 11
17.2166236719
 21
25.9820824528
  0
LINE
  5
36C
100
AcDbEntity
  8
___SYMBOL
100
AcDbLine
 62
2
  6
CONTINUOUS
 10
17.2166236719
 20
25.9820824528
 11
17.2166236719
 21
25.9805157861
  0
SPLINE
  5
36D
100
AcDbEntity
  8
___SYMBOL
100
AcDbSpline
 62
2
  6
CONTINUOUS
 70
0
 71
3
 72
11
 73
7
 74
0
 42
0.0000001
 43
0.0000001
 44
0.0000000001
 40
5.1472176091
 40
5.1472176091
 40
5.1472176091
 40
5.1472176091
 40
6.1472176091
 40
6.1472176091
 40
6.1472176091
 40
6.4391078869
 40
6.4391078869
 40
6.4391078869
 40
6.4391078869
 10
17.2166236719
 20
25.9805157861
 30
0.0
 10
17.1789306164
 20
25.964917175
 30
0.0
 10
17.1789306164
 20
25.9440977306
 30
0.0
 10
17.1789306164
 20
25.9149699528
 30
0.0
 10
17.1789306164
 20
25.8176731935
 30
0.0
 10
17.1789306164
 20
25.7203764343
 30
0.0
 10
17.1789306164
 20
25.623079675
 30
0.0
  0
ARC
  5
36E
100
AcDbEntity
  8
___SYMBOL
100
AcDbCircle
 62
2
  6
CONTINUOUS
 10
17.2212476646
 20
25.8225807247
 40
0.2039397004
100
AcDbArc
 50
223.4269507726
 51
258.0242403069
  0
LINE
  5
36F
100
AcDbEntity
  8
___SYMBOL
100
AcDbLine
 62
2
  6
CONTINUOUS
 10
17.0731361719
 20
25.6823866194
 11
16.8246083942
 21
25.9087116194
  0
SPLINE
  5
370
100
AcDbEntity
  8
___SYMBOL
100
AcDbSpline
 62
2
  6
CONTINUOUS
 70
0
 71
3
 72
11
 73
7
 74
0
 42
0.0000001
 43
0.0000001
 44
0.0000000001
 40
6.8979254112
 40
6.8979254112
 40
6.8979254112
 40
6.8979254112
 40
7.0992740223
 40
7.0992740223
 40
7.0992740223
 40
8.0992740223
 40
8.0992740223
 40
8.0992740223
 40
8.0992740223
 10
16.8246083942
 20
25.9087116194
 30
0.0
 10
16.8246083942
 20
25.8415954157
 30
0.0
 10
16.8246083942
 20
25.774479212
 30
0.0
 10
16.8246083942
 20
25.7073630083
 30
0.0
 10
16.8246083942
 20
25.6782352306
 30
0.0
 10
16.8238833942
 20
25.6574088417
 30
0.0
 10
16.8622736719
 20
25.6412963417
 30
0.0
  0
LINE
  5
371
100
AcDbEntity
  8
___SYMBOL
100
AcDbLine
 62
2
  6
CONTINUOUS
 10
16.5195417275
 20
25.9805157861
 11
16.5195417275
 21
25.9820824528
  0
LINE
  5
372
100
AcDbEntity
  8
___SYMBOL
100
AcDbLine
 62
2
  6
CONTINUOUS
 10
16.5195417275
 20
25.9820824528
 11
16.6572292275
 21
25.9820824528
  0
LINE
  5
373
100
AcDbEntity
  8
___SYMBOL
100
AcDbLine
 62
2
  6
CONTINUOUS
 10
16.6572292275
 20
25.9820824528
 11
16.6572292275
 21
25.9805157861
  0
SPLINE
  5
374
100
AcDbEntity
  8
___SYMBOL
100
AcDbSpline
 62
2
  6
CONTINUOUS
 70
0
 71
3
 72
14
 73
10
 74
0
 42
0.0000001
 43
0.0000001
 44
0.0000000001
 40
0.1408208333
 40
0.1408208333
 40
0.1408208333
 40
0.1408208333
 40
1.1408208333
 40
1.1408208333
 40
1.1408208333
 40
1.3369611111
 40
1.3369611111
 40
1.3369611111
 40
2.3369611111
 40
2.3369611111
 40
2.3369611111
 40
2.3369611111
 10
16.6572292275
 20
25.9805157861
 30
0.0
 10
16.6210083942
 20
25.9706282861
 30
0.0
 10
16.6253292275
 20
25.9321282861
 30
0.0
 10
16.6253292275
 20
25.9087116194
 30
0.0
 10
16.6253292275
 20
25.8433315269
 30
0.0
 10
16.6253292275
 20
25.7779514343
 30
0.0
 10
16.6253292275
 20
25.7125713417
 30
0.0
 10
16.6253292275
 20
25.689167175
 30
0.0
 10
16.6210083942
 20
25.6511838417
 30
0.0
 10
16.6572292275
 20
25.6412963417
 30
0.0
  0
LINE
  5
375
100
AcDbEntity
  8
___SYMBOL
100
AcDbLine
 62
2
  6
CONTINUOUS
 10
16.6572292275
 20
25.6412963417
 11
16.6572292275
 21
25.6397227306
  0
LINE
  5
376
100
AcDbEntity
  8
___SYMBOL
100
AcDbLine
 62
2
  6
CONTINUOUS
 10
16.6572292275
 20
25.6397227306
 11
16.5195417275
 21
25.6397227306
  0
LINE
  5
377
100
AcDbEntity
  8
___SYMBOL
100
AcDbLine
 62
2
  6
CONTINUOUS
 10
16.5195417275
 20
25.6397227306
 11
16.5195417275
 21
25.6412963417
  0
SPLINE
  5
378
100
AcDbEntity
  8
___SYMBOL
100
AcDbSpline
 62
2
  6
CONTINUOUS
 70
0
 71
3
 72
14
 73
10
 74
0
 42
0.0000001
 43
0.0000001
 44
0.0000000001
 40
2.4777958333
 40
2.4777958333
 40
2.4777958333
 40
2.4777958333
 40
3.4777958333
 40
3.4777958333
 40
3.4777958333
 40
3.6739361111
 40
3.6739361111
 40
3.6739361111
 40
4.6739361111
 40
4.6739361111
 40
4.6739361111
 40
4.6739361111
 10
16.5195417275
 20
25.6412963417
 30
0.0
 10
16.5557750608
 20
25.650654675
 30
0.0
 10
16.5514292275
 20
25.689167175
 30
0.0
 10
16.5514292275
 20
25.7125713417
 30
0.0
 10
16.5514292275
 20
25.7779514343
 30
0.0
 10
16.5514292275
 20
25.8433315269
 30
0.0
 10
16.5514292275
 20
25.9087116194
 30
0.0
 10
16.5514292275
 20
25.9326505083
 30
0.0
 10
16.5565083942
 20
25.9706282861
 30
0.0
 10
16.5195417275
 20
25.9805157861
 30
0.0
  0
LINE
  5
379
100
AcDbEntity
  8
___SYMBOL
100
AcDbLine
 62
2
  6
CONTINUOUS
 10
16.4876736719
 20
25.7089088417
 11
16.4898445053
 21
25.7089088417
  0
LINE
  5
37A
100
AcDbEntity
  8
___SYMBOL
100
AcDbLine
 62
2
  6
CONTINUOUS
 10
16.4898445053
 20
25.7089088417
 11
16.4521792275
 21
25.6397227306
  0
LINE
  5
37B
100
AcDbEntity
  8
___SYMBOL
100
AcDbLine
 62
2
  6
CONTINUOUS
 10
16.4521792275
 20
25.6397227306
 11
16.1543542275
 21
25.6397227306
  0
LINE
  5
37C
100
AcDbEntity
  8
___SYMBOL
100
AcDbLine
 62
2
  6
CONTINUOUS
 10
16.1543542275
 20
25.6397227306
 11
16.1543542275
 21
25.6412963417
  0
SPLINE
  5
37D
100
AcDbEntity
  8
___SYMBOL
100
AcDbSpline
 62
2
  6
CONTINUOUS
 70
0
 71
3
 72
14
 73
10
 74
0
 42
0.0000001
 43
0.0000001
 44
0.0000000001
 40
0.3803437494
 40
0.3803437494
 40
0.3803437494
 40
0.3803437494
 40
1.3803437494
 40
1.3803437494
 40
1.3803437494
 40
1.5764840272
 40
1.5764840272
 40
1.5764840272
 40
2.5764840272
 40
2.5764840272
 40
2.5764840272
 40
2.5764840272
 10
16.1543542275
 20
25.6412963417
 30
0.0
 10
16.1913070053
 20
25.650654675
 30
0.0
 10
16.1869611719
 20
25.689167175
 30
0.0
 10
16.1869611719
 20
25.7125713417
 30
0.0
 10
16.1869611719
 20
25.7779514343
 30
0.0
 10
16.1869611719
 20
25.8433315269
 30
0.0
 10
16.1869611719
 20
25.9087116194
 30
0.0
 10
16.1869611719
 20
25.9326505083
 30
0.0
 10
16.1913070053
 20
25.9706282861
 30
0.0
 10
16.1543542275
 20
25.9805157861
 30
0.0
  0
LINE
  5
37E
100
AcDbEntity
  8
___SYMBOL
100
AcDbLine
 62
2
  6
CONTINUOUS
 10
16.1543542275
 20
25.9805157861
 11
16.1543542275
 21
25.9820824528
  0
LINE
  5
37F
100
AcDbEntity
  8
___SYMBOL
100
AcDbLine
 62
2
  6
CONTINUOUS
 10
16.1543542275
 20
25.9820824528
 11
16.2927542275
 21
25.9820824528
  0
LINE
  5
380
100
AcDbEntity
  8
___SYMBOL
100
AcDbLine
 62
2
  6
CONTINUOUS
 10
16.2927542275
 20
25.9820824528
 11
16.2927542275
 21
25.9805157861
  0
SPLINE
  5
381
100
AcDbEntity
  8
___SYMBOL
100
AcDbSpline
 62
2
  6
CONTINUOUS
 70
0
 71
3
 72
11
 73
7
 74
0
 42
0.0000001
 43
0.0000001
 44
0.0000000001
 40
2.7180173605
 40
2.7180173605
 40
2.7180173605
 40
2.7180173605
 40
3.7180173605
 40
3.7180173605
 40
3.7180173605
 40
3.9448520827
 40
3.9448520827
 40
3.9448520827
 40
3.9448520827
 10
16.2927542275
 20
25.9805157861
 30
0.0
 10
16.2558014497
 20
25.9706282861
 30
0.0
 10
16.2608736719
 20
25.9321282861
 30
0.0
 10
16.2608736719
 20
25.9087116194
 30
0.0
 10
16.2608736719
 20
25.8331000454
 30
0.0
 10
16.2608736719
 20
25.7574884713
 30
0.0
 10
16.2608736719
 20
25.6818768972
 30
0.0
  0
SPLINE
  5
382
100
AcDbEntity
  8
___SYMBOL
100
AcDbSpline
 62
2
  6
CONTINUOUS
 70
0
 71
3
 72
8
 73
4
 74
0
 42
0.0000001
 43
0.0000001
 44
0.0000000001
 40
3.9448520827
 40
3.9448520827
 40
3.9448520827
 40
3.9448520827
 40
4.1770975516
 40
4.1770975516
 40
4.1770975516
 40
4.1770975516
 10
16.2608736719
 20
25.6818768972
 30
0.0
 10
16.3390014015
 20
25.6781671735
 30
0.0
 10
16.4114488049
 20
25.6632594067
 30
0.0
 10
16.4876736719
 20
25.7089088417
 30
0.0
  0
SPLINE
  5
383
100
AcDbEntity
  8
___SYMBOL
100
AcDbSpline
 62
2
  6
CONTINUOUS
 70
0
 71
3
 72
11
 73
7
 74
0
 42
0.0000001
 43
0.0000001
 44
0.0000000001
 40
0.0
 40
0.0
 40
0.0
 40
0.0
 40
0.140550031
 40
0.140550031
 40
0.140550031
 40
1.140550031
 40
1.140550031
 40
1.140550031
 40
1.140550031
 10
15.9166903386
 20
25.8067352306
 30
0.0
 10
15.9514713571
 20
25.7753472676
 30
0.0
 10
15.9862523756
 20
25.7439593046
 30
0.0
 10
16.0210333942
 20
25.7125713417
 30
0.0
 10
16.0514625608
 20
25.6855060639
 30
0.0
 10
16.0971097831
 20
25.6584532861
 30
0.0
 10
16.1384236719
 20
25.6397227306
 30
0.0
  0
LINE
  5
384
100
AcDbEntity
  8
___SYMBOL
100
AcDbLine
 62
2
  6
CONTINUOUS
 10
16.1384236719
 20
25.6397227306
 11
16.0717528386
 21
25.6397227306
  0
ARC
  5
385
100
AcDbEntity
  8
___SYMBOL
100
AcDbCircle
 62
2
  6
CONTINUOUS
 10
16.0608974716
 20
25.7534611593
 40
0.1142552807
100
AcDbArc
 50
230.1562195028
 51
275.4518816802
  0
LINE
  5
386
100
AcDbEntity
  8
___SYMBOL
100
AcDbLine
 62
2
  6
CONTINUOUS
 10
15.9876945053
 20
25.6657366194
 11
15.8993014497
 21
25.7443032861
  0
LINE
  5
387
100
AcDbEntity
  8
___SYMBOL
100
AcDbLine
 62
2
  6
CONTINUOUS
 10
15.8993014497
 20
25.7443032861
 11
15.8326306164
 21
25.817667175
  0
SPLINE
  5
388
100
AcDbEntity
  8
___SYMBOL
100
AcDbSpline
 62
2
  6
CONTINUOUS
 70
0
 71
3
 72
14
 73
10
 74
0
 42
0.0000001
 43
0.0000001
 44
0.0000000001
 40
1.5143546326
 40
1.5143546326
 40
1.5143546326
 40
1.5143546326
 40
2.0459541232
 40
2.0459541232
 40
2.5487056352
 40
2.5487056352
 40
3.0207171483
 40
3.0207171483
 40
3.5638184132
 40
3.5638184132
 40
3.5638184132
 40
3.5638184132
 10
15.8326306164
 20
25.817667175
 30
0.0
 10
15.8603018082
 20
25.820645181
 30
0.0
 10
15.8866792975
 20
25.8253063704
 30
0.0
 10
15.9370025533
 20
25.8476204926
 30
0.0
 10
15.9620705837
 20
25.8669794672
 30
0.0
 10
15.9532775276
 20
25.9280843179
 30
0.0
 10
15.9218228639
 20
25.9424063884
 30
0.0
 10
15.869298271
 20
25.9528778229
 30
0.0
 10
15.8427351002
 20
25.9492885018
 30
0.0
 10
15.8152431164
 20
25.9456574528
 30
0.0
  0
SPLINE
  5
389
100
AcDbEntity
  8
___SYMBOL
100
AcDbSpline
 62
2
  6
CONTINUOUS
 70
0
 71
3
 72
11
 73
7
 74
0
 42
0.0000001
 43
0.0000001
 44
0.0000000001
 40
3.5638184132
 40
3.5638184132
 40
3.5638184132
 40
3.5638184132
 40
3.7969045243
 40
3.7969045243
 40
3.7969045243
 40
4.7969045243
 40
4.7969045243
 40
4.7969045243
 40
4.7969045243
 10
15.8152431164
 20
25.9456574528
 30
0.0
 10
15.8152431164
 20
25.8679620824
 30
0.0
 10
15.8152431164
 20
25.790266712
 30
0.0
 10
15.8152431164
 20
25.7125713417
 30
0.0
 10
15.8152431164
 20
25.6886393972
 30
0.0
 10
15.8108958942
 20
25.650654675
 30
0.0
 10
15.8478486719
 20
25.6412963417
 30
0.0
  0
LINE
  5
38A
100
AcDbEntity
  8
___SYMBOL
100
AcDbLine
 62
2
  6
CONTINUOUS
 10
15.8478486719
 20
25.6412963417
 11
15.8478486719
 21
25.6397227306
  0
LINE
  5
38B
100
AcDbEntity
  8
___SYMBOL
100
AcDbLine
 62
2
  6
CONTINUOUS
 10
15.8478486719
 20
25.6397227306
 11
15.7094486719
 21
25.6397227306
  0
LINE
  5
38C
100
AcDbEntity
  8
___SYMBOL
100
AcDbLine
 62
2
  6
CONTINUOUS
 10
15.7094486719
 20
25.6397227306
 11
15.7094486719
 21
25.6412963417
  0
SPLINE
  5
38D
100
AcDbEntity
  8
___SYMBOL
100
AcDbSpline
 62
2
  6
CONTINUOUS
 70
0
 71
3
 72
14
 73
10
 74
0
 42
0.0000001
 43
0.0000001
 44
0.0000000001
 40
4.9384517465
 40
4.9384517465
 40
4.9384517465
 40
4.9384517465
 40
5.9384517465
 40
5.9384517465
 40
5.9384517465
 40
6.1345920243
 40
6.1345920243
 40
6.1345920243
 40
7.1345920243
 40
7.1345920243
 40
7.1345920243
 40
7.1345920243
 10
15.7094486719
 20
25.6412963417
 30
0.0
 10
15.7464014497
 20
25.650654675
 30
0.0
 10
15.7413361719
 20
25.689167175
 30
0.0
 10
15.7413361719
 20
25.7125713417
 30
0.0
 10
15.7413361719
 20
25.7779514343
 30
0.0
 10
15.7413361719
 20
25.8433315269
 30
0.0
 10
15.7413361719
 20
25.9087116194
 30
0.0
 10
15.7413361719
 20
25.9326505083
 30
0.0
 10
15.7464014497
 20
25.9706282861
 30
0.0
 10
15.7094486719
 20
25.9805157861
 30
0.0
  0
LINE
  5
38E
100
AcDbEntity
  8
___SYMBOL
100
AcDbLine
 62
2
  6
CONTINUOUS
 10
15.7094486719
 20
25.9805157861
 11
15.7094486719
 21
25.9820824528
  0
SPLINE
  5
38F
100
AcDbEntity
  8
___SYMBOL
100
AcDbSpline
 62
2
  6
CONTINUOUS
 70
0
 71
3
 72
14
 73
10
 74
0
 42
0.0000001
 43
0.0000001
 44
0.0000000001
 40
7.136158691
 40
7.136158691
 40
7.136158691
 40
7.136158691
 40
7.3086100798
 40
7.3086100798
 40
7.3086100798
 40
8.3086100798
 40
8.3086100798
 40
8.3086100798
 40
9.3086100798
 40
9.3086100798
 40
9.3086100798
 40
9.3086100798
 10
15.7094486719
 20
25.9820824528
 30
0.0
 10
15.7669324682
 20
25.9820824528
 30
0.0
 10
15.8244162645
 20
25.9820824528
 30
0.0
 10
15.8819000608
 20
25.9820824528
 30
0.0
 10
15.9790070053
 20
25.9820824528
 30
0.0
 10
16.0319042275
 20
25.9456574528
 30
0.0
 10
16.0319042275
 20
25.8983074528
 30
0.0
 10
16.0319042275
 20
25.8525310639
 30
0.0
 10
15.9761111719
 20
25.816629675
 30
0.0
 10
15.9166903386
 20
25.8067352306
 30
0.0
  0
SPLINE
  5
390
100
AcDbEntity
  8
___SYMBOL
100
AcDbSpline
 62
2
  6
CONTINUOUS
 70
0
 71
3
 72
8
 73
4
 74
0
 42
0.0000001
 43
0.0000001
 44
0.0000000001
 40
0.0
 40
0.0
 40
0.0
 40
0.0
 40
0.2313461135
 40
0.2313461135
 40
0.2313461135
 40
0.2313461135
 10
15.4558472831
 20
25.6834241194
 30
0.0
 10
15.5337748638
 20
25.6781513197
 30
0.0
 10
15.6055509172
 20
25.6633592429
 30
0.0
 10
15.6819222831
 20
25.707892175
 30
0.0
  0
LINE
  5
391
100
AcDbEntity
  8
___SYMBOL
100
AcDbLine
 62
2
  6
CONTINUOUS
 10
15.6819222831
 20
25.707892175
 11
15.6840917275
 21
25.707892175
  0
LINE
  5
392
100
AcDbEntity
  8
___SYMBOL
100
AcDbLine
 62
2
  6
CONTINUOUS
 10
15.6840917275
 20
25.707892175
 11
15.6514861719
 21
25.6397227306
  0
LINE
  5
393
100
AcDbEntity
  8
___SYMBOL
100
AcDbLine
 62
2
  6
CONTINUOUS
 10
15.6514861719
 20
25.6397227306
 11
15.3493278386
 21
25.6397227306
  0
LINE
  5
394
100
AcDbEntity
  8
___SYMBOL
100
AcDbLine
 62
2
  6
CONTINUOUS
 10
15.3493278386
 20
25.6397227306
 11
15.3493278386
 21
25.6412963417
  0
SPLINE
  5
395
100
AcDbEntity
  8
___SYMBOL
100
AcDbSpline
 62
2
  6
CONTINUOUS
 70
0
 71
3
 72
14
 73
10
 74
0
 42
0.0000001
 43
0.0000001
 44
0.0000000001
 40
0.6128133373
 40
0.6128133373
 40
0.6128133373
 40
0.6128133373
 40
1.6128133373
 40
1.6128133373
 40
1.6128133373
 40
1.8089536151
 40
1.8089536151
 40
1.8089536151
 40
2.8089536151
 40
2.8089536151
 40
2.8089536151
 40
2.8089536151
 10
15.3493278386
 20
25.6412963417
 30
0.0
 10
15.3862806164
 20
25.650654675
 30
0.0
 10
15.3819333942
 20
25.689167175
 30
0.0
 10
15.3819333942
 20
25.7125713417
 30
0.0
 10
15.3819333942
 20
25.7779514343
 30
0.0
 10
15.3819333942
 20
25.8433315269
 30
0.0
 10
15.3819333942
 20
25.9087116194
 30
0.0
 10
15.3819333942
 20
25.9326505083
 30
0.0
 10
15.3862806164
 20
25.9706282861
 30
0.0
 10
15.3493278386
 20
25.9805157861
 30
0.0
  0
LINE
  5
396
100
AcDbEntity
  8
___SYMBOL
100
AcDbLine
 62
2
  6
CONTINUOUS
 10
15.3493278386
 20
25.9805157861
 11
15.3493278386
 21
25.9820824528
  0
LINE
  5
397
100
AcDbEntity
  8
___SYMBOL
100
AcDbLine
 62
2
  6
CONTINUOUS
 10
15.3493278386
 20
25.9820824528
 11
15.5812070053
 21
25.9820824528
  0
LINE
  5
398
100
AcDbEntity
  8
___SYMBOL
100
AcDbLine
 62
2
  6
CONTINUOUS
 10
15.5812070053
 20
25.9820824528
 11
15.6152583942
 21
25.9846727306
  0
LINE
  5
399
100
AcDbEntity
  8
___SYMBOL
100
AcDbLine
 62
2
  6
CONTINUOUS
 10
15.6152583942
 20
25.9846727306
 11
15.6174347831
 21
25.9846727306
  0
LINE
  5
39A
100
AcDbEntity
  8
___SYMBOL
100
AcDbLine
 62
2
  6
CONTINUOUS
 10
15.6174347831
 20
25.9846727306
 11
15.6174347831
 21
25.9237935639
  0
LINE
  5
39B
100
AcDbEntity
  8
___SYMBOL
100
AcDbLine
 62
2
  6
CONTINUOUS
 10
15.6174347831
 20
25.9237935639
 11
15.6152583942
 21
25.9237935639
  0
ARC
  5
39C
100
AcDbEntity
  8
___SYMBOL
100
AcDbCircle
 62
2
  6
CONTINUOUS
 10
15.5441052898
 20
25.8176044204
 40
0.1278237007
100
AcDbArc
 50
56.1755396367
 51
96.4463209909
  0
LINE
  5
39D
100
AcDbEntity
  8
___SYMBOL
100
AcDbLine
 62
2
  6
CONTINUOUS
 10
15.5297542275
 20
25.9446199528
 11
15.4558472831
 21
25.9409852306
  0
LINE
  5
39E
100
AcDbEntity
  8
___SYMBOL
100
AcDbLine
 62
2
  6
CONTINUOUS
 10
15.4558472831
 20
25.9409852306
 11
15.4558472831
 21
25.8442102306
  0
LINE
  5
39F
100
AcDbEntity
  8
___SYMBOL
100
AcDbLine
 62
2
  6
CONTINUOUS
 10
15.4558472831
 20
25.8442102306
 11
15.5420695053
 21
25.8442102306
  0
LINE
  5
3A0
100
AcDbEntity
  8
___SYMBOL
100
AcDbLine
 62
2
  6
CONTINUOUS
 10
15.5420695053
 20
25.8442102306
 11
15.5739570053
 21
25.8473227306
  0
LINE
  5
3A1
100
AcDbEntity
  8
___SYMBOL
100
AcDbLine
 62
2
  6
CONTINUOUS
 10
15.5739570053
 20
25.8473227306
 11
15.5761347831
 21
25.8473227306
  0
LINE
  5
3A2
100
AcDbEntity
  8
___SYMBOL
100
AcDbLine
 62
2
  6
CONTINUOUS
 10
15.5761347831
 20
25.8473227306
 11
15.5761347831
 21
25.7921810639
  0
LINE
  5
3A3
100
AcDbEntity
  8
___SYMBOL
100
AcDbLine
 62
2
  6
CONTINUOUS
 10
15.5761347831
 20
25.7921810639
 11
15.5739570053
 21
25.7921810639
  0
SPLINE
  5
3A4
100
AcDbEntity
  8
___SYMBOL
100
AcDbSpline
 62
2
  6
CONTINUOUS
 70
0
 71
3
 72
11
 73
7
 74
0
 42
0.0000001
 43
0.0000001
 44
0.0000000001
 40
3.5799535043
 40
3.5799535043
 40
3.5799535043
 40
3.5799535043
 40
4.5799535043
 40
4.5799535043
 40
4.5799535043
 40
4.6335771155
 40
4.6335771155
 40
4.6335771155
 40
4.6335771155
 10
15.5739570053
 20
25.7921810639
 30
0.0
 10
15.5623611719
 20
25.8072643972
 30
0.0
 10
15.5319306164
 20
25.8067352306
 30
0.0
 10
15.5094708942
 20
25.8067352306
 30
0.0
 10
15.4915963571
 20
25.8067352306
 30
0.0
 10
15.4737218201
 20
25.8067352306
 30
0.0
 10
15.4558472831
 20
25.8067352306
 30
0.0
  0
LINE
  5
3A5
100
AcDbEntity
  8
___SYMBOL
100
AcDbLine
 62
2
  6
CONTINUOUS
 10
15.4558472831
 20
25.8067352306
 11
15.4558472831
 21
25.6834241194
  0
LINE
  5
3A6
100
AcDbEntity
  8
___SYMBOL
100
AcDbLine
 62
2
  6
CONTINUOUS
 10
15.1862958942
 20
25.6412963417
 11
15.1862958942
 21
25.6397227306
  0
LINE
  5
3A7
100
AcDbEntity
  8
___SYMBOL
100
AcDbLine
 62
2
  6
CONTINUOUS
 10
15.1862958942
 20
25.6397227306
 11
15.0428292275
 21
25.6397227306
  0
LINE
  5
3A8
100
AcDbEntity
  8
___SYMBOL
100
AcDbLine
 62
2
  6
CONTINUOUS
 10
15.0428292275
 20
25.6397227306
 11
15.0428292275
 21
25.6412963417
  0
SPLINE
  5
3A9
100
AcDbEntity
  8
___SYMBOL
100
AcDbSpline
 62
2
  6
CONTINUOUS
 70
0
 71
3
 72
11
 73
7
 74
0
 42
0.0000001
 43
0.0000001
 44
0.0000000001
 40
0.1466138889
 40
0.1466138889
 40
0.1466138889
 40
0.1466138889
 40
1.1466138889
 40
1.1466138889
 40
1.1466138889
 40
1.3786625
 40
1.3786625
 40
1.3786625
 40
1.3786625
 10
15.0428292275
 20
25.6412963417
 30
0.0
 10
15.0790500608
 20
25.6511838417
 30
0.0
 10
15.0746958942
 20
25.689167175
 30
0.0
 10
15.0746958942
 20
25.7125713417
 30
0.0
 10
15.0746958942
 20
25.7899208787
 30
0.0
 10
15.0746958942
 20
25.8672704157
 30
0.0
 10
15.0746958942
 20
25.9446199528
 30
0.0
  0
LINE
  5
3AA
100
AcDbEntity
  8
___SYMBOL
100
AcDbLine
 62
2
  6
CONTINUOUS
 10
15.0746958942
 20
25.9446199528
 11
15.0109347831
 21
25.9446199528
  0
ARC
  5
3AB
100
AcDbEntity
  8
___SYMBOL
100
AcDbCircle
 62
2
  6
CONTINUOUS
 10
15.0038646064
 20
25.7849956072
 40
0.1597808471
100
AcDbArc
 50
87.4638787987
 51
119.6947324667
  0
LINE
  5
3AC
100
AcDbEntity
  8
___SYMBOL
100
AcDbLine
 62
2
  6
CONTINUOUS
 10
14.9247125608
 20
25.9237935639
 11
14.9225361719
 21
25.9237935639
  0
LINE
  5
3AD
100
AcDbEntity
  8
___SYMBOL
100
AcDbLine
 62
2
  6
CONTINUOUS
 10
14.9225361719
 20
25.9237935639
 11
14.9479056164
 21
25.9857241194
  0
LINE
  5
3AE
100
AcDbEntity
  8
___SYMBOL
100
AcDbLine
 62
2
  6
CONTINUOUS
 10
14.9479056164
 20
25.9857241194
 11
14.9500695053
 21
25.9857241194
  0
LINE
  5
3AF
100
AcDbEntity
  8
___SYMBOL
100
AcDbLine
 62
2
  6
CONTINUOUS
 10
14.9500695053
 20
25.9857241194
 11
14.9776167275
 21
25.9820824528
  0
LINE
  5
3B0
100
AcDbEntity
  8
___SYMBOL
100
AcDbLine
 62
2
  6
CONTINUOUS
 10
14.9776167275
 20
25.9820824528
 11
15.2660083942
 21
25.9820824528
  0
LINE
  5
3B1
100
AcDbEntity
  8
___SYMBOL
100
AcDbLine
 62
2
  6
CONTINUOUS
 10
15.2660083942
 20
25.9820824528
 11
15.2993333942
 21
25.9857241194
  0
LINE
  5
3B2
100
AcDbEntity
  8
___SYMBOL
100
AcDbLine
 62
2
  6
CONTINUOUS
 10
15.2993333942
 20
25.9857241194
 11
15.3015028386
 21
25.9857241194
  0
LINE
  5
3B3
100
AcDbEntity
  8
___SYMBOL
100
AcDbLine
 62
2
  6
CONTINUOUS
 10
15.3015028386
 20
25.9857241194
 11
15.2783236719
 21
25.9237935639
  0
LINE
  5
3B4
100
AcDbEntity
  8
___SYMBOL
100
AcDbLine
 62
2
  6
CONTINUOUS
 10
15.2783236719
 20
25.9237935639
 11
15.2761458942
 21
25.9237935639
  0
SPLINE
  5
3B5
100
AcDbEntity
  8
___SYMBOL
100
AcDbSpline
 62
2
  6
CONTINUOUS
 70
0
 71
3
 72
11
 73
7
 74
0
 42
0.0000001
 43
0.0000001
 44
0.0000000001
 40
2.0235770463
 40
2.0235770463
 40
2.0235770463
 40
2.0235770463
 40
3.0235770463
 40
3.0235770463
 40
3.0235770463
 40
3.0888034352
 40
3.0888034352
 40
3.0888034352
 40
3.0888034352
 10
15.2761458942
 20
25.9237935639
 30
0.0
 10
15.2667333942
 20
25.9420018972
 30
0.0
 10
15.2377417275
 20
25.9446199528
 30
0.0
 10
15.2138361719
 20
25.9446199528
 30
0.0
 10
15.1920940423
 20
25.9446199528
 30
0.0
 10
15.1703519127
 20
25.9446199528
 30
0.0
 10
15.1486097831
 20
25.9446199528
 30
0.0
  0
SPLINE
  5
3B6
100
AcDbEntity
  8
___SYMBOL
100
AcDbSpline
 62
2
  6
CONTINUOUS
 70
0
 71
3
 72
11
 73
7
 74
0
 42
0.0000001
 43
0.0000001
 44
0.0000000001
 40
3.0888034352
 40
3.0888034352
 40
3.0888034352
 40
3.0888034352
 40
3.3260603796
 40
3.3260603796
 40
3.3260603796
 40
4.3260603796
 40
4.3260603796
 40
4.3260603796
 40
4.3260603796
 10
15.1486097831
 20
25.9446199528
 30
0.0
 10
15.1486097831
 20
25.8655343046
 30
0.0
 10
15.1486097831
 20
25.7864486565
 30
0.0
 10
15.1486097831
 20
25.7073630083
 30
0.0
 10
15.1486097831
 20
25.6777060639
 30
0.0
 10
15.1478917275
 20
25.6574088417
 30
0.0
 10
15.1862958942
 20
25.6412963417
 30
0.0
  0
SPLINE
  5
3B7
100
AcDbEntity
  8
___SYMBOL
100
AcDbSpline
 62
2
  6
CONTINUOUS
 70
0
 71
3
 72
18
 73
14
 74
0
 42
0.0000001
 43
0.0000001
 44
0.0000000001
 40
0.0
 40
0.0
 40
0.0
 40
0.0
 40
0.5032108973
 40
0.5032108973
 40
0.8324923635
 40
0.8324923635
 40
1.151976252
 40
1.151976252
 40
1.6605310342
 40
1.6605310342
 40
3.0490484198
 40
3.0490484198
 40
4.1196841171
 40
4.1196841171
 40
4.1196841171
 40
4.1196841171
 10
14.8682014497
 20
25.9201727306
 30
0.0
 10
14.8336858525
 20
25.9419602591
 30
0.0
 10
14.7995708163
 20
25.9520569637
 30
0.0
 10
14.7321330622
 20
25.9534338594
 30
0.0
 10
14.6654592584
 20
25.9486642868
 30
0.0
 10
14.6570012538
 20
25.8713765966
 30
0.0
 10
14.7244119059
 20
25.852185763
 30
0.0
 10
14.7837776489
 20
25.8319769112
 30
0.0
 10
14.8208320117
 20
25.8219387969
 30
0.0
 10
14.9507135385
 20
25.756580341
 30
0.0
 10
14.902945148
 20
25.6755172973
 30
0.0
 10
14.7467929335
 20
25.6238217377
 30
0.0
 10
14.6532516433
 20
25.629317309
 30
0.0
 10
14.5863264497
 20
25.6470060639
 30
0.0
  0
LINE
  5
3B8
100
AcDbEntity
  8
___SYMBOL
100
AcDbLine
 62
2
  6
CONTINUOUS
 10
14.5863264497
 20
25.6470060639
 11
14.5653181164
 21
25.712042175
  0
SPLINE
  5
3B9
100
AcDbEntity
  8
___SYMBOL
100
AcDbSpline
 62
2
  6
CONTINUOUS
 70
0
 71
3
 72
18
 73
14
 74
0
 42
0.0000001
 43
0.0000001
 44
0.0000000001
 40
4.1880291668
 40
4.1880291668
 40
4.1880291668
 40
4.1880291668
 40
5.1629619988
 40
5.1629619988
 40
5.8465018609
 40
5.8465018609
 40
6.3921468543
 40
6.3921468543
 40
6.8466935936
 40
6.8466935936
 40
7.3975710712
 40
7.3975710712
 40
8.3539434147
 40
8.3539434147
 40
8.3539434147
 40
8.3539434147
 10
14.5653181164
 20
25.712042175
 30
0.0
 10
14.6248821922
 20
25.6770474845
 30
0.0
 10
14.7239293712
 20
25.651578125
 30
0.0
 10
14.8420392676
 20
25.7053362287
 30
0.0
 10
14.8339598146
 20
25.7463880281
 30
0.0
 10
14.75324851
 20
25.7873049152
 30
0.0
 10
14.7146239757
 20
25.7958748239
 30
0.0
 10
14.6463388241
 20
25.8202445012
 30
0.0
 10
14.5976465162
 20
25.8386570456
 30
0.0
 10
14.5649274748
 20
25.9206658469
 30
0.0
 10
14.5957144735
 20
25.9521041832
 30
0.0
 10
14.7001760394
 20
25.9976658114
 30
0.0
 10
14.8014595642
 20
25.9939293262
 30
0.0
 10
14.8682014497
 20
25.9789491194
 30
0.0
  0
LINE
  5
3BA
100
AcDbEntity
  8
___SYMBOL
100
AcDbLine
 62
2
  6
CONTINUOUS
 10
14.8682014497
 20
25.9789491194
 11
14.8682014497
 21
25.9201727306
  0
SPLINE
  5
3BB
100
AcDbEntity
  8
___SYMBOL
100
AcDbSpline
 62
2
  6
CONTINUOUS
 70
0
 71
1
 72
7
 73
5
 74
0
 42
0.0000001
 43
0.0000001
 44
0.0000000001
 40
0.0
 40
0.0
 40
3.4446958333
 40
4.0226375
 40
7.4673333333
 40
8.045275
 40
8.045275
 10
14.4208945053
 20
25.5230102306
 30
0.0
 10
17.8655903386
 20
25.5230102306
 30
0.0
 10
17.8655903386
 20
26.1009518972
 30
0.0
 10
14.4208945053
 20
26.1009518972
 30
0.0
 10
14.4208945053
 20
25.5230102306
 30
0.0
  0
ENDBLK
  5
3BC
100
AcDbEntity
  8
0
  6
BYBLOCK
 62
0
100
AcDbBlockEnd
  0
BLOCK
  5
3BD
100
AcDbEntity
  8
___SYMBOL
100
AcDbBlockBegin
 62
2
  6
CONTINUOUS
  2
PLOTTING_TEMPLATE_NOTE_BL0
 70
64
 10
32.9783737574
 20
13.300982581
  3
PLOTTING_TEMPLATE_NOTE_BL0
  1

  0
TEXT
  5
3BE
100
AcDbEntity
  8
___SYMBOL
100
AcDbText
 62
2
  6
CONTINUOUS
 10
29.6658737574
 20
14.511920081
  7
STANDARD
 40
0.15625
  1
WHEN PLOTTING TEMPLATE FULL SIZE:
 41
0.8
 72
0
100
AcDbText
  0
TEXT
  5
3BF
100
AcDbEntity
  8
___SYMBOL
100
AcDbText
 62
2
  6
CONTINUOUS
 10
29.6658737574
 20
14.277545081
  7
STANDARD
 40
0.15625
  1
Make sure horizontal and vertical dimensions
 41
0.8
 72
0
100
AcDbText
  0
TEXT
  5
3C0
100
AcDbEntity
  8
___SYMBOL
100
AcDbText
 62
2
  6
CONTINUOUS
 10
29.6658737574
 20
14.043170081
  7
STANDARD
 40
0.15625
  1
match the dimensions labeled on the template.
 41
0.8
 72
0
100
AcDbText
  0
TEXT
  5
3C1
100
AcDbEntity
  8
___SYMBOL
100
AcDbText
 62
2
  6
CONTINUOUS
 10
29.6658737574
 20
13.808795081
  7
STANDARD
 40
0.15625
  1
 
 41
0.8
 72
0
100
AcDbText
  0
TEXT
  5
3C2
100
AcDbEntity
  8
___SYMBOL
100
AcDbText
 62
2
  6
CONTINUOUS
 10
29.6658737574
 20
13.574420081
  7
STANDARD
 40
0.15625
  1
AL TRAZAR LA PLANTILLA A ESCALA,
 41
0.8
 72
0
100
AcDbText
  0
TEXT
  5
3C3
100
AcDbEntity
  8
___SYMBOL
100
AcDbText
 62
2
  6
CONTINUOUS
 10
29.6658737574
 20
13.340045081
  7
STANDARD
 40
0.15625
  1
asegúrese de que las dimensiones horizontales
 41
0.8
 72
0
100
AcDbText
  0
TEXT
  5
3C4
100
AcDbEntity
  8
___SYMBOL
100
AcDbText
 62
2
  6
CONTINUOUS
 10
29.6658737574
 20
13.105670081
  7
STANDARD
 40
0.15625
  1
y verticales concuerden con las dimensiones marcadas
 41
0.8
 72
0
100
AcDbText
  0
TEXT
  5
3C5
100
AcDbEntity
  8
___SYMBOL
100
AcDbText
 62
2
  6
CONTINUOUS
 10
29.6658737574
 20
12.871295081
  7
STANDARD
 40
0.15625
  1
en la plantilla.
 41
0.8
 72
0
100
AcDbText
  0
TEXT
  5
3C6
100
AcDbEntity
  8
___SYMBOL
100
AcDbText
 62
2
  6
CONTINUOUS
 10
29.6658737574
 20
12.636920081
  7
STANDARD
 40
0.15625
  1
 
 41
0.8
 72
0
100
AcDbText
  0
TEXT
  5
3C7
100
AcDbEntity
  8
___SYMBOL
100
AcDbText
 62
2
  6
CONTINUOUS
 10
29.6658737574
 20
12.402545081
  7
STANDARD
 40
0.15625
  1
AU MOMENT DE TRACER LA DÉCOUPE À L'ÉCHELLE,
 41
0.8
 72
0
100
AcDbText
  0
TEXT
  5
3C8
100
AcDbEntity
  8
___SYMBOL
100
AcDbText
 62
2
  6
CONTINUOUS
 10
29.6658737574
 20
12.168170081
  7
STANDARD
 40
0.15625
  1
Assurez vos que les dimensions horizotales et
 41
0.8
 72
0
100
AcDbText
  0
TEXT
  5
3C9
100
AcDbEntity
  8
___SYMBOL
100
AcDbText
 62
2
  6
CONTINUOUS
 10
29.6658737574
 20
11.933795081
  7
STANDARD
 40
0.15625
  1
verticales correspondent avec les dimensions du plan.
 41
0.8
 72
0
100
AcDbText
  0
ENDBLK
  5
3CA
100
AcDbEntity
  8
0
  6
BYBLOCK
 62
0
100
AcDbBlockEnd
  0
BLOCK
  5
3CB
100
AcDbEntity
  8
0
100
AcDbBlockBegin
  2
_FILLED
 70
64
 10
0.0
 20
0.0
  3
_FILLED
  1

  0
SOLID
  5
3CC
100
AcDbEntity
  8
0
  6
BYBLOCK
 62
0
100
AcDbTrace
 10
0.0
 20
0.0
 11
-1.0
 21
0.1666666667
 12
-1.0
 22
-0.1666666667
 13
-1.0
 23
-0.1666666667
  0
ENDBLK
  5
3CD
100
AcDbEntity
  8
0
  6
BYBLOCK
 62
0
100
AcDbBlockEnd
  0
BLOCK
  5
3CE
100
AcDbEntity
  8
0
100
AcDbBlockBegin
 62
2
  6
CONTINUOUS
  2
*D0
 70
65
 10
0.0
 20
0.0
  3
*D0
  1

  0
MTEXT
  5
3CF
100
AcDbEntity
  8
0
100
AcDbMText
 62
2
  6
CONTINUOUS
  7
STANDARD
 71
3
 72
1
 10
35.9294849834
 20
26.4481027009
 30
0.0
 11
1.0
 21
0.0
 31
0.0
 73
2
 44
0.9
  1
R13/32"\P[1]
 40
0.15625
 41
0.875
  0
LINE
  5
3D0
100
AcDbEntity
  8
0
100
AcDbLine
 62
2
  6
CONTINUOUS
 10
37.0889293159
 20
26.9196619699
 11
36.1794849834
 21
26.3699777009
  0
LINE
  5
3D1
100
AcDbEntity
  8
0
100
AcDbLine
 62
2
  6
CONTINUOUS
 10
36.1794849834
 20
26.3699777009
 11
36.0076099834
 21
26.3699777009
  0
INSERT
  5
3D2
100
AcDbEntity
  8
0
100
AcDbBlockReference
 62
2
  6
CONTINUOUS
  2
_FILLED
 10
37.0889293159
 20
26.9196619699
 41
0.1875
 42
0.1875
 43
0.1875
 50
31.1495090351
  0
ENDBLK
  5
3D3
100
AcDbEntity
  8
0
  6
BYBLOCK
 62
0
100
AcDbBlockEnd
  0
BLOCK
  5
3D4
100
AcDbEntity
  8
0
100
AcDbBlockBegin
 62
2
  6
CONTINUOUS
  2
*D1
 70
65
 10
0.0
 20
0.0
  3
*D1
  1

  0
MTEXT
  5
3D5
100
AcDbEntity
  8
0
100
AcDbMText
 62
2
  6
CONTINUOUS
  7
STANDARD
 71
1
 72
1
 10
23.9057759948
 20
18.912981395
 30
0.0
 11
1.0
 21
0.0
 31
0.0
 73
2
 44
0.9
  1
16-9/16"\P[42]
 40
0.15625
 41
1.0
  0
LINE
  5
3D6
100
AcDbEntity
  8
0
100
AcDbLine
 62
2
  6
CONTINUOUS
 10
24.8234135825
 20
27.109856395
 11
24.2807759948
 21
27.109856395
  0
LINE
  5
3D7
100
AcDbEntity
  8
0
100
AcDbLine
 62
2
  6
CONTINUOUS
 10
24.4057759948
 20
10.559856395
 11
24.4057759948
 21
18.444231395
  0
LINE
  5
3D8
100
AcDbEntity
  8
0
100
AcDbLine
 62
2
  6
CONTINUOUS
 10
24.4057759948
 20
27.109856395
 11
24.4057759948
 21
18.991106395
  0
INSERT
  5
3D9
100
AcDbEntity
  8
0
100
AcDbBlockReference
 62
2
  6
CONTINUOUS
  2
_FILLED
 10
24.4057759948
 20
10.559856395
 41
0.1875
 42
0.1875
 43
0.1875
 50
270.0
  0
INSERT
  5
3DA
100
AcDbEntity
  8
0
100
AcDbBlockReference
 62
2
  6
CONTINUOUS
  2
_FILLED
 10
24.4057759948
 20
27.109856395
 41
0.1875
 42
0.1875
 43
0.1875
 50
90.0
  0
ENDBLK
  5
3DB
100
AcDbEntity
  8
0
  6
BYBLOCK
 62
0
100
AcDbBlockEnd
  0
BLOCK
  5
3DC
100
AcDbEntity
  8
0
100
AcDbBlockBegin
 62
2
  6
CONTINUOUS
  2
*D2
 70
65
 10
0.0
 20
0.0
  3
*D2
  1

  0
MTEXT
  5
3DD
100
AcDbEntity
  8
0
100
AcDbMText
 62
2
  6
CONTINUOUS
  7
STANDARD
 71
1
 72
1
 10
21.5832360661
 20
15.950376274
 30
0.0
 11
1.0
 21
0.0
 31
0.0
 73
2
 44
0.9
  1
30-1/4"\P[76,8]
 40
0.15625
 41
0.875
  0
LINE
  5
3DE
100
AcDbEntity
  8
0
100
AcDbLine
 62
2
  6
CONTINUOUS
 10
6.8957360661
 20
16.4974534574
 11
6.8957360661
 21
15.747251274
  0
LINE
  5
3DF
100
AcDbEntity
  8
0
100
AcDbLine
 62
2
  6
CONTINUOUS
 10
37.1457360661
 20
15.872251274
 11
22.5363610661
 21
15.872251274
  0
LINE
  5
3E0
100
AcDbEntity
  8
0
100
AcDbLine
 62
2
  6
CONTINUOUS
 10
6.8957360661
 20
15.872251274
 11
21.5051110661
 21
15.872251274
  0
INSERT
  5
3E1
100
AcDbEntity
  8
0
100
AcDbBlockReference
 62
2
  6
CONTINUOUS
  2
_FILLED
 10
37.1457360661
 20
15.872251274
 41
0.1875
 42
0.1875
 43
0.1875
  0
INSERT
  5
3E2
100
AcDbEntity
  8
0
100
AcDbBlockReference
 62
2
  6
CONTINUOUS
  2
_FILLED
 10
6.8957360661
 20
15.872251274
 41
0.1875
 42
0.1875
 43
0.1875
 50
180.0
  0
ENDBLK
  5
3E3
100
AcDbEntity
  8
0
  6
BYBLOCK
 62
0
100
AcDbBlockEnd
  0
ENDSEC
  0
SECTION
  2
ENTITIES
  0
DIMENSION
  5
3E4
100
AcDbEntity
  8
0
100
AcDbDimension
 62
2
  6
CONTINUOUS
  2
*D0
 10
36.7517360661
 20
26.715856395
 11
35.4919849834
 21
26.2527902009
 70
164
 71
3
 72
2
 41
0.9
 42
0.394
  1
R<>"\P[]
  3
DIMSTYLE_1
100
AcDbRadialDimension
 15
37.0889293159
 25
26.9196619699
  0
DIMENSION
  5
3E5
100
AcDbEntity
  8
0
100
AcDbDimension
 62
2
  6
CONTINUOUS
  2
*D1
 10
24.4057759948
 20
27.109856395
 11
24.4057759948
 21
18.717668895
 70
160
 71
1
 72
2
 41
0.9
 42
16.55
  1
<>"\P[]
  3
DIMSTYLE_2
100
AcDbAlignedDimension
 13
36.7517360661
 23
10.559856395
 14
24.8859135825
 24
27.109856395
 50
90.0
100
AcDbRotatedDimension
  0
DIMENSION
  5
3E6
100
AcDbEntity
  8
0
100
AcDbDimension
 62
2
  6
CONTINUOUS
  2
*D2
 10
6.8957360661
 20
15.872251274
 11
22.0207360661
 21
15.755063774
 70
160
 71
1
 72
2
 41
0.9
 42
30.25
  1
<>"\P[]
  3
DIMSTYLE_3
100
AcDbAlignedDimension
 13
37.1457360661
 23
26.715856395
 14
6.8957360661
 24
16.5599534574
 50
180.0
100
AcDbRotatedDimension
  0
MTEXT
  5
3E7
100
AcDbEntity
  8
___NOTE
100
AcDbMText
 62
2
  6
CONTINUOUS
  7
STANDARD
 71
1
 72
1
 10
15.3618206899
 20
14.3838809914
 30
0.0
 11
1.0
 21
0.0
 31
0.0
 73
2
 44
0.9
  3
IMPORTANT!\PFor proper fit of the included accessories, \Pcut the countertop according to the template cut line.\PIMPORTANT! \PPour bien adapter les accessoires inclus, \Pdécouper le comptoir selon la ligne de découpe du gabarit.\PIMPORTANTE! \PPara 
  1
que los accesorios incluidos queden bien,\Pcorte la encimera según la línea de corte de la plantilla.
 40
0.15625
 41
7.25
  0
MTEXT
  5
3E8
100
AcDbEntity
  8
___NOTE
100
AcDbMText
 62
2
  6
CONTINUOUS
  7
STANDARD
 71
1
 72
1
 10
9.6818188142
 20
11.4493667109
 30
0.0
 11
1.0
 21
0.0
 31
0.0
 73
2
 44
0.9
  1
1564888-7-A\P \P \P \P \P \P \P1564888-7-A
 40
0.25
 41
2.2
  0
LEADER
  5
3E9
100
AcDbEntity
  8
___NOTE
100
AcDbLeader
 62
2
  6
CONTINUOUS
  3
STANDARD
 71
1
 72
0
 73
0
 75
0
 40
0.15625
 41
1.375
 76
3
 10
38.0207360661
 20
25.2053659369
 30
0.0
 10
36.0158079063
 20
24.0360233155
 30
0.0
 10
35.7658079063
 20
24.0360233155
 30
0.0
340
3EA
1001
ACAD
1000
DSTYLE
1002
{
1070
77
1070
0
1002
}
  0
MTEXT
  5
3EA
102
{ACAD_REACTORS
330
3E9
102
}
100
AcDbEntity
  8
___NOTE
100
AcDbMText
 62
2
  6
CONTINUOUS
  7
STANDARD
 71
3
 72
1
 10
35.7658079063
 20
24.1141483155
 30
0.0
 11
1.0
 21
0.0
 31
0.0
 73
2
 44
0.9
  1
RIM OF SINK\PREBORD DE L'ÉVIER\PBORDE DEL FREGADERO
 40
0.15625
 41
2.375
  0
LEADER
  5
3EB
100
AcDbEntity
  8
___NOTE
100
AcDbLeader
 62
2
  6
CONTINUOUS
  3
STANDARD
 71
1
 72
0
 73
0
 75
0
 40
0.15625
 41
3.5
 76
3
 10
37.1457360661
 20
22.2733323435
 30
0.0
 10
36.0470003938
 20
21.6022279181
 30
0.0
 10
35.7970003938
 20
21.6022279181
 30
0.0
340
3EC
1001
ACAD
1000
DSTYLE
1002
{
1070
77
1070
0
1002
}
  0
MTEXT
  5
3EC
102
{ACAD_REACTORS
330
3EB
102
}
100
AcDbEntity
  8
___NOTE
100
AcDbMText
 62
2
  6
CONTINUOUS
  7
STANDARD
 71
3
 72
1
 10
35.7970003938
 20
21.6803529181
 30
0.0
 11
1.0
 21
0.0
 31
0.0
 73
2
 44
0.9
  1
FOR UNDER-MOUNT INSTALLATION\PCUT ALONG THIS LINE\PPARA INSTALACIÓN DE MONTAJE POR ABAJO\PCORTE A LO LARGO DE ESTA LÍNEA\PPOUR INSTALLATION À MONTAGE SOUS PLAN\PCOUPER LE LONG DE CETTE LIGNE\P 
 40
0.15625
 41
4.625
  0
INSERT
  5
3ED
100
AcDbEntity
  8
___SYMBOL
100
AcDbBlockReference
 62
2
  6
CONTINUOUS
  2
PLOTTING_TEMPLATE_NOTE_BL0
 10
32.9783737574
 20
13.300982581
  0
INSERT
  5
3EE
100
AcDbEntity
  8
___SYMBOL
100
AcDbBlockReference
 62
2
  6
CONTINUOUS
  2
CUT-OUT_TEMPLATE_SKU_SIN_BL1
 10
15.9155974373
 20
22.0826962667
  0
INSERT
  5
3EF
100
AcDbEntity
  8
___SYMBOL
100
AcDbBlockReference
 62
2
  6
CONTINUOUS
  2
COPYRIGHT_YEAR_BL2
 10
33.1938989201
 20
11.0370793285
  0
INSERT
  5
3F0
100
AcDbEntity
  8
___SYMBOL
100
AcDbBlockReference
 62
2
  6
CONTINUOUS
  2
SCISSORS_BL3
 10
37.1687074872
 20
21.259253446
  0
LINE
  5
3F1
100
AcDbEntity
  8
_CURVE
100
AcDbLine
 62
8
  6
PHANTOM
 10
6.0207360661
 20
27.734856395
 11
6.0207360661
 21
9.934856395
  0
LINE
  5
3F2
100
AcDbEntity
  8
_CURVE
100
AcDbLine
 62
7
  6
CONTINUOUS
 10
6.8957360661
 20
10.953856395
 11
6.8957360661
 21
26.715856395
  0
LINE
  5
3F3
100
AcDbEntity
  8
_CURVE
100
AcDbLine
 62
8
  6
PHANTOM
 10
6.2707360661
 20
9.684856395
 11
37.7707360661
 21
9.684856395
  0
LINE
  5
3F4
100
AcDbEntity
  8
_CURVE
100
AcDbLine
 62
7
  6
CONTINUOUS
 10
36.7517360661
 20
10.559856395
 11
7.2897360661
 21
10.559856395
  0
LINE
  5
3F5
100
AcDbEntity
  8
_CURVE
100
AcDbLine
 62
8
  6
CENTER
 10
22.0207360661
 20
29.984856395
 11
22.0207360661
 21
25.984856395
  0
LINE
  5
3F6
100
AcDbEntity
  8
_CURVE
100
AcDbLine
 62
8
  6
CENTER
 10
22.0207360661
 20
7.684856395
 11
22.0207360661
 21
11.684856395
  0
LINE
  5
3F7
100
AcDbEntity
  8
_CURVE
100
AcDbLine
 62
8
  6
CENTER
 10
40.0207360661
 20
18.834856395
 11
36.0207360661
 21
18.834856395
  0
LINE
  5
3F8
100
AcDbEntity
  8
_CURVE
100
AcDbLine
 62
8
  6
CENTER
 10
4.0207360661
 20
18.834856395
 11
8.0207360661
 21
18.834856395
  0
LINE
  5
3F9
100
AcDbEntity
  8
_CURVE
100
AcDbLine
 62
7
  6
CONTINUOUS
 10
7.2897360661
 20
27.109856395
 11
36.7517360661
 21
27.109856395
  0
LINE
  5
3FA
100
AcDbEntity
  8
_CURVE
100
AcDbLine
 62
8
  6
PHANTOM
 10
37.7707360661
 20
27.984856395
 11
6.2707360661
 21
27.984856395
  0
LINE
  5
3FB
100
AcDbEntity
  8
_CURVE
100
AcDbLine
 62
7
  6
CONTINUOUS
 10
37.1457360661
 20
26.715856395
 11
37.1457360661
 21
10.953856395
  0
LINE
  5
3FC
100
AcDbEntity
  8
_CURVE
100
AcDbLine
 62
8
  6
PHANTOM
 10
38.0207360661
 20
9.934856395
 11
38.0207360661
 21
27.734856395
  0
ARC
  5
3FD
100
AcDbEntity
  8
_CURVE
100
AcDbCircle
 62
7
  6
CONTINUOUS
 10
7.2897360661
 20
26.715856395
 40
0.394
100
AcDbArc
 50
90.0
 51
180.0
  0
ARC
  5
3FE
100
AcDbEntity
  8
_CURVE
100
AcDbCircle
 62
7
  6
CONTINUOUS
 10
7.2897360661
 20
10.953856395
 40
0.394
100
AcDbArc
 50
180.0
 51
270.0
  0
ARC
  5
3FF
100
AcDbEntity
  8
_CURVE
100
AcDbCircle
 62
7
  6
CONTINUOUS
 10
36.7517360661
 20
10.953856395
 40
0.394
100
AcDbArc
 50
270.0
 51
360.0
  0
ARC
  5
400
100
AcDbEntity
  8
_CURVE
100
AcDbCircle
 62
7
  6
CONTINUOUS
 10
36.7517360661
 20
26.715856395
 40
0.394
100
AcDbArc
 50
0.0
 51
90.0
  0
ARC
  5
401
100
AcDbEntity
  8
_CURVE
100
AcDbCircle
 62
8
  6
PHANTOM
 10
37.7707360661
 20
27.734856395
 40
0.25
100
AcDbArc
 50
0.0
 51
90.0
  0
ARC
  5
402
100
AcDbEntity
  8
_CURVE
100
AcDbCircle
 62
8
  6
PHANTOM
 10
6.2707360661
 20
27.734856395
 40
0.25
100
AcDbArc
 50
90.0
 51
180.0
  0
ARC
  5
403
100
AcDbEntity
  8
_CURVE
100
AcDbCircle
 62
8
  6
PHANTOM
 10
6.2707360661
 20
9.934856395
 40
0.25
100
AcDbArc
 50
180.0
 51
270.0
  0
ARC
  5
404
100
AcDbEntity
  8
_CURVE
100
AcDbCircle
 62
8
  6
PHANTOM
 10
37.7707360661
 20
9.934856395
 40
0.25
100
AcDbArc
 50
270.0
 51
360.0
  0
ENDSEC
  0
SECTION
  2
OBJECTS
  0
DICTIONARY
  5
C
100
AcDbDictionary
280
0
281
1
  3
ACAD_GROUP
350
D
  3
ACAD_MLINESTYLE
350
17
  3
ACAD_LAYOUT
350
1A
  3
ACAD_PLOTSETTINGS
350
19
  3
ACAD_PLOTSTYLENAME
350
E
  0
DICTIONARY
  5
D
102
{ACAD_REACTORS
330
C
102
}
100
AcDbDictionary
280
0
281
1
  0
ACDBDICTIONARYWDFLT
  5
E
102
{ACAD_REACTORS
330
C
102
}
100
AcDbDictionary
281
1
  3
Normal
350
F
100
AcDbDictionaryWithDefault
340
F
  0
DICTIONARY
  5
17
102
{ACAD_REACTORS
330
C
102
}
100
AcDbDictionary
280
0
281
1
  3
Standard
350
18
  0
DICTIONARY
  5
19
102
{ACAD_REACTORS
330
C
102
}
100
AcDbDictionary
281
1
  0
DICTIONARY
  5
1A
102
{ACAD_REACTORS
330
C
102
}
100
AcDbDictionary
281
1
  3
Model
350
405
  3
Layout1
350
406
  0
ACDBPLACEHOLDER
  5
F
102
{ACAD_REACTORS
330
E
102
}
  0
MLINESTYLE
  5
18
102
{ACAD_REACTORS
330
17
102
}
100
AcDbMlineStyle
  2
STANDARD
 70
0
  3

 62
256
 51
90.0
 52
90.0
 71
2
 49
0.5
 62
256
  6
BYLAYER
 49
-0.5
 62
256
  6
BYLAYER
  0
LAYOUT
  5
405
102
{ACAD_REACTORS
330
1A
102
}
100
AcDbPlotSettings
  1

  2
none_device
  4
ANSI_E_(44.00_x_34.00_Inches)
  6

 40
0.0
 41
0.0
 42
0.0
 43
0.0
 44
1117.6
 45
863.6
 46
0.0
 47
0.0
 48
0.0
 49
0.0
140
0.0
141
0.0
142
1.0
143
1.0
 70
1024
 72
0
 73
0
 74
0
  7

 75
0
147
1.0
148
0.0
149
0.0
100
AcDbLayout
  1
Model
 70
0
 71
0
 10
0.0
 20
0.0
 11
44.0
 21
34.0
 12
0.0
 22
0.0
 32
0.0
 14
0.0
 24
0.0
 34
0.0
 15
0.0
 25
0.0
 35
0.0
146
0.0
 13
0.0
 23
0.0
 33
0.0
 16
1.0
 26
0.0
 36
0.0
 17
0.0
 27
1.0
 37
0.0
 76
0
330
20B
345
0
346
0
  0
LAYOUT
  5
406
102
{ACAD_REACTORS
330
1A
102
}
100
AcDbPlotSettings
  1

  2
none_device
  4
ANSI_E_(44.00_x_34.00_Inches)
  6

 40
0.0
 41
0.0
 42
0.0
 43
0.0
 44
1117.6
 45
863.6
 46
0.0
 47
0.0
 48
0.0
 49
0.0
140
0.0
141
0.0
142
1.0
143
1.0
 70
0
 72
0
 73
0
 74
0
  7

 75
0
147
1.0
148
0.0
149
0.0
100
AcDbLayout
  1
Layout1
 70
0
 71
1
 10
0.0
 20
0.0
 11
44.0
 21
34.0
 12
0.0
 22
0.0
 32
0.0
 14
0.0
 24
0.0
 34
0.0
 15
0.0
 25
0.0
 35
0.0
146
0.0
 13
0.0
 23
0.0
 33
0.0
 16
1.0
 26
0.0
 36
0.0
 17
0.0
 27
1.0
 37
0.0
 76
0
330
20C
345
0
346
0
  0
ENDSEC
  0
EOF
