999
DXF file: 1609669-7.dxf
999
Pro/ENGINEER 2021304 by Parametric Technology Corporation
  0
SECTION
  2
HEADER
  9
$ACADVER
  1
AC1015
  9
$DWGCODEPAGE
  3
ANSI_1252
  9
$EXTMAX
 10
34.0
 20
22.0
 30
0.0
  9
$EXTMIN
 10
0.0
 20
0.0
 30
0.0
  9
$LIMMIN
 10
0.0
 20
0.0
  9
$LIMMAX
 10
34.0
 20
22.0
  9
$VIEWCTR
 10
17.0
 20
11.0
  9
$VIEWSIZE
 40
22.0
  9
$CLAYER
  8
0
  9
$LTSCALE
 40
1.87
  9
$CELTYPE
  6
BYLAYER
  9
$DIMSCALE
 40
1.0
  9
$DIMASZ
 40
0.1875
  9
$DIMEXO
 40
0.0625
  9
$DIMDLI
 40
1.292
  9
$DIMEXE
 40
0.125
  9
$DIMCEN
 40
0.306
  9
$DIMLFAC
 40
1.0
  9
$DIMBLK
  1
_FILLED
  9
$DIMALT
 70
1
  9
$DIMALTD
 70
1
  9
$DIMALTTD
 70
2
  9
$DIMALTF
 40
25.4
  9
$DIMTXT
 40
0.15625
  9
$DIMTOL
 70
1
  9
$DIMLIM
 70
0
  9
$DIMTFAC
 40
1.0
  9
$DIMTP
 40
0.2
  9
$DIMTM
 40
0.2
  9
$DIMGAP
 40
0.09
  9
$DIMDSEP
 70
46
  9
$AUNITS
 70
0
  9
$PDMODE
 70
3
  9
$PDSIZE
 40
0.3125
  9
$HANDSEED
  5
317
  9
$TILEMODE
 70
1
  9
$MEASUREMENT
 70
0
  9
$INSUNITS
 70
1
  0
ENDSEC
  0
SECTION
  2
CLASSES
  0
CLASS
  1
ACDBDICTIONARYWDFLT
  2
AcDbDictionaryWithDefault
  3
AutoCAD 2000
 90
0
280
0
281
0
  0
CLASS
  1
ACDBPLACEHOLDER
  2
AcDbPlaceHolder
  3
AutoCAD 2000
 90
0
280
0
281
0
  0
CLASS
  1
LAYOUT
  2
AcDbLayout
  3
AutoCAD 2000
 90
0
280
0
281
0
  0
ENDSEC
  0
SECTION
  2
TABLES
  0
TABLE
  2
VPORT
  5
8
100
AcDbSymbolTable
 70
2
  0
VPORT
  5
1F4
100
AcDbSymbolTableRecord
100
AcDbViewportTableRecord
  2
*ACTIVE
 70
0
 10
0.0
 20
0.0
 11
1.0
 21
1.0
 12
17.0
 22
11.0
 13
0.0
 23
0.0
 14
1.0
 24
1.0
 15
0.0
 25
0.0
 16
0.0
 26
0.0
 36
1.0
 17
0.0
 27
0.0
 37
0.0
 40
22.0
 41
1.5454545455
 42
50.0
 43
0.0
 44
0.0
 50
0.0
 51
0.0
 71
0
 72
100
 73
1
 74
1
 75
0
 76
0
 77
0
 78
0
  0
ENDTAB
  0
TABLE
  2
LTYPE
  5
5
100
AcDbSymbolTable
 70
6
  0
LTYPE
  5
14
100
AcDbSymbolTableRecord
100
AcDbLinetypeTableRecord
  2
BYBLOCK
 70
0
  3

 72
65
 73
0
 40
0.0
  0
LTYPE
  5
15
100
AcDbSymbolTableRecord
100
AcDbLinetypeTableRecord
  2
BYLAYER
 70
0
  3

 72
65
 73
0
 40
0.0
  0
LTYPE
  5
16
100
AcDbSymbolTableRecord
100
AcDbLinetypeTableRecord
  2
CONTINUOUS
 70
64
  3
Solid line
 72
65
 73
0
 40
0.0
  0
LTYPE
  5
1F5
100
AcDbSymbolTableRecord
100
AcDbLinetypeTableRecord
  2
CENTER
 70
64
  3
____ _ ____ _ ____ _ ____ _ ____ _ ____ _ ____
 72
65
 73
4
 40
0.6
 49
0.375
 74
0
 49
-0.075
 74
0
 49
0.075
 74
0
 49
-0.075
 74
0
  0
LTYPE
  5
1F6
100
AcDbSymbolTableRecord
100
AcDbLinetypeTableRecord
  2
HIDDEN
 70
64
  3
- - - - - - - - - - - - - - - - - - - -
 72
65
 73
2
 40
0.2
 49
0.1
 74
0
 49
-0.1
 74
0
  0
LTYPE
  5
1F7
100
AcDbSymbolTableRecord
100
AcDbLinetypeTableRecord
  2
PHANTOM
 70
64
  3
_____ _ _ _____ _ _ _____ _ _ _____
 72
65
 73
6
 40
0.8
 49
0.45
 74
0
 49
-0.05
 74
0
 49
0.1
 74
0
 49
-0.05
 74
0
 49
0.1
 74
0
 49
-0.05
 74
0
  0
LTYPE
  5
1F8
100
AcDbSymbolTableRecord
100
AcDbLinetypeTableRecord
  2
DOT
 70
64
  3
. . . . . . . . . . . . . . . . . . . .
 72
65
 73
2
 40
0.2
 49
0.1
 74
0
 49
-0.1
 74
0
  0
LTYPE
  5
1F9
100
AcDbSymbolTableRecord
100
AcDbLinetypeTableRecord
  2
DASHED
 70
64
  3
- - - - - - - - - - - - - - - - - - - -
 72
65
 73
2
 40
0.2
 49
0.1
 74
0
 49
-0.1
 74
0
  0
ENDTAB
  0
TABLE
  2
LAYER
  5
2
100
AcDbSymbolTable
 70
36
  0
LAYER
  5
10
100
AcDbSymbolTableRecord
100
AcDbLayerTableRecord
  2
0
 70
0
 62
7
  6
CONTINUOUS
370
-3
390
F
  0
LAYER
  5
1FA
100
AcDbSymbolTableRecord
100
AcDbLayerTableRecord
  2
DEFAULT_1
 70
0
 62
7
  6
CENTER
370
-3
390
F
  0
LAYER
  5
1FB
100
AcDbSymbolTableRecord
100
AcDbLayerTableRecord
  2
DEFAULT_2
 70
0
 62
8
  6
HIDDEN
370
-3
390
F
  0
LAYER
  5
1FC
100
AcDbSymbolTableRecord
100
AcDbLayerTableRecord
  2
DEFAULT_3
 70
0
 62
7
  6
PHANTOM
370
-3
390
F
  0
LAYER
  5
1FD
100
AcDbSymbolTableRecord
100
AcDbLayerTableRecord
  2
DATUMS
 70
0
 62
7
  6
CONTINUOUS
370
-3
390
F
  0
LAYER
  5
1FE
100
AcDbSymbolTableRecord
100
AcDbLayerTableRecord
  2
DATUM_AXIS
 70
0
 62
7
  6
CONTINUOUS
370
-3
390
F
  0
LAYER
  5
1FF
100
AcDbSymbolTableRecord
100
AcDbLayerTableRecord
  2
DATUM_CSYS
 70
0
 62
7
  6
CONTINUOUS
370
-3
390
F
  0
LAYER
  5
200
100
AcDbSymbolTableRecord
100
AcDbLayerTableRecord
  2
DATUM_PLANE
 70
0
 62
7
  6
CONTINUOUS
370
-3
390
F
  0
LAYER
  5
201
100
AcDbSymbolTableRecord
100
AcDbLayerTableRecord
  2
DATUM_POINT
 70
0
 62
7
  6
CONTINUOUS
370
-3
390
F
  0
LAYER
  5
202
100
AcDbSymbolTableRecord
100
AcDbLayerTableRecord
  2
_CURVE
 70
0
 62
7
  6
CONTINUOUS
370
-3
390
F
  0
LAYER
  5
203
100
AcDbSymbolTableRecord
100
AcDbLayerTableRecord
  2
_SURFACE
 70
0
 62
7
  6
CONTINUOUS
370
-3
390
F
  0
LAYER
  5
204
100
AcDbSymbolTableRecord
100
AcDbLayerTableRecord
  2
__REF_CURVE
 70
0
 62
7
  6
CONTINUOUS
370
-3
390
F
  0
LAYER
  5
205
100
AcDbSymbolTableRecord
100
AcDbLayerTableRecord
  2
__REF_SURFACE
 70
0
 62
7
  6
CONTINUOUS
370
-3
390
F
  0
LAYER
  5
206
100
AcDbSymbolTableRecord
100
AcDbLayerTableRecord
  2
___NOTE
 70
0
 62
7
  6
CONTINUOUS
370
-3
390
F
  0
LAYER
  5
207
100
AcDbSymbolTableRecord
100
AcDbLayerTableRecord
  2
___SYMBOL
 70
0
 62
7
  6
CONTINUOUS
370
-3
390
F
  0
ENDTAB
  0
TABLE
  2
STYLE
  5
3
100
AcDbSymbolTable
 70
1
  0
STYLE
  5
11
100
AcDbSymbolTableRecord
100
AcDbTextStyleTableRecord
  2
STANDARD
 70
0
 40
0.0
 41
0.8
 50
0.0
 71
0
 42
0.2
  3
txt
  4

  0
STYLE
  5
208
100
AcDbSymbolTableRecord
100
AcDbTextStyleTableRecord
  2
TEXTSTYLE_1
 70
0
 40
0.0
 41
0.8
 50
0.0
 71
0
 42
0.2
  3
gdt
  4

  0
STYLE
  5
209
100
AcDbSymbolTableRecord
100
AcDbTextStyleTableRecord
  2
TEXTSTYLE_2
 70
0
 40
0.0
 41
1.0
 50
0.0
 71
0
 42
0.2
  3
gdt
  4

  0
STYLE
  5
20A
100
AcDbSymbolTableRecord
100
AcDbTextStyleTableRecord
  2
TEXTSTYLE_3
 70
0
 40
0.0
 41
1.0
 50
0.0
 71
0
 42
0.2
  3
txt
  4

  0
ENDTAB
  0
TABLE
  2
VIEW
  5
6
100
AcDbSymbolTable
 70
0
  0
ENDTAB
  0
TABLE
  2
UCS
  5
7
100
AcDbSymbolTable
 70
0
  0
ENDTAB
  0
TABLE
  2
APPID
  5
9
100
AcDbSymbolTable
 70
1
  0
APPID
  5
20B
100
AcDbSymbolTableRecord
100
AcDbRegAppTableRecord
  2
ACAD
 70
0
  0
ENDTAB
  0
TABLE
  2
BLOCK_RECORD
  5
1
100
AcDbSymbolTable
 70
0
  0
BLOCK_RECORD
  5
20C
100
AcDbSymbolTableRecord
100
AcDbBlockTableRecord
  2
*Model_Space
  0
BLOCK_RECORD
  5
20D
100
AcDbSymbolTableRecord
100
AcDbBlockTableRecord
  2
*Paper_Space
  0
BLOCK_RECORD
  5
20E
100
AcDbSymbolTableRecord
100
AcDbBlockTableRecord
  2
_FILLED
  0
BLOCK_RECORD
  5
20F
100
AcDbSymbolTableRecord
100
AcDbBlockTableRecord
  2
*D0
  0
BLOCK_RECORD
  5
210
100
AcDbSymbolTableRecord
100
AcDbBlockTableRecord
  2
TEMPLATE_NUMBER_BL4
  0
BLOCK_RECORD
  5
211
100
AcDbSymbolTableRecord
100
AcDbBlockTableRecord
  2
TEMPLATE_NUMBER_BL3
  0
BLOCK_RECORD
  5
212
100
AcDbSymbolTableRecord
100
AcDbBlockTableRecord
  2
COPYRIGHT_YEAR_BL2
  0
BLOCK_RECORD
  5
213
100
AcDbSymbolTableRecord
100
AcDbBlockTableRecord
  2
KOHLER_BL1
  0
BLOCK_RECORD
  5
214
100
AcDbSymbolTableRecord
100
AcDbBlockTableRecord
  2
SCISSORS_BL0
  0
ENDTAB
  0
TABLE
  2
DIMSTYLE
  5
A
100
AcDbSymbolTable
 70
1
100
AcDbDimStyleTable
 71
0
  0
DIMSTYLE
105
215
100
AcDbSymbolTableRecord
100
AcDbDimStyleTableRecord
  2
STANDARD
 70
0
  3

  4

 40
1.0
 41
0.1875
 42
0.0625
 43
0.38
 44
0.125
 45
0.0
 46
0.0
 47
0.2
 48
0.2
140
0.15625
141
0.09
142
0.0
143
25.4
144
1.0
145
0.0
146
1.0
147
0.09
 71
1
 72
0
 73
1
 74
1
 75
0
 76
0
 77
0
 78
4
 79
1
170
1
171
1
172
0
173
0
174
0
175
0
176
0
177
0
178
0
270
2
179
2
271
2
272
2
273
2
274
2
275
0
280
0
281
0
282
0
283
1
284
4
285
0
286
0
287
3
288
0
340
11
278
46
341
20E
342
20E
343
20E
344
20E
  0
DIMSTYLE
105
216
100
AcDbSymbolTableRecord
100
AcDbDimStyleTableRecord
  2
DIMSTYLE_1
 70
0
  3
<>
  4

 40
1.0
 41
0.1875
 42
0.0625
 43
0.38
 44
0.125
 45
0.0
 46
0.0
 47
0.01
 48
0.01
140
0.15625
141
0.09
142
0.0
143
25.4
144
1.0
145
0.0
146
1.0
147
0.09
 71
0
 72
0
 73
1
 74
1
 75
0
 76
0
 77
0
 78
4
 79
1
170
1
171
1
172
1
173
0
174
0
175
0
176
0
177
0
178
0
270
2
179
2
271
5
272
32
273
2
274
1
275
0
280
0
281
0
282
0
283
1
284
4
285
0
286
0
287
3
288
1
340
11
278
46
289
2
341
20E
342
20E
343
20E
344
20E
  0
ENDTAB
  0
ENDSEC
  0
SECTION
  2
BLOCKS
  0
BLOCK
  5
20
100
AcDbEntity
  8
0
100
AcDbBlockBegin
  2
*Model_Space
 70
0
 10
0.0
 20
0.0
 30
0.0
  3
*Model_Space
  1

  0
ENDBLK
  5
21
100
AcDbEntity
  8
0
100
AcDbBlockEnd
  0
BLOCK
  5
1C
100
AcDbEntity
  8
0
100
AcDbBlockBegin
  2
*Paper_Space
 70
0
 10
0.0
 20
0.0
 30
0.0
  3
*Paper_Space
  1

  0
ENDBLK
  5
1D
100
AcDbEntity
  8
0
100
AcDbBlockEnd
  0
BLOCK
  5
217
100
AcDbEntity
  8
___SYMBOL
100
AcDbBlockBegin
 62
2
  6
CONTINUOUS
  2
TEMPLATE_NUMBER_BL4
 70
64
 10
13.9293886179
 20
2.2263770839
  3
TEMPLATE_NUMBER_BL4
  1

  0
TEXT
  5
218
100
AcDbEntity
  8
___SYMBOL
100
AcDbText
 62
2
  6
CONTINUOUS
 10
13.2418886179
 20
2.1482520839
  7
STANDARD
 40
0.15625
  1
1609669-7
 41
0.8
 72
0
100
AcDbText
  0
TEXT
  5
219
100
AcDbEntity
  8
___SYMBOL
100
AcDbText
 62
2
  6
CONTINUOUS
 10
14.3668886179
 20
2.1482520839
  7
STANDARD
 40
0.15625
  1
-B
 41
0.8
 72
0
100
AcDbText
  0
ENDBLK
  5
21A
100
AcDbEntity
  8
0
  6
BYBLOCK
 62
0
100
AcDbBlockEnd
  0
BLOCK
  5
21B
100
AcDbEntity
  8
___SYMBOL
100
AcDbBlockBegin
 62
2
  6
CONTINUOUS
  2
TEMPLATE_NUMBER_BL3
 70
64
 10
14.0434698469
 20
4.1957520447
  3
TEMPLATE_NUMBER_BL3
  1

  0
TEXT
  5
21C
100
AcDbEntity
  8
___SYMBOL
100
AcDbText
 62
2
  6
CONTINUOUS
 10
13.3559698469
 20
4.1176270447
  7
STANDARD
 40
0.15625
  1
1609669-7
 41
0.8
 72
0
100
AcDbText
  0
TEXT
  5
21D
100
AcDbEntity
  8
___SYMBOL
100
AcDbText
 62
2
  6
CONTINUOUS
 10
14.4809698469
 20
4.1176270447
  7
STANDARD
 40
0.15625
  1
-B
 41
0.8
 72
0
100
AcDbText
  0
ENDBLK
  5
21E
100
AcDbEntity
  8
0
  6
BYBLOCK
 62
0
100
AcDbBlockEnd
  0
BLOCK
  5
21F
100
AcDbEntity
  8
___SYMBOL
100
AcDbBlockBegin
 62
2
  6
CONTINUOUS
  2
COPYRIGHT_YEAR_BL2
 70
64
 10
13.742253043
 20
3.8418311661
  3
COPYRIGHT_YEAR_BL2
  1

  0
TEXT
  5
220
100
AcDbEntity
  8
___SYMBOL
100
AcDbText
 62
2
  6
CONTINUOUS
 10
12.960264852
 20
3.7617432172
  7
STANDARD
 40
0.15625
  1
2024 KOHLER CO.
 41
0.8
 72
0
100
AcDbText
  0
TEXT
  5
221
100
AcDbEntity
  8
___SYMBOL
100
AcDbText
 62
7
  6
CONTINUOUS
 10
12.7029428529
 20
3.7640719672
  7
TEXTSTYLE_3
 40
0.15625
  1
C
 41
1.0
 72
0
100
AcDbText
  0
CIRCLE
  5
222
100
AcDbEntity
  8
___SYMBOL
100
AcDbCircle
 62
7
  6
CONTINUOUS
 10
12.7815982711
 20
3.8418311661
 40
0.1323570371
  0
ENDBLK
  5
223
100
AcDbEntity
  8
0
  6
BYBLOCK
 62
0
100
AcDbBlockEnd
  0
BLOCK
  5
224
100
AcDbEntity
  8
___SYMBOL
100
AcDbBlockBegin
 62
2
  6
CONTINUOUS
  2
KOHLER_BL1
 70
64
 10
4.6057151246
 20
19.737197383
  3
KOHLER_BL1
  1

  0
LINE
  5
225
100
AcDbEntity
  8
___SYMBOL
100
AcDbLine
 62
2
  6
CONTINUOUS
 10
3.6021177173
 20
20.075995777
 11
3.3788282142
 21
19.8104726628
  0
LINE
  5
226
100
AcDbEntity
  8
___SYMBOL
100
AcDbLine
 62
2
  6
CONTINUOUS
 10
3.4010643063
 20
20.075995777
 11
3.6021177173
 21
20.075995777
  0
LINE
  5
227
100
AcDbEntity
  8
___SYMBOL
100
AcDbLine
 62
2
  6
CONTINUOUS
 10
3.4010643063
 20
20.075995777
 11
3.2568505485
 21
19.9045051063
  0
LINE
  5
228
100
AcDbEntity
  8
___SYMBOL
100
AcDbLine
 62
2
  6
CONTINUOUS
 10
3.2568505485
 20
20.075995777
 11
3.2568505485
 21
19.9045051063
  0
LINE
  5
229
100
AcDbEntity
  8
___SYMBOL
100
AcDbLine
 62
2
  6
CONTINUOUS
 10
3.0741808888
 20
20.075995777
 11
3.2568505485
 21
20.075995777
  0
LINE
  5
22A
100
AcDbEntity
  8
___SYMBOL
100
AcDbLine
 62
2
  6
CONTINUOUS
 10
3.0741808888
 20
20.075995777
 11
3.0741808888
 21
19.4626267659
  0
LINE
  5
22B
100
AcDbEntity
  8
___SYMBOL
100
AcDbLine
 62
2
  6
CONTINUOUS
 10
3.2568505485
 20
19.4626518931
 11
3.0741808888
 21
19.4626267659
  0
LINE
  5
22C
100
AcDbEntity
  8
___SYMBOL
100
AcDbLine
 62
2
  6
CONTINUOUS
 10
3.2568505485
 20
19.6735851781
 11
3.2568505485
 21
19.4626518931
  0
LINE
  5
22D
100
AcDbEntity
  8
___SYMBOL
100
AcDbLine
 62
2
  6
CONTINUOUS
 10
3.4177859105
 20
19.4626518931
 11
3.2568505485
 21
19.6735851781
  0
LINE
  5
22E
100
AcDbEntity
  8
___SYMBOL
100
AcDbLine
 62
2
  6
CONTINUOUS
 10
3.4177859105
 20
19.4626518931
 11
3.6442043154
 21
19.4626518931
  0
LINE
  5
22F
100
AcDbEntity
  8
___SYMBOL
100
AcDbLine
 62
2
  6
CONTINUOUS
 10
3.6442043154
 20
19.4626518931
 11
3.3788282142
 21
19.8104726628
  0
SOLID
  5
230
100
AcDbEntity
  8
___SYMBOL
100
AcDbTrace
 62
2
  6
CONTINUOUS
 10
3.2568505485
 20
19.9045051063
 11
3.4010643063
 21
20.075995777
 12
3.6021177173
 22
20.075995777
 13
3.6021177173
 23
20.075995777
  0
SOLID
  5
231
100
AcDbEntity
  8
___SYMBOL
100
AcDbTrace
 62
2
  6
CONTINUOUS
 10
3.6021177173
 20
20.075995777
 11
3.3788282142
 21
19.8104726628
 12
3.2568505485
 22
19.9045051063
 13
3.2568505485
 23
19.9045051063
  0
SOLID
  5
232
100
AcDbEntity
  8
___SYMBOL
100
AcDbTrace
 62
2
  6
CONTINUOUS
 10
3.2568505485
 20
19.6735851781
 11
3.3788282142
 21
19.8104726628
 12
3.4177859105
 22
19.4626518931
 13
3.4177859105
 23
19.4626518931
  0
SOLID
  5
233
100
AcDbEntity
  8
___SYMBOL
100
AcDbTrace
 62
2
  6
CONTINUOUS
 10
3.3788282142
 20
19.8104726628
 11
3.6442043154
 21
19.4626518931
 12
3.4177859105
 22
19.4626518931
 13
3.4177859105
 23
19.4626518931
  0
SOLID
  5
234
100
AcDbEntity
  8
___SYMBOL
100
AcDbTrace
 62
2
  6
CONTINUOUS
 10
3.2568505485
 20
19.4626518931
 11
3.0741808888
 21
19.4626267659
 12
3.2568505485
 22
19.6735851781
 13
3.2568505485
 23
19.6735851781
  0
SOLID
  5
235
100
AcDbEntity
  8
___SYMBOL
100
AcDbTrace
 62
2
  6
CONTINUOUS
 10
3.3788282142
 20
19.8104726628
 11
3.2568505485
 21
19.6735851781
 12
3.2568505485
 22
19.9045051063
 13
3.2568505485
 23
19.9045051063
  0
SOLID
  5
236
100
AcDbEntity
  8
___SYMBOL
100
AcDbTrace
 62
2
  6
CONTINUOUS
 10
3.2568505485
 20
19.6735851781
 11
3.0741808888
 21
19.4626267659
 12
3.2568505485
 22
19.9045051063
 13
3.2568505485
 23
19.9045051063
  0
SOLID
  5
237
100
AcDbEntity
  8
___SYMBOL
100
AcDbTrace
 62
2
  6
CONTINUOUS
 10
3.2568505485
 20
19.9045051063
 11
3.0741808888
 21
19.4626267659
 12
3.2568505485
 22
20.075995777
 13
3.2568505485
 23
20.075995777
  0
SOLID
  5
238
100
AcDbEntity
  8
___SYMBOL
100
AcDbTrace
 62
2
  6
CONTINUOUS
 10
3.0741808888
 20
19.4626267659
 11
3.0741808888
 21
20.075995777
 12
3.2568505485
 22
20.075995777
 13
3.2568505485
 23
20.075995777
  0
CIRCLE
  5
239
100
AcDbEntity
  8
___SYMBOL
100
AcDbCircle
 62
2
  6
CONTINUOUS
 10
3.8289766202
 20
19.7681500905
 40
0.3120104598
  0
CIRCLE
  5
23A
100
AcDbEntity
  8
___SYMBOL
100
AcDbCircle
 62
2
  6
CONTINUOUS
 10
3.8289766202
 20
19.7681500905
 40
0.1306106416
  0
SOLID
  5
23B
100
AcDbEntity
  8
___SYMBOL
100
AcDbTrace
 62
2
  6
CONTINUOUS
 10
3.7325600857
 20
20.0648896714
 11
3.7963626463
 21
20.0784513244
 12
3.8615905941
 22
20.0784513244
 13
3.8615905941
 23
20.0784513244
  0
SOLID
  5
23C
100
AcDbEntity
  8
___SYMBOL
100
AcDbTrace
 62
2
  6
CONTINUOUS
 10
3.8615905941
 20
20.0784513244
 11
3.9253931547
 21
20.0648896714
 12
3.7325600857
 22
20.0648896714
 13
3.7325600857
 23
20.0648896714
  0
SOLID
  5
23D
100
AcDbEntity
  8
___SYMBOL
100
AcDbTrace
 62
2
  6
CONTINUOUS
 10
3.6729713903
 20
20.0383590749
 11
3.7325600857
 21
20.0648896714
 12
3.9253931547
 22
20.0648896714
 13
3.9253931547
 23
20.0648896714
  0
SOLID
  5
23E
100
AcDbEntity
  8
___SYMBOL
100
AcDbTrace
 62
2
  6
CONTINUOUS
 10
3.9253931547
 20
20.0648896714
 11
3.9849818501
 21
20.0383590749
 12
3.6729713903
 22
20.0383590749
 13
3.6729713903
 23
20.0383590749
  0
SOLID
  5
23F
100
AcDbEntity
  8
___SYMBOL
100
AcDbTrace
 62
2
  6
CONTINUOUS
 10
3.6202008721
 20
20.0000190492
 11
3.6729713903
 21
20.0383590749
 12
3.9849818501
 22
20.0383590749
 13
3.9849818501
 23
20.0383590749
  0
SOLID
  5
240
100
AcDbEntity
  8
___SYMBOL
100
AcDbTrace
 62
2
  6
CONTINUOUS
 10
3.9849818501
 20
20.0383590749
 11
4.0377523684
 21
20.0000190492
 12
3.6202008721
 22
20.0000190492
 13
3.6202008721
 23
20.0000190492
  0
SOLID
  5
241
100
AcDbEntity
  8
___SYMBOL
100
AcDbTrace
 62
2
  6
CONTINUOUS
 10
3.5765548558
 20
19.9515452373
 11
3.6202008721
 21
20.0000190492
 12
4.0377523684
 22
20.0000190492
 13
4.0377523684
 23
20.0000190492
  0
SOLID
  5
242
100
AcDbEntity
  8
___SYMBOL
100
AcDbTrace
 62
2
  6
CONTINUOUS
 10
4.0377523684
 20
20.0000190492
 11
4.0813983846
 21
19.9515452373
 12
3.5765548558
 22
19.9515452373
 13
3.5765548558
 23
19.9515452373
  0
SOLID
  5
243
100
AcDbEntity
  8
___SYMBOL
100
AcDbTrace
 62
2
  6
CONTINUOUS
 10
3.8289766202
 20
19.898760732
 11
3.5439408819
 21
19.8950561775
 12
4.0813983846
 22
19.9515452373
 13
4.0813983846
 23
19.9515452373
  0
SOLID
  5
244
100
AcDbEntity
  8
___SYMBOL
100
AcDbTrace
 62
2
  6
CONTINUOUS
 10
3.5439408819
 20
19.8950561775
 11
3.5765548558
 21
19.9515452373
 12
4.0813983846
 22
19.9515452373
 13
4.0813983846
 23
19.9515452373
  0
SOLID
  5
245
100
AcDbEntity
  8
___SYMBOL
100
AcDbTrace
 62
2
  6
CONTINUOUS
 10
4.0813983846
 20
19.9515452373
 11
4.1140123585
 21
19.8950561775
 12
3.8289766202
 22
19.898760732
 13
3.8289766202
 23
19.898760732
  0
SOLID
  5
246
100
AcDbEntity
  8
___SYMBOL
100
AcDbTrace
 62
2
  6
CONTINUOUS
 10
3.8289766202
 20
19.898760732
 11
3.7886157123
 21
19.8923681922
 12
3.5439408819
 22
19.8950561775
 13
3.5439408819
 23
19.8950561775
  0
SOLID
  5
247
100
AcDbEntity
  8
___SYMBOL
100
AcDbTrace
 62
2
  6
CONTINUOUS
 10
3.8693375281
 20
19.8923681922
 11
3.8289766202
 21
19.898760732
 12
4.1140123585
 22
19.8950561775
 13
4.1140123585
 23
19.8950561775
  0
SOLID
  5
248
100
AcDbEntity
  8
___SYMBOL
100
AcDbTrace
 62
2
  6
CONTINUOUS
 10
3.7233103916
 20
19.8449210994
 11
3.5237843376
 21
19.8330207127
 12
3.7522056113
 22
19.8738163192
 13
3.7522056113
 23
19.8738163192
  0
SOLID
  5
249
100
AcDbEntity
  8
___SYMBOL
100
AcDbTrace
 62
2
  6
CONTINUOUS
 10
3.7522056113
 20
19.8738163192
 11
3.5237843376
 21
19.8330207127
 12
3.7886157123
 22
19.8923681922
 13
3.7886157123
 23
19.8923681922
  0
SOLID
  5
24A
100
AcDbEntity
  8
___SYMBOL
100
AcDbTrace
 62
2
  6
CONTINUOUS
 10
3.5237843376
 20
19.8330207127
 11
3.5439408819
 21
19.8950561775
 12
3.7886157123
 22
19.8923681922
 13
3.7886157123
 23
19.8923681922
  0
SOLID
  5
24B
100
AcDbEntity
  8
___SYMBOL
100
AcDbTrace
 62
2
  6
CONTINUOUS
 10
3.8693375281
 20
19.8923681922
 11
4.1140123585
 21
19.8950561775
 12
3.9057476291
 22
19.8738163192
 13
3.9057476291
 23
19.8738163192
  0
SOLID
  5
24C
100
AcDbEntity
  8
___SYMBOL
100
AcDbTrace
 62
2
  6
CONTINUOUS
 10
3.9057476291
 20
19.8738163192
 11
4.1140123585
 21
19.8950561775
 12
3.9346428489
 22
19.8449210994
 13
3.9346428489
 23
19.8449210994
  0
SOLID
  5
24D
100
AcDbEntity
  8
___SYMBOL
100
AcDbTrace
 62
2
  6
CONTINUOUS
 10
4.1140123585
 20
19.8950561775
 11
4.1341689029
 21
19.8330207127
 12
3.9346428489
 22
19.8449210994
 13
3.9346428489
 23
19.8449210994
  0
SOLID
  5
24E
100
AcDbEntity
  8
___SYMBOL
100
AcDbTrace
 62
2
  6
CONTINUOUS
 10
3.7233103916
 20
19.8449210994
 11
3.7047585185
 21
19.8085109984
 12
3.5237843376
 22
19.8330207127
 13
3.5237843376
 23
19.8330207127
  0
SOLID
  5
24F
100
AcDbEntity
  8
___SYMBOL
100
AcDbTrace
 62
2
  6
CONTINUOUS
 10
3.953194722
 20
19.8085109984
 11
3.9346428489
 21
19.8449210994
 12
4.1341689029
 22
19.8330207127
 13
4.1341689029
 23
19.8330207127
  0
SOLID
  5
250
100
AcDbEntity
  8
___SYMBOL
100
AcDbTrace
 62
2
  6
CONTINUOUS
 10
3.5169661604
 20
19.7681500905
 11
3.5237843376
 21
19.8330207127
 12
3.7047585185
 22
19.8085109984
 13
3.7047585185
 23
19.8085109984
  0
SOLID
  5
251
100
AcDbEntity
  8
___SYMBOL
100
AcDbTrace
 62
2
  6
CONTINUOUS
 10
3.7047585185
 20
19.8085109984
 11
3.6983659787
 21
19.7681500905
 12
3.5169661604
 22
19.7681500905
 13
3.5169661604
 23
19.7681500905
  0
SOLID
  5
252
100
AcDbEntity
  8
___SYMBOL
100
AcDbTrace
 62
2
  6
CONTINUOUS
 10
3.953194722
 20
19.8085109984
 11
4.1341689029
 21
19.8330207127
 12
3.9595872618
 22
19.7681500905
 13
3.9595872618
 23
19.7681500905
  0
SOLID
  5
253
100
AcDbEntity
  8
___SYMBOL
100
AcDbTrace
 62
2
  6
CONTINUOUS
 10
4.1341689029
 20
19.8330207127
 11
4.14098708
 21
19.7681500905
 12
3.9595872618
 22
19.7681500905
 13
3.9595872618
 23
19.7681500905
  0
SOLID
  5
254
100
AcDbEntity
  8
___SYMBOL
100
AcDbTrace
 62
2
  6
CONTINUOUS
 10
3.953194722
 20
19.7277891826
 11
3.9595872618
 21
19.7681500905
 12
4.14098708
 22
19.7681500905
 13
4.14098708
 23
19.7681500905
  0
SOLID
  5
255
100
AcDbEntity
  8
___SYMBOL
100
AcDbTrace
 62
2
  6
CONTINUOUS
 10
3.7047585185
 20
19.7277891826
 11
3.5237843376
 21
19.7032794682
 12
3.6983659787
 22
19.7681500905
 13
3.6983659787
 23
19.7681500905
  0
SOLID
  5
256
100
AcDbEntity
  8
___SYMBOL
100
AcDbTrace
 62
2
  6
CONTINUOUS
 10
3.5237843376
 20
19.7032794682
 11
3.5169661604
 21
19.7681500905
 12
3.6983659787
 22
19.7681500905
 13
3.6983659787
 23
19.7681500905
  0
SOLID
  5
257
100
AcDbEntity
  8
___SYMBOL
100
AcDbTrace
 62
2
  6
CONTINUOUS
 10
4.14098708
 20
19.7681500905
 11
4.1341689029
 21
19.7032794682
 12
3.953194722
 22
19.7277891826
 13
3.953194722
 23
19.7277891826
  0
SOLID
  5
258
100
AcDbEntity
  8
___SYMBOL
100
AcDbTrace
 62
2
  6
CONTINUOUS
 10
3.7047585185
 20
19.7277891826
 11
3.7233103916
 21
19.6913790816
 12
3.5237843376
 22
19.7032794682
 13
3.5237843376
 23
19.7032794682
  0
SOLID
  5
259
100
AcDbEntity
  8
___SYMBOL
100
AcDbTrace
 62
2
  6
CONTINUOUS
 10
3.9346428489
 20
19.6913790816
 11
3.953194722
 21
19.7277891826
 12
4.1341689029
 22
19.7032794682
 13
4.1341689029
 23
19.7032794682
  0
SOLID
  5
25A
100
AcDbEntity
  8
___SYMBOL
100
AcDbTrace
 62
2
  6
CONTINUOUS
 10
3.7886157123
 20
19.6439319888
 11
3.5439408819
 21
19.6412440035
 12
3.7522056113
 22
19.6624838618
 13
3.7522056113
 23
19.6624838618
  0
SOLID
  5
25B
100
AcDbEntity
  8
___SYMBOL
100
AcDbTrace
 62
2
  6
CONTINUOUS
 10
3.7522056113
 20
19.6624838618
 11
3.5439408819
 21
19.6412440035
 12
3.7233103916
 22
19.6913790816
 13
3.7233103916
 23
19.6913790816
  0
SOLID
  5
25C
100
AcDbEntity
  8
___SYMBOL
100
AcDbTrace
 62
2
  6
CONTINUOUS
 10
3.5439408819
 20
19.6412440035
 11
3.5237843376
 21
19.7032794682
 12
3.7233103916
 22
19.6913790816
 13
3.7233103916
 23
19.6913790816
  0
SOLID
  5
25D
100
AcDbEntity
  8
___SYMBOL
100
AcDbTrace
 62
2
  6
CONTINUOUS
 10
3.9346428489
 20
19.6913790816
 11
4.1341689029
 21
19.7032794682
 12
3.9057476291
 22
19.6624838618
 13
3.9057476291
 23
19.6624838618
  0
SOLID
  5
25E
100
AcDbEntity
  8
___SYMBOL
100
AcDbTrace
 62
2
  6
CONTINUOUS
 10
3.9057476291
 20
19.6624838618
 11
4.1341689029
 21
19.7032794682
 12
3.8693375281
 22
19.6439319888
 13
3.8693375281
 23
19.6439319888
  0
SOLID
  5
25F
100
AcDbEntity
  8
___SYMBOL
100
AcDbTrace
 62
2
  6
CONTINUOUS
 10
4.1341689029
 20
19.7032794682
 11
4.1140123585
 21
19.6412440035
 12
3.8693375281
 22
19.6439319888
 13
3.8693375281
 23
19.6439319888
  0
SOLID
  5
260
100
AcDbEntity
  8
___SYMBOL
100
AcDbTrace
 62
2
  6
CONTINUOUS
 10
3.7886157123
 20
19.6439319888
 11
3.8289766202
 21
19.6375394489
 12
3.5439408819
 22
19.6412440035
 13
3.5439408819
 23
19.6412440035
  0
SOLID
  5
261
100
AcDbEntity
  8
___SYMBOL
100
AcDbTrace
 62
2
  6
CONTINUOUS
 10
3.8289766202
 20
19.6375394489
 11
3.8693375281
 21
19.6439319888
 12
4.1140123585
 22
19.6412440035
 13
4.1140123585
 23
19.6412440035
  0
SOLID
  5
262
100
AcDbEntity
  8
___SYMBOL
100
AcDbTrace
 62
2
  6
CONTINUOUS
 10
3.5765548558
 20
19.5847549437
 11
3.5439408819
 21
19.6412440035
 12
3.8289766202
 22
19.6375394489
 13
3.8289766202
 23
19.6375394489
  0
SOLID
  5
263
100
AcDbEntity
  8
___SYMBOL
100
AcDbTrace
 62
2
  6
CONTINUOUS
 10
3.8289766202
 20
19.6375394489
 11
4.1140123585
 21
19.6412440035
 12
3.5765548558
 22
19.5847549437
 13
3.5765548558
 23
19.5847549437
  0
SOLID
  5
264
100
AcDbEntity
  8
___SYMBOL
100
AcDbTrace
 62
2
  6
CONTINUOUS
 10
4.1140123585
 20
19.6412440035
 11
4.0813983846
 21
19.5847549437
 12
3.5765548558
 22
19.5847549437
 13
3.5765548558
 23
19.5847549437
  0
SOLID
  5
265
100
AcDbEntity
  8
___SYMBOL
100
AcDbTrace
 62
2
  6
CONTINUOUS
 10
3.6202008721
 20
19.5362811318
 11
3.5765548558
 21
19.5847549437
 12
4.0813983846
 22
19.5847549437
 13
4.0813983846
 23
19.5847549437
  0
SOLID
  5
266
100
AcDbEntity
  8
___SYMBOL
100
AcDbTrace
 62
2
  6
CONTINUOUS
 10
4.0813983846
 20
19.5847549437
 11
4.0377523684
 21
19.5362811318
 12
3.6202008721
 22
19.5362811318
 13
3.6202008721
 23
19.5362811318
  0
SOLID
  5
267
100
AcDbEntity
  8
___SYMBOL
100
AcDbTrace
 62
2
  6
CONTINUOUS
 10
3.6729713903
 20
19.4979411061
 11
3.6202008721
 21
19.5362811318
 12
4.0377523684
 22
19.5362811318
 13
4.0377523684
 23
19.5362811318
  0
SOLID
  5
268
100
AcDbEntity
  8
___SYMBOL
100
AcDbTrace
 62
2
  6
CONTINUOUS
 10
4.0377523684
 20
19.5362811318
 11
3.9849818501
 21
19.4979411061
 12
3.6729713903
 22
19.4979411061
 13
3.6729713903
 23
19.4979411061
  0
SOLID
  5
269
100
AcDbEntity
  8
___SYMBOL
100
AcDbTrace
 62
2
  6
CONTINUOUS
 10
3.7325600857
 20
19.4714105095
 11
3.6729713903
 21
19.4979411061
 12
3.9849818501
 22
19.4979411061
 13
3.9849818501
 23
19.4979411061
  0
SOLID
  5
26A
100
AcDbEntity
  8
___SYMBOL
100
AcDbTrace
 62
2
  6
CONTINUOUS
 10
3.9849818501
 20
19.4979411061
 11
3.9253931547
 21
19.4714105095
 12
3.7325600857
 22
19.4714105095
 13
3.7325600857
 23
19.4714105095
  0
SOLID
  5
26B
100
AcDbEntity
  8
___SYMBOL
100
AcDbTrace
 62
2
  6
CONTINUOUS
 10
3.7963626463
 20
19.4578488566
 11
3.7325600857
 21
19.4714105095
 12
3.9253931547
 22
19.4714105095
 13
3.9253931547
 23
19.4714105095
  0
SOLID
  5
26C
100
AcDbEntity
  8
___SYMBOL
100
AcDbTrace
 62
2
  6
CONTINUOUS
 10
3.9253931547
 20
19.4714105095
 11
3.8615905941
 21
19.4578488566
 12
3.7963626463
 22
19.4578488566
 13
3.7963626463
 23
19.4578488566
  0
LINE
  5
26D
100
AcDbEntity
  8
___SYMBOL
100
AcDbLine
 62
2
  6
CONTINUOUS
 10
4.6587208137
 20
20.075995777
 11
4.6587208137
 21
19.4626518931
  0
LINE
  5
26E
100
AcDbEntity
  8
___SYMBOL
100
AcDbLine
 62
2
  6
CONTINUOUS
 10
4.6587208137
 20
19.4626518931
 11
4.4862749334
 21
19.4626518931
  0
LINE
  5
26F
100
AcDbEntity
  8
___SYMBOL
100
AcDbLine
 62
2
  6
CONTINUOUS
 10
4.4862749334
 20
19.7016657873
 11
4.4862749334
 21
19.4626518931
  0
LINE
  5
270
100
AcDbEntity
  8
___SYMBOL
100
AcDbLine
 62
2
  6
CONTINUOUS
 10
4.3313494781
 20
19.7016657873
 11
4.4862749334
 21
19.7016657873
  0
LINE
  5
271
100
AcDbEntity
  8
___SYMBOL
100
AcDbLine
 62
2
  6
CONTINUOUS
 10
4.3313494781
 20
19.7016657873
 11
4.3313494781
 21
19.4626518931
  0
LINE
  5
272
100
AcDbEntity
  8
___SYMBOL
100
AcDbLine
 62
2
  6
CONTINUOUS
 10
4.3313494781
 20
19.4626518931
 11
4.1589035978
 21
19.4626518931
  0
LINE
  5
273
100
AcDbEntity
  8
___SYMBOL
100
AcDbLine
 62
2
  6
CONTINUOUS
 10
4.1589035978
 20
20.075995777
 11
4.1589035978
 21
19.4626518931
  0
LINE
  5
274
100
AcDbEntity
  8
___SYMBOL
100
AcDbLine
 62
2
  6
CONTINUOUS
 10
4.1589035978
 20
20.075995777
 11
4.3313494781
 21
20.075995777
  0
LINE
  5
275
100
AcDbEntity
  8
___SYMBOL
100
AcDbLine
 62
2
  6
CONTINUOUS
 10
4.3313494781
 20
20.075995777
 11
4.3313494781
 21
19.8452944933
  0
LINE
  5
276
100
AcDbEntity
  8
___SYMBOL
100
AcDbLine
 62
2
  6
CONTINUOUS
 10
4.3313494781
 20
19.8452944933
 11
4.4862749334
 21
19.8452944933
  0
LINE
  5
277
100
AcDbEntity
  8
___SYMBOL
100
AcDbLine
 62
2
  6
CONTINUOUS
 10
4.4862749334
 20
20.075995777
 11
4.4862749334
 21
19.8452944933
  0
LINE
  5
278
100
AcDbEntity
  8
___SYMBOL
100
AcDbLine
 62
2
  6
CONTINUOUS
 10
4.4862749334
 20
20.075995777
 11
4.6587208137
 21
20.075995777
  0
SOLID
  5
279
100
AcDbEntity
  8
___SYMBOL
100
AcDbTrace
 62
2
  6
CONTINUOUS
 10
4.4862749334
 20
19.8452944933
 11
4.4862749334
 21
20.075995777
 12
4.6587208137
 22
20.075995777
 13
4.6587208137
 23
20.075995777
  0
SOLID
  5
27A
100
AcDbEntity
  8
___SYMBOL
100
AcDbTrace
 62
2
  6
CONTINUOUS
 10
4.4862749334
 20
19.8452944933
 11
4.3313494781
 21
19.7016657873
 12
4.3313494781
 22
19.8452944933
 13
4.3313494781
 23
19.8452944933
  0
SOLID
  5
27B
100
AcDbEntity
  8
___SYMBOL
100
AcDbTrace
 62
2
  6
CONTINUOUS
 10
4.3313494781
 20
19.7016657873
 11
4.1589035978
 21
19.4626518931
 12
4.3313494781
 22
19.8452944933
 13
4.3313494781
 23
19.8452944933
  0
SOLID
  5
27C
100
AcDbEntity
  8
___SYMBOL
100
AcDbTrace
 62
2
  6
CONTINUOUS
 10
4.3313494781
 20
19.8452944933
 11
4.1589035978
 21
19.4626518931
 12
4.3313494781
 22
20.075995777
 13
4.3313494781
 23
20.075995777
  0
SOLID
  5
27D
100
AcDbEntity
  8
___SYMBOL
100
AcDbTrace
 62
2
  6
CONTINUOUS
 10
4.1589035978
 20
19.4626518931
 11
4.1589035978
 21
20.075995777
 12
4.3313494781
 22
20.075995777
 13
4.3313494781
 23
20.075995777
  0
SOLID
  5
27E
100
AcDbEntity
  8
___SYMBOL
100
AcDbTrace
 62
2
  6
CONTINUOUS
 10
4.3313494781
 20
19.7016657873
 11
4.3313494781
 21
19.4626518931
 12
4.1589035978
 22
19.4626518931
 13
4.1589035978
 23
19.4626518931
  0
SOLID
  5
27F
100
AcDbEntity
  8
___SYMBOL
100
AcDbTrace
 62
2
  6
CONTINUOUS
 10
4.3313494781
 20
19.7016657873
 11
4.4862749334
 21
19.8452944933
 12
4.4862749334
 22
19.7016657873
 13
4.4862749334
 23
19.7016657873
  0
SOLID
  5
280
100
AcDbEntity
  8
___SYMBOL
100
AcDbTrace
 62
2
  6
CONTINUOUS
 10
4.4862749334
 20
19.8452944933
 11
4.6587208137
 21
20.075995777
 12
4.4862749334
 22
19.7016657873
 13
4.4862749334
 23
19.7016657873
  0
SOLID
  5
281
100
AcDbEntity
  8
___SYMBOL
100
AcDbTrace
 62
2
  6
CONTINUOUS
 10
4.4862749334
 20
19.7016657873
 11
4.6587208137
 21
20.075995777
 12
4.4862749334
 22
19.4626518931
 13
4.4862749334
 23
19.4626518931
  0
SOLID
  5
282
100
AcDbEntity
  8
___SYMBOL
100
AcDbTrace
 62
2
  6
CONTINUOUS
 10
4.6587208137
 20
20.075995777
 11
4.6587208137
 21
19.4626518931
 12
4.4862749334
 22
19.4626518931
 13
4.4862749334
 23
19.4626518931
  0
LINE
  5
283
100
AcDbEntity
  8
___SYMBOL
100
AcDbLine
 62
2
  6
CONTINUOUS
 10
4.8629451302
 20
19.4626518931
 11
5.0332454457
 21
19.4626518931
  0
LINE
  5
284
100
AcDbEntity
  8
___SYMBOL
100
AcDbLine
 62
2
  6
CONTINUOUS
 10
4.8629451302
 20
19.4626518931
 11
4.7058744851
 21
19.4626518931
  0
LINE
  5
285
100
AcDbEntity
  8
___SYMBOL
100
AcDbLine
 62
2
  6
CONTINUOUS
 10
4.7058744851
 20
19.4626518931
 11
4.7058744851
 21
20.075995777
  0
LINE
  5
286
100
AcDbEntity
  8
___SYMBOL
100
AcDbLine
 62
2
  6
CONTINUOUS
 10
4.7058744851
 20
20.075995777
 11
4.8629451302
 21
20.075995777
  0
LINE
  5
287
100
AcDbEntity
  8
___SYMBOL
100
AcDbLine
 62
2
  6
CONTINUOUS
 10
4.8629451302
 20
20.075995777
 11
4.8629451302
 21
19.6104903465
  0
LINE
  5
288
100
AcDbEntity
  8
___SYMBOL
100
AcDbLine
 62
2
  6
CONTINUOUS
 10
4.8629451302
 20
19.6104903465
 11
5.0332454457
 21
19.6104903465
  0
LINE
  5
289
100
AcDbEntity
  8
___SYMBOL
100
AcDbLine
 62
2
  6
CONTINUOUS
 10
5.0332454457
 20
19.6104903465
 11
5.0332454457
 21
19.4626518931
  0
SOLID
  5
28A
100
AcDbEntity
  8
___SYMBOL
100
AcDbTrace
 62
2
  6
CONTINUOUS
 10
5.0332454457
 20
19.6104903465
 11
4.7058744851
 21
19.4626518931
 12
4.8629451302
 22
19.6104903465
 13
4.8629451302
 23
19.6104903465
  0
SOLID
  5
28B
100
AcDbEntity
  8
___SYMBOL
100
AcDbTrace
 62
2
  6
CONTINUOUS
 10
4.8629451302
 20
19.6104903465
 11
4.7058744851
 21
19.4626518931
 12
4.8629451302
 22
20.075995777
 13
4.8629451302
 23
20.075995777
  0
SOLID
  5
28C
100
AcDbEntity
  8
___SYMBOL
100
AcDbTrace
 62
2
  6
CONTINUOUS
 10
4.7058744851
 20
19.4626518931
 11
4.7058744851
 21
20.075995777
 12
4.8629451302
 22
20.075995777
 13
4.8629451302
 23
20.075995777
  0
SOLID
  5
28D
100
AcDbEntity
  8
___SYMBOL
100
AcDbTrace
 62
2
  6
CONTINUOUS
 10
4.7058744851
 20
19.4626518931
 11
5.0332454457
 21
19.6104903465
 12
4.8629451302
 22
19.4626518931
 13
4.8629451302
 23
19.4626518931
  0
SOLID
  5
28E
100
AcDbEntity
  8
___SYMBOL
100
AcDbTrace
 62
2
  6
CONTINUOUS
 10
5.0332454457
 20
19.6104903465
 11
5.0332454457
 21
19.4626518931
 12
4.8629451302
 22
19.4626518931
 13
4.8629451302
 23
19.4626518931
  0
LINE
  5
28F
100
AcDbEntity
  8
___SYMBOL
100
AcDbLine
 62
2
  6
CONTINUOUS
 10
5.3873330197
 20
19.6941534977
 11
5.3873330197
 21
19.8452944933
  0
LINE
  5
290
100
AcDbEntity
  8
___SYMBOL
100
AcDbLine
 62
2
  6
CONTINUOUS
 10
5.2294129244
 20
19.8452944933
 11
5.3873330197
 21
19.8452944933
  0
LINE
  5
291
100
AcDbEntity
  8
___SYMBOL
100
AcDbLine
 62
2
  6
CONTINUOUS
 10
5.2294129244
 20
19.9265529317
 11
5.2294129244
 21
19.8452944933
  0
LINE
  5
292
100
AcDbEntity
  8
___SYMBOL
100
AcDbLine
 62
2
  6
CONTINUOUS
 10
5.2294129244
 20
19.9265529317
 11
5.3873330197
 21
19.9265529317
  0
LINE
  5
293
100
AcDbEntity
  8
___SYMBOL
100
AcDbLine
 62
2
  6
CONTINUOUS
 10
5.3873330197
 20
19.9265529317
 11
5.3873330197
 21
20.075995777
  0
LINE
  5
294
100
AcDbEntity
  8
___SYMBOL
100
AcDbLine
 62
2
  6
CONTINUOUS
 10
5.2442822398
 20
20.075995777
 11
5.3873330197
 21
20.075995777
  0
LINE
  5
295
100
AcDbEntity
  8
___SYMBOL
100
AcDbLine
 62
2
  6
CONTINUOUS
 10
5.0637577699
 20
20.075995777
 11
5.2442822398
 21
20.075995777
  0
LINE
  5
296
100
AcDbEntity
  8
___SYMBOL
100
AcDbLine
 62
2
  6
CONTINUOUS
 10
5.0637577699
 20
19.4626518931
 11
5.0637577699
 21
20.075995777
  0
LINE
  5
297
100
AcDbEntity
  8
___SYMBOL
100
AcDbLine
 62
2
  6
CONTINUOUS
 10
5.0637577699
 20
19.4626518931
 11
5.3873330197
 21
19.4626518931
  0
LINE
  5
298
100
AcDbEntity
  8
___SYMBOL
100
AcDbLine
 62
2
  6
CONTINUOUS
 10
5.3873330197
 20
19.4626518931
 11
5.3873330197
 21
19.6104903465
  0
LINE
  5
299
100
AcDbEntity
  8
___SYMBOL
100
AcDbLine
 62
2
  6
CONTINUOUS
 10
5.2294129244
 20
19.6104903465
 11
5.3873330197
 21
19.6104903465
  0
LINE
  5
29A
100
AcDbEntity
  8
___SYMBOL
100
AcDbLine
 62
2
  6
CONTINUOUS
 10
5.2294129244
 20
19.6941534977
 11
5.2294129244
 21
19.6104903465
  0
LINE
  5
29B
100
AcDbEntity
  8
___SYMBOL
100
AcDbLine
 62
2
  6
CONTINUOUS
 10
5.2294129244
 20
19.6941534977
 11
5.3873330197
 21
19.6941534977
  0
SOLID
  5
29C
100
AcDbEntity
  8
___SYMBOL
100
AcDbTrace
 62
2
  6
CONTINUOUS
 10
5.3873330197
 20
20.075995777
 11
5.3873330197
 21
19.9265529317
 12
5.2294129244
 22
19.9265529317
 13
5.2294129244
 23
19.9265529317
  0
SOLID
  5
29D
100
AcDbEntity
  8
___SYMBOL
100
AcDbTrace
 62
2
  6
CONTINUOUS
 10
5.3873330197
 20
19.8452944933
 11
5.3873330197
 21
19.6941534977
 12
5.2294129244
 22
19.6941534977
 13
5.2294129244
 23
19.6941534977
  0
SOLID
  5
29E
100
AcDbEntity
  8
___SYMBOL
100
AcDbTrace
 62
2
  6
CONTINUOUS
 10
5.3873330197
 20
19.6104903465
 11
5.0637577699
 21
19.4626518931
 12
5.2294129244
 22
19.6104903465
 13
5.2294129244
 23
19.6104903465
  0
SOLID
  5
29F
100
AcDbEntity
  8
___SYMBOL
100
AcDbTrace
 62
2
  6
CONTINUOUS
 10
5.2294129244
 20
19.6104903465
 11
5.0637577699
 21
19.4626518931
 12
5.2294129244
 22
19.6941534977
 13
5.2294129244
 23
19.6941534977
  0
SOLID
  5
2A0
100
AcDbEntity
  8
___SYMBOL
100
AcDbTrace
 62
2
  6
CONTINUOUS
 10
5.3873330197
 20
19.8452944933
 11
5.2294129244
 21
19.6941534977
 12
5.2294129244
 22
19.8452944933
 13
5.2294129244
 23
19.8452944933
  0
SOLID
  5
2A1
100
AcDbEntity
  8
___SYMBOL
100
AcDbTrace
 62
2
  6
CONTINUOUS
 10
5.2294129244
 20
19.6941534977
 11
5.0637577699
 21
19.4626518931
 12
5.2294129244
 22
19.8452944933
 13
5.2294129244
 23
19.8452944933
  0
SOLID
  5
2A2
100
AcDbEntity
  8
___SYMBOL
100
AcDbTrace
 62
2
  6
CONTINUOUS
 10
5.2294129244
 20
19.8452944933
 11
5.0637577699
 21
19.4626518931
 12
5.2294129244
 22
19.9265529317
 13
5.2294129244
 23
19.9265529317
  0
SOLID
  5
2A3
100
AcDbEntity
  8
___SYMBOL
100
AcDbTrace
 62
2
  6
CONTINUOUS
 10
5.3873330197
 20
20.075995777
 11
5.2294129244
 21
19.9265529317
 12
5.2442822398
 22
20.075995777
 13
5.2442822398
 23
20.075995777
  0
SOLID
  5
2A4
100
AcDbEntity
  8
___SYMBOL
100
AcDbTrace
 62
2
  6
CONTINUOUS
 10
5.2294129244
 20
19.9265529317
 11
5.0637577699
 21
19.4626518931
 12
5.2442822398
 22
20.075995777
 13
5.2442822398
 23
20.075995777
  0
SOLID
  5
2A5
100
AcDbEntity
  8
___SYMBOL
100
AcDbTrace
 62
2
  6
CONTINUOUS
 10
5.0637577699
 20
19.4626518931
 11
5.0637577699
 21
20.075995777
 12
5.2442822398
 22
20.075995777
 13
5.2442822398
 23
20.075995777
  0
SOLID
  5
2A6
100
AcDbEntity
  8
___SYMBOL
100
AcDbTrace
 62
2
  6
CONTINUOUS
 10
5.3873330197
 20
19.6104903465
 11
5.3873330197
 21
19.4626518931
 12
5.0637577699
 22
19.4626518931
 13
5.0637577699
 23
19.4626518931
  0
LINE
  5
2A7
100
AcDbEntity
  8
___SYMBOL
100
AcDbLine
 62
2
  6
CONTINUOUS
 10
5.9214713968
 20
19.4626518931
 11
5.7545636314
 21
19.7260125661
  0
ARC
  5
2A8
100
AcDbEntity
  8
___SYMBOL
100
AcDbCircle
 62
2
  6
CONTINUOUS
 10
5.6787330554
 20
19.8927929909
 40
0.1832102244
100
AcDbArc
 50
294.4500166359
 51
90.0
  0
LINE
  5
2A9
100
AcDbEntity
  8
___SYMBOL
100
AcDbLine
 62
2
  6
CONTINUOUS
 10
5.4342515453
 20
20.075995777
 11
5.6787330554
 21
20.075995777
  0
LINE
  5
2AA
100
AcDbEntity
  8
___SYMBOL
100
AcDbLine
 62
2
  6
CONTINUOUS
 10
5.4342515453
 20
19.4626518931
 11
5.4342515453
 21
20.075995777
  0
LINE
  5
2AB
100
AcDbEntity
  8
___SYMBOL
100
AcDbLine
 62
2
  6
CONTINUOUS
 10
5.4342515453
 20
19.4626518931
 11
5.5919604969
 21
19.4626518931
  0
LINE
  5
2AC
100
AcDbEntity
  8
___SYMBOL
100
AcDbLine
 62
2
  6
CONTINUOUS
 10
5.5919604969
 20
19.6688290074
 11
5.5919604969
 21
19.4626518931
  0
LINE
  5
2AD
100
AcDbEntity
  8
___SYMBOL
100
AcDbLine
 62
2
  6
CONTINUOUS
 10
5.7226276812
 20
19.4626518931
 11
5.5919604969
 21
19.6688290074
  0
LINE
  5
2AE
100
AcDbEntity
  8
___SYMBOL
100
AcDbLine
 62
2
  6
CONTINUOUS
 10
5.7226276812
 20
19.4626518931
 11
5.9214713968
 21
19.4626518931
  0
LINE
  5
2AF
100
AcDbEntity
  8
___SYMBOL
100
AcDbLine
 62
2
  6
CONTINUOUS
 10
5.5919604969
 20
19.8146246551
 11
5.6467505938
 21
19.8146246551
  0
ARC
  5
2B0
100
AcDbEntity
  8
___SYMBOL
100
AcDbCircle
 62
2
  6
CONTINUOUS
 10
5.6505086946
 20
19.8706203172
 40
0.0561216313
100
AcDbArc
 50
266.1604009902
 51
89.9998910512
  0
LINE
  5
2B1
100
AcDbEntity
  8
___SYMBOL
100
AcDbLine
 62
2
  6
CONTINUOUS
 10
5.6505088013
 20
19.9267419484
 11
5.5919604969
 21
19.9267419484
  0
LINE
  5
2B2
100
AcDbEntity
  8
___SYMBOL
100
AcDbLine
 62
2
  6
CONTINUOUS
 10
5.5919604969
 20
19.9267419484
 11
5.5919604969
 21
19.8146246551
  0
SOLID
  5
2B3
100
AcDbEntity
  8
___SYMBOL
100
AcDbTrace
 62
2
  6
CONTINUOUS
 10
5.6787330554
 20
20.0760032153
 11
5.7278633035
 21
20.0692928636
 12
5.4342515453
 22
20.075995777
 13
5.4342515453
 23
20.075995777
  0
SOLID
  5
2B4
100
AcDbEntity
  8
___SYMBOL
100
AcDbTrace
 62
2
  6
CONTINUOUS
 10
5.5919604969
 20
19.9267419484
 11
5.8577887247
 21
19.9315880117
 12
5.6505088013
 22
19.9267419484
 13
5.6505088013
 23
19.9267419484
  0
SOLID
  5
2B5
100
AcDbEntity
  8
___SYMBOL
100
AcDbTrace
 62
2
  6
CONTINUOUS
 10
5.6505088013
 20
19.9267419484
 11
5.8577887247
 21
19.9315880117
 12
5.6753419834
 22
19.9209486915
 13
5.6753419834
 23
19.9209486915
  0
SOLID
  5
2B6
100
AcDbEntity
  8
___SYMBOL
100
AcDbTrace
 62
2
  6
CONTINUOUS
 10
5.6753419834
 20
19.9209486915
 11
5.8577887247
 21
19.9315880117
 12
5.6950482849
 22
19.9047650443
 13
5.6950482849
 23
19.9047650443
  0
SOLID
  5
2B7
100
AcDbEntity
  8
___SYMBOL
100
AcDbTrace
 62
2
  6
CONTINUOUS
 10
5.8577887247
 20
19.9315880117
 11
5.8616339385
 21
19.8821509363
 12
5.6950482849
 22
19.9047650443
 13
5.6950482849
 23
19.9047650443
  0
SOLID
  5
2B8
100
AcDbEntity
  8
___SYMBOL
100
AcDbTrace
 62
2
  6
CONTINUOUS
 10
5.7055593018
 20
19.8815321521
 11
5.6950482849
 21
19.9047650443
 12
5.8616339385
 22
19.8821509363
 13
5.8616339385
 23
19.8821509363
  0
SOLID
  5
2B9
100
AcDbEntity
  8
___SYMBOL
100
AcDbTrace
 62
2
  6
CONTINUOUS
 10
5.7055593018
 20
19.8815321521
 11
5.8616339385
 21
19.8821509363
 12
5.7047050143
 22
19.8560464904
 13
5.7047050143
 23
19.8560464904
  0
SOLID
  5
2BA
100
AcDbEntity
  8
___SYMBOL
100
AcDbTrace
 62
2
  6
CONTINUOUS
 10
5.7047050143
 20
19.8560464904
 11
5.8616339385
 21
19.8821509363
 12
5.6926617917
 22
19.8335696235
 13
5.6926617917
 23
19.8335696235
  0
SOLID
  5
2BB
100
AcDbEntity
  8
___SYMBOL
100
AcDbTrace
 62
2
  6
CONTINUOUS
 10
5.8616339385
 20
19.8821509363
 11
5.852081109
 21
19.8334934236
 12
5.6926617917
 22
19.8335696235
 13
5.6926617917
 23
19.8335696235
  0
SOLID
  5
2BC
100
AcDbEntity
  8
___SYMBOL
100
AcDbTrace
 62
2
  6
CONTINUOUS
 10
5.6719159806
 20
19.818741944
 11
5.6926617917
 21
19.8335696235
 12
5.852081109
 22
19.8334934236
 13
5.852081109
 23
19.8334934236
  0
SOLID
  5
2BD
100
AcDbEntity
  8
___SYMBOL
100
AcDbTrace
 62
2
  6
CONTINUOUS
 10
5.6719159806
 20
19.818741944
 11
5.852081109
 21
19.8334934236
 12
5.6467505938
 22
19.8146246551
 13
5.6467505938
 23
19.8146246551
  0
SOLID
  5
2BE
100
AcDbEntity
  8
___SYMBOL
100
AcDbTrace
 62
2
  6
CONTINUOUS
 10
5.852081109
 20
19.8334934236
 11
5.8298300099
 21
19.7891797837
 12
5.6467505938
 22
19.8146246551
 13
5.6467505938
 23
19.8146246551
  0
SOLID
  5
2BF
100
AcDbEntity
  8
___SYMBOL
100
AcDbTrace
 62
2
  6
CONTINUOUS
 10
5.7545636314
 20
19.7260125661
 11
5.5919604969
 21
19.6688290074
 12
5.7965106015
 22
19.7524561248
 13
5.7965106015
 23
19.7524561248
  0
SOLID
  5
2C0
100
AcDbEntity
  8
___SYMBOL
100
AcDbTrace
 62
2
  6
CONTINUOUS
 10
5.7965106015
 20
19.7524561248
 11
5.5919604969
 21
19.6688290074
 12
5.8298300099
 22
19.7891797837
 13
5.8298300099
 23
19.7891797837
  0
SOLID
  5
2C1
100
AcDbEntity
  8
___SYMBOL
100
AcDbTrace
 62
2
  6
CONTINUOUS
 10
5.8298300099
 20
19.7891797837
 11
5.5919604969
 21
19.6688290074
 12
5.6467505938
 22
19.8146246551
 13
5.6467505938
 23
19.8146246551
  0
SOLID
  5
2C2
100
AcDbEntity
  8
___SYMBOL
100
AcDbTrace
 62
2
  6
CONTINUOUS
 10
5.5919604969
 20
19.6688290074
 11
5.4342515453
 21
19.4626518931
 12
5.6467505938
 22
19.8146246551
 13
5.6467505938
 23
19.8146246551
  0
SOLID
  5
2C3
100
AcDbEntity
  8
___SYMBOL
100
AcDbTrace
 62
2
  6
CONTINUOUS
 10
5.6467505938
 20
19.8146246551
 11
5.4342515453
 21
19.4626518931
 12
5.5919604969
 22
19.8146246551
 13
5.5919604969
 23
19.8146246551
  0
SOLID
  5
2C4
100
AcDbEntity
  8
___SYMBOL
100
AcDbTrace
 62
2
  6
CONTINUOUS
 10
5.5919604969
 20
19.8146246551
 11
5.4342515453
 21
19.4626518931
 12
5.5919604969
 22
19.9267419484
 13
5.5919604969
 23
19.9267419484
  0
SOLID
  5
2C5
100
AcDbEntity
  8
___SYMBOL
100
AcDbTrace
 62
2
  6
CONTINUOUS
 10
5.8577887247
 20
19.9315880117
 11
5.5919604969
 21
19.9267419484
 12
5.8408271412
 22
19.9781832344
 13
5.8408271412
 23
19.9781832344
  0
SOLID
  5
2C6
100
AcDbEntity
  8
___SYMBOL
100
AcDbTrace
 62
2
  6
CONTINUOUS
 10
5.8408271412
 20
19.9781832344
 11
5.5919604969
 21
19.9267419484
 12
5.8119916753
 22
20.0185233634
 13
5.8119916753
 23
20.0185233634
  0
SOLID
  5
2C7
100
AcDbEntity
  8
___SYMBOL
100
AcDbTrace
 62
2
  6
CONTINUOUS
 10
5.8119916753
 20
20.0185233634
 11
5.5919604969
 21
19.9267419484
 12
5.7733946122
 22
20.0496533619
 13
5.7733946122
 23
20.0496533619
  0
SOLID
  5
2C8
100
AcDbEntity
  8
___SYMBOL
100
AcDbTrace
 62
2
  6
CONTINUOUS
 10
5.7733946122
 20
20.0496533619
 11
5.5919604969
 21
19.9267419484
 12
5.7278633035
 22
20.0692928636
 13
5.7278633035
 23
20.0692928636
  0
SOLID
  5
2C9
100
AcDbEntity
  8
___SYMBOL
100
AcDbTrace
 62
2
  6
CONTINUOUS
 10
5.7278633035
 20
20.0692928636
 11
5.5919604969
 21
19.9267419484
 12
5.4342515453
 22
20.075995777
 13
5.4342515453
 23
20.075995777
  0
SOLID
  5
2CA
100
AcDbEntity
  8
___SYMBOL
100
AcDbTrace
 62
2
  6
CONTINUOUS
 10
5.4342515453
 20
19.4626518931
 11
5.4342515453
 21
20.075995777
 12
5.5919604969
 22
19.9267419484
 13
5.5919604969
 23
19.9267419484
  0
SOLID
  5
2CB
100
AcDbEntity
  8
___SYMBOL
100
AcDbTrace
 62
2
  6
CONTINUOUS
 10
5.5919604969
 20
19.6688290074
 11
5.5919604969
 21
19.4626518931
 12
5.4342515453
 22
19.4626518931
 13
5.4342515453
 23
19.4626518931
  0
SOLID
  5
2CC
100
AcDbEntity
  8
___SYMBOL
100
AcDbTrace
 62
2
  6
CONTINUOUS
 10
5.5919604969
 20
19.6688290074
 11
5.7545636314
 21
19.7260125661
 12
5.7226276812
 22
19.4626518931
 13
5.7226276812
 23
19.4626518931
  0
SOLID
  5
2CD
100
AcDbEntity
  8
___SYMBOL
100
AcDbTrace
 62
2
  6
CONTINUOUS
 10
5.7545636314
 20
19.7260125661
 11
5.9214713968
 21
19.4626518931
 12
5.7226276812
 22
19.4626518931
 13
5.7226276812
 23
19.4626518931
  0
CIRCLE
  5
2CE
100
AcDbEntity
  8
___SYMBOL
100
AcDbCircle
 62
2
  6
CONTINUOUS
 10
6.0688316829
 20
19.4626518931
 40
0.0684176775
  0
LINE
  5
2CF
100
AcDbEntity
  8
___SYMBOL
100
AcDbLine
 62
2
  6
CONTINUOUS
 10
6.0643429108
 20
19.4620889683
 11
6.0977028619
 21
19.4282737269
  0
LINE
  5
2D0
100
AcDbEntity
  8
___SYMBOL
100
AcDbLine
 62
2
  6
CONTINUOUS
 10
6.0522019617
 20
19.4282737269
 11
6.0522019617
 21
19.4973282107
  0
LINE
  5
2D1
100
AcDbEntity
  8
___SYMBOL
100
AcDbLine
 62
2
  6
CONTINUOUS
 10
6.0522019617
 20
19.4973282107
 11
6.0776179601
 21
19.4973282107
  0
ARC
  5
2D2
100
AcDbEntity
  8
___SYMBOL
100
AcDbCircle
 62
2
  6
CONTINUOUS
 10
6.0776179601
 20
19.479708777
 40
0.0176194337
100
AcDbArc
 50
270.0
 51
90.0
  0
LINE
  5
2D3
100
AcDbEntity
  8
___SYMBOL
100
AcDbLine
 62
2
  6
CONTINUOUS
 10
6.0776179601
 20
19.4620889683
 11
6.0522019617
 21
19.4620889683
  0
ENDBLK
  5
2D4
100
AcDbEntity
  8
0
  6
BYBLOCK
 62
0
100
AcDbBlockEnd
  0
BLOCK
  5
2D5
100
AcDbEntity
  8
___SYMBOL
100
AcDbBlockBegin
 62
7
  6
CONTINUOUS
  2
SCISSORS_BL0
 70
64
 10
16.5851350113
 20
11.9922132363
  3
SCISSORS_BL0
  1

  0
LINE
  5
2D6
100
AcDbEntity
  8
___SYMBOL
100
AcDbLine
 62
7
  6
CONTINUOUS
 10
16.5385480322
 20
11.997448818
 11
16.1912282796
 21
12.3907961968
  0
LINE
  5
2D7
100
AcDbEntity
  8
___SYMBOL
100
AcDbLine
 62
7
  6
CONTINUOUS
 10
16.5133299815
 20
11.951245323
 11
16.1912282796
 21
12.3907961968
  0
LINE
  5
2D8
100
AcDbEntity
  8
___SYMBOL
100
AcDbLine
 62
7
  6
CONTINUOUS
 10
16.6049214907
 20
11.9331356814
 11
16.5800408073
 21
11.9733178882
  0
LINE
  5
2D9
100
AcDbEntity
  8
___SYMBOL
100
AcDbLine
 62
7
  6
CONTINUOUS
 10
16.592900432
 20
11.9814717755
 11
16.6179523201
 21
11.9410130736
  0
LINE
  5
2DA
100
AcDbEntity
  8
___SYMBOL
100
AcDbLine
 62
7
  6
CONTINUOUS
 10
16.5057577566
 20
12.1214123708
 11
16.4660121293
 21
12.5390001217
  0
LINE
  5
2DB
100
AcDbEntity
  8
___SYMBOL
100
AcDbLine
 62
7
  6
CONTINUOUS
 10
16.5339171981
 20
11.8606410283
 11
16.531562122
 21
11.9251545121
  0
LINE
  5
2DC
100
AcDbEntity
  8
___SYMBOL
100
AcDbLine
 62
7
  6
CONTINUOUS
 10
16.6482338734
 20
11.9993864106
 11
16.5660886805
 21
12.3656624504
  0
LINE
  5
2DD
100
AcDbEntity
  8
___SYMBOL
100
AcDbLine
 62
7
  6
CONTINUOUS
 10
16.5859181931
 20
12.0527576766
 11
16.5385480322
 21
11.997448818
  0
LINE
  5
2DE
100
AcDbEntity
  8
___SYMBOL
100
AcDbLine
 62
7
  6
CONTINUOUS
 10
16.7004567988
 20
11.9546592468
 11
16.7185898782
 21
11.8168212037
  0
LINE
  5
2DF
100
AcDbEntity
  8
___SYMBOL
100
AcDbLine
 62
7
  6
CONTINUOUS
 10
16.640278794
 20
11.7764475827
 11
16.6544657903
 21
11.8337642144
  0
LINE
  5
2E0
100
AcDbEntity
  8
___SYMBOL
100
AcDbLine
 62
7
  6
CONTINUOUS
 10
16.1912282796
 20
12.3907961968
 11
16.7004567988
 21
11.9546592468
  0
LINE
  5
2E1
100
AcDbEntity
  8
___SYMBOL
100
AcDbLine
 62
7
  6
CONTINUOUS
 10
16.640278794
 20
11.7764475827
 11
16.5339171981
 21
11.8606410283
  0
ARC
  5
2E2
100
AcDbEntity
  8
___SYMBOL
100
AcDbCircle
 62
7
  6
CONTINUOUS
 10
16.2388008834
 20
12.2922612002
 40
0.3354177182
100
AcDbArc
 50
12.6406360869
 51
47.3593639131
  0
ARC
  5
2E3
100
AcDbEntity
  8
___SYMBOL
100
AcDbCircle
 62
7
  6
CONTINUOUS
 10
16.7602719683
 20
12.104391591
 40
0.2905755053
100
AcDbArc
 50
211.8059909349
 51
261.752660067
  0
CIRCLE
  5
2E4
100
AcDbEntity
  8
___SYMBOL
100
AcDbCircle
 62
7
  6
CONTINUOUS
 10
16.5991690621
 20
11.9573679174
 40
0.0249056559
  0
ARC
  5
2E5
100
AcDbEntity
  8
___SYMBOL
100
AcDbCircle
 62
7
  6
CONTINUOUS
 10
16.9003770439
 20
11.7319100389
 40
0.0135705756
100
AcDbArc
 50
215.3133793157
 51
344.0675041521
  0
ARC
  5
2E6
100
AcDbEntity
  8
___SYMBOL
100
AcDbCircle
 62
7
  6
CONTINUOUS
 10
16.6346431085
 20
11.5704216641
 40
0.0135704636
100
AcDbArc
 50
263.3109272841
 51
29.4467240969
  0
SPLINE
  5
2E7
100
AcDbEntity
  8
___SYMBOL
100
AcDbSpline
 62
7
  6
CONTINUOUS
 70
0
 71
3
 72
12
 73
8
 74
0
 42
0.0000001
 43
0.0000001
 44
0.0000000001
 40
0.0
 40
0.0
 40
0.0
 40
0.0
 40
0.4884256058
 40
0.6683914397
 40
0.8669439281
 40
0.9099489479
 40
1.0
 40
1.0
 40
1.0
 40
1.0
 10
16.979041743
 20
11.5255356284
 30
0.0
 10
16.9287514544
 20
11.5694860373
 30
0.0
 10
16.877831192
 20
11.6484494536
 30
0.0
 10
16.8201832457
 20
11.7512551033
 30
0.0
 10
16.7870777228
 20
11.7995218004
 30
0.0
 10
16.7508431152
 20
11.827827112
 30
0.0
 10
16.7280687408
 20
11.8246813839
 30
0.0
 10
16.7185898782
 20
11.8168212037
 30
0.0
  0
SPLINE
  5
2E8
100
AcDbEntity
  8
___SYMBOL
100
AcDbSpline
 62
7
  6
CONTINUOUS
 70
0
 71
3
 72
14
 73
10
 74
0
 42
0.0000001
 43
0.0000001
 44
0.0000000001
 40
0.0
 40
0.0
 40
0.0
 40
0.0
 40
0.0469735811
 40
0.2606095073
 40
0.5805460666
 40
0.7382389988
 40
0.8401572415
 40
0.925087268
 40
1.0
 40
1.0
 40
1.0
 40
1.0
 10
16.8893034185
 20
11.7240655923
 30
0.0
 10
16.8865525621
 20
11.7279488431
 30
0.0
 10
16.8717823066
 20
11.7498930891
 30
0.0
 10
16.8448936569
 20
11.8014521741
 30
0.0
 10
16.8126763997
 20
11.8681082187
 30
0.0
 10
16.7600959687
 20
11.8961012972
 30
0.0
 10
16.7282840893
 20
11.9121243276
 30
0.0
 10
16.71337658
 20
11.9348172979
 30
0.0
 10
16.7051989545
 20
11.9487338331
 30
0.0
 10
16.7004567988
 20
11.9546592468
 30
0.0
  0
SPLINE
  5
2E9
100
AcDbEntity
  8
___SYMBOL
100
AcDbSpline
 62
7
  6
CONTINUOUS
 70
0
 71
3
 72
12
 73
8
 74
0
 42
0.0000001
 43
0.0000001
 44
0.0000000001
 40
0.0
 40
0.0
 40
0.0
 40
0.0
 40
0.2870411994
 40
0.5613888029
 40
0.7613462239
 40
0.9013972407
 40
1.0
 40
1.0
 40
1.0
 40
1.0
 10
16.7684700389
 20
11.4454263509
 30
0.0
 10
16.7588325508
 20
11.4792140118
 30
0.0
 10
16.7272048551
 20
11.5410735732
 30
0.0
 10
16.6753877971
 20
11.6191255432
 30
0.0
 10
16.644636133
 20
11.6864783063
 30
0.0
 10
16.6196380863
 20
11.7373488705
 30
0.0
 10
16.6319069159
 20
11.7677536931
 30
0.0
 10
16.640278794
 20
11.7764475827
 30
0.0
  0
SPLINE
  5
2EA
100
AcDbEntity
  8
___SYMBOL
100
AcDbSpline
 62
7
  6
CONTINUOUS
 70
0
 71
3
 72
13
 73
9
 74
0
 42
0.0000001
 43
0.0000001
 44
0.0000000001
 40
0.0
 40
0.0
 40
0.0
 40
0.0
 40
0.0902051637
 40
0.4170421866
 40
0.6587388922
 40
0.9356437381
 40
0.9595034934
 40
1.0
 40
1.0
 40
1.0
 40
1.0
 10
16.6464604473
 20
11.5770930947
 30
0.0
 10
16.6419040176
 20
11.5851640583
 30
0.0
 10
16.6202814475
 20
11.6220863223
 30
0.0
 10
16.584317037
 20
11.6804359349
 30
0.0
 10
16.554721046
 20
11.7602863382
 30
0.0
 10
16.5634635493
 20
11.8279384739
 30
0.0
 10
16.5350502529
 20
11.8490382514
 30
0.0
 10
16.5327417136
 20
11.8566496292
 30
0.0
 10
16.5339171981
 20
11.8606410283
 30
0.0
  0
ELLIPSE
  5
2EB
100
AcDbEntity
  8
___SYMBOL
100
AcDbEllipse
 62
7
  6
CONTINUOUS
 10
17.0418327388
 20
11.6390354948
 30
0.0
 11
0.0623626594
 21
-0.0967442814
 31
0.0
 40
0.774293327
 41
0.0
 42
6.2831853072
  0
ELLIPSE
  5
2EC
100
AcDbEntity
  8
___SYMBOL
100
AcDbEllipse
 62
7
  6
CONTINUOUS
 10
17.0418327388
 20
11.6390354948
 30
0.0
 11
0.0832194547
 21
-0.1497758303
 31
0.0
 40
0.700902774
 41
5.1250505418
 42
10.0362700851
  0
ELLIPSE
  5
2ED
100
AcDbEntity
  8
___SYMBOL
100
AcDbEllipse
 62
7
  6
CONTINUOUS
 10
16.6404630738
 20
11.4210914836
 30
0.0
 11
0.0692607343
 21
-0.0917855776
 31
0.0
 40
0.7501188416
 41
0.0
 42
6.2831853072
  0
ELLIPSE
  5
2EE
100
AcDbEntity
  8
___SYMBOL
100
AcDbEllipse
 62
7
  6
CONTINUOUS
 10
16.6518031757
 20
11.4056764809
 30
0.0
 11
0.082488373
 21
-0.1386474231
 31
0.0
 40
0.7569683881
 41
2.6163261196
 42
7.6953125801
  0
LINE
  5
2EF
100
AcDbEntity
  8
___SYMBOL
100
AcDbLine
 62
7
  6
CONTINUOUS
 10
16.592481149
 20
11.9532267848
 11
16.5991690621
 21
11.9573679174
  0
ENDBLK
  5
2F0
100
AcDbEntity
  8
0
  6
BYBLOCK
 62
0
100
AcDbBlockEnd
  0
BLOCK
  5
2F1
100
AcDbEntity
  8
0
100
AcDbBlockBegin
  2
_FILLED
 70
64
 10
0.0
 20
0.0
  3
_FILLED
  1

  0
SOLID
  5
2F2
100
AcDbEntity
  8
0
  6
BYBLOCK
 62
0
100
AcDbTrace
 10
0.0
 20
0.0
 11
-1.0
 21
0.1666666667
 12
-1.0
 22
-0.1666666667
 13
-1.0
 23
-0.1666666667
  0
ENDBLK
  5
2F3
100
AcDbEntity
  8
0
  6
BYBLOCK
 62
0
100
AcDbBlockEnd
  0
BLOCK
  5
2F4
100
AcDbEntity
  8
0
100
AcDbBlockBegin
 62
2
  6
CONTINUOUS
  2
*D0
 70
65
 10
0.0
 20
0.0
  3
*D0
  1

  0
MTEXT
  5
2F5
100
AcDbEntity
  8
0
100
AcDbMText
 62
2
  6
CONTINUOUS
  7
TEXTSTYLE_2
 71
3
 72
1
 10
11.9942754424
 20
12.3647312047
 30
0.0
 11
1.0
 21
0.0
 31
0.0
 73
2
 44
0.9
  1
{\fgdt;n}\ftxt;{\W0.8;4}\P{\W0.8;[}{\W0.8;101,6}{\W0.8;]}
 40
0.15625
 41
0.875
  0
LINE
  5
2F6
100
AcDbEntity
  8
0
100
AcDbLine
 62
2
  6
CONTINUOUS
 10
13.3145384638
 20
12.0659382978
 11
14.9614521092
 21
10.9311804186
  0
LINE
  5
2F7
100
AcDbEntity
  8
0
100
AcDbLine
 62
2
  6
CONTINUOUS
 10
14.9614521092
 20
10.9311804186
 11
12.9942754424
 21
12.2866062047
  0
LINE
  5
2F8
100
AcDbEntity
  8
0
100
AcDbLine
 62
2
  6
CONTINUOUS
 10
12.9942754424
 20
12.2866062047
 11
12.8224004424
 21
12.2866062047
  0
LINE
  5
2F9
100
AcDbEntity
  8
0
100
AcDbLine
 62
2
  6
CONTINUOUS
 10
16.6083657547
 20
9.7964225394
 11
14.9614521092
 21
10.9311804186
  0
INSERT
  5
2FA
100
AcDbEntity
  8
0
100
AcDbBlockReference
 62
2
  6
CONTINUOUS
  2
_FILLED
 10
13.3145384638
 20
12.0659382978
 41
0.1875
 42
0.1875
 43
0.1875
 50
145.4323472601
  0
INSERT
  5
2FB
100
AcDbEntity
  8
0
100
AcDbBlockReference
 62
2
  6
CONTINUOUS
  2
_FILLED
 10
16.6083657547
 20
9.7964225394
 41
0.1875
 42
0.1875
 43
0.1875
 50
325.4323472601
  0
ENDBLK
  5
2FC
100
AcDbEntity
  8
0
  6
BYBLOCK
 62
0
100
AcDbBlockEnd
  0
ENDSEC
  0
SECTION
  2
ENTITIES
  0
DIMENSION
  5
2FD
100
AcDbEntity
  8
0
100
AcDbDimension
 62
2
  6
CONTINUOUS
  2
*D0
 10
13.3145384638
 20
12.0659382978
 11
12.2026087758
 21
12.1694187047
 70
163
 71
3
 72
2
 41
0.9
 42
4.0
  1
%%c<>\P[]
  3
DIMSTYLE_1
100
AcDbDiametricDimension
 15
16.6083657547
 25
9.7964225394
  0
MTEXT
  5
2FE
100
AcDbEntity
  8
___NOTE
100
AcDbMText
 62
2
  6
CONTINUOUS
  7
STANDARD
 71
1
 72
1
 10
2.9984537649
 20
19.2166527645
 30
0.0
 11
1.0
 21
0.0
 31
0.0
 73
2
 44
0.9
  1
CUT-OUT TEMPLATE\PGABARIT DE DÉCOUPAGE\PPLANTILLA DE CORTE\P32300
 40
0.2
 41
3.2
  0
MTEXT
  5
2FF
100
AcDbEntity
  8
___NOTE
100
AcDbMText
 62
2
  6
CONTINUOUS
  7
STANDARD
 71
1
 72
1
 10
2.9978947645
 20
5.0183007479
 30
0.0
 11
1.0
 21
0.0
 31
0.0
 73
2
 44
0.9
  3
WHEN PLOTTING \PTEMPLATE FULL SIZE:\PMake sure horizontal and \Pvertical dimensions match the \Pdimensions labeled on the template.\P \PLORS DU TRACÉ DU GABARIT À L'ÉCHELLE:  \PS'assurer que les dimensions horizontales et \Pverticales correspondent à
  1
 celles marquées sur le gabarit.\P \PAL TRAZAR LA PLANTILLA A ESCALA COMPLETA: \PAsegúrese de que las dimensiones horizontal y vertical sean \Piguales a las indicadas en la plantilla.
 40
0.15625
 41
7.5
  0
LEADER
  5
300
100
AcDbEntity
  8
___NOTE
100
AcDbLeader
 62
2
  6
CONTINUOUS
  3
STANDARD
 71
1
 72
0
 73
0
 75
0
 40
0.15625
 41
1.25
 76
3
 10
19.2524936951
 20
17.5292713745
 30
0.0
 10
21.958089243
 20
19.481964853
 30
0.0
 10
22.208089243
 20
19.481964853
 30
0.0
340
301
1001
ACAD
1000
DSTYLE
1002
{
1070
77
1070
0
1002
}
  0
MTEXT
  5
301
102
{ACAD_REACTORS
330
300
102
}
100
AcDbEntity
  8
___NOTE
100
AcDbMText
 62
2
  6
CONTINUOUS
  7
STANDARD
 71
1
 72
1
 10
22.208089243
 20
19.560089853
 30
0.0
 11
1.0
 21
0.0
 31
0.0
 73
2
 44
0.9
  1
RIM OF LAV\PREBORD DU LAVABO\PBORDE DEL LAVABO
 40
0.15625
 41
2.0
  0
LEADER
  5
302
100
AcDbEntity
  8
___NOTE
100
AcDbLeader
 62
2
  6
CONTINUOUS
  3
STANDARD
 71
1
 72
0
 73
0
 75
0
 40
0.15625
 41
2.25
 76
3
 10
19.5507059075
 20
14.5748476128
 30
0.0
 10
23.4203271347
 20
17.4935451967
 30
0.0
 10
23.6703271347
 20
17.4935451967
 30
0.0
340
303
1001
ACAD
1000
DSTYLE
1002
{
1070
77
1070
0
1002
}
  0
MTEXT
  5
303
102
{ACAD_REACTORS
330
302
102
}
100
AcDbEntity
  8
___NOTE
100
AcDbMText
 62
2
  6
CONTINUOUS
  7
STANDARD
 71
1
 72
1
 10
23.6703271347
 20
17.5716701967
 30
0.0
 11
1.0
 21
0.0
 31
0.0
 73
2
 44
0.9
  1
BOTTOM EDGE OF LAV\PBORD BAS DU LAVABO\PBORDE INFERIOR DEL LAVABO
 40
0.15625
 41
3.125
  0
LEADER
  5
304
100
AcDbEntity
  8
___NOTE
100
AcDbLeader
 62
2
  6
CONTINUOUS
  3
STANDARD
 71
1
 72
0
 73
0
 75
0
 40
0.15625
 41
2.375
 76
3
 10
16.9614521092
 20
10.9311804186
 30
0.0
 10
23.7250419333
 20
6.6947037309
 30
0.0
 10
23.9750419333
 20
6.6947037309
 30
0.0
340
305
1001
ACAD
1000
DSTYLE
1002
{
1070
77
1070
0
1002
}
  0
MTEXT
  5
305
102
{ACAD_REACTORS
330
304
102
}
100
AcDbEntity
  8
___NOTE
100
AcDbMText
 62
2
  6
CONTINUOUS
  7
STANDARD
 71
1
 72
1
 10
23.9750419333
 20
6.7728287309
 30
0.0
 11
1.0
 21
0.0
 31
0.0
 73
2
 44
0.9
  1
CUT ALONG THIS LINE\PDÉCOUPER AU LONG DE CETTE LIGNE\PCORTE POR ESTA LÍNEA
 40
0.15625
 41
3.875
  0
INSERT
  5
306
100
AcDbEntity
  8
___SYMBOL
100
AcDbBlockReference
 62
7
  6
CONTINUOUS
  2
SCISSORS_BL0
 10
16.5851350113
 20
11.9922132363
  0
INSERT
  5
307
100
AcDbEntity
  8
___SYMBOL
100
AcDbBlockReference
 62
2
  6
CONTINUOUS
  2
KOHLER_BL1
 10
4.6057151246
 20
19.737197383
  0
INSERT
  5
308
100
AcDbEntity
  8
___SYMBOL
100
AcDbBlockReference
 62
2
  6
CONTINUOUS
  2
COPYRIGHT_YEAR_BL2
 10
13.742253043
 20
3.8418311661
  0
INSERT
  5
309
100
AcDbEntity
  8
___SYMBOL
100
AcDbBlockReference
 62
2
  6
CONTINUOUS
  2
TEMPLATE_NUMBER_BL3
 10
14.0434698469
 20
4.1957520447
  0
INSERT
  5
30A
100
AcDbEntity
  8
___SYMBOL
100
AcDbBlockReference
 62
2
  6
CONTINUOUS
  2
TEMPLATE_NUMBER_BL4
 10
13.9293886179
 20
2.2263770839
  0
LINE
  5
30B
100
AcDbEntity
  8
DEFAULT_1
100
AcDbLine
 62
7
  6
CENTER
 10
26.4575197809
 20
10.9311804186
 11
1.2926100336
 21
10.9311804186
  0
LINE
  5
30C
100
AcDbEntity
  8
DEFAULT_1
100
AcDbLine
 62
7
  6
CENTER
 10
14.9614521092
 20
20.4032880458
 11
14.9614521092
 21
2.0202879894
  0
CIRCLE
  5
30D
100
AcDbEntity
  8
0
100
AcDbCircle
 62
7
  6
CONTINUOUS
 10
14.9614521092
 20
10.9311804186
 40
2.0
  0
SPLINE
  5
30E
100
AcDbEntity
  8
DEFAULT_3
100
AcDbSpline
 62
8
  6
PHANTOM
 70
0
 71
3
 72
85
 73
81
 74
0
 42
0.0000001
 43
0.0000001
 44
0.0000000001
 40
0.0
 40
0.0
 40
0.0
 40
0.0
 40
0.0151257055
 40
0.032034761
 40
0.0510022161
 40
0.0723062269
 40
0.0962916718
 40
0.1233483771
 40
0.1539595866
 40
0.1887925634
 40
0.2280025955
 40
0.2690641816
 40
0.3089712073
 40
0.3473849247
 40
0.3851020507
 40
0.4225837143
 40
0.460039198
 40
0.4965206605
 40
0.5303132057
 40
0.5605528899
 40
0.5874414477
 40
0.6114672075
 40
0.6330623261
 40
0.652540326
 40
0.6700819275
 40
0.6857720885
 40
0.6997852097
 40
0.7124994159
 40
0.7244228532
 40
0.7360793615
 40
0.7477771475
 40
0.7595153175
 40
0.7712426222
 40
0.7829696503
 40
0.7946909545
 40
0.8063942458
 40
0.8181371018
 40
0.8299810138
 40
0.8418685226
 40
0.8536584572
 40
0.8652006422
 40
0.8763437251
 40
0.886930806
 40
0.8968079964
 40
0.9058225977
 40
0.9138811308
 40
0.9210219106
 40
0.9273822134
 40
0.9331114028
 40
0.9383227678
 40
0.9430831774
 40
0.9474404811
 40
0.9514428665
 40
0.9551376379
 40
0.9585567594
 40
0.9617083745
 40
0.9645900344
 40
0.9672161387
 40
0.9696274645
 40
0.9718788636
 40
0.9740215109
 40
0.9760751134
 40
0.9780215892
 40
0.9798299037
 40
0.9814679428
 40
0.9829189203
 40
0.9842045489
 40
0.9853760988
 40
0.9864914401
 40
0.987595918
 40
0.988706843
 40
0.9898214981
 40
0.9909318516
 40
0.9920500584
 40
0.9932216459
 40
0.9944959339
 40
0.9958853186
 40
0.9973410297
 40
0.9987655906
 40
1.0
 40
1.0
 40
1.0
 40
1.0
 10
7.0036905159
 20
10.4357983716
 30
0.0
 10
7.0385487041
 20
10.3411552749
 30
0.0
 10
7.1189898833
 20
10.1430904864
 30
0.0
 10
7.2671844915
 20
9.8367337811
 30
0.0
 10
7.4559112986
 20
9.5050990317
 30
0.0
 10
7.6929875712
 20
9.1477917036
 30
0.0
 10
7.9872709136
 20
8.7650456968
 30
0.0
 10
8.3491587707
 20
8.357635188
 30
0.0
 10
8.7913769182
 20
7.9268690874
 30
0.0
 10
9.3267287017
 20
7.4781778753
 30
0.0
 10
9.9525956275
 20
7.0324452587
 30
0.0
 10
10.6421892336
 20
6.622344826
 30
0.0
 10
11.3598976983
 20
6.2755816911
 30
0.0
 10
12.0851733837
 20
6.0029686558
 30
0.0
 10
12.8168546005
 20
5.8024887017
 30
0.0
 10
13.5577359174
 20
5.6720334638
 30
0.0
 10
14.2993766786
 20
5.6123843124
 30
0.0
 10
15.0186432201
 20
5.6208445923
 30
0.0
 10
15.6864235372
 20
5.6862743687
 30
0.0
 10
16.283997557
 20
5.7914774073
 30
0.0
 10
16.8099197862
 20
5.9204336264
 30
0.0
 10
17.2716083462
 20
6.0650332637
 30
0.0
 10
17.6774454201
 20
6.2197707497
 30
0.0
 10
18.0340915483
 20
6.3801760293
 30
0.0
 10
18.346163114
 20
6.5422488314
 30
0.0
 10
18.6176465339
 20
6.7023450914
 30
0.0
 10
18.8537742118
 20
6.8582501068
 30
0.0
 10
19.0619019275
 20
7.0104072326
 30
0.0
 10
19.2505998436
 20
7.1620692755
 30
0.0
 10
19.4271396426
 20
7.317653015
 30
0.0
 10
19.5953597193
 20
7.4804345185
 30
0.0
 10
19.7558086079
 20
7.6515398847
 30
0.0
 10
19.9075259126
 20
7.8306984755
 30
0.0
 10
20.0496182166
 20
8.0174474161
 30
0.0
 10
20.1815903314
 20
8.2112846286
 30
0.0
 10
20.3034590418
 20
8.4117431464
 30
0.0
 10
20.4156452796
 20
8.6186983067
 30
0.0
 10
20.5184108615
 20
8.831846661
 30
0.0
 10
20.6114781042
 20
9.0497386074
 30
0.0
 10
20.6942677528
 20
9.2695820946
 30
0.0
 10
20.7663550665
 20
9.4879330247
 30
0.0
 10
20.8276825489
 20
9.7012033339
 30
0.0
 10
20.8785648836
 20
9.9057711257
 30
0.0
 10
20.9196379897
 20
10.0980314894
 30
0.0
 10
20.9518507874
 20
10.2748510053
 30
0.0
 10
20.9764635818
 20
10.4344405532
 30
0.0
 10
20.9949236865
 20
10.577022757
 30
0.0
 10
21.0086278324
 20
10.7045250087
 30
0.0
 10
21.0187160787
 20
10.8194519742
 30
0.0
 10
21.026023247
 20
10.9238958222
 30
0.0
 10
21.0311545769
 20
11.0193081386
 30
0.0
 10
21.0345679118
 20
11.1067293632
 30
0.0
 10
21.0366161361
 20
11.1870848077
 30
0.0
 10
21.0375665256
 20
11.261204046
 30
0.0
 10
21.0376199925
 20
11.3296561201
 30
0.0
 10
21.036945487
 20
11.3926825004
 30
0.0
 10
21.0357044107
 20
11.4504110304
 30
0.0
 10
21.0340443969
 20
11.5031902955
 30
0.0
 10
21.0320775789
 20
11.5517530645
 30
0.0
 10
21.0298712812
 20
11.597078144
 30
0.0
 10
21.027460428
 20
11.6400038586
 30
0.0
 10
21.0248741047
 20
11.6808822156
 30
0.0
 10
21.022158211
 20
11.7195176219
 30
0.0
 10
21.019380641
 20
11.7553699438
 30
0.0
 10
21.0166276152
 20
11.7879094058
 30
0.0
 10
21.0139776789
 20
11.816959155
 30
0.0
 10
21.0114630248
 20
11.8428972836
 30
0.0
 10
21.0090536585
 20
11.866596793
 30
0.0
 10
21.006682795
 20
11.8890858934
 30
0.0
 10
21.0042842487
 20
11.9111654681
 30
0.0
 10
21.0018138203
 20
11.9332325256
 30
0.0
 10
20.9992409544
 20
11.9553273737
 30
0.0
 10
20.9965240156
 20
11.9774539683
 30
0.0
 10
20.9935930629
 20
11.9999361625
 30
0.0
 10
20.9903569854
 20
12.0234802538
 30
0.0
 10
20.9867908628
 20
12.0488039604
 30
0.0
 10
20.9830070489
 20
12.0760101381
 30
0.0
 10
20.9790979364
 20
12.1042108516
 30
0.0
 10
20.9748983704
 20
12.1313262917
 30
0.0
 10
20.9718528282
 20
12.1487931902
 30
0.0
 10
20.9704528944
 20
12.1569043214
 30
0.0
  0
SPLINE
  5
30F
100
AcDbEntity
  8
DEFAULT_3
100
AcDbSpline
 62
8
  6
PHANTOM
 70
0
 71
3
 72
73
 73
69
 74
0
 42
0.0000001
 43
0.0000001
 44
0.0000000001
 40
0.0
 40
0.0
 40
0.0
 40
0.0
 40
0.0023802283
 40
0.0050235984
 40
0.0079517963
 40
0.0112038606
 40
0.0148199826
 40
0.0188497548
 40
0.0233494938
 40
0.0283846814
 40
0.0340296957
 40
0.0403712031
 40
0.0475097425
 40
0.0555612901
 40
0.0646602402
 40
0.0749619275
 40
0.0866441852
 40
0.0999098015
 40
0.1149908313
 40
0.1321502258
 40
0.1516935826
 40
0.1739681965
 40
0.1993841561
 40
0.2284482128
 40
0.2595508199
 40
0.2886279689
 40
0.3144160717
 40
0.3372623861
 40
0.3578330953
 40
0.3763677826
 40
0.3929141207
 40
0.4076837948
 40
0.4212247199
 40
0.4341251171
 40
0.4469572768
 40
0.4599508782
 40
0.4729972532
 40
0.4859404145
 40
0.4986932595
 40
0.5117799958
 40
0.5259760099
 40
0.542004563
 40
0.5601350772
 40
0.5804490603
 40
0.6034176043
 40
0.6288353878
 40
0.6541643551
 40
0.6771640652
 40
0.6977753415
 40
0.7162434068
 40
0.7329988041
 40
0.7486949376
 40
0.7640121189
 40
0.7793859743
 40
0.7948366268
 40
0.8102797025
 40
0.8257284138
 40
0.8412053062
 40
0.8566958432
 40
0.872176697
 40
0.8876384978
 40
0.9031401184
 40
0.9187128987
 40
0.9342871446
 40
0.949561594
 40
0.9648790879
 40
0.9813412887
 40
1.0
 40
1.0
 40
1.0
 40
1.0
 10
20.9704733295
 20
12.1569071135
 30
0.0
 10
20.9682369699
 20
12.1701464742
 30
0.0
 10
20.9634142556
 20
12.1980717298
 30
0.0
 10
20.9553303241
 20
12.2421942984
 30
0.0
 10
20.9458652976
 20
12.2910613302
 30
0.0
 10
20.9347166005
 20
12.3451881268
 30
0.0
 10
20.9215173797
 20
12.4052320879
 30
0.0
 10
20.9057995992
 20
12.4719215735
 30
0.0
 10
20.8869692099
 20
12.5460915371
 30
0.0
 10
20.8642715262
 20
12.6286653855
 30
0.0
 10
20.8367426866
 20
12.7206639556
 30
0.0
 10
20.803148239
 20
12.8231994013
 30
0.0
 10
20.7619031079
 20
12.9374640062
 30
0.0
 10
20.7109744288
 20
13.0646953301
 30
0.0
 10
20.6477655737
 20
13.2061168094
 30
0.0
 10
20.5689910028
 20
13.3628409627
 30
0.0
 10
20.4705614997
 20
13.5357288319
 30
0.0
 10
20.3475044307
 20
13.7252247296
 30
0.0
 10
20.1939673622
 20
13.9311888121
 30
0.0
 10
20.0033234566
 20
14.152844432
 30
0.0
 10
19.768390926
 20
14.3888305814
 30
0.0
 10
19.4816620919
 20
14.6375906826
 30
0.0
 10
19.1352786121
 20
14.8978993541
 30
0.0
 10
18.7314463779
 20
15.1630378594
 30
0.0
 10
18.2939315826
 20
15.412721042
 30
0.0
 10
17.8596999161
 20
15.6291074874
 30
0.0
 10
17.4585708535
 20
15.8062426918
 30
0.0
 10
17.095663159
 20
15.9503246493
 30
0.0
 10
16.7669105807
 20
16.0690063448
 30
0.0
 10
16.4688666339
 20
16.1677134709
 30
0.0
 10
16.1999674672
 20
16.25007203
 30
0.0
 10
15.956630113
 20
16.3195144498
 30
0.0
 10
15.7320420936
 20
16.3795796486
 30
0.0
 10
15.5171812664
 20
16.4336095837
 30
0.0
 10
15.3045872547
 20
16.4839024818
 30
0.0
 10
15.0905244888
 20
16.5314744833
 30
0.0
 10
14.8752361973
 20
16.5763265335
 30
0.0
 10
14.6607285816
 20
16.6181786712
 30
0.0
 10
14.4454797074
 20
16.6573287676
 30
0.0
 10
14.2227533683
 20
16.6947539449
 30
0.0
 10
13.9812287999
 20
16.7316725407
 30
0.0
 10
13.7109035445
 20
16.7682437296
 30
0.0
 10
13.4055844279
 20
16.8031628535
 30
0.0
 10
13.0604837428
 20
16.8339862604
 30
0.0
 10
12.673543763
 20
16.8567923848
 30
0.0
 10
12.2576957994
 20
16.8658551767
 30
0.0
 10
11.8416403778
 20
16.8568774199
 30
0.0
 10
11.4535031161
 20
16.8305077074
 30
0.0
 10
11.1054741132
 20
16.7905636746
 30
0.0
 10
10.7944320971
 20
16.7403262729
 30
0.0
 10
10.5131291306
 20
16.6817648611
 30
0.0
 10
10.2519685907
 20
16.6150167275
 30
0.0
 10
10.0016183134
 20
16.538549543
 30
0.0
 10
9.7566010838
 20
16.4503825197
 30
0.0
 10
9.5158763323
 20
16.3492005853
 30
0.0
 10
9.2807906194
 20
16.2345309545
 30
0.0
 10
9.0527178149
 20
16.106138906
 30
0.0
 10
8.8328348056
 20
15.9636697184
 30
0.0
 10
8.6219398823
 20
15.8079200293
 30
0.0
 10
8.4206466866
 20
15.6400949324
 30
0.0
 10
8.2291999098
 20
15.4610406479
 30
0.0
 10
8.0475929552
 20
15.2713045022
 30
0.0
 10
7.8760940331
 20
15.07155457
 30
0.0
 10
7.7161960828
 20
14.8640244158
 30
0.0
 10
7.5680201625
 20
14.6497295282
 30
0.0
 10
7.4281932551
 20
14.4239788827
 30
0.0
 10
7.2910718547
 20
14.1745321804
 30
0.0
 10
7.2056592257
 20
13.9956074293
 30
0.0
 10
7.1632324843
 20
13.8992829486
 30
0.0
  0
SPLINE
  5
310
100
AcDbEntity
  8
DEFAULT_3
100
AcDbSpline
 62
8
  6
PHANTOM
 70
0
 71
3
 72
24
 73
20
 74
0
 42
0.0000001
 43
0.0000001
 44
0.0000000001
 40
0.0
 40
0.0
 40
0.0
 40
0.0
 40
0.0989944513
 40
0.1876329788
 40
0.2674647771
 40
0.3391175336
 40
0.4033450305
 40
0.4615483282
 40
0.515621806
 40
0.5676659724
 40
0.6194447946
 40
0.6718491718
 40
0.724474754
 40
0.7754298478
 40
0.8231151198
 40
0.8667655653
 40
0.9082109141
 40
0.9514985597
 40
1.0
 40
1.0
 40
1.0
 40
1.0
 10
7.1632324843
 20
13.8992829486
 30
0.0
 10
7.1159539071
 20
13.7919493851
 30
0.0
 10
7.0332262431
 20
13.5853909036
 30
0.0
 10
6.9347540005
 20
13.2839974862
 30
0.0
 10
6.8625589791
 20
13.0086605546
 30
0.0
 10
6.8112404348
 20
12.7581819024
 30
0.0
 10
6.7763183725
 20
12.530819001
 30
0.0
 10
6.7540235792
 20
12.3228281451
 30
0.0
 10
6.7415361273
 20
12.1284920847
 30
0.0
 10
6.7372012871
 20
11.941421267
 30
0.0
 10
6.7404696642
 20
11.7563057776
 30
0.0
 10
6.7514906264
 20
11.5707962328
 30
0.0
 10
6.7703321429
 20
11.3868958495
 30
0.0
 10
6.79623274
 20
11.209508356
 30
0.0
 10
6.8274898337
 20
11.0438037846
 30
0.0
 10
6.8626562101
 20
10.890433117
 30
0.0
 10
6.902037926
 20
10.7434834746
 30
0.0
 10
6.948228363
 20
10.5925096235
 30
0.0
 10
6.9838596786
 20
10.4897307366
 30
0.0
 10
7.0036905159
 20
10.4357983716
 30
0.0
  0
SPLINE
  5
311
100
AcDbEntity
  8
DEFAULT_3
100
AcDbSpline
 62
8
  6
PHANTOM
 70
0
 71
3
 72
54
 73
50
 74
0
 42
0.0000001
 43
0.0000001
 44
0.0000000001
 40
0.0
 40
0.0
 40
0.0
 40
0.0
 40
0.03125
 40
0.0625
 40
0.09375
 40
0.109375
 40
0.125
 40
0.140625
 40
0.15625
 40
0.1875
 40
0.21875
 40
0.25
 40
0.28125
 40
0.3125
 40
0.34375
 40
0.375
 40
0.40625
 40
0.4375
 40
0.5
 40
0.53125
 40
0.5625
 40
0.578125
 40
0.59375
 40
0.625
 40
0.65625
 40
0.6875
 40
0.703125
 40
0.71875
 40
0.75
 40
0.765625
 40
0.78125
 40
0.796875
 40
0.8125
 40
0.828125
 40
0.84375
 40
0.859375
 40
0.875
 40
0.890625
 40
0.90625
 40
0.921875
 40
0.9375
 40
0.9453125
 40
0.953125
 40
0.9609375
 40
0.96875
 40
0.9765625
 40
0.984375
 40
0.9921875
 40
1.0
 40
1.0
 40
1.0
 40
1.0
 10
14.9614521092
 20
18.9840018314
 30
0.0
 10
14.7852939396
 20
19.0246711494
 30
0.0
 10
14.4319201641
 20
19.1008101961
 30
0.0
 10
13.8989818611
 20
19.1999261111
 30
0.0
 10
13.4527065019
 20
19.2703482412
 30
0.0
 10
13.0947633162
 20
19.3203833805
 30
0.0
 10
12.8259584968
 20
19.355109254
 30
0.0
 10
12.5568257075
 20
19.3869107985
 30
0.0
 10
12.1972713812
 20
19.4238172488
 30
0.0
 10
11.7462190328
 20
19.4574708862
 30
0.0
 10
11.2036227096
 20
19.4764112869
 30
0.0
 10
10.6608644215
 20
19.4722312226
 30
0.0
 10
10.1191258042
 20
19.4433882318
 30
0.0
 10
9.5796203003
 20
19.3879589057
 30
0.0
 10
9.0435177688
 20
19.3034540029
 30
0.0
 10
8.5122620723
 20
19.1873453644
 30
0.0
 10
7.9903014789
 20
19.035432964
 30
0.0
 10
7.3123914632
 20
18.7797643922
 30
0.0
 10
6.6702017473
 20
18.4359361579
 30
0.0
 10
6.07267779
 20
18.0193610658
 30
0.0
 10
5.7196951489
 20
17.7319594235
 30
0.0
 10
5.4506874404
 20
17.4877499044
 30
0.0
 10
5.191032678
 20
17.2346845549
 30
0.0
 10
4.8839551387
 20
16.9027282932
 30
0.0
 10
4.5420897578
 20
16.4821077669
 30
0.0
 10
4.2781908522
 20
16.1153327814
 30
0.0
 10
4.0782020427
 20
15.8136415043
 30
0.0
 10
3.8858763821
 20
15.5066971509
 30
0.0
 10
3.7063980858
 20
15.1919284321
 30
0.0
 10
3.5421313029
 20
14.8695654023
 30
0.0
 10
3.4271027641
 20
14.6240570244
 30
0.0
 10
3.3209862338
 20
14.3748371622
 30
0.0
 10
3.2235310457
 20
14.1221420368
 30
0.0
 10
3.1338405919
 20
13.8663442743
 30
0.0
 10
3.0511999794
 20
13.6077832166
 30
0.0
 10
2.9747273453
 20
13.3468132958
 30
0.0
 10
2.9040426666
 20
13.0837610508
 30
0.0
 10
2.8412835972
 20
12.8188223003
 30
0.0
 10
2.7883040061
 20
12.5522072413
 30
0.0
 10
2.7470594173
 20
12.2841219015
 30
0.0
 10
2.7239953364
 20
12.059665823
 30
0.0
 10
2.7134391039
 20
11.8795716336
 30
0.0
 10
2.7092096948
 20
11.7442683929
 30
0.0
 10
2.7075708961
 20
11.6087750992
 30
0.0
 10
2.7075928162
 20
11.4731318287
 30
0.0
 10
2.7083193069
 20
11.3373804665
 30
0.0
 10
2.7087319824
 20
11.2015581327
 30
0.0
 10
2.712549949
 20
11.0659948987
 30
0.0
 10
2.7198990794
 20
10.976015496
 30
0.0
 10
2.7254041347
 20
10.9311804186
 30
0.0
  0
SPLINE
  5
312
100
AcDbEntity
  8
DEFAULT_3
100
AcDbSpline
 62
8
  6
PHANTOM
 70
0
 71
3
 72
18
 73
14
 74
0
 42
0.0000001
 43
0.0000001
 44
0.0000000001
 40
0.0
 40
0.0
 40
0.0
 40
0.0
 40
0.0579280426
 40
0.1189978621
 40
0.2288391193
 40
0.3158261113
 40
0.4320562097
 40
0.5795989206
 40
0.6904352261
 40
0.7779627312
 40
0.8506694679
 40
0.9332977673
 40
1.0
 40
1.0
 40
1.0
 40
1.0
 10
2.7254041347
 20
10.9311804186
 30
0.0
 10
2.7841838572
 20
10.4524579952
 30
0.0
 10
2.8310814007
 20
10.0838688804
 30
0.0
 10
3.2712276799
 20
8.8161517399
 30
0.0
 10
3.9388799529
 20
7.67407711
 30
0.0
 10
5.047592487
 20
6.4207580291
 30
0.0
 10
6.4664897672
 20
5.2204449237
 30
0.0
 10
8.2311669677
 20
4.2813381552
 30
0.0
 10
9.9681045595
 20
3.7027150696
 30
0.0
 10
11.367523325
 20
3.3812783363
 30
0.0
 10
12.6470515449
 20
3.2553105345
 30
0.0
 10
13.8202398846
 20
3.2249420679
 30
0.0
 10
14.6102968694
 20
3.2436587267
 30
0.0
 10
14.9614521092
 20
3.2743808294
 30
0.0
  0
SPLINE
  5
313
100
AcDbEntity
  8
DEFAULT_3
100
AcDbSpline
 62
8
  6
PHANTOM
 70
0
 71
3
 72
12
 73
8
 74
0
 42
0.0000001
 43
0.0000001
 44
0.0000000001
 40
0.0
 40
0.0
 40
0.0
 40
0.0
 40
0.1531221384
 40
0.3335624666
 40
0.6313969222
 40
0.8119862123
 40
1.0
 40
1.0
 40
1.0
 40
1.0
 10
14.9614521092
 20
3.2743808294
 30
0.0
 10
15.6479231891
 20
3.3344392667
 30
0.0
 10
17.1447689045
 20
3.4741034548
 30
0.0
 10
19.8933420667
 20
4.1528533819
 30
0.0
 10
22.6423688494
 20
5.6783246955
 30
0.0
 10
24.036888862
 20
8.4299815912
 30
0.0
 10
24.291065424
 20
10.0866603732
 30
0.0
 10
24.3205567139
 20
10.9311804186
 30
0.0
  0
SPLINE
  5
314
100
AcDbEntity
  8
DEFAULT_3
100
AcDbSpline
 62
8
  6
PHANTOM
 70
0
 71
3
 72
15
 73
11
 74
0
 42
0.0000001
 43
0.0000001
 44
0.0000000001
 40
0.0
 40
0.0
 40
0.0
 40
0.0
 40
0.1296824417
 40
0.2270346141
 40
0.3081292371
 40
0.4650095371
 40
0.555877604
 40
0.7170253026
 40
0.8387774719
 40
1.0
 40
1.0
 40
1.0
 40
1.0
 10
24.3205567139
 20
10.9311804186
 30
0.0
 10
24.3410525171
 20
11.5181034305
 30
0.0
 10
24.2959901761
 20
12.5404142884
 30
0.0
 10
23.8639759607
 20
13.8792499299
 30
0.0
 10
22.9862613799
 20
15.1198477914
 30
0.0
 10
21.8401982077
 20
16.0815412804
 30
0.0
 10
20.2718899707
 20
17.0365075976
 30
0.0
 10
18.7660814561
 20
17.78786716
 30
0.0
 10
16.8946912848
 20
18.4877803195
 30
0.0
 10
15.6696854854
 20
18.8204932729
 30
0.0
 10
14.9614521092
 20
18.9840018314
 30
0.0
  0
ENDSEC
  0
SECTION
  2
OBJECTS
  0
DICTIONARY
  5
C
100
AcDbDictionary
280
0
281
1
  3
ACAD_GROUP
350
D
  3
ACAD_MLINESTYLE
350
17
  3
ACAD_LAYOUT
350
1A
  3
ACAD_PLOTSETTINGS
350
19
  3
ACAD_PLOTSTYLENAME
350
E
  0
DICTIONARY
  5
D
102
{ACAD_REACTORS
330
C
102
}
100
AcDbDictionary
280
0
281
1
  0
ACDBDICTIONARYWDFLT
  5
E
102
{ACAD_REACTORS
330
C
102
}
100
AcDbDictionary
281
1
  3
Normal
350
F
100
AcDbDictionaryWithDefault
340
F
  0
DICTIONARY
  5
17
102
{ACAD_REACTORS
330
C
102
}
100
AcDbDictionary
280
0
281
1
  3
Standard
350
18
  0
DICTIONARY
  5
19
102
{ACAD_REACTORS
330
C
102
}
100
AcDbDictionary
281
1
  0
DICTIONARY
  5
1A
102
{ACAD_REACTORS
330
C
102
}
100
AcDbDictionary
281
1
  3
Model
350
315
  3
Layout1
350
316
  0
ACDBPLACEHOLDER
  5
F
102
{ACAD_REACTORS
330
E
102
}
  0
MLINESTYLE
  5
18
102
{ACAD_REACTORS
330
17
102
}
100
AcDbMlineStyle
  2
STANDARD
 70
0
  3

 62
256
 51
90.0
 52
90.0
 71
2
 49
0.5
 62
256
  6
BYLAYER
 49
-0.5
 62
256
  6
BYLAYER
  0
LAYOUT
  5
315
102
{ACAD_REACTORS
330
1A
102
}
100
AcDbPlotSettings
  1

  2
none_device
  4
ANSI_D_(34.00_x_22.00_Inches)
  6

 40
0.0
 41
0.0
 42
0.0
 43
0.0
 44
863.6
 45
558.8
 46
0.0
 47
0.0
 48
0.0
 49
0.0
140
0.0
141
0.0
142
1.0
143
1.0
 70
1024
 72
0
 73
0
 74
0
  7

 75
0
147
1.0
148
0.0
149
0.0
100
AcDbLayout
  1
Model
 70
0
 71
0
 10
0.0
 20
0.0
 11
34.0
 21
22.0
 12
0.0
 22
0.0
 32
0.0
 14
0.0
 24
0.0
 34
0.0
 15
0.0
 25
0.0
 35
0.0
146
0.0
 13
0.0
 23
0.0
 33
0.0
 16
1.0
 26
0.0
 36
0.0
 17
0.0
 27
1.0
 37
0.0
 76
0
330
20C
345
0
346
0
  0
LAYOUT
  5
316
102
{ACAD_REACTORS
330
1A
102
}
100
AcDbPlotSettings
  1

  2
none_device
  4
ANSI_D_(34.00_x_22.00_Inches)
  6

 40
0.0
 41
0.0
 42
0.0
 43
0.0
 44
863.6
 45
558.8
 46
0.0
 47
0.0
 48
0.0
 49
0.0
140
0.0
141
0.0
142
1.0
143
1.0
 70
0
 72
0
 73
0
 74
0
  7

 75
0
147
1.0
148
0.0
149
0.0
100
AcDbLayout
  1
Layout1
 70
0
 71
1
 10
0.0
 20
0.0
 11
34.0
 21
22.0
 12
0.0
 22
0.0
 32
0.0
 14
0.0
 24
0.0
 34
0.0
 15
0.0
 25
0.0
 35
0.0
146
0.0
 13
0.0
 23
0.0
 33
0.0
 16
1.0
 26
0.0
 36
0.0
 17
0.0
 27
1.0
 37
0.0
 76
0
330
20D
345
0
346
0
  0
ENDSEC
  0
EOF
